osu file format v14

[General]
AudioFilename: audio.mp3
AudioLeadIn: 0
PreviewTime: 20968
Countdown: 0
SampleSet: Normal
StackLeniency: 0.7
Mode: 1
LetterboxInBreaks: 0
WidescreenStoryboard: 0

[Editor]
Bookmarks: 2968,12568,22168,41368,50968,60568,70168,79768,98968,108568,118168,127768,137368,155968,156568,165868,166168,175768
DistanceSpacing: 1.3
BeatDivisor: 4
GridSize: 32
TimelineZoom: 3.999998

[Metadata]
Title:Night of Knights (tpz Overheat Remix)
TitleUnicode:ナイト・オブ・ナイツ (tpz Overheat Remix)
Artist:t+pazolite
ArtistUnicode:t+pazolite
Creator:eiri-
Version:Inner Oni
Source:東方花映塚 ~ Phantasmagoria of Flower View.
Tags:Ayyri 東方Project ZUN Team Shanghai Alice Touhou Izayoi Sakuya Brain Power Max Burning MAD COOL&CREATE beatMARIO CCC CHS C.H.S CCCD-0050 十六夜 咲夜 PoFV TH09 TH 9 Flower Reflecting Mound Kaeizuka
BeatmapID:2156726
BeatmapSetID:1031381

[Difficulty]
HPDrainRate:6
CircleSize:2
OverallDifficulty:6
ApproachRate:10
SliderMultiplier:1.4
SliderTickRate:1

[Events]
//Background and Video events
0,0,"Sakuya 682.jpg",0,45
//Break Periods
//Storyboard Layer 0 (Background)
//Storyboard Layer 1 (Fail)
//Storyboard Layer 2 (Pass)
//Storyboard Layer 3 (Foreground)
//Storyboard Layer 4 (Overlay)
//Storyboard Sound Samples

[TimingPoints]
2968,300,4,1,0,25,1,0
2968,-100,4,1,0,75,0,0
7768,-95.2380952380952,4,1,0,75,0,0
8968,-90.9090909090909,4,1,0,75,0,0
10168,-86.9565217391304,4,1,0,75,0,0
10768,-83.3333333333333,4,1,0,75,0,0
11368,-80,4,1,0,75,0,0
11668,-76.9230769230769,4,1,0,75,0,0
11968,-80,4,1,0,75,0,0
12118,-83.3333333333333,4,1,0,75,0,0
12268,-86.9565217391304,4,1,0,75,0,0
12418,-90.9090909090909,4,1,0,75,0,0
12568,-76.9230769230769,4,1,0,75,0,0
12718,-80,4,1,0,75,0,0
12868,-83.3333333333333,4,1,0,75,0,0
12943,-85.1063829787234,4,1,0,75,0,0
13093,-88.8888888888889,4,1,0,75,0,0
13168,-90.9090909090909,4,1,0,75,0,0
13318,-92.5925925925926,4,1,0,75,0,0
13393,-94.3396226415094,4,1,0,75,0,0
13468,-96.1538461538461,4,1,0,75,0,0
13543,-98.0392156862745,4,1,0,75,0,0
13618,-100,4,1,0,75,0,0
17368,-98.0392156862745,4,1,0,75,0,0
17668,-96.1538461538461,4,1,0,75,0,0
17893,-94.3396226415094,4,1,0,75,0,0
18193,-92.5925925925926,4,1,0,75,0,0
18868,-90.9090909090909,4,1,0,75,0,0
19093,-89.2857142857143,4,1,0,75,0,0
19393,-87.719298245614,4,1,0,75,0,0
19768,-86.2068965517241,4,1,0,75,0,0
20068,-84.7457627118644,4,1,0,75,0,0
20293,-83.3333333333333,4,1,0,75,0,0
20593,-81.9672131147541,4,1,0,75,0,0
21118,-86.9565217391304,4,1,0,75,0,0
21268,-88.4955752212389,4,1,0,75,0,0
21343,-90.9090909090909,4,1,0,75,0,0
21418,-93.4579439252336,4,1,0,75,0,0
21568,-95.2380952380952,4,1,0,75,0,0
21718,-97.0873786407767,4,1,0,75,0,0
21868,-76.9230769230769,4,1,0,75,0,0
22168,-66.6666666666667,4,1,0,75,0,1
22318,-74.0740740740741,4,1,0,75,0,1
22468,-76.9230769230769,4,1,0,75,0,1
22543,-78.4313725490196,4,1,0,75,0,1
22618,-80,4,1,0,75,0,1
22768,-83.3333333333333,4,1,0,75,0,1
22918,-86.9565217391304,4,1,0,75,0,1
23068,-90.9090909090909,4,1,0,75,0,1
23968,-86.9565217391304,4,1,0,75,0,1
24118,-83.3333333333333,4,1,0,75,0,1
24268,-80,4,1,0,75,0,1
24418,-76.9230769230769,4,1,0,75,0,1
24568,-80,4,1,0,75,0,1
24718,-83.3333333333333,4,1,0,75,0,1
24868,-86.9565217391304,4,1,0,75,0,1
24943,-88.8888888888889,4,1,0,75,0,1
25018,-90.9090909090909,4,1,0,75,0,1
26368,-86.9565217391304,4,1,0,75,0,1
26518,-83.3333333333333,4,1,0,75,0,1
26668,-80,4,1,0,75,0,1
26818,-76.9230769230769,4,1,0,75,0,1
26968,-80,4,1,0,75,0,1
27118,-83.3333333333333,4,1,0,75,0,1
27268,-86.9565217391304,4,1,0,75,0,1
27343,-88.8888888888889,4,1,0,75,0,1
27418,-90.9090909090909,4,1,0,75,0,1
29368,-86.9565217391304,4,1,0,75,0,1
29968,-83.3333333333333,4,1,0,75,0,1
30568,-80,4,1,0,75,0,1
31768,-71.4285714285714,4,1,0,75,0,1
31918,-74.0740740740741,4,1,0,75,0,1
32068,-76.9230769230769,4,1,0,75,0,1
32143,-78.4313725490196,4,1,0,75,0,1
32218,-80,4,1,0,75,0,1
32368,-83.3333333333333,4,1,0,75,0,1
32518,-86.9565217391304,4,1,0,75,0,1
32668,-90.9090909090909,4,1,0,75,0,1
33568,-86.9565217391304,4,1,0,75,0,1
33718,-83.3333333333333,4,1,0,75,0,1
33868,-80,4,1,0,75,0,1
34018,-76.9230769230769,4,1,0,75,0,1
34168,-80,4,1,0,75,0,1
34318,-83.3333333333333,4,1,0,75,0,1
34468,-86.9565217391304,4,1,0,75,0,1
34543,-88.8888888888889,4,1,0,75,0,1
34618,-90.9090909090909,4,1,0,75,0,1
35968,-86.9565217391304,4,1,0,75,0,1
36118,-83.3333333333333,4,1,0,75,0,1
36268,-80,4,1,0,75,0,1
36418,-76.9230769230769,4,1,0,75,0,1
36568,-80,4,1,0,75,0,1
36718,-83.3333333333333,4,1,0,75,0,1
36868,-86.9565217391304,4,1,0,75,0,1
36943,-88.8888888888889,4,1,0,75,0,1
37018,-90.9090909090909,4,1,0,75,0,1
38968,-86.9565217391304,4,1,0,75,0,1
39568,-83.3333333333333,4,1,0,75,0,1
41068,-76.9230769230769,4,1,0,75,0,1
41368,-83.3333333333333,4,1,0,75,0,0
41518,-86.9565217391304,4,1,0,75,0,0
41668,-90.9090909090909,4,1,0,75,0,0
41743,-93.0232558139535,4,1,0,75,0,0
41818,-95.2380952380952,4,1,0,75,0,0
41968,-100,4,1,0,75,0,0
47368,-98.0392156862745,4,1,0,75,0,0
47518,-96.1538461538461,4,1,0,75,0,0
47668,-94.3396226415094,4,1,0,75,0,0
47818,-92.5925925925926,4,1,0,75,0,0
47968,-90.9090909090909,4,1,0,75,0,0
48118,-89.2857142857143,4,1,0,75,0,0
48268,-87.719298245614,4,1,0,75,0,0
48418,-86.2068965517241,4,1,0,75,0,0
48568,-87.719298245614,4,1,0,75,0,0
48718,-90.9090909090909,4,1,0,75,0,0
48868,-92.5925925925926,4,1,0,75,0,0
48943,-93.4579439252336,4,1,0,75,0,0
49018,-94.3396226415094,4,1,0,75,0,0
49168,-96.1538461538461,4,1,0,75,0,0
49318,-98.0392156862745,4,1,0,75,0,0
49468,-100,4,1,0,75,0,0
56968,-98.0392156862745,4,1,0,75,0,0
57118,-96.1538461538461,4,1,0,75,0,0
57268,-94.3396226415094,4,1,0,75,0,0
57418,-92.5925925925926,4,1,0,75,0,0
57568,-90.9090909090909,4,1,0,75,0,0
57718,-89.2857142857143,4,1,0,75,0,0
57868,-87.719298245614,4,1,0,75,0,0
58018,-86.2068965517241,4,1,0,75,0,0
58168,-87.719298245614,4,1,0,75,0,0
58318,-90.9090909090909,4,1,0,75,0,0
58468,-92.5925925925926,4,1,0,75,0,0
58543,-93.4579439252336,4,1,0,75,0,0
58618,-94.3396226415094,4,1,0,75,0,0
58768,-96.1538461538461,4,1,0,75,0,0
58918,-98.0392156862745,4,1,0,75,0,0
59068,-100,4,1,0,75,0,0
60118,-90.9090909090909,4,1,0,75,0,0
60268,-83.3333333333333,4,1,0,75,0,0
60568,-90.9090909090909,4,1,0,75,0,0
60868,-111.111111111111,4,1,0,75,0,0
61168,-125,4,1,0,75,0,0
68818,-121.951219512195,4,1,0,75,0,0
68968,-119.047619047619,4,1,0,75,0,0
69118,-116.279069767442,4,1,0,75,0,0
69268,-113.636363636364,4,1,0,75,0,0
69418,-111.111111111111,4,1,0,75,0,0
69568,-108.695652173913,4,1,0,75,0,0
69718,-106.382978723404,4,1,0,75,0,0
69868,-104.166666666667,4,1,0,75,0,0
70018,-102.040816326531,4,1,0,75,0,0
70168,-100,4,1,0,75,0,0
79468,-90.9090909090909,4,1,0,75,0,0
79768,-66.6666666666667,4,1,0,75,0,1
79918,-74.0740740740741,4,1,0,75,0,1
80068,-76.9230769230769,4,1,0,75,0,1
80143,-78.4313725490196,4,1,0,75,0,1
80218,-80,4,1,0,75,0,1
80368,-83.3333333333333,4,1,0,75,0,1
80518,-86.9565217391304,4,1,0,75,0,1
80668,-90.9090909090909,4,1,0,75,0,1
81568,-85.1063829787234,4,1,0,75,0,1
81718,-80,4,1,0,75,0,1
81868,-75.4716981132076,4,1,0,75,0,1
82018,-71.4285714285714,4,1,0,75,0,1
82168,-74.0740740740741,4,1,0,75,0,1
82318,-76.9230769230769,4,1,0,75,0,1
82468,-80,4,1,0,75,0,1
82543,-81.6326530612245,4,1,0,75,0,1
82618,-83.3333333333333,4,1,0,75,0,1
82768,-86.9565217391304,4,1,0,75,0,1
82918,-90.9090909090909,4,1,0,75,0,1
83968,-85.1063829787234,4,1,0,75,0,1
84118,-80,4,1,0,75,0,1
84268,-75.4716981132076,4,1,0,75,0,1
84418,-71.4285714285714,4,1,0,75,0,1
84568,-74.0740740740741,4,1,0,75,0,1
84718,-76.9230769230769,4,1,0,75,0,1
84868,-80,4,1,0,75,0,1
84943,-81.6326530612245,4,1,0,75,0,1
85018,-83.3333333333333,4,1,0,75,0,1
85168,-86.9565217391304,4,1,0,75,0,1
85318,-90.9090909090909,4,1,0,75,0,1
86968,-86.9565217391304,4,1,0,75,0,1
87568,-83.3333333333333,4,1,0,75,0,1
88168,-80,4,1,0,75,0,1
89368,-71.4285714285714,4,1,0,75,0,1
89518,-74.0740740740741,4,1,0,75,0,1
89668,-76.9230769230769,4,1,0,75,0,1
89743,-78.4313725490196,4,1,0,75,0,1
89818,-80,4,1,0,75,0,1
89968,-83.3333333333333,4,1,0,75,0,1
90118,-86.9565217391304,4,1,0,75,0,1
90268,-90.9090909090909,4,1,0,75,0,1
91168,-85.1063829787234,4,1,0,75,0,1
91318,-80,4,1,0,75,0,1
91468,-75.4716981132076,4,1,0,75,0,1
91618,-71.4285714285714,4,1,0,75,0,1
91768,-74.0740740740741,4,1,0,75,0,1
91918,-76.9230769230769,4,1,0,75,0,1
92068,-80,4,1,0,75,0,1
92143,-81.6326530612245,4,1,0,75,0,1
92218,-83.3333333333333,4,1,0,75,0,1
92368,-86.9565217391304,4,1,0,75,0,1
92518,-90.9090909090909,4,1,0,75,0,1
93568,-85.1063829787234,4,1,0,75,0,1
93718,-80,4,1,0,75,0,1
93868,-75.4716981132076,4,1,0,75,0,1
94018,-71.4285714285714,4,1,0,75,0,1
94168,-74.0740740740741,4,1,0,75,0,1
94318,-76.9230769230769,4,1,0,75,0,1
94468,-80,4,1,0,75,0,1
94543,-81.6326530612245,4,1,0,75,0,1
94618,-83.3333333333333,4,1,0,75,0,1
94768,-86.9565217391304,4,1,0,75,0,1
94918,-90.9090909090909,4,1,0,75,0,1
96568,-86.9565217391304,4,1,0,75,0,1
97168,-83.3333333333333,4,1,0,75,0,1
97768,-80,4,1,0,75,0,1
98968,-76.9230769230769,4,1,0,75,0,0
99118,-80,4,1,0,75,0,0
99268,-83.3333333333333,4,1,0,75,0,0
99343,-85.1063829787234,4,1,0,75,0,0
99493,-88.8888888888889,4,1,0,75,0,0
99568,-90.9090909090909,4,1,0,75,0,0
99718,-95.2380952380952,4,1,0,75,0,0
99793,-96.1538461538461,4,1,0,75,0,0
99868,-97.0873786407767,4,1,0,75,0,0
99943,-98.0392156862745,4,1,0,75,0,0
100018,-99.009900990099,4,1,0,75,0,0
100093,-100,4,1,0,75,0,0
103768,-95.2380952380952,4,1,0,75,0,0
104968,-90.9090909090909,4,1,0,75,0,0
106168,-86.9565217391304,4,1,0,75,0,0
106768,-83.3333333333333,4,1,0,75,0,0
107368,-80,4,1,0,75,0,0
107668,-76.9230769230769,4,1,0,75,0,0
107968,-80,4,1,0,75,0,0
108118,-83.3333333333333,4,1,0,75,0,0
108268,-86.9565217391304,4,1,0,75,0,0
108418,-90.9090909090909,4,1,0,75,0,0
108568,-76.9230769230769,4,1,0,75,0,0
108718,-80,4,1,0,75,0,0
108868,-83.3333333333333,4,1,0,75,0,0
108943,-85.1063829787234,4,1,0,75,0,0
109093,-88.8888888888889,4,1,0,75,0,0
109168,-90.9090909090909,4,1,0,75,0,0
109318,-95.2380952380952,4,1,0,75,0,0
109393,-97.5609756097561,4,1,0,75,0,0
109468,-100,4,1,0,75,0,0
117568,-90.9090909090909,4,1,0,75,0,0
117868,-83.3333333333333,4,1,0,75,0,0
118168,-76.9230769230769,4,1,0,75,0,0
118468,-83.3333333333333,4,1,0,75,0,0
118768,-100,4,1,0,75,0,0
119068,-111.111111111111,4,1,0,75,0,0
119218,-117.647058823529,4,1,0,75,0,0
119368,-125,4,1,0,75,0,0
126418,-121.951219512195,4,1,0,75,0,0
126568,-119.047619047619,4,1,0,75,0,0
126718,-116.279069767442,4,1,0,75,0,0
126868,-113.636363636364,4,1,0,75,0,0
127018,-111.111111111111,4,1,0,75,0,0
127168,-108.695652173913,4,1,0,75,0,0
127318,-106.382978723404,4,1,0,75,0,0
127468,-104.166666666667,4,1,0,75,0,0
127618,-102.040816326531,4,1,0,75,0,0
127768,-100,4,1,0,75,0,0
137068,-83.3333333333333,4,1,0,75,0,0
137368,-66.6666666666667,4,1,0,75,0,1
137518,-74.0740740740741,4,1,0,75,0,1
137668,-76.9230769230769,4,1,0,75,0,1
137743,-78.4313725490196,4,1,0,75,0,1
137818,-80,4,1,0,75,0,1
137968,-83.3333333333333,4,1,0,75,0,1
138118,-86.9565217391304,4,1,0,75,0,1
138268,-90.9090909090909,4,1,0,75,0,1
139168,-85.1063829787234,4,1,0,75,0,1
139318,-80,4,1,0,75,0,1
139468,-75.4716981132076,4,1,0,75,0,1
139618,-71.4285714285714,4,1,0,75,0,1
139768,-74.0740740740741,4,1,0,75,0,1
139918,-76.9230769230769,4,1,0,75,0,1
140068,-80,4,1,0,75,0,1
140143,-81.6326530612245,4,1,0,75,0,1
140218,-83.3333333333333,4,1,0,75,0,1
140368,-86.9565217391304,4,1,0,75,0,1
140518,-90.9090909090909,4,1,0,75,0,1
141568,-85.1063829787234,4,1,0,75,0,1
141718,-80,4,1,0,75,0,1
141868,-75.4716981132076,4,1,0,75,0,1
142018,-71.4285714285714,4,1,0,75,0,1
142168,-74.0740740740741,4,1,0,75,0,1
142318,-76.9230769230769,4,1,0,75,0,1
142468,-80,4,1,0,75,0,1
142543,-81.6326530612245,4,1,0,75,0,1
142618,-83.3333333333333,4,1,0,75,0,1
142768,-86.9565217391304,4,1,0,75,0,1
142918,-90.9090909090909,4,1,0,75,0,1
144568,-86.9565217391304,4,1,0,75,0,1
145168,-83.3333333333333,4,1,0,75,0,1
145768,-80,4,1,0,75,0,1
146968,-71.4285714285714,4,1,0,75,0,1
147118,-74.0740740740741,4,1,0,75,0,1
147268,-76.9230769230769,4,1,0,75,0,1
147343,-78.4313725490196,4,1,0,75,0,1
147418,-80,4,1,0,75,0,1
147568,-83.3333333333333,4,1,0,75,0,1
147718,-86.9565217391304,4,1,0,75,0,1
147868,-90.9090909090909,4,1,0,75,0,1
148768,-85.1063829787234,4,1,0,75,0,1
148918,-80,4,1,0,75,0,1
149068,-75.4716981132076,4,1,0,75,0,1
149218,-71.4285714285714,4,1,0,75,0,1
149368,-74.0740740740741,4,1,0,75,0,1
149518,-76.9230769230769,4,1,0,75,0,1
149668,-80,4,1,0,75,0,1
149743,-81.6326530612245,4,1,0,75,0,1
149818,-83.3333333333333,4,1,0,75,0,1
149968,-86.9565217391304,4,1,0,75,0,1
150118,-90.9090909090909,4,1,0,75,0,1
151168,-85.1063829787234,4,1,0,75,0,1
151318,-80,4,1,0,75,0,1
151468,-75.4716981132076,4,1,0,75,0,1
151618,-71.4285714285714,4,1,0,75,0,1
151768,-74.0740740740741,4,1,0,75,0,1
151918,-76.9230769230769,4,1,0,75,0,1
152068,-80,4,1,0,75,0,1
152143,-81.6326530612245,4,1,0,75,0,1
152218,-83.3333333333333,4,1,0,75,0,1
152368,-86.9565217391304,4,1,0,75,0,1
152518,-90.9090909090909,4,1,0,75,0,1
154168,-86.9565217391304,4,1,0,75,0,1
154768,-83.3333333333333,4,1,0,75,0,1
155368,-80,4,1,0,75,0,1
155968,-76.9230769230769,4,1,0,75,0,0
156568,-66.6666666666667,4,1,0,75,0,1
156718,-74.0740740740741,4,1,0,75,0,1
156868,-76.9230769230769,4,1,0,75,0,1
156943,-78.4313725490196,4,1,0,75,0,1
157018,-80,4,1,0,75,0,1
157093,-81.6326530612245,4,1,0,75,0,1
157168,-83.3333333333333,4,1,0,75,0,1
157318,-86.9565217391304,4,1,0,75,0,1
158368,-80,4,1,0,75,0,1
158518,-74.0740740740741,4,1,0,75,0,1
158668,-68.9655172413793,4,1,0,75,0,1
158818,-64.5161290322581,4,1,0,75,0,1
158968,-66.6666666666667,4,1,0,75,0,1
159118,-68.9655172413793,4,1,0,75,0,1
159268,-71.4285714285714,4,1,0,75,0,1
159343,-72.7272727272727,4,1,0,75,0,1
159418,-74.0740740740741,4,1,0,75,0,1
159493,-75.4716981132076,4,1,0,75,0,1
159568,-76.9230769230769,4,1,0,75,0,1
159718,-80,4,1,0,75,0,1
159868,-83.3333333333333,4,1,0,75,0,1
159943,-84.0336134453781,4,1,0,75,0,1
160018,-84.7457627118644,4,1,0,75,0,1
160093,-85.8369098712446,4,1,0,75,0,1
160168,-86.9565217391304,4,1,0,75,0,1
160768,-80,4,1,0,75,0,1
160918,-74.0740740740741,4,1,0,75,0,1
161068,-68.9655172413793,4,1,0,75,0,1
161218,-64.5161290322581,4,1,0,75,0,1
161368,-66.6666666666667,4,1,0,75,0,1
161518,-68.9655172413793,4,1,0,75,0,1
161668,-71.4285714285714,4,1,0,75,0,1
161743,-72.7272727272727,4,1,0,75,0,1
161818,-74.0740740740741,4,1,0,75,0,1
161893,-75.4716981132076,4,1,0,75,0,1
161968,-76.9230769230769,4,1,0,75,0,1
162118,-80,4,1,0,75,0,1
162268,-83.3333333333333,4,1,0,75,0,1
162343,-84.0336134453781,4,1,0,75,0,1
162418,-84.7457627118644,4,1,0,75,0,1
162493,-85.8369098712446,4,1,0,75,0,1
162568,-86.9565217391304,4,1,0,75,0,1
163768,-83.3333333333333,4,1,0,75,0,1
164368,-80,4,1,0,75,0,1
164968,-76.9230769230769,4,1,0,75,0,1
165868,-76.9230769230769,4,1,0,75,0,0
166168,-66.6666666666667,4,1,0,75,0,1
166318,-74.0740740740741,4,1,0,75,0,1
166468,-76.9230769230769,4,1,0,75,0,1
166543,-78.4313725490196,4,1,0,75,0,1
166618,-80,4,1,0,75,0,1
166693,-81.3008130081301,4,1,0,75,0,1
166768,-83.3333333333333,4,1,0,75,0,1
166843,-85.4700854700855,4,1,0,75,0,1
166918,-86.9565217391304,4,1,0,75,0,1
167968,-80,4,1,0,75,0,1
168118,-74.0740740740741,4,1,0,75,0,1
168268,-68.9655172413793,4,1,0,75,0,1
168418,-64.5161290322581,4,1,0,75,0,1
168568,-66.6666666666667,4,1,0,75,0,1
168718,-68.9655172413793,4,1,0,75,0,1
168868,-71.4285714285714,4,1,0,75,0,1
168943,-72.7272727272727,4,1,0,75,0,1
169018,-74.0740740740741,4,1,0,75,0,1
169093,-75.4716981132076,4,1,0,75,0,1
169168,-76.9230769230769,4,1,0,75,0,1
169318,-80,4,1,0,75,0,1
169468,-83.3333333333333,4,1,0,75,0,1
169543,-84.0336134453781,4,1,0,75,0,1
169618,-84.7457627118644,4,1,0,75,0,1
169693,-85.8369098712446,4,1,0,75,0,1
169768,-86.9565217391304,4,1,0,75,0,1
170368,-80,4,1,0,75,0,1
170518,-74.0740740740741,4,1,0,75,0,1
170668,-68.9655172413793,4,1,0,75,0,1
170818,-64.5161290322581,4,1,0,75,0,1
170968,-66.6666666666667,4,1,0,75,0,1
171118,-68.9655172413793,4,1,0,75,0,1
171193,-70.1754385964912,4,1,0,75,0,1
171268,-71.4285714285714,4,1,0,75,0,1
171418,-74.0740740740741,4,1,0,75,0,1
171493,-75.4716981132076,4,1,0,75,0,1
171568,-76.9230769230769,4,1,0,75,0,1
171643,-78.4313725490196,4,1,0,75,0,1
171718,-80,4,1,0,75,0,1
171868,-83.3333333333333,4,1,0,75,0,1
172018,-84.7457627118644,4,1,0,75,0,1
172168,-86.9565217391304,4,1,0,75,0,1
173368,-80,4,1,0,75,0,1
173968,-74.0740740740741,4,1,0,75,0,1
174568,-68.9655172413793,4,1,0,75,0,1
175768,-66.6666666666667,4,1,0,75,0,0

[HitObjects]
256,192,718,8,0,2818,0:0:0:0:
256,192,2968,5,12,0:0:0:0:
256,192,3118,1,0,0:0:0:0:
256,192,3268,1,0,0:0:0:0:
256,192,3343,1,8,0:0:0:0:
256,192,3493,1,8,0:0:0:0:
256,192,3568,1,0,0:0:0:0:
256,192,3718,1,0,0:0:0:0:
256,192,3793,1,8,0:0:0:0:
256,192,3868,1,0,0:0:0:0:
256,192,3943,1,0,0:0:0:0:
256,192,4018,1,8,0:0:0:0:
256,192,4093,1,8,0:0:0:0:
256,192,4243,1,0,0:0:0:0:
256,192,4318,1,8,0:0:0:0:
256,192,4468,1,0,0:0:0:0:
256,192,4543,1,8,0:0:0:0:
256,192,4693,1,8,0:0:0:0:
256,192,4843,1,0,0:0:0:0:
256,192,4993,1,0,0:0:0:0:
256,192,5068,1,8,0:0:0:0:
256,192,5218,1,0,0:0:0:0:
256,192,5368,1,8,0:0:0:0:
256,192,5518,1,0,0:0:0:0:
256,192,5668,1,0,0:0:0:0:
256,192,5743,1,8,0:0:0:0:
256,192,5818,1,0,0:0:0:0:
256,192,5893,1,8,0:0:0:0:
256,192,5968,1,0,0:0:0:0:
256,192,6118,1,0,0:0:0:0:
256,192,6193,1,8,0:0:0:0:
256,192,6268,1,0,0:0:0:0:
256,192,6343,1,0,0:0:0:0:
256,192,6418,1,8,0:0:0:0:
256,192,6493,1,8,0:0:0:0:
256,192,6568,1,0,0:0:0:0:
256,192,6643,1,0,0:0:0:0:
256,192,6718,1,8,0:0:0:0:
256,192,6868,1,0,0:0:0:0:
256,192,6943,1,8,0:0:0:0:
256,192,7093,1,8,0:0:0:0:
256,192,7168,1,0,0:0:0:0:
256,192,7243,1,8,0:0:0:0:
256,192,7393,1,0,0:0:0:0:
256,192,7468,1,8,0:0:0:0:
256,192,7618,1,0,0:0:0:0:
256,192,7768,1,12,0:0:0:0:
256,192,7918,1,0,0:0:0:0:
256,192,8068,1,0,0:0:0:0:
256,192,8143,1,8,0:0:0:0:
256,192,8293,1,8,0:0:0:0:
256,192,8368,1,0,0:0:0:0:
256,192,8518,1,0,0:0:0:0:
256,192,8593,1,8,0:0:0:0:
256,192,8668,1,0,0:0:0:0:
256,192,8743,1,0,0:0:0:0:
256,192,8818,1,8,0:0:0:0:
256,192,8968,1,12,0:0:0:0:
256,192,9118,1,8,0:0:0:0:
256,192,9268,1,0,0:0:0:0:
256,192,9343,1,8,0:0:0:0:
256,192,9493,1,8,0:0:0:0:
256,192,9643,1,0,0:0:0:0:
256,192,9793,1,0,0:0:0:0:
256,192,9868,1,8,0:0:0:0:
256,192,10018,1,0,0:0:0:0:
256,192,10168,1,12,0:0:0:0:
256,192,10318,1,0,0:0:0:0:
256,192,10468,1,0,0:0:0:0:
256,192,10543,1,8,0:0:0:0:
256,192,10618,1,0,0:0:0:0:
256,192,10768,1,12,0:0:0:0:
256,192,10918,1,0,0:0:0:0:
256,192,10993,1,8,0:0:0:0:
256,192,11068,1,0,0:0:0:0:
256,192,11143,1,0,0:0:0:0:
256,192,11218,1,8,0:0:0:0:
256,192,11368,1,12,0:0:0:0:
256,192,11518,1,0,0:0:0:0:
256,192,11668,1,12,0:0:0:0:
256,192,11818,1,0,0:0:0:0:
256,192,11968,1,12,0:0:0:0:
256,192,12118,1,12,0:0:0:0:
256,192,12268,1,4,0:0:0:0:
256,192,12418,1,4,0:0:0:0:
256,192,12568,1,12,0:0:0:0:
256,192,12718,1,0,0:0:0:0:
256,192,12868,1,0,0:0:0:0:
256,192,12943,1,8,0:0:0:0:
256,192,13093,1,8,0:0:0:0:
256,192,13168,1,0,0:0:0:0:
256,192,13318,1,0,0:0:0:0:
256,192,13393,1,0,0:0:0:0:
256,192,13468,1,8,0:0:0:0:
256,192,13543,1,0,0:0:0:0:
256,192,13618,1,8,0:0:0:0:
256,192,13693,1,8,0:0:0:0:
256,192,13768,1,0,0:0:0:0:
256,192,13843,1,0,0:0:0:0:
256,192,13918,1,8,0:0:0:0:
256,192,14068,1,0,0:0:0:0:
256,192,14143,1,8,0:0:0:0:
256,192,14293,1,8,0:0:0:0:
256,192,14368,1,0,0:0:0:0:
256,192,14443,1,8,0:0:0:0:
256,192,14593,1,0,0:0:0:0:
256,192,14668,1,8,0:0:0:0:
256,192,14818,1,0,0:0:0:0:
256,192,14968,1,8,0:0:0:0:
256,192,15118,1,0,0:0:0:0:
256,192,15268,1,0,0:0:0:0:
256,192,15343,1,8,0:0:0:0:
256,192,15418,1,0,0:0:0:0:
256,192,15493,1,8,0:0:0:0:
256,192,15568,1,0,0:0:0:0:
256,192,15643,1,0,0:0:0:0:
256,192,15718,1,8,0:0:0:0:
256,192,15868,1,0,0:0:0:0:
256,192,15943,1,0,0:0:0:0:
256,192,16018,1,8,0:0:0:0:
256,192,16093,1,8,0:0:0:0:
256,192,16168,1,0,0:0:0:0:
256,192,16318,1,8,0:0:0:0:
256,192,16468,1,0,0:0:0:0:
256,192,16543,1,8,0:0:0:0:
256,192,16693,1,8,0:0:0:0:
256,192,16768,1,0,0:0:0:0:
256,192,16843,1,8,0:0:0:0:
256,192,16993,1,0,0:0:0:0:
256,192,17068,1,8,0:0:0:0:
256,192,17218,1,0,0:0:0:0:
256,192,17368,1,8,0:0:0:0:
256,192,17443,1,0,0:0:0:0:
256,192,17518,1,8,0:0:0:0:
256,192,17668,1,0,0:0:0:0:
256,192,17743,1,8,0:0:0:0:
256,192,17893,1,8,0:0:0:0:
256,192,17968,1,0,0:0:0:0:
256,192,18043,1,8,0:0:0:0:
256,192,18193,1,0,0:0:0:0:
256,192,18268,1,8,0:0:0:0:
256,192,18343,1,0,0:0:0:0:
256,192,18418,1,8,0:0:0:0:
256,192,18493,1,8,0:0:0:0:
256,192,18568,1,0,0:0:0:0:
256,192,18643,1,0,0:0:0:0:
256,192,18718,1,8,0:0:0:0:
256,192,18868,1,0,0:0:0:0:
256,192,18943,1,8,0:0:0:0:
256,192,19093,1,8,0:0:0:0:
256,192,19168,1,0,0:0:0:0:
256,192,19243,1,8,0:0:0:0:
256,192,19393,1,0,0:0:0:0:
256,192,19468,1,8,0:0:0:0:
256,192,19543,1,0,0:0:0:0:
256,192,19618,1,8,0:0:0:0:
256,192,19768,1,8,0:0:0:0:
256,192,19843,1,8,0:0:0:0:
256,192,19918,1,0,0:0:0:0:
256,192,20068,1,0,0:0:0:0:
256,192,20143,1,8,0:0:0:0:
256,192,20293,1,8,0:0:0:0:
256,192,20368,1,0,0:0:0:0:
256,192,20443,1,8,0:0:0:0:
256,192,20593,1,0,0:0:0:0:
256,192,20668,1,8,0:0:0:0:
256,192,20743,1,8,0:0:0:0:
256,192,20818,1,0,0:0:0:0:
256,192,20893,1,0,0:0:0:0:
256,192,20968,1,8,0:0:0:0:
256,192,21118,1,0,0:0:0:0:
256,192,21268,1,8,0:0:0:0:
256,192,21343,1,0,0:0:0:0:
256,192,21418,1,8,0:0:0:0:
256,192,21568,1,8,0:0:0:0:
256,192,21718,1,0,0:0:0:0:
256,192,21868,1,12,0:0:0:0:
256,192,22168,1,12,0:0:0:0:
256,192,22318,1,0,0:0:0:0:
256,192,22468,1,8,0:0:0:0:
256,192,22543,1,0,0:0:0:0:
256,192,22618,1,8,0:0:0:0:
256,192,22768,1,0,0:0:0:0:
256,192,22918,1,8,0:0:0:0:
256,192,23068,1,8,0:0:0:0:
256,192,23143,1,0,0:0:0:0:
256,192,23218,1,8,0:0:0:0:
256,192,23293,1,8,0:0:0:0:
256,192,23368,1,0,0:0:0:0:
256,192,23518,1,8,0:0:0:0:
256,192,23668,1,8,0:0:0:0:
256,192,23743,1,0,0:0:0:0:
256,192,23818,1,8,0:0:0:0:
256,192,23968,1,12,0:0:0:0:
256,192,24118,1,4,0:0:0:0:
256,192,24268,1,12,0:0:0:0:
256,192,24418,1,12,0:0:0:0:
256,192,24568,1,0,0:0:0:0:
256,192,24718,1,8,0:0:0:0:
256,192,24868,1,0,0:0:0:0:
256,192,24943,1,8,0:0:0:0:
256,192,25018,1,0,0:0:0:0:
256,192,25168,1,8,0:0:0:0:
256,192,25318,1,0,0:0:0:0:
256,192,25468,1,0,0:0:0:0:
256,192,25543,1,8,0:0:0:0:
256,192,25618,1,0,0:0:0:0:
256,192,25693,1,0,0:0:0:0:
256,192,25768,1,8,0:0:0:0:
256,192,25918,1,0,0:0:0:0:
256,192,26068,1,0,0:0:0:0:
256,192,26143,1,8,0:0:0:0:
256,192,26218,1,0,0:0:0:0:
256,192,26368,1,12,0:0:0:0:
256,192,26518,1,4,0:0:0:0:
256,192,26668,1,12,0:0:0:0:
256,192,26818,1,12,0:0:0:0:
256,192,26968,1,0,0:0:0:0:
256,192,27118,1,8,0:0:0:0:
256,192,27268,1,8,0:0:0:0:
256,192,27343,1,0,0:0:0:0:
256,192,27418,1,8,0:0:0:0:
256,192,27568,1,0,0:0:0:0:
256,192,27718,1,8,0:0:0:0:
256,192,27868,1,8,0:0:0:0:
256,192,27943,1,0,0:0:0:0:
256,192,28018,1,8,0:0:0:0:
256,192,28093,1,8,0:0:0:0:
256,192,28168,1,0,0:0:0:0:
256,192,28318,1,8,0:0:0:0:
256,192,28468,1,8,0:0:0:0:
256,192,28543,1,0,0:0:0:0:
256,192,28618,1,8,0:0:0:0:
256,192,28768,1,12,0:0:0:0:
256,192,28918,1,0,0:0:0:0:
256,192,28968,1,0,0:0:0:0:
256,192,29018,1,0,0:0:0:0:
256,192,29068,1,8,0:0:0:0:
256,192,29218,1,0,0:0:0:0:
256,192,29368,1,12,0:0:0:0:
256,192,29518,1,0,0:0:0:0:
256,192,29593,1,8,0:0:0:0:
256,192,29668,1,0,0:0:0:0:
256,192,29818,1,0,0:0:0:0:
256,192,29968,1,12,0:0:0:0:
256,192,30118,1,0,0:0:0:0:
256,192,30193,1,8,0:0:0:0:
256,192,30268,1,0,0:0:0:0:
256,192,30418,1,0,0:0:0:0:
256,192,30568,1,12,0:0:0:0:
256,192,30718,1,8,0:0:0:0:
256,192,30793,1,8,0:0:0:0:
256,192,30868,1,8,0:0:0:0:
256,192,31018,1,8,0:0:0:0:
256,192,31168,1,8,0:0:0:0:
256,192,31243,1,8,0:0:0:0:
256,192,31318,1,8,0:0:0:0:
256,192,31393,1,8,0:0:0:0:
256,192,31468,1,8,0:0:0:0:
256,192,31543,1,8,0:0:0:0:
256,192,31618,1,0,0:0:0:0:
256,192,31768,1,12,0:0:0:0:
256,192,31918,1,0,0:0:0:0:
256,192,32068,1,8,0:0:0:0:
256,192,32143,1,0,0:0:0:0:
256,192,32218,1,8,0:0:0:0:
256,192,32368,1,0,0:0:0:0:
256,192,32518,1,8,0:0:0:0:
256,192,32668,1,8,0:0:0:0:
256,192,32743,1,0,0:0:0:0:
256,192,32818,1,8,0:0:0:0:
256,192,32893,1,8,0:0:0:0:
256,192,32968,1,0,0:0:0:0:
256,192,33118,1,8,0:0:0:0:
256,192,33268,1,8,0:0:0:0:
256,192,33343,1,0,0:0:0:0:
256,192,33418,1,8,0:0:0:0:
256,192,33568,1,12,0:0:0:0:
256,192,33718,1,4,0:0:0:0:
256,192,33868,1,12,0:0:0:0:
256,192,34018,1,12,0:0:0:0:
256,192,34168,1,0,0:0:0:0:
256,192,34318,1,8,0:0:0:0:
256,192,34468,1,0,0:0:0:0:
256,192,34543,1,8,0:0:0:0:
256,192,34618,1,0,0:0:0:0:
256,192,34768,1,8,0:0:0:0:
256,192,34918,1,0,0:0:0:0:
256,192,35068,1,0,0:0:0:0:
256,192,35143,1,8,0:0:0:0:
256,192,35218,1,0,0:0:0:0:
256,192,35293,1,0,0:0:0:0:
256,192,35368,1,8,0:0:0:0:
256,192,35518,1,0,0:0:0:0:
256,192,35668,1,0,0:0:0:0:
256,192,35743,1,8,0:0:0:0:
256,192,35818,1,0,0:0:0:0:
256,192,35968,1,12,0:0:0:0:
256,192,36118,1,4,0:0:0:0:
256,192,36268,1,12,0:0:0:0:
256,192,36418,1,12,0:0:0:0:
256,192,36568,1,0,0:0:0:0:
256,192,36718,1,8,0:0:0:0:
256,192,36868,1,8,0:0:0:0:
256,192,36943,1,0,0:0:0:0:
256,192,37018,1,8,0:0:0:0:
256,192,37168,1,0,0:0:0:0:
256,192,37318,1,8,0:0:0:0:
256,192,37468,1,8,0:0:0:0:
256,192,37543,1,0,0:0:0:0:
256,192,37618,1,8,0:0:0:0:
256,192,37693,1,8,0:0:0:0:
256,192,37768,1,0,0:0:0:0:
256,192,37918,1,8,0:0:0:0:
256,192,38068,1,8,0:0:0:0:
256,192,38143,1,0,0:0:0:0:
256,192,38218,1,8,0:0:0:0:
256,192,38368,1,12,0:0:0:0:
256,192,38518,1,0,0:0:0:0:
256,192,38568,1,0,0:0:0:0:
256,192,38618,1,0,0:0:0:0:
256,192,38668,1,8,0:0:0:0:
256,192,38818,1,0,0:0:0:0:
256,192,38968,1,12,0:0:0:0:
256,192,39118,1,0,0:0:0:0:
256,192,39193,1,8,0:0:0:0:
256,192,39268,1,0,0:0:0:0:
256,192,39418,1,0,0:0:0:0:
256,192,39568,1,12,0:0:0:0:
256,192,39718,1,0,0:0:0:0:
256,192,39793,1,8,0:0:0:0:
256,192,39868,1,0,0:0:0:0:
256,192,40018,1,0,0:0:0:0:
256,192,40168,1,8,0:0:0:0:
256,192,40243,1,8,0:0:0:0:
256,192,40318,1,0,0:0:0:0:
256,192,40393,1,0,0:0:0:0:
256,192,40468,1,8,0:0:0:0:
256,192,40543,1,8,0:0:0:0:
256,192,40618,1,0,0:0:0:0:
256,192,40693,1,0,0:0:0:0:
256,192,40768,1,8,0:0:0:0:
256,192,40918,1,0,0:0:0:0:
256,192,41068,1,12,0:0:0:0:
256,192,41368,1,12,0:0:0:0:
256,192,41518,1,0,0:0:0:0:
256,192,41668,1,8,0:0:0:0:
256,192,41743,1,0,0:0:0:0:
256,192,41818,1,8,0:0:0:0:
256,192,41968,1,0,0:0:0:0:
256,192,42118,1,8,0:0:0:0:
256,192,42268,1,8,0:0:0:0:
256,192,42343,1,0,0:0:0:0:
256,192,42418,1,8,0:0:0:0:
256,192,42493,1,0,0:0:0:0:
256,192,42568,1,8,0:0:0:0:
256,192,42718,1,0,0:0:0:0:
256,192,42868,1,8,0:0:0:0:
256,192,42943,1,8,0:0:0:0:
256,192,43018,1,0,0:0:0:0:
256,192,43093,1,8,0:0:0:0:
256,192,43168,1,8,0:0:0:0:
256,192,43318,1,0,0:0:0:0:
256,192,43468,1,8,0:0:0:0:
256,192,43618,1,0,0:0:0:0:
256,192,43768,1,8,0:0:0:0:
256,192,43918,1,0,0:0:0:0:
256,192,44068,1,8,0:0:0:0:
256,192,44143,1,0,0:0:0:0:
256,192,44218,1,8,0:0:0:0:
256,192,44293,1,0,0:0:0:0:
256,192,44368,1,8,0:0:0:0:
256,192,44518,1,0,0:0:0:0:
256,192,44668,1,8,0:0:0:0:
256,192,44743,1,0,0:0:0:0:
256,192,44818,1,0,0:0:0:0:
256,192,44893,1,0,0:0:0:0:
256,192,44968,1,8,0:0:0:0:
256,192,45118,1,0,0:0:0:0:
256,192,45268,1,8,0:0:0:0:
256,192,45343,1,8,0:0:0:0:
256,192,45418,1,0,0:0:0:0:
256,192,45493,1,8,0:0:0:0:
256,192,45568,1,8,0:0:0:0:
256,192,45718,1,0,0:0:0:0:
256,192,45768,1,8,0:0:0:0:
256,192,45818,1,0,0:0:0:0:
256,192,45868,1,8,0:0:0:0:
256,192,46018,1,0,0:0:0:0:
256,192,46168,1,8,0:0:0:0:
256,192,46318,1,8,0:0:0:0:
256,192,46393,1,8,0:0:0:0:
256,192,46468,1,8,0:0:0:0:
256,192,46618,1,0,0:0:0:0:
256,192,46768,1,8,0:0:0:0:
256,192,46843,1,0,0:0:0:0:
256,192,46918,1,8,0:0:0:0:
256,192,47068,1,0,0:0:0:0:
256,192,47218,1,8,0:0:0:0:
256,192,47368,1,0,0:0:0:0:
256,192,47518,1,8,0:0:0:0:
256,192,47668,1,0,0:0:0:0:
256,192,47818,1,8,0:0:0:0:
256,192,47968,1,0,0:0:0:0:
256,192,48118,1,8,0:0:0:0:
256,192,48268,1,0,0:0:0:0:
256,192,48418,1,8,0:0:0:0:
256,192,48568,1,0,0:0:0:0:
256,192,48718,1,8,0:0:0:0:
256,192,48868,1,8,0:0:0:0:
256,192,48943,1,0,0:0:0:0:
256,192,49018,1,8,0:0:0:0:
256,192,49168,1,0,0:0:0:0:
256,192,49318,1,8,0:0:0:0:
256,192,49468,1,8,0:0:0:0:
256,192,49543,1,8,0:0:0:0:
256,192,49618,1,0,0:0:0:0:
256,192,49693,1,8,0:0:0:0:
256,192,49768,1,8,0:0:0:0:
256,192,49918,1,0,0:0:0:0:
256,192,50068,1,8,0:0:0:0:
256,192,50143,1,0,0:0:0:0:
256,192,50218,1,8,0:0:0:0:
256,192,50293,1,0,0:0:0:0:
256,192,50368,1,8,0:0:0:0:
256,192,50518,1,0,0:0:0:0:
256,192,50568,1,8,0:0:0:0:
256,192,50618,1,0,0:0:0:0:
256,192,50668,1,8,0:0:0:0:
256,192,50818,1,0,0:0:0:0:
256,192,50968,1,12,0:0:0:0:
256,192,51118,1,0,0:0:0:0:
256,192,51268,1,8,0:0:0:0:
256,192,51343,1,0,0:0:0:0:
256,192,51418,1,8,0:0:0:0:
256,192,51568,1,0,0:0:0:0:
256,192,51718,1,8,0:0:0:0:
256,192,51868,1,8,0:0:0:0:
256,192,51943,1,0,0:0:0:0:
256,192,52018,1,8,0:0:0:0:
256,192,52093,1,0,0:0:0:0:
256,192,52168,1,8,0:0:0:0:
256,192,52318,1,0,0:0:0:0:
256,192,52468,1,8,0:0:0:0:
256,192,52543,1,8,0:0:0:0:
256,192,52618,1,0,0:0:0:0:
256,192,52693,1,8,0:0:0:0:
256,192,52768,1,8,0:0:0:0:
256,192,52918,1,0,0:0:0:0:
256,192,53068,1,8,0:0:0:0:
256,192,53218,1,0,0:0:0:0:
256,192,53368,1,8,0:0:0:0:
256,192,53518,1,0,0:0:0:0:
256,192,53668,1,8,0:0:0:0:
256,192,53743,1,0,0:0:0:0:
256,192,53818,1,8,0:0:0:0:
256,192,53893,1,0,0:0:0:0:
256,192,53968,1,8,0:0:0:0:
256,192,54118,1,0,0:0:0:0:
256,192,54268,1,8,0:0:0:0:
256,192,54343,1,0,0:0:0:0:
256,192,54418,1,0,0:0:0:0:
256,192,54493,1,0,0:0:0:0:
256,192,54568,1,8,0:0:0:0:
256,192,54718,1,0,0:0:0:0:
256,192,54868,1,8,0:0:0:0:
256,192,54943,1,8,0:0:0:0:
256,192,55018,1,0,0:0:0:0:
256,192,55093,1,8,0:0:0:0:
256,192,55168,1,8,0:0:0:0:
256,192,55318,1,0,0:0:0:0:
256,192,55368,1,8,0:0:0:0:
256,192,55418,1,0,0:0:0:0:
256,192,55468,1,8,0:0:0:0:
256,192,55618,1,0,0:0:0:0:
256,192,55768,1,8,0:0:0:0:
256,192,55918,1,8,0:0:0:0:
256,192,55993,1,8,0:0:0:0:
256,192,56068,1,8,0:0:0:0:
256,192,56218,1,0,0:0:0:0:
256,192,56368,1,8,0:0:0:0:
256,192,56443,1,0,0:0:0:0:
256,192,56518,1,8,0:0:0:0:
256,192,56668,1,0,0:0:0:0:
256,192,56818,1,8,0:0:0:0:
256,192,56968,1,0,0:0:0:0:
256,192,57118,1,8,0:0:0:0:
256,192,57268,1,0,0:0:0:0:
256,192,57418,1,8,0:0:0:0:
256,192,57568,1,0,0:0:0:0:
256,192,57718,1,8,0:0:0:0:
256,192,57868,1,0,0:0:0:0:
256,192,58018,1,8,0:0:0:0:
256,192,58168,1,0,0:0:0:0:
256,192,58318,1,8,0:0:0:0:
256,192,58468,1,8,0:0:0:0:
256,192,58543,1,0,0:0:0:0:
256,192,58618,1,8,0:0:0:0:
256,192,58768,1,0,0:0:0:0:
256,192,58918,1,8,0:0:0:0:
256,192,59068,1,8,0:0:0:0:
256,192,59143,1,0,0:0:0:0:
256,192,59218,1,8,0:0:0:0:
256,192,59293,1,0,0:0:0:0:
256,192,59368,1,8,0:0:0:0:
256,192,59443,1,8,0:0:0:0:
256,192,59518,1,0,0:0:0:0:
256,192,59593,1,0,0:0:0:0:
256,192,59668,1,8,0:0:0:0:
256,192,59743,1,8,0:0:0:0:
256,192,59818,1,8,0:0:0:0:
256,192,59893,1,0,0:0:0:0:
256,192,59968,1,8,0:0:0:0:
256,192,60118,1,0,0:0:0:0:
256,192,60268,1,12,0:0:0:0:
256,192,60568,1,4,0:0:0:0:
256,192,60868,1,8,0:0:0:0:
256,192,61168,1,0,0:0:0:0:
256,192,61468,1,0,0:0:0:0:
256,192,61618,1,8,0:0:0:0:
256,192,61768,1,8,0:0:0:0:
256,192,61918,1,0,0:0:0:0:
256,192,62068,1,8,0:0:0:0:
256,192,62218,1,0,0:0:0:0:
256,192,62368,1,8,0:0:0:0:
256,192,62518,1,0,0:0:0:0:
256,192,62668,1,8,0:0:0:0:
256,192,62818,1,8,0:0:0:0:
256,192,62968,1,0,0:0:0:0:
256,192,63268,1,8,0:0:0:0:
256,192,63568,1,0,0:0:0:0:
256,192,63868,1,0,0:0:0:0:
256,192,64018,1,8,0:0:0:0:
256,192,64168,1,8,0:0:0:0:
256,192,64318,1,0,0:0:0:0:
256,192,64468,1,8,0:0:0:0:
256,192,64618,1,0,0:0:0:0:
256,192,64768,1,8,0:0:0:0:
256,192,64918,1,8,0:0:0:0:
256,192,65068,1,0,0:0:0:0:
256,192,65218,1,8,0:0:0:0:
256,192,65368,1,0,0:0:0:0:
256,192,65668,1,8,0:0:0:0:
256,192,65968,1,0,0:0:0:0:
256,192,66268,1,0,0:0:0:0:
256,192,66418,1,8,0:0:0:0:
256,192,66568,1,8,0:0:0:0:
256,192,66718,1,0,0:0:0:0:
256,192,66868,1,8,0:0:0:0:
256,192,67018,1,0,0:0:0:0:
256,192,67168,1,8,0:0:0:0:
256,192,67318,1,0,0:0:0:0:
256,192,67468,1,8,0:0:0:0:
256,192,67618,1,8,0:0:0:0:
256,192,67768,1,0,0:0:0:0:
256,192,68068,1,8,0:0:0:0:
256,192,68368,1,0,0:0:0:0:
256,192,68668,1,0,0:0:0:0:
256,192,68818,1,8,0:0:0:0:
256,192,68968,1,8,0:0:0:0:
256,192,69118,1,0,0:0:0:0:
256,192,69268,1,8,0:0:0:0:
256,192,69418,1,0,0:0:0:0:
256,192,69568,1,8,0:0:0:0:
256,192,69718,1,8,0:0:0:0:
256,192,69868,1,0,0:0:0:0:
256,192,70018,1,8,0:0:0:0:
256,192,70168,1,0,0:0:0:0:
256,192,70468,1,0,0:0:0:0:
256,192,70618,1,0,0:0:0:0:
256,192,70768,1,8,0:0:0:0:
256,192,71068,1,0,0:0:0:0:
256,192,71218,1,8,0:0:0:0:
256,192,71368,1,0,0:0:0:0:
256,192,71518,1,0,0:0:0:0:
256,192,71668,1,8,0:0:0:0:
256,192,71968,1,8,0:0:0:0:
256,192,72268,1,0,0:0:0:0:
256,192,72418,1,0,0:0:0:0:
256,192,72568,1,8,0:0:0:0:
256,192,72868,1,8,0:0:0:0:
256,192,73018,1,0,0:0:0:0:
256,192,73168,1,8,0:0:0:0:
256,192,73318,1,8,0:0:0:0:
256,192,73468,1,0,0:0:0:0:
256,192,73618,1,8,0:0:0:0:
256,192,73768,1,0,0:0:0:0:
256,192,73918,1,0,0:0:0:0:
256,192,74068,1,8,0:0:0:0:
256,192,74368,1,8,0:0:0:0:
256,192,74668,1,0,0:0:0:0:
256,192,74818,1,0,0:0:0:0:
256,192,74968,1,8,0:0:0:0:
256,192,75268,1,0,0:0:0:0:
256,192,75418,1,8,0:0:0:0:
256,192,75568,1,8,0:0:0:0:
256,192,75868,1,8,0:0:0:0:
256,192,76018,1,0,0:0:0:0:
256,192,76168,1,8,0:0:0:0:
256,192,76468,1,0,0:0:0:0:
256,192,76768,1,8,0:0:0:0:
256,192,77068,1,0,0:0:0:0:
256,192,77218,1,8,0:0:0:0:
256,192,77368,1,8,0:0:0:0:
256,192,77518,1,0,0:0:0:0:
256,192,77668,1,0,0:0:0:0:
256,192,77818,1,8,0:0:0:0:
256,192,77968,1,8,0:0:0:0:
256,192,78118,1,0,0:0:0:0:
256,192,78268,1,8,0:0:0:0:
256,192,78418,1,8,0:0:0:0:
256,192,78568,1,0,0:0:0:0:
256,192,78718,1,8,0:0:0:0:
256,192,78868,1,8,0:0:0:0:
256,192,79018,1,0,0:0:0:0:
256,192,79168,1,8,0:0:0:0:
256,192,79468,1,0,0:0:0:0:
256,192,79768,1,12,0:0:0:0:
256,192,79918,1,0,0:0:0:0:
256,192,80068,1,8,0:0:0:0:
256,192,80143,1,0,0:0:0:0:
256,192,80218,1,8,0:0:0:0:
256,192,80368,1,0,0:0:0:0:
256,192,80518,1,8,0:0:0:0:
256,192,80668,1,8,0:0:0:0:
256,192,80743,1,0,0:0:0:0:
256,192,80818,1,8,0:0:0:0:
256,192,80893,1,8,0:0:0:0:
256,192,80968,1,0,0:0:0:0:
256,192,81118,1,8,0:0:0:0:
256,192,81268,1,8,0:0:0:0:
256,192,81343,1,0,0:0:0:0:
256,192,81418,1,8,0:0:0:0:
256,192,81568,1,12,0:0:0:0:
256,192,81718,1,4,0:0:0:0:
256,192,81868,1,12,0:0:0:0:
256,192,82018,1,12,0:0:0:0:
256,192,82168,1,0,0:0:0:0:
256,192,82318,1,8,0:0:0:0:
256,192,82468,1,0,0:0:0:0:
256,192,82543,1,8,0:0:0:0:
256,192,82618,1,0,0:0:0:0:
256,192,82768,1,8,0:0:0:0:
256,192,82918,1,0,0:0:0:0:
256,192,83068,1,0,0:0:0:0:
256,192,83143,1,8,0:0:0:0:
256,192,83218,1,0,0:0:0:0:
256,192,83293,1,0,0:0:0:0:
256,192,83368,1,8,0:0:0:0:
256,192,83518,1,0,0:0:0:0:
256,192,83668,1,0,0:0:0:0:
256,192,83743,1,8,0:0:0:0:
256,192,83818,1,0,0:0:0:0:
256,192,83968,1,12,0:0:0:0:
256,192,84118,1,4,0:0:0:0:
256,192,84268,1,12,0:0:0:0:
256,192,84418,1,12,0:0:0:0:
256,192,84568,1,4,0:0:0:0:
256,192,84718,1,8,0:0:0:0:
256,192,84868,1,8,0:0:0:0:
256,192,84943,1,0,0:0:0:0:
256,192,85018,1,8,0:0:0:0:
256,192,85168,1,0,0:0:0:0:
256,192,85318,1,8,0:0:0:0:
256,192,85468,1,8,0:0:0:0:
256,192,85543,1,0,0:0:0:0:
256,192,85618,1,8,0:0:0:0:
256,192,85693,1,8,0:0:0:0:
256,192,85768,1,0,0:0:0:0:
256,192,85918,1,8,0:0:0:0:
256,192,86068,1,8,0:0:0:0:
256,192,86143,1,0,0:0:0:0:
256,192,86218,1,8,0:0:0:0:
256,192,86368,1,12,0:0:0:0:
256,192,86518,1,0,0:0:0:0:
256,192,86568,1,0,0:0:0:0:
256,192,86618,1,0,0:0:0:0:
256,192,86668,1,8,0:0:0:0:
256,192,86818,1,0,0:0:0:0:
256,192,86968,1,12,0:0:0:0:
256,192,87118,1,0,0:0:0:0:
256,192,87193,1,8,0:0:0:0:
256,192,87268,1,0,0:0:0:0:
256,192,87418,1,0,0:0:0:0:
256,192,87568,1,12,0:0:0:0:
256,192,87718,1,0,0:0:0:0:
256,192,87793,1,8,0:0:0:0:
256,192,87868,1,0,0:0:0:0:
256,192,88018,1,0,0:0:0:0:
256,192,88168,1,12,0:0:0:0:
256,192,88318,1,8,0:0:0:0:
256,192,88393,1,8,0:0:0:0:
256,192,88468,1,8,0:0:0:0:
256,192,88618,1,8,0:0:0:0:
256,192,88768,1,8,0:0:0:0:
256,192,88843,1,8,0:0:0:0:
256,192,88918,1,8,0:0:0:0:
256,192,88993,1,8,0:0:0:0:
256,192,89068,1,8,0:0:0:0:
256,192,89143,1,8,0:0:0:0:
256,192,89218,1,0,0:0:0:0:
256,192,89368,1,12,0:0:0:0:
256,192,89518,1,0,0:0:0:0:
256,192,89668,1,8,0:0:0:0:
256,192,89743,1,0,0:0:0:0:
256,192,89818,1,8,0:0:0:0:
256,192,89968,1,0,0:0:0:0:
256,192,90118,1,8,0:0:0:0:
256,192,90268,1,8,0:0:0:0:
256,192,90343,1,0,0:0:0:0:
256,192,90418,1,8,0:0:0:0:
256,192,90493,1,8,0:0:0:0:
256,192,90568,1,0,0:0:0:0:
256,192,90718,1,8,0:0:0:0:
256,192,90868,1,8,0:0:0:0:
256,192,90943,1,0,0:0:0:0:
256,192,91018,1,8,0:0:0:0:
256,192,91168,1,12,0:0:0:0:
256,192,91318,1,4,0:0:0:0:
256,192,91468,1,12,0:0:0:0:
256,192,91618,1,12,0:0:0:0:
256,192,91768,1,0,0:0:0:0:
256,192,91918,1,8,0:0:0:0:
256,192,92068,1,0,0:0:0:0:
256,192,92143,1,8,0:0:0:0:
256,192,92218,1,0,0:0:0:0:
256,192,92368,1,8,0:0:0:0:
256,192,92518,1,0,0:0:0:0:
256,192,92668,1,0,0:0:0:0:
256,192,92743,1,8,0:0:0:0:
256,192,92818,1,0,0:0:0:0:
256,192,92893,1,0,0:0:0:0:
256,192,92968,1,8,0:0:0:0:
256,192,93118,1,0,0:0:0:0:
256,192,93268,1,0,0:0:0:0:
256,192,93343,1,8,0:0:0:0:
256,192,93418,1,0,0:0:0:0:
256,192,93568,1,12,0:0:0:0:
256,192,93718,1,4,0:0:0:0:
256,192,93868,1,12,0:0:0:0:
256,192,94018,1,12,0:0:0:0:
256,192,94168,1,4,0:0:0:0:
256,192,94318,1,8,0:0:0:0:
256,192,94468,1,8,0:0:0:0:
256,192,94543,1,0,0:0:0:0:
256,192,94618,1,8,0:0:0:0:
256,192,94768,1,0,0:0:0:0:
256,192,94918,1,8,0:0:0:0:
256,192,95068,1,8,0:0:0:0:
256,192,95143,1,0,0:0:0:0:
256,192,95218,1,8,0:0:0:0:
256,192,95368,1,12,0:0:0:0:
256,192,95518,1,0,0:0:0:0:
256,192,95668,1,8,0:0:0:0:
256,192,95743,1,0,0:0:0:0:
256,192,95818,1,8,0:0:0:0:
256,192,95968,1,8,0:0:0:0:
256,192,96118,1,0,0:0:0:0:
256,192,96168,1,0,0:0:0:0:
256,192,96218,1,0,0:0:0:0:
256,192,96268,1,8,0:0:0:0:
256,192,96418,1,0,0:0:0:0:
256,192,96568,1,12,0:0:0:0:
256,192,96718,1,0,0:0:0:0:
256,192,96793,1,8,0:0:0:0:
256,192,96868,1,0,0:0:0:0:
256,192,97018,1,0,0:0:0:0:
256,192,97168,1,12,0:0:0:0:
256,192,97318,1,0,0:0:0:0:
256,192,97393,1,8,0:0:0:0:
256,192,97468,1,0,0:0:0:0:
256,192,97618,1,0,0:0:0:0:
256,192,97768,1,12,0:0:0:0:
256,192,97918,1,0,0:0:0:0:
256,192,98068,1,12,0:0:0:0:
256,192,98218,1,0,0:0:0:0:
256,192,98368,1,12,0:0:0:0:
256,192,98518,1,0,0:0:0:0:
256,192,98668,1,12,0:0:0:0:
256,192,98818,1,0,0:0:0:0:
256,192,98968,1,12,0:0:0:0:
256,192,99118,1,0,0:0:0:0:
256,192,99268,1,0,0:0:0:0:
256,192,99343,1,8,0:0:0:0:
256,192,99493,1,8,0:0:0:0:
256,192,99568,1,0,0:0:0:0:
256,192,99718,1,0,0:0:0:0:
256,192,99793,1,8,0:0:0:0:
256,192,99868,1,0,0:0:0:0:
256,192,99943,1,0,0:0:0:0:
256,192,100018,1,8,0:0:0:0:
256,192,100093,1,8,0:0:0:0:
256,192,100243,1,0,0:0:0:0:
256,192,100318,1,8,0:0:0:0:
256,192,100468,1,0,0:0:0:0:
256,192,100543,1,8,0:0:0:0:
256,192,100693,1,8,0:0:0:0:
256,192,100843,1,0,0:0:0:0:
256,192,100993,1,0,0:0:0:0:
256,192,101068,1,8,0:0:0:0:
256,192,101218,1,0,0:0:0:0:
256,192,101368,1,8,0:0:0:0:
256,192,101518,1,0,0:0:0:0:
256,192,101668,1,0,0:0:0:0:
256,192,101743,1,8,0:0:0:0:
256,192,101818,1,0,0:0:0:0:
256,192,101893,1,8,0:0:0:0:
256,192,101968,1,0,0:0:0:0:
256,192,102118,1,0,0:0:0:0:
256,192,102193,1,8,0:0:0:0:
256,192,102268,1,0,0:0:0:0:
256,192,102343,1,0,0:0:0:0:
256,192,102418,1,8,0:0:0:0:
256,192,102493,1,8,0:0:0:0:
256,192,102568,1,0,0:0:0:0:
256,192,102643,1,0,0:0:0:0:
256,192,102718,1,8,0:0:0:0:
256,192,102868,1,0,0:0:0:0:
256,192,102943,1,8,0:0:0:0:
256,192,103093,1,8,0:0:0:0:
256,192,103168,1,0,0:0:0:0:
256,192,103243,1,8,0:0:0:0:
256,192,103393,1,0,0:0:0:0:
256,192,103468,1,8,0:0:0:0:
256,192,103618,1,0,0:0:0:0:
256,192,103768,1,12,0:0:0:0:
256,192,103918,1,0,0:0:0:0:
256,192,104068,1,0,0:0:0:0:
256,192,104143,1,8,0:0:0:0:
256,192,104293,1,8,0:0:0:0:
256,192,104368,1,0,0:0:0:0:
256,192,104518,1,0,0:0:0:0:
256,192,104593,1,8,0:0:0:0:
256,192,104668,1,0,0:0:0:0:
256,192,104743,1,0,0:0:0:0:
256,192,104818,1,8,0:0:0:0:
256,192,104968,1,12,0:0:0:0:
256,192,105118,1,8,0:0:0:0:
256,192,105268,1,0,0:0:0:0:
256,192,105343,1,8,0:0:0:0:
256,192,105493,1,8,0:0:0:0:
256,192,105643,1,0,0:0:0:0:
256,192,105793,1,0,0:0:0:0:
256,192,105868,1,8,0:0:0:0:
256,192,106018,1,0,0:0:0:0:
256,192,106168,1,12,0:0:0:0:
256,192,106318,1,0,0:0:0:0:
256,192,106468,1,0,0:0:0:0:
256,192,106543,1,8,0:0:0:0:
256,192,106618,1,0,0:0:0:0:
256,192,106768,1,12,0:0:0:0:
256,192,106918,1,0,0:0:0:0:
256,192,106993,1,8,0:0:0:0:
256,192,107068,1,0,0:0:0:0:
256,192,107143,1,0,0:0:0:0:
256,192,107218,1,8,0:0:0:0:
256,192,107368,1,12,0:0:0:0:
256,192,107518,1,0,0:0:0:0:
256,192,107668,1,12,0:0:0:0:
256,192,107818,1,0,0:0:0:0:
256,192,107968,1,12,0:0:0:0:
256,192,108118,1,12,0:0:0:0:
256,192,108268,1,4,0:0:0:0:
256,192,108418,1,4,0:0:0:0:
256,192,108568,1,12,0:0:0:0:
256,192,108718,1,0,0:0:0:0:
256,192,108868,1,0,0:0:0:0:
256,192,108943,1,8,0:0:0:0:
256,192,109093,1,8,0:0:0:0:
256,192,109168,1,0,0:0:0:0:
256,192,109318,1,0,0:0:0:0:
256,192,109393,1,0,0:0:0:0:
256,192,109468,1,8,0:0:0:0:
256,192,109543,1,0,0:0:0:0:
256,192,109618,1,8,0:0:0:0:
256,192,109693,1,8,0:0:0:0:
256,192,109768,1,0,0:0:0:0:
256,192,109843,1,0,0:0:0:0:
256,192,109918,1,8,0:0:0:0:
256,192,110068,1,0,0:0:0:0:
256,192,110143,1,8,0:0:0:0:
256,192,110293,1,8,0:0:0:0:
256,192,110368,1,0,0:0:0:0:
256,192,110443,1,8,0:0:0:0:
256,192,110593,1,0,0:0:0:0:
256,192,110668,1,8,0:0:0:0:
256,192,110818,1,0,0:0:0:0:
256,192,110968,1,8,0:0:0:0:
256,192,111118,1,0,0:0:0:0:
256,192,111268,1,0,0:0:0:0:
256,192,111343,1,8,0:0:0:0:
256,192,111418,1,0,0:0:0:0:
256,192,111493,1,8,0:0:0:0:
256,192,111568,1,0,0:0:0:0:
256,192,111643,1,0,0:0:0:0:
256,192,111718,1,8,0:0:0:0:
256,192,111868,1,0,0:0:0:0:
256,192,111943,1,0,0:0:0:0:
256,192,112018,1,8,0:0:0:0:
256,192,112093,1,8,0:0:0:0:
256,192,112168,1,0,0:0:0:0:
256,192,112318,1,8,0:0:0:0:
256,192,112468,1,0,0:0:0:0:
256,192,112543,1,8,0:0:0:0:
256,192,112693,1,8,0:0:0:0:
256,192,112768,1,0,0:0:0:0:
256,192,112843,1,8,0:0:0:0:
256,192,112993,1,0,0:0:0:0:
256,192,113068,1,8,0:0:0:0:
256,192,113218,1,0,0:0:0:0:
256,192,113368,1,8,0:0:0:0:
256,192,113443,1,0,0:0:0:0:
256,192,113518,1,8,0:0:0:0:
256,192,113668,1,0,0:0:0:0:
256,192,113743,1,8,0:0:0:0:
256,192,113893,1,8,0:0:0:0:
256,192,113968,1,0,0:0:0:0:
256,192,114043,1,8,0:0:0:0:
256,192,114193,1,0,0:0:0:0:
256,192,114268,1,8,0:0:0:0:
256,192,114343,1,0,0:0:0:0:
256,192,114418,1,8,0:0:0:0:
256,192,114493,1,8,0:0:0:0:
256,192,114568,1,0,0:0:0:0:
256,192,114643,1,0,0:0:0:0:
256,192,114718,1,8,0:0:0:0:
256,192,114868,1,0,0:0:0:0:
256,192,114943,1,8,0:0:0:0:
256,192,115093,1,8,0:0:0:0:
256,192,115168,1,0,0:0:0:0:
256,192,115243,1,8,0:0:0:0:
256,192,115393,1,0,0:0:0:0:
256,192,115468,1,8,0:0:0:0:
256,192,115543,1,0,0:0:0:0:
256,192,115618,1,8,0:0:0:0:
256,192,115768,1,8,0:0:0:0:
256,192,115843,1,8,0:0:0:0:
256,192,115918,1,0,0:0:0:0:
256,192,116068,1,0,0:0:0:0:
256,192,116143,1,8,0:0:0:0:
256,192,116293,1,8,0:0:0:0:
256,192,116368,1,0,0:0:0:0:
256,192,116443,1,8,0:0:0:0:
256,192,116593,1,0,0:0:0:0:
256,192,116668,1,8,0:0:0:0:
256,192,116743,1,8,0:0:0:0:
256,192,116818,1,0,0:0:0:0:
256,192,116893,1,0,0:0:0:0:
256,192,116968,1,8,0:0:0:0:
256,192,117118,1,0,0:0:0:0:
256,192,117268,1,8,0:0:0:0:
256,192,117343,1,0,0:0:0:0:
256,192,117418,1,8,0:0:0:0:
256,192,117568,1,4,0:0:0:0:
256,192,117868,1,12,0:0:0:0:
256,192,118168,1,4,0:0:0:0:
256,192,118468,1,8,0:0:0:0:
256,192,118768,1,0,0:0:0:0:
256,192,119068,1,0,0:0:0:0:
256,192,119218,1,8,0:0:0:0:
256,192,119368,1,8,0:0:0:0:
256,192,119518,1,0,0:0:0:0:
256,192,119668,1,8,0:0:0:0:
256,192,119818,1,0,0:0:0:0:
256,192,119968,1,8,0:0:0:0:
256,192,120118,1,0,0:0:0:0:
256,192,120268,1,8,0:0:0:0:
256,192,120418,1,8,0:0:0:0:
256,192,120568,1,0,0:0:0:0:
256,192,120868,1,8,0:0:0:0:
256,192,121168,1,0,0:0:0:0:
256,192,121468,1,0,0:0:0:0:
256,192,121618,1,8,0:0:0:0:
256,192,121768,1,8,0:0:0:0:
256,192,121918,1,0,0:0:0:0:
256,192,122068,1,8,0:0:0:0:
256,192,122218,1,0,0:0:0:0:
256,192,122368,1,8,0:0:0:0:
256,192,122518,1,8,0:0:0:0:
256,192,122668,1,0,0:0:0:0:
256,192,122818,1,8,0:0:0:0:
256,192,122968,1,0,0:0:0:0:
256,192,123268,1,8,0:0:0:0:
256,192,123568,1,0,0:0:0:0:
256,192,123868,1,0,0:0:0:0:
256,192,124018,1,8,0:0:0:0:
256,192,124168,1,8,0:0:0:0:
256,192,124318,1,0,0:0:0:0:
256,192,124468,1,8,0:0:0:0:
256,192,124618,1,0,0:0:0:0:
256,192,124768,1,8,0:0:0:0:
256,192,124918,1,0,0:0:0:0:
256,192,125068,1,8,0:0:0:0:
256,192,125218,1,8,0:0:0:0:
256,192,125368,1,0,0:0:0:0:
256,192,125668,1,8,0:0:0:0:
256,192,125968,1,0,0:0:0:0:
256,192,126268,1,0,0:0:0:0:
256,192,126418,1,8,0:0:0:0:
256,192,126568,1,8,0:0:0:0:
256,192,126718,1,0,0:0:0:0:
256,192,126868,1,8,0:0:0:0:
256,192,127018,1,0,0:0:0:0:
256,192,127168,1,8,0:0:0:0:
256,192,127318,1,8,0:0:0:0:
256,192,127468,1,0,0:0:0:0:
256,192,127618,1,8,0:0:0:0:
256,192,127768,1,0,0:0:0:0:
256,192,128068,1,0,0:0:0:0:
256,192,128218,1,0,0:0:0:0:
256,192,128368,1,8,0:0:0:0:
256,192,128668,1,0,0:0:0:0:
256,192,128818,1,8,0:0:0:0:
256,192,128968,1,0,0:0:0:0:
256,192,129118,1,0,0:0:0:0:
256,192,129268,1,8,0:0:0:0:
256,192,129568,1,8,0:0:0:0:
256,192,129868,1,0,0:0:0:0:
256,192,130018,1,0,0:0:0:0:
256,192,130168,1,8,0:0:0:0:
256,192,130468,1,8,0:0:0:0:
256,192,130618,1,0,0:0:0:0:
256,192,130768,1,8,0:0:0:0:
256,192,130918,1,8,0:0:0:0:
256,192,131068,1,0,0:0:0:0:
256,192,131218,1,8,0:0:0:0:
256,192,131368,1,0,0:0:0:0:
256,192,131518,1,0,0:0:0:0:
256,192,131668,1,8,0:0:0:0:
256,192,131968,1,8,0:0:0:0:
256,192,132268,1,0,0:0:0:0:
256,192,132418,1,0,0:0:0:0:
256,192,132568,1,8,0:0:0:0:
256,192,132868,1,0,0:0:0:0:
256,192,133018,1,8,0:0:0:0:
256,192,133168,1,8,0:0:0:0:
256,192,133468,1,8,0:0:0:0:
256,192,133618,1,0,0:0:0:0:
256,192,133768,1,8,0:0:0:0:
256,192,134068,1,0,0:0:0:0:
256,192,134368,1,8,0:0:0:0:
256,192,134668,1,0,0:0:0:0:
256,192,134818,1,8,0:0:0:0:
256,192,134968,1,8,0:0:0:0:
256,192,135043,1,0,0:0:0:0:
256,192,135118,1,8,0:0:0:0:
256,192,135193,1,0,0:0:0:0:
256,192,135268,1,8,0:0:0:0:
256,192,135343,1,0,0:0:0:0:
256,192,135418,1,8,0:0:0:0:
256,192,135493,1,0,0:0:0:0:
256,192,135568,1,8,0:0:0:0:
256,192,135643,1,8,0:0:0:0:
256,192,135718,1,0,0:0:0:0:
256,192,135868,1,8,0:0:0:0:
256,192,135943,1,0,0:0:0:0:
256,192,136018,1,8,0:0:0:0:
256,192,136168,1,0,0:0:0:0:
256,192,136243,1,0,0:0:0:0:
256,192,136318,1,8,0:0:0:0:
256,192,136468,1,8,0:0:0:0:
256,192,136618,1,0,0:0:0:0:
256,192,136768,1,8,0:0:0:0:
256,192,136843,1,8,0:0:0:0:
256,192,136918,1,0,0:0:0:0:
256,192,137068,1,4,0:0:0:0:
256,192,137368,1,12,0:0:0:0:
256,192,137518,1,0,0:0:0:0:
256,192,137668,1,8,0:0:0:0:
256,192,137743,1,0,0:0:0:0:
256,192,137818,1,8,0:0:0:0:
256,192,137968,1,0,0:0:0:0:
256,192,138118,1,8,0:0:0:0:
256,192,138268,1,8,0:0:0:0:
256,192,138343,1,0,0:0:0:0:
256,192,138418,1,8,0:0:0:0:
256,192,138493,1,8,0:0:0:0:
256,192,138568,1,0,0:0:0:0:
256,192,138718,1,8,0:0:0:0:
256,192,138868,1,8,0:0:0:0:
256,192,138943,1,0,0:0:0:0:
256,192,139018,1,8,0:0:0:0:
256,192,139168,1,12,0:0:0:0:
256,192,139318,1,4,0:0:0:0:
256,192,139468,1,12,0:0:0:0:
256,192,139618,1,12,0:0:0:0:
256,192,139768,1,0,0:0:0:0:
256,192,139918,1,8,0:0:0:0:
256,192,140068,1,0,0:0:0:0:
256,192,140143,1,8,0:0:0:0:
256,192,140218,1,0,0:0:0:0:
256,192,140368,1,8,0:0:0:0:
256,192,140518,1,0,0:0:0:0:
256,192,140668,1,0,0:0:0:0:
256,192,140743,1,8,0:0:0:0:
256,192,140818,1,0,0:0:0:0:
256,192,140893,1,0,0:0:0:0:
256,192,140968,1,8,0:0:0:0:
256,192,141118,1,0,0:0:0:0:
256,192,141268,1,0,0:0:0:0:
256,192,141343,1,8,0:0:0:0:
256,192,141418,1,0,0:0:0:0:
256,192,141568,1,12,0:0:0:0:
256,192,141718,1,4,0:0:0:0:
256,192,141868,1,12,0:0:0:0:
256,192,142018,1,12,0:0:0:0:
256,192,142168,1,4,0:0:0:0:
256,192,142318,1,8,0:0:0:0:
256,192,142468,1,8,0:0:0:0:
256,192,142543,1,0,0:0:0:0:
256,192,142618,1,8,0:0:0:0:
256,192,142768,1,0,0:0:0:0:
256,192,142918,1,8,0:0:0:0:
256,192,143068,1,8,0:0:0:0:
256,192,143143,1,0,0:0:0:0:
256,192,143218,1,8,0:0:0:0:
256,192,143293,1,8,0:0:0:0:
256,192,143368,1,0,0:0:0:0:
256,192,143518,1,8,0:0:0:0:
256,192,143668,1,8,0:0:0:0:
256,192,143743,1,0,0:0:0:0:
256,192,143818,1,8,0:0:0:0:
256,192,143968,1,12,0:0:0:0:
256,192,144118,1,0,0:0:0:0:
256,192,144168,1,0,0:0:0:0:
256,192,144218,1,0,0:0:0:0:
256,192,144268,1,8,0:0:0:0:
256,192,144418,1,0,0:0:0:0:
256,192,144568,1,12,0:0:0:0:
256,192,144718,1,0,0:0:0:0:
256,192,144793,1,8,0:0:0:0:
256,192,144868,1,0,0:0:0:0:
256,192,145018,1,0,0:0:0:0:
256,192,145168,1,12,0:0:0:0:
256,192,145318,1,0,0:0:0:0:
256,192,145393,1,8,0:0:0:0:
256,192,145468,1,0,0:0:0:0:
256,192,145618,1,0,0:0:0:0:
256,192,145768,1,12,0:0:0:0:
256,192,145918,1,8,0:0:0:0:
256,192,145993,1,8,0:0:0:0:
256,192,146068,1,8,0:0:0:0:
256,192,146218,1,8,0:0:0:0:
256,192,146368,1,8,0:0:0:0:
256,192,146443,1,8,0:0:0:0:
256,192,146518,1,8,0:0:0:0:
256,192,146593,1,8,0:0:0:0:
256,192,146668,1,8,0:0:0:0:
256,192,146743,1,8,0:0:0:0:
256,192,146818,1,0,0:0:0:0:
256,192,146968,1,12,0:0:0:0:
256,192,147118,1,0,0:0:0:0:
256,192,147268,1,8,0:0:0:0:
256,192,147343,1,0,0:0:0:0:
256,192,147418,1,8,0:0:0:0:
256,192,147568,1,0,0:0:0:0:
256,192,147718,1,8,0:0:0:0:
256,192,147868,1,8,0:0:0:0:
256,192,147943,1,0,0:0:0:0:
256,192,148018,1,8,0:0:0:0:
256,192,148093,1,8,0:0:0:0:
256,192,148168,1,0,0:0:0:0:
256,192,148318,1,8,0:0:0:0:
256,192,148468,1,8,0:0:0:0:
256,192,148543,1,0,0:0:0:0:
256,192,148618,1,8,0:0:0:0:
256,192,148768,1,12,0:0:0:0:
256,192,148918,1,4,0:0:0:0:
256,192,149068,1,12,0:0:0:0:
256,192,149218,1,12,0:0:0:0:
256,192,149368,1,0,0:0:0:0:
256,192,149518,1,8,0:0:0:0:
256,192,149668,1,0,0:0:0:0:
256,192,149743,1,8,0:0:0:0:
256,192,149818,1,0,0:0:0:0:
256,192,149968,1,8,0:0:0:0:
256,192,150118,1,0,0:0:0:0:
256,192,150268,1,0,0:0:0:0:
256,192,150343,1,8,0:0:0:0:
256,192,150418,1,0,0:0:0:0:
256,192,150493,1,0,0:0:0:0:
256,192,150568,1,8,0:0:0:0:
256,192,150718,1,0,0:0:0:0:
256,192,150868,1,0,0:0:0:0:
256,192,150943,1,8,0:0:0:0:
256,192,151018,1,0,0:0:0:0:
256,192,151168,1,12,0:0:0:0:
256,192,151318,1,4,0:0:0:0:
256,192,151468,1,12,0:0:0:0:
256,192,151618,1,12,0:0:0:0:
256,192,151768,1,4,0:0:0:0:
256,192,151918,1,8,0:0:0:0:
256,192,152068,1,8,0:0:0:0:
256,192,152143,1,0,0:0:0:0:
256,192,152218,1,8,0:0:0:0:
256,192,152368,1,0,0:0:0:0:
256,192,152518,1,8,0:0:0:0:
256,192,152668,1,8,0:0:0:0:
256,192,152743,1,8,0:0:0:0:
256,192,152818,1,0,0:0:0:0:
256,192,152968,1,12,0:0:0:0:
256,192,153118,1,0,0:0:0:0:
256,192,153268,1,8,0:0:0:0:
256,192,153343,1,0,0:0:0:0:
256,192,153418,1,8,0:0:0:0:
256,192,153568,1,8,0:0:0:0:
256,192,153718,1,0,0:0:0:0:
256,192,153768,1,0,0:0:0:0:
256,192,153818,1,0,0:0:0:0:
256,192,153868,1,8,0:0:0:0:
256,192,154018,1,0,0:0:0:0:
256,192,154168,1,12,0:0:0:0:
256,192,154318,1,0,0:0:0:0:
256,192,154393,1,8,0:0:0:0:
256,192,154468,1,0,0:0:0:0:
256,192,154618,1,0,0:0:0:0:
256,192,154768,1,12,0:0:0:0:
256,192,154918,1,0,0:0:0:0:
256,192,154993,1,8,0:0:0:0:
256,192,155068,1,0,0:0:0:0:
256,192,155218,1,0,0:0:0:0:
256,192,155368,1,12,0:0:0:0:
256,192,155518,1,0,0:0:0:0:
256,192,155593,1,8,0:0:0:0:
256,192,155668,1,8,0:0:0:0:
256,192,155818,1,0,0:0:0:0:
256,192,155968,1,8,0:0:0:0:
256,192,156043,1,0,0:0:0:0:
256,192,156118,1,8,0:0:0:0:
256,192,156193,1,0,0:0:0:0:
256,192,156268,1,8,0:0:0:0:
256,192,156318,1,8,0:0:0:0:
256,192,156368,1,8,0:0:0:0:
256,192,156418,1,8,0:0:0:0:
256,192,156568,1,12,0:0:0:0:
256,192,156718,1,0,0:0:0:0:
256,192,156868,1,8,0:0:0:0:
256,192,156943,1,0,0:0:0:0:
256,192,157018,1,8,0:0:0:0:
256,192,157093,1,0,0:0:0:0:
256,192,157168,1,8,0:0:0:0:
256,192,157318,1,8,0:0:0:0:
256,192,157468,1,8,0:0:0:0:
256,192,157543,1,0,0:0:0:0:
256,192,157618,1,8,0:0:0:0:
256,192,157693,1,8,0:0:0:0:
256,192,157768,1,0,0:0:0:0:
256,192,157918,1,8,0:0:0:0:
256,192,158068,1,8,0:0:0:0:
256,192,158143,1,0,0:0:0:0:
256,192,158218,1,8,0:0:0:0:
256,192,158368,1,12,0:0:0:0:
256,192,158518,1,4,0:0:0:0:
256,192,158668,1,12,0:0:0:0:
256,192,158818,1,12,0:0:0:0:
256,192,158968,1,0,0:0:0:0:
256,192,159118,1,8,0:0:0:0:
256,192,159268,1,0,0:0:0:0:
256,192,159343,1,8,0:0:0:0:
256,192,159418,1,0,0:0:0:0:
256,192,159493,1,8,0:0:0:0:
256,192,159568,1,0,0:0:0:0:
256,192,159718,1,8,0:0:0:0:
256,192,159868,1,0,0:0:0:0:
256,192,159943,1,8,0:0:0:0:
256,192,160018,1,0,0:0:0:0:
256,192,160093,1,0,0:0:0:0:
256,192,160168,1,8,0:0:0:0:
256,192,160318,1,0,0:0:0:0:
256,192,160468,1,0,0:0:0:0:
256,192,160543,1,8,0:0:0:0:
256,192,160618,1,0,0:0:0:0:
256,192,160768,1,12,0:0:0:0:
256,192,160918,1,4,0:0:0:0:
256,192,161068,1,12,0:0:0:0:
256,192,161218,1,12,0:0:0:0:
256,192,161368,1,0,0:0:0:0:
256,192,161518,1,8,0:0:0:0:
256,192,161668,1,8,0:0:0:0:
256,192,161743,1,0,0:0:0:0:
256,192,161818,1,8,0:0:0:0:
256,192,161893,1,0,0:0:0:0:
256,192,161968,1,8,0:0:0:0:
256,192,162118,1,8,0:0:0:0:
256,192,162268,1,8,0:0:0:0:
256,192,162343,1,0,0:0:0:0:
256,192,162418,1,8,0:0:0:0:
256,192,162493,1,8,0:0:0:0:
256,192,162568,1,0,0:0:0:0:
256,192,162718,1,8,0:0:0:0:
256,192,162868,1,8,0:0:0:0:
256,192,162943,1,0,0:0:0:0:
256,192,163018,1,8,0:0:0:0:
256,192,163168,1,12,0:0:0:0:
256,192,163318,1,0,0:0:0:0:
256,192,163368,1,0,0:0:0:0:
256,192,163418,1,0,0:0:0:0:
256,192,163468,1,8,0:0:0:0:
256,192,163618,1,0,0:0:0:0:
256,192,163768,1,12,0:0:0:0:
256,192,163918,1,0,0:0:0:0:
256,192,163993,1,8,0:0:0:0:
256,192,164068,1,0,0:0:0:0:
256,192,164218,1,0,0:0:0:0:
256,192,164368,1,12,0:0:0:0:
256,192,164518,1,0,0:0:0:0:
256,192,164593,1,8,0:0:0:0:
256,192,164668,1,0,0:0:0:0:
256,192,164818,1,0,0:0:0:0:
256,192,164968,1,12,0:0:0:0:
256,192,165118,1,8,0:0:0:0:
256,192,165193,1,8,0:0:0:0:
256,192,165268,1,8,0:0:0:0:
256,192,165343,1,0,0:0:0:0:
256,192,165418,1,8,0:0:0:0:
256,192,165568,1,8,0:0:0:0:
256,192,165643,1,8,0:0:0:0:
256,192,165718,1,8,0:0:0:0:
256,192,165793,1,8,0:0:0:0:
256,192,165868,1,0,0:0:0:0:
256,192,166168,1,12,0:0:0:0:
256,192,166318,1,0,0:0:0:0:
256,192,166468,1,8,0:0:0:0:
256,192,166543,1,0,0:0:0:0:
256,192,166618,1,8,0:0:0:0:
256,192,166693,1,8,0:0:0:0:
256,192,166768,1,0,0:0:0:0:
256,192,166843,1,0,0:0:0:0:
256,192,166918,1,8,0:0:0:0:
256,192,167068,1,8,0:0:0:0:
256,192,167143,1,0,0:0:0:0:
256,192,167218,1,8,0:0:0:0:
256,192,167293,1,8,0:0:0:0:
256,192,167368,1,0,0:0:0:0:
256,192,167518,1,8,0:0:0:0:
256,192,167668,1,8,0:0:0:0:
256,192,167743,1,0,0:0:0:0:
256,192,167818,1,8,0:0:0:0:
256,192,167968,1,12,0:0:0:0:
256,192,168118,1,4,0:0:0:0:
256,192,168268,1,12,0:0:0:0:
256,192,168418,1,12,0:0:0:0:
256,192,168568,1,0,0:0:0:0:
256,192,168718,1,8,0:0:0:0:
256,192,168868,1,0,0:0:0:0:
256,192,168943,1,8,0:0:0:0:
256,192,169018,1,0,0:0:0:0:
256,192,169093,1,0,0:0:0:0:
256,192,169168,1,8,0:0:0:0:
256,192,169318,1,0,0:0:0:0:
256,192,169468,1,0,0:0:0:0:
256,192,169543,1,8,0:0:0:0:
256,192,169618,1,8,0:0:0:0:
256,192,169693,1,0,0:0:0:0:
256,192,169768,1,8,0:0:0:0:
256,192,169918,1,0,0:0:0:0:
256,192,170068,1,0,0:0:0:0:
256,192,170143,1,8,0:0:0:0:
256,192,170218,1,0,0:0:0:0:
256,192,170368,1,12,0:0:0:0:
256,192,170518,1,4,0:0:0:0:
256,192,170668,1,12,0:0:0:0:
256,192,170818,1,12,0:0:0:0:
256,192,170968,1,4,0:0:0:0:
256,192,171118,1,8,0:0:0:0:
256,192,171193,1,8,0:0:0:0:
256,192,171268,1,0,0:0:0:0:
256,192,171418,1,8,0:0:0:0:
256,192,171493,1,0,0:0:0:0:
256,192,171568,1,8,0:0:0:0:
256,192,171643,1,0,0:0:0:0:
256,192,171718,1,8,0:0:0:0:
256,192,171868,1,8,0:0:0:0:
256,192,172018,1,0,0:0:0:0:
256,192,172168,1,12,0:0:0:0:
256,192,172318,1,0,0:0:0:0:
256,192,172393,1,0,0:0:0:0:
256,192,172468,1,8,0:0:0:0:
256,192,172543,1,0,0:0:0:0:
256,192,172618,1,8,0:0:0:0:
256,192,172768,1,0,0:0:0:0:
256,192,172843,1,8,0:0:0:0:
256,192,172918,1,0,0:0:0:0:
256,192,172993,1,8,0:0:0:0:
256,192,173068,1,0,0:0:0:0:
256,192,173218,1,0,0:0:0:0:
256,192,173368,1,12,0:0:0:0:
256,192,173518,1,0,0:0:0:0:
256,192,173593,1,8,0:0:0:0:
256,192,173668,1,0,0:0:0:0:
256,192,173818,1,0,0:0:0:0:
256,192,173968,1,12,0:0:0:0:
256,192,174118,1,0,0:0:0:0:
256,192,174193,1,8,0:0:0:0:
256,192,174268,1,0,0:0:0:0:
256,192,174343,1,0,0:0:0:0:
256,192,174418,1,8,0:0:0:0:
256,192,174568,1,8,0:0:0:0:
256,192,174643,1,8,0:0:0:0:
256,192,174718,1,0,0:0:0:0:
256,192,174793,1,0,0:0:0:0:
256,192,174868,1,8,0:0:0:0:
256,192,174943,1,8,0:0:0:0:
256,192,175018,1,0,0:0:0:0:
256,192,175093,1,0,0:0:0:0:
256,192,175168,1,8,0:0:0:0:
256,192,175243,1,8,0:0:0:0:
256,192,175318,1,0,0:0:0:0:
256,192,175393,1,0,0:0:0:0:
256,192,175468,1,8,0:0:0:0:
256,192,175543,1,8,0:0:0:0:
256,192,175618,1,0,0:0:0:0:
256,192,175768,1,12,0:0:0:0:
