osu file format v14

[General]
AudioFilename: audio.mp3
AudioLeadIn: 0
PreviewTime: 20968
Countdown: 0
SampleSet: Normal
StackLeniency: 0.7
Mode: 1
LetterboxInBreaks: 0
WidescreenStoryboard: 0

[Editor]
Bookmarks: 2968,12568,22168,41368,50968,60568,70168,79768,98968,108568,118168,127768,137368,155968,156568,165868,166168,175768
DistanceSpacing: 1.3
BeatDivisor: 4
GridSize: 32
TimelineZoom: 2.1

[Metadata]
Title:Night of Knights (tpz Overheat Remix)
TitleUnicode:ナイト・オブ・ナイツ (tpz Overheat Remix)
Artist:t+pazolite
ArtistUnicode:t+pazolite
Creator:eiri-
Version:Futsuu
Source:東方花映塚 ~ Phantasmagoria of Flower View.
Tags:Ayyri 東方Project ZUN Team Shanghai Alice Touhou Izayoi Sakuya Brain Power Max Burning MAD COOL&CREATE beatMARIO CCC CHS C.H.S CCCD-0050 十六夜 咲夜 PoFV TH09 TH 9 Flower Reflecting Mound Kaeizuka
BeatmapID:2156725
BeatmapSetID:1031381

[Difficulty]
HPDrainRate:6
CircleSize:2
OverallDifficulty:4
ApproachRate:10
SliderMultiplier:1.4
SliderTickRate:1

[Events]
//Background and Video events
0,0,"Sakuya 682.jpg",0,45
//Break Periods
//Storyboard Layer 0 (Background)
//Storyboard Layer 1 (Fail)
//Storyboard Layer 2 (Pass)
//Storyboard Layer 3 (Foreground)
//Storyboard Layer 4 (Overlay)
//Storyboard Sound Samples

[TimingPoints]
2968,300,4,1,0,25,1,0
2968,-100,4,1,0,75,0,0
22168,-100,4,1,0,75,0,1
41368,-100,4,1,0,75,0,0
79768,-100,4,1,0,75,0,1
98968,-100,4,1,0,75,0,0
137368,-100,4,1,0,75,0,1
155968,-100,4,1,0,75,0,0
156568,-100,4,1,0,75,0,1
165868,-100,4,1,0,75,0,0
166168,-100,4,1,0,75,0,1
175768,-100,4,1,0,75,0,0

[HitObjects]
256,192,718,8,0,2818,0:0:0:0:
256,192,2968,5,12,0:0:0:0:
256,192,3268,1,0,0:0:0:0:
256,192,3568,1,8,0:0:0:0:
256,192,3868,1,8,0:0:0:0:
256,192,4468,1,8,0:0:0:0:
256,192,4918,1,0,0:0:0:0:
256,192,5218,1,0,0:0:0:0:
256,192,5368,1,8,0:0:0:0:
256,192,5668,1,0,0:0:0:0:
256,192,5968,1,0,0:0:0:0:
256,192,6118,1,8,0:0:0:0:
256,192,6568,1,8,0:0:0:0:
256,192,7168,1,0,0:0:0:0:
256,192,7468,1,0,0:0:0:0:
256,192,7768,1,12,0:0:0:0:
256,192,8368,1,8,0:0:0:0:
256,192,8668,1,0,0:0:0:0:
256,192,8968,1,12,0:0:0:0:
256,192,9268,1,0,0:0:0:0:
256,192,9718,1,8,0:0:0:0:
256,192,10018,1,0,0:0:0:0:
256,192,10168,1,12,0:0:0:0:
256,192,10768,1,12,0:0:0:0:
256,192,11368,1,12,0:0:0:0:
256,192,11668,1,12,0:0:0:0:
256,192,11968,1,12,0:0:0:0:
256,192,12568,1,12,0:0:0:0:
256,192,12868,1,0,0:0:0:0:
256,192,13168,1,8,0:0:0:0:
256,192,13318,1,0,0:0:0:0:
256,192,13468,1,8,0:0:0:0:
256,192,13768,1,0,0:0:0:0:
256,192,14368,1,0,0:0:0:0:
256,192,14518,1,0,0:0:0:0:
256,192,14668,1,8,0:0:0:0:
256,192,14968,1,0,0:0:0:0:
256,192,15568,1,0,0:0:0:0:
256,192,15718,1,8,0:0:0:0:
256,192,16018,1,8,0:0:0:0:
256,192,16168,1,0,0:0:0:0:
256,192,16468,1,8,0:0:0:0:
256,192,16768,1,0,0:0:0:0:
256,192,16918,1,0,0:0:0:0:
256,192,17068,1,8,0:0:0:0:
256,192,17368,1,0,0:0:0:0:
256,192,17968,1,8,0:0:0:0:
256,192,18268,1,0,0:0:0:0:
256,192,18568,1,8,0:0:0:0:
256,192,18868,1,0,0:0:0:0:
256,192,19168,1,8,0:0:0:0:
256,192,19318,1,8,0:0:0:0:
256,192,19468,1,0,0:0:0:0:
256,192,19768,1,8,0:0:0:0:
256,192,20068,1,0,0:0:0:0:
256,192,20368,1,8,0:0:0:0:
256,192,20968,1,0,0:0:0:0:
256,192,21268,1,8,0:0:0:0:
256,192,21568,1,0,0:0:0:0:
256,192,21718,1,0,0:0:0:0:
256,192,21868,1,12,0:0:0:0:
256,192,22168,1,12,0:0:0:0:
256,192,22768,1,0,0:0:0:0:
256,192,23068,1,8,0:0:0:0:
256,192,23368,1,0,0:0:0:0:
256,192,23518,1,0,0:0:0:0:
256,192,23668,1,8,0:0:0:0:
256,192,23968,1,12,0:0:0:0:
256,192,24568,1,0,0:0:0:0:
256,192,25168,1,0,0:0:0:0:
256,192,25468,1,8,0:0:0:0:
256,192,25768,1,0,0:0:0:0:
256,192,25918,1,0,0:0:0:0:
256,192,26068,1,8,0:0:0:0:
256,192,26368,1,12,0:0:0:0:
256,192,26968,1,0,0:0:0:0:
256,192,27568,1,0,0:0:0:0:
256,192,27868,1,8,0:0:0:0:
256,192,28168,1,0,0:0:0:0:
256,192,28318,1,0,0:0:0:0:
256,192,28468,1,8,0:0:0:0:
256,192,28768,1,12,0:0:0:0:
256,192,29068,1,0,0:0:0:0:
256,192,29368,1,8,0:0:0:0:
256,192,29968,1,8,0:0:0:0:
256,192,30568,1,8,0:0:0:0:
256,192,30718,1,8,0:0:0:0:
256,192,30868,1,0,0:0:0:0:
256,192,31168,1,8,0:0:0:0:
256,192,31768,1,12,0:0:0:0:
256,192,32368,1,0,0:0:0:0:
256,192,32668,1,8,0:0:0:0:
256,192,32968,1,0,0:0:0:0:
256,192,33118,1,0,0:0:0:0:
256,192,33268,1,8,0:0:0:0:
256,192,33568,1,12,0:0:0:0:
256,192,34168,1,0,0:0:0:0:
256,192,34768,1,0,0:0:0:0:
256,192,35068,1,8,0:0:0:0:
256,192,35368,1,0,0:0:0:0:
256,192,35518,1,0,0:0:0:0:
256,192,35668,1,8,0:0:0:0:
256,192,35968,1,12,0:0:0:0:
256,192,36568,1,0,0:0:0:0:
256,192,37168,1,0,0:0:0:0:
256,192,37468,1,8,0:0:0:0:
256,192,37768,1,0,0:0:0:0:
256,192,37918,1,0,0:0:0:0:
256,192,38068,1,8,0:0:0:0:
256,192,38368,1,12,0:0:0:0:
256,192,38668,1,0,0:0:0:0:
256,192,38968,1,8,0:0:0:0:
256,192,39568,1,0,0:0:0:0:
256,192,39718,1,8,0:0:0:0:
256,192,39868,1,0,0:0:0:0:
256,192,40168,1,8,0:0:0:0:
256,192,40768,1,0,0:0:0:0:
256,192,41068,1,12,0:0:0:0:
256,192,41368,1,12,0:0:0:0:
256,192,41818,1,0,0:0:0:0:
256,192,41968,1,8,0:0:0:0:
256,192,42268,1,0,0:0:0:0:
256,192,42568,1,8,0:0:0:0:
256,192,42868,1,0,0:0:0:0:
256,192,43168,1,8,0:0:0:0:
256,192,43318,1,0,0:0:0:0:
256,192,43468,1,8,0:0:0:0:
256,192,43768,1,0,0:0:0:0:
256,192,44368,1,0,0:0:0:0:
256,192,44668,1,8,0:0:0:0:
256,192,44818,1,8,0:0:0:0:
256,192,44968,1,0,0:0:0:0:
256,192,45268,1,0,0:0:0:0:
256,192,45568,1,0,0:0:0:0:
256,192,45718,1,8,0:0:0:0:
256,192,45868,1,8,0:0:0:0:
256,192,46168,1,0,0:0:0:0:
256,192,46768,1,0,0:0:0:0:
256,192,46918,1,8,0:0:0:0:
256,192,47068,1,0,0:0:0:0:
256,192,47368,1,8,0:0:0:0:
256,192,47668,1,0,0:0:0:0:
256,192,47968,1,8,0:0:0:0:
256,192,48118,1,8,0:0:0:0:
256,192,48268,1,0,0:0:0:0:
256,192,48568,1,0,0:0:0:0:
256,192,48868,1,8,0:0:0:0:
256,192,49168,1,0,0:0:0:0:
256,192,49768,1,0,0:0:0:0:
256,192,50068,1,8,0:0:0:0:
256,192,50368,1,0,0:0:0:0:
256,192,50518,1,8,0:0:0:0:
256,192,50668,1,8,0:0:0:0:
256,192,50968,1,12,0:0:0:0:
256,192,51418,1,0,0:0:0:0:
256,192,51568,1,8,0:0:0:0:
256,192,51868,1,0,0:0:0:0:
256,192,52018,1,8,0:0:0:0:
256,192,52168,1,0,0:0:0:0:
256,192,52468,1,0,0:0:0:0:
256,192,52768,1,8,0:0:0:0:
256,192,52918,1,0,0:0:0:0:
256,192,53068,1,8,0:0:0:0:
256,192,53368,1,0,0:0:0:0:
256,192,53968,1,0,0:0:0:0:
256,192,54268,1,8,0:0:0:0:
256,192,54418,1,8,0:0:0:0:
256,192,54568,1,0,0:0:0:0:
256,192,54868,1,0,0:0:0:0:
256,192,55168,1,0,0:0:0:0:
256,192,55318,1,8,0:0:0:0:
256,192,55468,1,8,0:0:0:0:
256,192,55768,1,0,0:0:0:0:
256,192,56368,1,0,0:0:0:0:
256,192,56518,1,8,0:0:0:0:
256,192,56668,1,0,0:0:0:0:
256,192,56968,1,8,0:0:0:0:
256,192,57268,1,0,0:0:0:0:
256,192,57568,1,8,0:0:0:0:
256,192,57868,1,0,0:0:0:0:
256,192,58018,1,0,0:0:0:0:
256,192,58168,1,8,0:0:0:0:
256,192,58468,1,0,0:0:0:0:
256,192,58768,1,8,0:0:0:0:
256,192,59368,1,0,0:0:0:0:
256,192,59668,1,0,0:0:0:0:
256,192,59968,1,0,0:0:0:0:
256,192,60118,1,0,0:0:0:0:
256,192,60268,1,12,0:0:0:0:
256,192,60568,1,4,0:0:0:0:
256,192,61168,1,8,0:0:0:0:
256,192,61618,1,8,0:0:0:0:
256,192,61768,1,0,0:0:0:0:
256,192,61918,1,8,0:0:0:0:
256,192,62218,1,0,0:0:0:0:
256,192,62968,1,8,0:0:0:0:
256,192,63568,1,0,0:0:0:0:
256,192,64018,1,0,0:0:0:0:
256,192,64168,1,8,0:0:0:0:
256,192,64318,1,0,0:0:0:0:
256,192,65368,1,0,0:0:0:0:
256,192,65968,1,8,0:0:0:0:
256,192,66418,1,8,0:0:0:0:
256,192,66568,1,0,0:0:0:0:
256,192,66718,1,8,0:0:0:0:
256,192,67018,1,0,0:0:0:0:
256,192,67768,1,8,0:0:0:0:
256,192,68368,1,0,0:0:0:0:
256,192,68818,1,0,0:0:0:0:
256,192,68968,1,8,0:0:0:0:
256,192,69118,1,0,0:0:0:0:
256,192,70168,1,0,0:0:0:0:
256,192,70768,1,8,0:0:0:0:
256,192,71068,1,0,0:0:0:0:
256,192,71368,1,0,0:0:0:0:
256,192,71968,1,8,0:0:0:0:
256,192,72568,1,0,0:0:0:0:
256,192,73168,1,8,0:0:0:0:
256,192,73468,1,0,0:0:0:0:
256,192,73768,1,0,0:0:0:0:
256,192,74368,1,8,0:0:0:0:
256,192,74968,1,0,0:0:0:0:
256,192,75568,1,8,0:0:0:0:
256,192,75868,1,0,0:0:0:0:
256,192,76168,1,0,0:0:0:0:
256,192,76768,1,8,0:0:0:0:
256,192,77368,1,0,0:0:0:0:
256,192,77518,1,8,0:0:0:0:
256,192,77818,1,0,0:0:0:0:
256,192,77968,1,8,0:0:0:0:
256,192,78268,1,0,0:0:0:0:
256,192,78418,1,8,0:0:0:0:
256,192,78868,1,8,0:0:0:0:
256,192,79018,1,0,0:0:0:0:
256,192,79168,1,8,0:0:0:0:
256,192,79768,1,12,0:0:0:0:
256,192,80368,1,0,0:0:0:0:
256,192,80668,1,8,0:0:0:0:
256,192,80968,1,0,0:0:0:0:
256,192,81118,1,0,0:0:0:0:
256,192,81268,1,8,0:0:0:0:
256,192,81568,1,12,0:0:0:0:
256,192,82168,1,0,0:0:0:0:
256,192,82768,1,0,0:0:0:0:
256,192,83068,1,8,0:0:0:0:
256,192,83368,1,0,0:0:0:0:
256,192,83518,1,0,0:0:0:0:
256,192,83668,1,8,0:0:0:0:
256,192,83968,1,12,0:0:0:0:
256,192,84568,1,4,0:0:0:0:
256,192,85168,1,0,0:0:0:0:
256,192,85468,1,8,0:0:0:0:
256,192,85768,1,0,0:0:0:0:
256,192,85918,1,0,0:0:0:0:
256,192,86068,1,8,0:0:0:0:
256,192,86368,1,12,0:0:0:0:
256,192,86668,1,0,0:0:0:0:
256,192,86968,1,8,0:0:0:0:
256,192,87568,1,8,0:0:0:0:
256,192,88168,1,8,0:0:0:0:
256,192,88318,1,8,0:0:0:0:
256,192,88468,1,0,0:0:0:0:
256,192,88768,1,8,0:0:0:0:
256,192,89368,1,12,0:0:0:0:
256,192,89968,1,0,0:0:0:0:
256,192,90268,1,8,0:0:0:0:
256,192,90568,1,0,0:0:0:0:
256,192,90718,1,0,0:0:0:0:
256,192,90868,1,8,0:0:0:0:
256,192,91168,1,12,0:0:0:0:
256,192,91768,1,0,0:0:0:0:
256,192,92368,1,0,0:0:0:0:
256,192,92668,1,8,0:0:0:0:
256,192,92968,1,0,0:0:0:0:
256,192,93118,1,0,0:0:0:0:
256,192,93268,1,8,0:0:0:0:
256,192,93568,1,12,0:0:0:0:
256,192,94168,1,4,0:0:0:0:
256,192,94768,1,0,0:0:0:0:
256,192,95068,1,8,0:0:0:0:
256,192,95368,1,4,0:0:0:0:
256,192,95968,1,12,0:0:0:0:
256,192,96268,1,0,0:0:0:0:
256,192,96568,1,12,0:0:0:0:
256,192,97168,1,12,0:0:0:0:
256,192,97468,1,0,0:0:0:0:
256,192,97768,1,12,0:0:0:0:
256,192,98068,1,12,0:0:0:0:
256,192,98368,1,12,0:0:0:0:
256,192,98968,1,12,0:0:0:0:
256,192,99268,1,0,0:0:0:0:
256,192,99568,1,8,0:0:0:0:
256,192,99868,1,8,0:0:0:0:
256,192,100468,1,8,0:0:0:0:
256,192,100918,1,0,0:0:0:0:
256,192,101218,1,0,0:0:0:0:
256,192,101368,1,8,0:0:0:0:
256,192,101668,1,0,0:0:0:0:
256,192,101968,1,0,0:0:0:0:
256,192,102118,1,8,0:0:0:0:
256,192,102418,1,0,0:0:0:0:
256,192,102568,1,8,0:0:0:0:
256,192,103168,1,0,0:0:0:0:
256,192,103468,1,0,0:0:0:0:
256,192,103768,1,12,0:0:0:0:
256,192,104368,1,8,0:0:0:0:
256,192,104668,1,0,0:0:0:0:
256,192,104968,1,12,0:0:0:0:
256,192,105268,1,0,0:0:0:0:
256,192,105718,1,8,0:0:0:0:
256,192,106018,1,0,0:0:0:0:
256,192,106168,1,12,0:0:0:0:
256,192,106768,1,12,0:0:0:0:
256,192,107368,1,12,0:0:0:0:
256,192,107668,1,12,0:0:0:0:
256,192,107968,1,12,0:0:0:0:
256,192,108568,1,12,0:0:0:0:
256,192,108868,1,0,0:0:0:0:
256,192,109168,1,8,0:0:0:0:
256,192,109318,1,0,0:0:0:0:
256,192,109468,1,8,0:0:0:0:
256,192,109768,1,0,0:0:0:0:
256,192,110368,1,0,0:0:0:0:
256,192,110518,1,0,0:0:0:0:
256,192,110668,1,8,0:0:0:0:
256,192,110968,1,0,0:0:0:0:
256,192,111568,1,0,0:0:0:0:
256,192,111718,1,8,0:0:0:0:
256,192,111868,1,0,0:0:0:0:
256,192,112168,1,0,0:0:0:0:
256,192,112468,1,8,0:0:0:0:
256,192,112768,1,0,0:0:0:0:
256,192,112918,1,0,0:0:0:0:
256,192,113068,1,8,0:0:0:0:
256,192,113368,1,0,0:0:0:0:
256,192,113968,1,8,0:0:0:0:
256,192,114268,1,0,0:0:0:0:
256,192,114568,1,8,0:0:0:0:
256,192,114868,1,0,0:0:0:0:
256,192,115168,1,8,0:0:0:0:
256,192,115318,1,8,0:0:0:0:
256,192,115468,1,0,0:0:0:0:
256,192,115768,1,8,0:0:0:0:
256,192,116068,1,0,0:0:0:0:
256,192,116368,1,8,0:0:0:0:
256,192,116968,1,0,0:0:0:0:
256,192,117118,1,0,0:0:0:0:
256,192,117268,1,8,0:0:0:0:
256,192,117568,1,4,0:0:0:0:
256,192,117868,1,12,0:0:0:0:
256,192,118168,1,4,0:0:0:0:
256,192,118768,1,8,0:0:0:0:
256,192,119218,1,8,0:0:0:0:
256,192,119368,1,0,0:0:0:0:
256,192,119518,1,8,0:0:0:0:
256,192,119818,1,0,0:0:0:0:
256,192,120568,1,8,0:0:0:0:
256,192,121168,1,0,0:0:0:0:
256,192,121618,1,0,0:0:0:0:
256,192,121768,1,8,0:0:0:0:
256,192,121918,1,0,0:0:0:0:
256,192,122968,1,0,0:0:0:0:
256,192,123568,1,8,0:0:0:0:
256,192,124018,1,8,0:0:0:0:
256,192,124168,1,0,0:0:0:0:
256,192,124318,1,8,0:0:0:0:
256,192,124618,1,0,0:0:0:0:
256,192,125368,1,8,0:0:0:0:
256,192,125968,1,0,0:0:0:0:
256,192,126418,1,0,0:0:0:0:
256,192,126568,1,8,0:0:0:0:
256,192,126718,1,0,0:0:0:0:
256,192,127768,1,0,0:0:0:0:
256,192,128368,1,8,0:0:0:0:
256,192,128668,1,0,0:0:0:0:
256,192,128968,1,0,0:0:0:0:
256,192,129568,1,8,0:0:0:0:
256,192,130168,1,0,0:0:0:0:
256,192,130768,1,8,0:0:0:0:
256,192,131068,1,0,0:0:0:0:
256,192,131368,1,0,0:0:0:0:
256,192,131968,1,8,0:0:0:0:
256,192,132568,1,0,0:0:0:0:
256,192,133168,1,8,0:0:0:0:
256,192,133468,1,0,0:0:0:0:
256,192,133768,1,0,0:0:0:0:
256,192,134368,1,8,0:0:0:0:
256,192,134968,1,0,0:0:0:0:
256,192,135118,1,0,0:0:0:0:
256,192,135268,1,8,0:0:0:0:
256,192,135568,1,8,0:0:0:0:
256,192,135868,1,0,0:0:0:0:
256,192,136168,1,0,0:0:0:0:
256,192,136468,1,8,0:0:0:0:
256,192,136618,1,0,0:0:0:0:
256,192,136768,1,8,0:0:0:0:
256,192,137068,1,4,0:0:0:0:
256,192,137368,1,12,0:0:0:0:
256,192,137968,1,0,0:0:0:0:
256,192,138268,1,8,0:0:0:0:
256,192,138568,1,0,0:0:0:0:
256,192,138718,1,0,0:0:0:0:
256,192,138868,1,8,0:0:0:0:
256,192,139168,1,12,0:0:0:0:
256,192,139768,1,0,0:0:0:0:
256,192,140368,1,0,0:0:0:0:
256,192,140668,1,8,0:0:0:0:
256,192,140968,1,0,0:0:0:0:
256,192,141118,1,0,0:0:0:0:
256,192,141268,1,8,0:0:0:0:
256,192,141568,1,12,0:0:0:0:
256,192,142168,1,4,0:0:0:0:
256,192,142768,1,0,0:0:0:0:
256,192,143068,1,8,0:0:0:0:
256,192,143368,1,0,0:0:0:0:
256,192,143518,1,0,0:0:0:0:
256,192,143668,1,8,0:0:0:0:
256,192,143968,1,12,0:0:0:0:
256,192,144268,1,0,0:0:0:0:
256,192,144568,1,8,0:0:0:0:
256,192,145168,1,8,0:0:0:0:
256,192,145768,1,8,0:0:0:0:
256,192,145918,1,8,0:0:0:0:
256,192,146068,1,0,0:0:0:0:
256,192,146368,1,8,0:0:0:0:
256,192,146968,1,12,0:0:0:0:
256,192,147568,1,0,0:0:0:0:
256,192,147868,1,8,0:0:0:0:
256,192,148168,1,0,0:0:0:0:
256,192,148318,1,0,0:0:0:0:
256,192,148468,1,8,0:0:0:0:
256,192,148768,1,12,0:0:0:0:
256,192,149368,1,0,0:0:0:0:
256,192,149968,1,0,0:0:0:0:
256,192,150268,1,8,0:0:0:0:
256,192,150568,1,0,0:0:0:0:
256,192,150718,1,0,0:0:0:0:
256,192,150868,1,8,0:0:0:0:
256,192,151168,1,12,0:0:0:0:
256,192,151768,1,4,0:0:0:0:
256,192,152368,1,8,0:0:0:0:
256,192,152968,1,4,0:0:0:0:
256,192,153568,1,8,0:0:0:0:
256,192,153718,1,8,0:0:0:0:
256,192,153868,1,0,0:0:0:0:
256,192,154168,1,4,0:0:0:0:
256,192,154768,1,4,0:0:0:0:
256,192,155368,1,12,0:0:0:0:
256,192,155668,1,12,0:0:0:0:
256,192,155968,1,0,0:0:0:0:
256,192,156268,1,8,0:0:0:0:
256,192,156568,1,12,0:0:0:0:
256,192,157168,1,8,0:0:0:0:
256,192,157318,1,0,0:0:0:0:
256,192,157468,1,8,0:0:0:0:
256,192,157768,1,0,0:0:0:0:
256,192,157918,1,0,0:0:0:0:
256,192,158068,1,8,0:0:0:0:
256,192,158368,1,12,0:0:0:0:
256,192,158968,1,8,0:0:0:0:
256,192,159118,1,0,0:0:0:0:
256,192,159268,1,8,0:0:0:0:
256,192,159568,1,0,0:0:0:0:
256,192,159868,1,8,0:0:0:0:
256,192,160168,1,0,0:0:0:0:
256,192,160318,1,0,0:0:0:0:
256,192,160468,1,8,0:0:0:0:
256,192,160768,1,12,0:0:0:0:
256,192,161368,1,8,0:0:0:0:
256,192,161518,1,0,0:0:0:0:
256,192,161668,1,8,0:0:0:0:
256,192,161968,1,0,0:0:0:0:
256,192,162268,1,8,0:0:0:0:
256,192,162568,1,0,0:0:0:0:
256,192,162718,1,0,0:0:0:0:
256,192,162868,1,8,0:0:0:0:
256,192,163168,1,12,0:0:0:0:
256,192,163468,1,0,0:0:0:0:
256,192,163768,1,8,0:0:0:0:
256,192,164368,1,8,0:0:0:0:
256,192,164668,1,0,0:0:0:0:
256,192,164968,1,8,0:0:0:0:
256,192,165118,1,0,0:0:0:0:
256,192,165268,1,8,0:0:0:0:
256,192,165568,1,8,0:0:0:0:
256,192,165868,1,0,0:0:0:0:
256,192,166168,1,12,0:0:0:0:
256,192,166768,1,8,0:0:0:0:
256,192,166918,1,0,0:0:0:0:
256,192,167068,1,8,0:0:0:0:
256,192,167368,1,0,0:0:0:0:
256,192,167518,1,0,0:0:0:0:
256,192,167668,1,8,0:0:0:0:
256,192,167968,1,12,0:0:0:0:
256,192,168568,1,8,0:0:0:0:
256,192,168718,1,0,0:0:0:0:
256,192,168868,1,8,0:0:0:0:
256,192,169168,1,0,0:0:0:0:
256,192,169468,1,8,0:0:0:0:
256,192,169768,1,0,0:0:0:0:
256,192,169918,1,0,0:0:0:0:
256,192,170068,1,8,0:0:0:0:
256,192,170368,1,12,0:0:0:0:
256,192,170968,1,4,0:0:0:0:
256,192,171418,1,0,0:0:0:0:
256,192,171568,1,8,0:0:0:0:
256,192,171868,1,0,0:0:0:0:
256,192,172168,1,4,0:0:0:0:
256,192,172768,1,8,0:0:0:0:
256,192,173068,1,8,0:0:0:0:
256,192,173368,1,4,0:0:0:0:
256,192,173968,1,4,0:0:0:0:
256,192,174568,1,12,0:0:0:0:
256,192,174868,1,12,0:0:0:0:
256,192,175168,1,12,0:0:0:0:
256,192,175768,1,12,0:0:0:0:
