osu file format v14

[General]
AudioFilename: audio.mp3
AudioLeadIn: 0
PreviewTime: 125257
Countdown: 0
SampleSet: Soft
StackLeniency: 0.7
Mode: 2
LetterboxInBreaks: 0
WidescreenStoryboard: 1

[Editor]
Bookmarks: 1021,12316,23610,34551,46198,57492,80080,102669,113963,125257,146433,170433,181816,193021,215610
DistanceSpacing: 1.1
BeatDivisor: 4
GridSize: 8
TimelineZoom: 1.9

[Metadata]
Title:Never Let me Go
TitleUnicode:Never Let me Go
Artist:t+pazolite
ArtistUnicode:t+pazolite
Creator:Unlucky_w
Version:Salad
Source:
Tags:hardcore drum and bass dnb electronic instrumental Tpazolite M3-35 HORUTUNA HolTunes FORTUNES HTCD-004 あーゆーゆーけーつー!? -R.U.U.K.TOO!?- CHS-0030 Comiket 92 C92 C.H.S CHS tpz
BeatmapID:2878616
BeatmapSetID:1393508

[Difficulty]
HPDrainRate:3
CircleSize:3
OverallDifficulty:7
ApproachRate:7
SliderMultiplier:1.4
SliderTickRate:2

[Events]
//Background and Video events
0,0,"p.jpg",0,0
//Break Periods
2,23810,34004
2,102669,113063
2,181927,192121
//Storyboard Layer 0 (Background)
//Storyboard Layer 1 (Fail)
//Storyboard Layer 2 (Pass)
//Storyboard Layer 3 (Foreground)
//Storyboard Layer 4 (Overlay)
//Storyboard Sound Samples

[TimingPoints]
1022,352.941176470588,4,2,1,100,1,0
34904,-100,4,2,3,100,0,0
46198,-100,4,2,2,50,0,0
56080,-100,4,2,1,100,0,0
57139,-100,4,2,2,100,0,0
57227,-100,4,2,1,100,0,0
79727,-100,4,2,2,100,0,0
79816,-100,4,2,1,100,0,0
102316,-100,4,2,2,100,0,0
102404,-100,4,2,1,100,0,0
123845,-100,4,2,3,100,0,0
124551,-100,4,2,1,100,0,0
124904,-100,4,2,2,100,0,0
124992,-100,4,2,1,100,0,0
125257,-100,4,2,1,100,0,1
135139,-100,4,2,1,100,0,0
136551,-100,4,2,1,100,0,1
146433,-100,4,2,1,100,0,0
147492,-100,4,2,2,100,0,0
147580,-100,4,2,1,100,0,0
170080,-100,4,2,2,100,0,0
170169,-100,4,2,1,100,0,0
215963,-100,4,2,1,90,0,0
216316,-100,4,2,1,80,0,0
216669,-100,4,2,1,70,0,0
217021,-100,4,2,1,60,0,0
217374,-100,4,2,1,50,0,0
217727,-100,4,2,1,40,0,0
218080,-100,4,2,1,30,0,0
218433,-100,4,2,1,20,0,0
218786,-100,4,2,1,10,0,0
219139,-100,4,2,1,5,0,0

[Colours]
Combo1 : 217,109,243
Combo2 : 89,193,255
Combo3 : 43,81,213
Combo4 : 159,153,242

[HitObjects]
232,309,1021,6,0,L|240:213,1,70,2|0,0:0|0:0,0:0:0:0:
144,232,1374,2,0,L|288:232,2,140,2|2|6,0:0|0:0|0:0,0:0:0:0:
296,80,2433,6,0,L|304:160,1,70,2|0,0:0|0:0,0:0:0:0:
208,152,2786,1,2,0:0:0:0:
96,152,3139,2,0,L|256:152,1,140,2|6,0:0|0:0,0:0:0:0:
64,152,3845,6,0,L|56:248,1,70,2|0,0:0|0:0,0:0:0:0:
160,256,4198,2,0,L|16:256,2,140,2|2|6,0:0|0:0|0:0,0:0:0:0:
304,328,5257,6,0,L|312:240,1,70,2|0,0:0|0:0,0:0:0:0:
208,256,5610,1,2,0:0:0:0:
80,256,5963,2,0,L|232:256,1,140,2|6,0:0|0:0,0:0:0:0:
480,336,6669,6,0,L|472:256,1,70,2|0,0:0|0:0,0:0:0:0:
360,256,7022,2,0,L|216:256,2,140,2|2|6,0:0|0:0|0:0,0:0:0:0:
184,80,8081,6,0,L|176:160,1,70,2|0,0:0|0:0,0:0:0:0:
272,152,8434,1,2,0:0:0:0:
384,152,8787,2,0,L|224:152,1,140,2|6,0:0|0:0,0:0:0:0:
416,152,9493,6,0,L|424:248,1,70,2|0,0:0|0:0,0:0:0:0:
328,256,9846,2,0,L|472:256,2,140,2|2|6,0:0|0:0|0:0,0:0:0:0:
144,328,10905,6,0,L|136:248,1,70,2|0,0:0|0:0,0:0:0:0:
240,256,11258,1,2,0:0:0:0:
360,256,11611,2,0,L|208:256,1,140,2|6,0:0|0:0,0:0:0:0:
288,224,12139,1,0,0:0:0:0:
448,216,12316,6,0,L|456:136,1,70,2|0,0:0|0:0,0:0:0:0:
344,136,12669,2,0,L|200:136,2,140,2|2|6,0:0|0:0|0:0,0:0:0:0:
192,192,13727,6,0,L|184:272,1,70,2|0,0:0|0:0,0:0:0:0:
284,264,14080,1,2,0:0:0:0:
416,264,14433,2,0,L|272:264,1,140,2|6,0:0|0:0,0:0:0:0:
96,264,15139,6,0,L|88:176,1,70,2|0,0:0|0:0,0:0:0:0:
192,192,15492,2,0,L|40:192,2,140,2|2|6,0:0|0:0|0:0,0:0:0:0:
368,200,16551,6,0,L|448:200,1,70,2|0,0:0|0:0,0:0:0:0:
344,200,16904,1,2,0:0:0:0:
232,72,17257,2,0,L|392:72,1,140,2|6,0:0|0:0,0:0:0:0:
128,72,17963,5,2,0:0:0:0:
32,120,18316,1,2,0:0:0:0:
56,224,18669,1,2,0:0:0:0:
168,232,19021,1,6,0:0:0:0:
432,288,19374,5,2,0:0:0:0:
480,200,19727,1,2,0:0:0:0:
432,112,20080,1,2,0:0:0:0:
328,96,20433,1,6,0:0:0:0:
80,96,20786,5,2,0:0:0:0:
112,176,21139,1,2,0:0:0:0:
200,200,21492,1,2,0:0:0:0:
304,208,21845,1,6,0:0:0:0:
256,192,22198,12,2,23610,0:0:0:0:
360,64,34904,6,0,L|368:216,1,140,8|2,0:0|0:0,0:0:0:0:
216,128,35786,1,8,0:0:0:0:
120,128,35963,2,0,L|112:216,1,70,2|8,0:0|0:0,0:0:0:0:
312,128,36492,5,8,0:0:0:0:
320,160,36669,1,10,0:0:0:0:
224,184,36933,1,8,0:0:0:0:
128,184,37198,1,8,0:0:0:0:
120,224,37374,1,10,0:0:0:0:
368,72,37727,6,0,L|200:72,1,140,8|2,0:0|0:0,0:0:0:0:
368,128,38609,1,8,0:0:0:0:
464,128,38786,2,0,L|472:216,1,70,2|8,0:0|0:0,0:0:0:0:
272,136,39316,5,8,0:0:0:0:
264,184,39493,1,10,0:0:0:0:
168,192,39757,1,8,0:0:0:0:
272,216,40022,1,8,0:0:0:0:
280,272,40198,1,10,0:0:0:0:
32,304,40551,6,0,L|192:304,1,140,8|2,0:0|0:0,0:0:0:0:
312,304,41433,1,8,0:0:0:0:
220,304,41610,2,0,L|212:232,1,70,2|8,0:0|0:0,0:0:0:0:
416,224,42139,5,8,0:0:0:0:
408,184,42316,1,10,0:0:0:0:
320,184,42580,1,8,0:0:0:0:
232,184,42845,1,8,0:0:0:0:
224,144,43021,1,10,0:0:0:0:
472,80,43374,6,0,L|312:80,1,140,8|2,0:0|0:0,0:0:0:0:
176,312,44256,1,8,0:0:0:0:
272,312,44433,2,0,L|279:242,1,70,2|8,0:0|0:0,0:0:0:0:
88,208,44962,5,8,0:0:0:0:
96,168,45139,1,10,0:0:0:0:
192,168,45403,1,8,0:0:0:0:
288,168,45668,1,8,0:0:0:0:
184,96,45844,1,10,0:0:0:0:
176,104,45933,1,10,0:0:0:0:
184,112,46021,1,10,0:0:0:0:
312,272,46198,5,8,0:0:0:0:
144,272,46551,1,8,0:0:0:0:
312,272,46904,1,8,0:0:0:0:
480,272,47257,1,8,0:0:0:0:
312,312,47610,5,8,0:0:0:0:
224,312,47963,1,8,0:0:0:0:
312,312,48316,1,8,0:0:0:0:
400,312,48669,1,8,0:0:0:0:
232,184,49021,5,8,0:0:0:0:
72,184,49374,1,8,0:0:0:0:
232,184,49727,1,8,0:0:0:0:
400,184,50080,1,8,0:0:0:0:
232,240,50433,5,8,0:0:0:0:
144,240,50786,1,8,0:0:0:0:
232,240,51139,1,8,0:0:0:0:
320,240,51492,1,8,0:0:0:0:
56,336,51845,5,8,0:0:0:0:
88,288,52198,1,8,0:0:0:0:
152,256,52551,1,8,0:0:0:0:
232,240,52904,1,8,0:0:0:0:
480,336,53257,5,8,0:0:0:0:
448,288,53610,1,8,0:0:0:0:
384,256,53963,1,8,0:0:0:0:
304,240,54316,1,8,0:0:0:0:
80,88,54669,5,8,0:0:0:0:
192,88,55021,1,8,0:0:0:0:
312,88,55374,1,8,0:0:0:0:
440,88,55727,1,8,0:0:0:0:
160,152,56080,1,2,0:0:0:0:
408,120,57139,1,4,0:0:0:0:
152,120,57492,5,2,0:0:0:0:
160,168,57669,1,0,0:0:0:0:
256,168,57845,1,6,0:0:0:0:
344,168,58198,5,2,0:0:0:0:
336,216,58375,1,0,0:0:0:0:
168,208,58551,1,6,0:0:0:0:
136,216,58904,5,2,0:0:0:0:
144,264,59081,1,0,0:0:0:0:
240,264,59257,1,6,0:0:0:0:
344,264,59610,5,2,0:0:0:0:
336,312,59787,1,0,0:0:0:0:
168,312,59963,1,6,0:0:0:0:
312,72,60316,6,0,L|312:216,1,140,2|10,0:0|0:0,0:0:0:0:
160,80,61021,2,0,L|152:224,1,140,2|10,0:0|0:0,0:0:0:0:
288,112,61727,6,0,L|136:160,1,140,2|10,0:0|0:0,0:0:0:0:
320,80,62433,2,0,L|464:80,1,140,2|10,0:0|0:0,0:0:0:0:
184,80,63139,5,2,0:0:0:0:
192,136,63316,1,0,0:0:0:0:
296,136,63492,1,6,0:0:0:0:
384,136,63845,5,2,0:0:0:0:
392,184,64022,1,0,0:0:0:0:
224,184,64198,1,6,0:0:0:0:
168,208,64551,5,2,0:0:0:0:
176,248,64728,1,0,0:0:0:0:
280,248,64904,1,6,0:0:0:0:
192,256,65257,5,2,0:0:0:0:
184,304,65434,1,0,0:0:0:0:
352,304,65610,1,6,0:0:0:0:
224,96,65963,6,0,L|368:136,1,140,2|10,0:0|0:0,0:0:0:0:
192,56,66669,2,0,L|344:56,1,140,2|10,0:0|0:0,0:0:0:0:
352,96,67198,1,2,0:0:0:0:
192,96,67374,5,2,0:0:0:0:
168,144,67727,1,2,0:0:0:0:
440,176,68080,2,0,L|440:320,1,140,2|2,0:0|0:0,0:0:0:0:
184,344,68786,5,2,0:0:0:0:
176,320,68963,1,0,0:0:0:0:
272,320,69139,1,6,0:0:0:0:
256,272,69492,5,2,0:0:0:0:
240,216,69669,1,0,0:0:0:0:
408,224,69845,1,6,0:0:0:0:
448,248,70198,5,2,0:0:0:0:
432,272,70375,1,0,0:0:0:0:
336,272,70551,1,6,0:0:0:0:
304,232,70904,5,2,0:0:0:0:
288,192,71081,1,0,0:0:0:0:
120,192,71257,1,6,0:0:0:0:
264,336,71610,6,0,L|264:176,1,140,2|10,0:0|0:0,0:0:0:0:
424,336,72316,2,0,L|416:192,1,140,2|10,0:0|0:0,0:0:0:0:
256,128,73021,6,0,L|129:68,1,140,2|10,0:0|0:0,0:0:0:0:
304,64,73727,2,0,L|456:64,1,140,2|10,0:0|0:0,0:0:0:0:
192,232,74433,5,2,0:0:0:0:
200,272,74610,1,0,0:0:0:0:
304,272,74786,1,6,0:0:0:0:
288,232,75139,5,2,0:0:0:0:
304,184,75316,1,0,0:0:0:0:
136,184,75492,1,6,0:0:0:0:
104,240,75845,5,2,0:0:0:0:
120,288,76022,1,0,0:0:0:0:
224,288,76198,1,6,0:0:0:0:
232,240,76551,5,2,0:0:0:0:
216,184,76728,1,0,0:0:0:0:
384,184,76904,1,6,0:0:0:0:
240,96,77257,6,0,L|88:96,1,140,2|10,0:0|0:0,0:0:0:0:
276,118,77963,2,0,L|412:190,1,140,2|10,0:0|0:0,0:0:0:0:
136,184,78669,5,2,0:0:0:0:
320,240,79374,2,0,L|328:320,1,70,2|0,0:0|0:0,0:0:0:0:
160,304,79727,1,4,0:0:0:0:
288,48,80080,5,2,0:0:0:0:
352,48,80257,1,0,0:0:0:0:
248,48,80433,1,14,0:0:0:0:
112,136,80786,5,2,0:0:0:0:
176,136,80963,1,0,0:0:0:0:
344,144,81139,1,6,0:0:0:0:
352,240,81492,5,2,0:0:0:0:
288,240,81669,1,0,0:0:0:0:
184,240,81845,1,14,0:0:0:0:
320,136,82198,5,2,0:0:0:0:
384,136,82375,1,0,0:0:0:0:
216,136,82551,1,6,0:0:0:0:
352,328,82904,6,0,L|352:168,1,140,2|10,0:0|0:0,0:0:0:0:
200,328,83610,2,0,L|168:184,1,140,2|10,0:0|0:0,0:0:0:0:
328,96,84316,6,0,L|184:96,1,140,2|10,0:0|0:0,0:0:0:0:
360,144,85021,2,0,L|512:144,1,140,2|10,0:0|0:0,0:0:0:0:
200,64,85727,5,2,0:0:0:0:
192,112,85904,1,0,0:0:0:0:
296,112,86080,1,14,0:0:0:0:
424,184,86433,5,2,0:0:0:0:
352,184,86610,1,0,0:0:0:0:
184,184,86786,1,6,0:0:0:0:
168,288,87139,5,2,0:0:0:0:
176,240,87316,1,0,0:0:0:0:
280,240,87492,1,14,0:0:0:0:
152,128,87845,5,2,0:0:0:0:
88,128,88022,1,0,0:0:0:0:
256,128,88198,1,6,0:0:0:0:
384,320,88551,6,0,L|392:160,1,140,2|10,0:0|0:0,0:0:0:0:
232,256,89257,2,0,L|88:160,1,140,2|10,0:0|0:0,0:0:0:0:
168,144,89786,1,2,0:0:0:0:
336,144,89963,5,2,0:0:0:0:
344,96,90316,1,2,0:0:0:0:
88,72,90669,2,0,L|88:240,1,140,2|2,0:0|0:0,0:0:0:0:
352,280,91374,5,2,0:0:0:0:
408,280,91551,1,0,0:0:0:0:
304,280,91727,1,14,0:0:0:0:
440,160,92080,5,2,0:0:0:0:
376,160,92257,1,0,0:0:0:0:
208,160,92433,1,6,0:0:0:0:
184,280,92786,5,2,0:0:0:0:
248,280,92963,1,0,0:0:0:0:
352,280,93139,1,14,0:0:0:0:
216,192,93492,5,2,0:0:0:0:
152,192,93669,1,0,0:0:0:0:
320,192,93845,1,6,0:0:0:0:
200,336,94198,6,0,L|200:176,1,140,2|10,0:0|0:0,0:0:0:0:
344,232,94904,2,0,L|392:72,1,140,2|10,0:0|0:0,0:0:0:0:
224,72,95610,6,0,L|80:72,1,140,2|10,0:0|0:0,0:0:0:0:
280,112,96316,2,0,L|424:112,1,140,2|10,0:0|0:0,0:0:0:0:
128,152,97021,5,2,0:0:0:0:
120,200,97198,1,0,0:0:0:0:
224,200,97374,1,14,0:0:0:0:
352,312,97727,5,2,0:0:0:0:
288,312,97904,1,0,0:0:0:0:
120,312,98080,1,6,0:0:0:0:
120,264,98433,5,2,0:0:0:0:
184,264,98610,1,0,0:0:0:0:
288,264,98786,1,14,0:0:0:0:
424,160,99139,5,2,0:0:0:0:
360,160,99316,1,0,0:0:0:0:
192,160,99492,1,6,0:0:0:0:
320,160,99845,6,0,L|472:160,1,140,2|8,0:0|0:0,0:0:0:0:
296,200,100551,2,0,L|160:272,1,140,2|8,0:0|0:0,0:0:0:0:
440,272,101257,5,2,0:0:0:0:
304,128,101963,2,0,L|288:208,1,70,2|0,0:0|0:0,0:0:0:0:
120,192,102316,1,4,0:0:0:0:
336,80,113963,6,0,L|184:80,1,140,2|6,0:0|0:0,0:0:0:0:
376,112,114669,2,0,P|392:152|368:256,1,140,2|6,0:0|0:0,0:0:0:0:
192,256,115374,6,0,L|352:256,1,140,2|6,0:0|0:0,0:0:0:0:
136,112,116080,2,0,P|120:152|144:256,1,140,2|6,0:0|0:0,0:0:0:0:
424,256,116786,6,0,L|440:96,1,140,2|6,0:0|0:0,0:0:0:0:
264,112,117492,2,0,L|112:112,1,140,2|6,0:0|0:0,0:0:0:0:
304,112,118198,6,0,L|320:256,1,140,2|6,0:0|0:0,0:0:0:0:
144,168,118904,2,0,L|136:328,1,140,2|14,0:0|0:0,0:0:0:0:
424,328,119610,5,2,0:0:0:0:
488,248,119963,1,6,0:0:0:0:
424,160,120316,1,2,0:0:0:0:
328,152,120669,1,6,0:0:0:0:
88,328,121021,5,2,0:0:0:0:
24,248,121374,1,6,0:0:0:0:
88,160,121727,1,2,0:0:0:0:
184,152,122080,1,6,0:0:0:0:
416,104,122433,6,0,L|424:248,1,140,2|2,0:0|0:0,0:0:0:0:
224,168,123139,2,0,L|64:168,1,140,2|2,0:0|0:0,0:0:0:0:
352,328,123845,5,2,0:0:0:0:
208,328,124198,1,2,0:0:0:0:
352,328,124551,2,0,L|360:240,1,70,2|2,0:0|0:0,0:0:0:0:
184,256,124904,1,4,0:0:0:0:
296,304,125257,5,2,0:0:0:0:
304,256,125433,1,8,0:0:0:0:
216,256,125610,1,2,0:0:0:0:
208,216,125786,1,8,0:0:0:0:
304,192,125963,5,2,0:0:0:0:
40,192,126316,1,2,0:0:0:0:
160,192,126669,5,2,0:0:0:0:
168,144,126845,1,8,0:0:0:0:
80,144,127021,1,2,0:0:0:0:
72,96,127198,1,8,0:0:0:0:
168,96,127374,5,2,0:0:0:0:
344,96,127727,1,2,0:0:0:0:
352,152,127904,1,2,0:0:0:0:
168,152,128080,5,2,0:0:0:0:
160,208,128256,1,8,0:0:0:0:
240,208,128433,1,2,0:0:0:0:
248,264,128609,1,8,0:0:0:0:
152,264,128786,5,2,0:0:0:0:
416,264,129139,1,2,0:0:0:0:
296,264,129492,5,2,0:0:0:0:
288,320,129668,1,8,0:0:0:0:
376,320,129844,1,2,0:0:0:0:
384,264,130021,1,8,0:0:0:0:
288,208,130197,5,2,0:0:0:0:
416,208,130550,1,0,0:0:0:0:
160,144,130904,5,2,0:0:0:0:
224,144,131080,1,8,0:0:0:0:
312,144,131257,1,2,0:0:0:0:
320,88,131433,1,8,0:0:0:0:
224,88,131610,5,2,0:0:0:0:
480,88,131963,1,2,0:0:0:0:
344,304,132316,5,2,0:0:0:0:
336,248,132492,1,8,0:0:0:0:
424,232,132669,1,2,0:0:0:0:
416,176,132845,1,8,0:0:0:0:
328,160,133021,5,2,0:0:0:0:
160,56,133374,1,2,0:0:0:0:
152,96,133551,1,2,0:0:0:0:
336,96,133727,5,2,0:0:0:0:
344,152,133904,1,8,0:0:0:0:
256,152,134080,1,2,0:0:0:0:
192,152,134257,1,8,0:0:0:0:
360,192,134433,5,2,0:0:0:0:
384,240,134610,1,2,0:0:0:0:
360,288,134786,1,10,0:0:0:0:
296,288,134963,1,0,0:0:0:0:
128,288,135139,5,0,0:0:0:0:
112,240,135492,1,2,0:0:0:0:
360,240,135845,2,0,L|512:240,1,140,2|2,0:0|0:0,0:0:0:0:
224,304,136551,5,2,0:0:0:0:
216,256,136727,1,8,0:0:0:0:
304,256,136904,1,2,0:0:0:0:
312,216,137080,1,8,0:0:0:0:
216,200,137257,5,2,0:0:0:0:
480,200,137610,1,2,0:0:0:0:
320,120,137963,2,0,L|176:120,1,140,2|2,0:0|0:0,0:0:0:0:
440,120,138669,5,2,0:0:0:0:
328,120,139021,1,2,0:0:0:0:
264,120,139198,1,2,0:0:0:0:
432,168,139374,5,2,0:0:0:0:
456,216,139551,1,8,0:0:0:0:
368,216,139727,1,2,0:0:0:0:
304,216,139904,1,8,0:0:0:0:
400,240,140080,5,2,0:0:0:0:
440,280,140257,1,8,0:0:0:0:
400,312,140433,1,2,0:0:0:0:
152,288,140786,5,2,0:0:0:0:
88,288,140963,1,2,0:0:0:0:
184,256,141139,1,2,0:0:0:0:
248,256,141316,1,8,0:0:0:0:
144,240,141492,2,0,P|112:168|160:120,1,140,2|0,0:0|0:0,0:0:0:0:
408,240,142198,5,2,0:0:0:0:
416,192,142374,1,8,0:0:0:0:
312,192,142551,1,2,0:0:0:0:
304,144,142727,1,8,0:0:0:0:
208,120,142904,5,2,0:0:0:0:
464,120,143257,1,2,0:0:0:0:
336,120,143610,5,2,0:0:0:0:
328,168,143786,1,8,0:0:0:0:
232,168,143963,1,2,0:0:0:0:
224,216,144139,1,8,0:0:0:0:
128,216,144316,5,2,0:0:0:0:
384,216,144669,1,2,0:0:0:0:
232,216,145021,5,10,0:0:0:0:
224,264,145198,1,10,0:0:0:0:
320,216,145374,1,8,0:0:0:0:
328,264,145551,1,10,0:0:0:0:
224,264,145727,1,10,0:0:0:0:
216,312,145904,1,10,0:0:0:0:
384,304,146080,2,0,L|384:144,1,140,10|2,0:0|0:0,0:0:0:0:
256,328,146963,5,2,0:0:0:0:
162,332,147139,2,0,L|154:252,1,70,2|0,0:0|0:0,0:0:0:0:
344,256,147492,1,4,0:0:0:0:
224,48,147845,5,2,0:0:0:0:
160,48,148022,1,0,0:0:0:0:
264,48,148198,1,14,0:0:0:0:
400,136,148551,5,2,0:0:0:0:
336,136,148728,1,0,0:0:0:0:
168,136,148904,1,6,0:0:0:0:
160,240,149257,5,2,0:0:0:0:
224,240,149434,1,0,0:0:0:0:
328,240,149610,1,14,0:0:0:0:
192,136,149963,5,2,0:0:0:0:
128,136,150140,1,0,0:0:0:0:
296,136,150316,1,6,0:0:0:0:
168,328,150669,6,0,P|152:248|176:168,1,140,2|10,0:0|0:0,0:0:0:0:
312,328,151375,2,0,P|368:280|352:200,1,140,2|10,0:0|0:0,0:0:0:0:
200,96,152081,6,0,L|344:96,1,140,2|10,0:0|0:0,0:0:0:0:
160,144,152786,2,0,L|8:144,1,140,2|10,0:0|0:0,0:0:0:0:
312,64,153492,5,2,0:0:0:0:
320,112,153669,1,0,0:0:0:0:
216,112,153845,1,14,0:0:0:0:
88,184,154198,5,2,0:0:0:0:
160,184,154375,1,0,0:0:0:0:
328,184,154551,1,6,0:0:0:0:
344,288,154904,5,2,0:0:0:0:
336,240,155081,1,0,0:0:0:0:
232,240,155257,1,14,0:0:0:0:
360,128,155610,5,2,0:0:0:0:
424,128,155787,1,0,0:0:0:0:
256,128,155963,1,6,0:0:0:0:
104,312,156316,6,0,P|88:232|112:168,1,140,2|10,0:0|0:0,0:0:0:0:
280,304,157022,2,0,L|400:200,1,140,2|10,0:0|0:0,0:0:0:0:
352,144,157551,1,2,0:0:0:0:
176,144,157728,5,2,0:0:0:0:
168,96,158081,1,2,0:0:0:0:
432,72,158434,2,0,L|432:232,1,140,2|2,0:0|0:0,0:0:0:0:
160,280,159139,5,2,0:0:0:0:
104,280,159316,1,0,0:0:0:0:
208,280,159492,1,14,0:0:0:0:
72,160,159845,5,2,0:0:0:0:
136,160,160022,1,0,0:0:0:0:
304,152,160198,1,6,0:0:0:0:
328,280,160551,5,2,0:0:0:0:
264,280,160728,1,0,0:0:0:0:
160,280,160904,1,14,0:0:0:0:
296,192,161257,5,2,0:0:0:0:
360,192,161434,1,0,0:0:0:0:
192,192,161610,1,6,0:0:0:0:
312,336,161963,6,0,P|312:250|264:192,1,140,2|10,0:0|0:0,0:0:0:0:
128,216,162669,2,0,L|56:64,1,140,2|10,0:0|0:0,0:0:0:0:
232,72,163375,6,0,L|376:72,1,140,2|10,0:0|0:0,0:0:0:0:
192,112,164081,2,0,L|48:112,1,140,2|10,0:0|0:0,0:0:0:0:
368,152,164786,5,2,0:0:0:0:
376,200,164963,1,0,0:0:0:0:
272,200,165139,1,14,0:0:0:0:
144,312,165492,5,2,0:0:0:0:
208,312,165669,1,0,0:0:0:0:
376,312,165845,1,6,0:0:0:0:
376,264,166198,5,2,0:0:0:0:
312,264,166375,1,0,0:0:0:0:
208,264,166551,1,14,0:0:0:0:
72,160,166904,5,2,0:0:0:0:
136,160,167081,1,0,0:0:0:0:
304,160,167257,1,6,0:0:0:0:
176,160,167610,6,0,L|24:160,1,140,2|8,0:0|0:0,0:0:0:0:
200,200,168316,2,0,L|336:272,1,140,2|8,0:0|0:0,0:0:0:0:
64,280,169022,5,2,0:0:0:0:
208,128,169728,2,0,L|224:208,1,70,2|0,0:0|0:0,0:0:0:0:
392,192,170081,1,4,0:0:0:0:
248,336,170433,6,0,P|184:312|200:224,1,140,2|2,0:0|0:0,0:0:0:0:
328,240,171139,1,2,0:0:0:0:
88,240,171492,1,2,0:0:0:0:
224,168,171845,6,0,P|280:136|272:56,1,140,2|2,0:0|0:0,0:0:0:0:
128,72,172551,1,2,0:0:0:0:
368,72,172904,1,2,0:0:0:0:
384,192,173257,6,0,L|232:192,1,140,2|2,0:0|0:0,0:0:0:0:
120,192,173963,1,2,0:0:0:0:
360,192,174316,1,2,0:0:0:0:
232,96,174669,6,0,P|168:136|184:216,1,140,2|2,0:0|0:0,0:0:0:0:
320,192,175374,1,2,0:0:0:0:
328,288,175551,1,0,0:0:0:0:
248,336,175727,1,2,0:0:0:0:
92,96,176080,6,0,L|244:96,1,140,2|2,0:0|0:0,0:0:0:0:
376,96,176786,1,2,0:0:0:0:
136,96,177139,1,2,0:0:0:0:
272,96,177492,6,0,P|336:136|352:216,1,140,2|2,0:0|0:0,0:0:0:0:
208,200,178197,1,2,0:0:0:0:
448,200,178551,1,2,0:0:0:0:
424,296,178904,6,0,L|280:296,2,140,2|2|2,0:0|0:0|0:0,0:0:0:0:
304,224,179963,1,2,0:0:0:0:
64,224,180316,6,0,L|56:80,1,140,2|2,0:0|0:0,0:0:0:0:
304,80,181021,1,2,0:0:0:0:
384,208,181374,1,2,0:0:0:0:
320,208,181551,1,2,0:0:0:0:
152,208,181727,1,2,0:0:0:0:
280,312,193021,6,0,L|272:216,1,70,2|0,0:0|0:0,0:0:0:0:
368,232,193374,2,0,L|224:232,2,140,2|2|6,0:0|0:0|0:0,0:0:0:0:
216,80,194433,6,0,L|208:160,1,70,2|0,0:0|0:0,0:0:0:0:
304,152,194786,1,2,0:0:0:0:
416,152,195139,2,0,L|256:152,1,140,2|6,0:0|0:0,0:0:0:0:
448,152,195845,6,0,L|456:248,1,70,2|0,0:0|0:0,0:0:0:0:
352,256,196198,2,0,L|496:256,2,140,2|2|6,0:0|0:0|0:0,0:0:0:0:
208,328,197257,6,0,L|200:240,1,70,2|0,0:0|0:0,0:0:0:0:
304,256,197610,1,2,0:0:0:0:
432,256,197963,2,0,L|280:256,1,140,2|6,0:0|0:0,0:0:0:0:
32,336,198669,6,0,L|40:256,1,70,2|0,0:0|0:0,0:0:0:0:
152,256,199022,2,0,L|296:256,2,140,2|2|6,0:0|0:0|0:0,0:0:0:0:
328,80,200081,6,0,L|336:160,1,70,2|0,0:0|0:0,0:0:0:0:
240,152,200434,1,2,0:0:0:0:
128,152,200787,2,0,L|288:152,1,140,2|6,0:0|0:0,0:0:0:0:
96,152,201493,6,0,L|88:248,1,70,2|0,0:0|0:0,0:0:0:0:
184,256,201846,2,0,L|40:256,2,140,2|2|6,0:0|0:0|0:0,0:0:0:0:
384,328,202905,6,0,L|392:248,1,70,2|0,0:0|0:0,0:0:0:0:
288,256,203258,1,2,0:0:0:0:
160,256,203611,2,0,L|312:256,1,140,2|6,0:0|0:0,0:0:0:0:
232,224,204139,1,0,0:0:0:0:
64,216,204316,6,0,L|56:136,1,70,2|0,0:0|0:0,0:0:0:0:
168,136,204669,2,0,L|312:136,2,140,2|2|6,0:0|0:0|0:0,0:0:0:0:
320,192,205727,6,0,L|328:272,1,70,2|0,0:0|0:0,0:0:0:0:
228,264,206080,1,2,0:0:0:0:
96,264,206433,2,0,L|240:264,1,140,2|6,0:0|0:0,0:0:0:0:
416,264,207139,6,0,L|424:176,1,70,2|0,0:0|0:0,0:0:0:0:
320,192,207492,2,0,L|472:192,2,140,2|2|6,0:0|0:0|0:0,0:0:0:0:
144,200,208551,6,0,L|64:200,1,70,2|0,0:0|0:0,0:0:0:0:
168,200,208904,1,2,0:0:0:0:
280,72,209257,2,0,L|120:72,1,140,2|6,0:0|0:0,0:0:0:0:
392,96,209963,5,2,0:0:0:0:
480,128,210316,1,2,0:0:0:0:
480,184,210669,1,2,0:0:0:0:
392,224,211021,1,6,0:0:0:0:
144,344,211374,5,2,0:0:0:0:
80,272,211727,1,2,0:0:0:0:
144,200,212080,1,2,0:0:0:0:
240,200,212433,1,6,0:0:0:0:
488,200,212786,5,2,0:0:0:0:
464,120,213139,1,2,0:0:0:0:
392,80,213492,1,2,0:0:0:0:
296,64,213845,1,6,0:0:0:0:
64,56,214198,5,2,0:0:0:0:
160,72,214551,1,2,0:0:0:0:
256,88,214904,1,2,0:0:0:0:
352,104,215257,1,6,0:0:0:0:
256,192,215610,12,0,219845,0:0:0:0:
