osu file format v14

[General]
AudioFilename: audio.mp3
AudioLeadIn: 0
PreviewTime: 125257
Countdown: 0
SampleSet: Soft
StackLeniency: 0.7
Mode: 2
LetterboxInBreaks: 0
WidescreenStoryboard: 1

[Editor]
Bookmarks: 1021,12316,23610,34551,46198,57492,80080,102669,113963,125257,146433,170433,181816,193021,215610
DistanceSpacing: 1.1
BeatDivisor: 4
GridSize: 8
TimelineZoom: 3.399999

[Metadata]
Title:Never Let me Go
TitleUnicode:Never Let me Go
Artist:t+pazolite
ArtistUnicode:t+pazolite
Creator:Unlucky_w
Version:Rain
Source:
Tags:hardcore drum and bass dnb electronic instrumental Tpazolite M3-35 HORUTUNA HolTunes FORTUNES HTCD-004 あーゆーゆーけーつー!? -R.U.U.K.TOO!?- CHS-0030 Comiket 92 C92 C.H.S CHS tpz
BeatmapID:2877061
BeatmapSetID:1393508

[Difficulty]
HPDrainRate:5
CircleSize:3.8
OverallDifficulty:9
ApproachRate:9
SliderMultiplier:1.8
SliderTickRate:2

[Events]
//Background and Video events
0,0,"p.jpg",0,0
//Break Periods
2,23810,33951
2,102869,104186
2,105692,107010
2,108516,109833
2,111339,112657
//Storyboard Layer 0 (Background)
//Storyboard Layer 1 (Fail)
//Storyboard Layer 2 (Pass)
//Storyboard Layer 3 (Foreground)
//Storyboard Layer 4 (Overlay)
//Storyboard Sound Samples

[TimingPoints]
1022,352.941176470588,4,2,1,100,1,0
34904,-100,4,2,3,100,0,0
46198,-100,4,2,2,50,0,0
56080,-100,4,2,1,100,0,0
57139,-100,4,2,2,100,0,0
57227,-100,4,2,1,100,0,0
79727,-100,4,2,2,100,0,0
79816,-100,4,2,1,100,0,0
102316,-100,4,2,2,100,0,0
102404,-100,4,2,1,100,0,0
102669,-100,4,2,1,60,0,0
113963,-100,4,2,1,100,0,0
123845,-100,4,2,3,100,0,0
124551,-100,4,2,1,100,0,0
124904,-100,4,2,2,100,0,0
124992,-100,4,2,1,100,0,0
125257,-100,4,2,1,100,0,1
135139,-100,4,2,1,100,0,0
136551,-100,4,2,1,100,0,1
146433,-100,4,2,1,100,0,0
147492,-100,4,2,2,100,0,0
147580,-100,4,2,1,100,0,0
170080,-100,4,2,2,100,0,0
170169,-100,4,2,1,100,0,0
181816,-100,4,2,1,70,0,0
193021,-100,4,2,1,100,0,0
215963,-100,4,2,1,90,0,0
216316,-100,4,2,1,80,0,0
216669,-100,4,2,1,70,0,0
217021,-100,4,2,1,60,0,0
217374,-100,4,2,1,50,0,0
217727,-100,4,2,1,40,0,0
218080,-100,4,2,1,30,0,0
218433,-100,4,2,1,20,0,0
218786,-100,4,2,1,10,0,0
219139,-100,4,2,1,5,0,0

[Colours]
Combo1 : 217,109,243
Combo2 : 89,193,255
Combo3 : 43,81,213
Combo4 : 159,153,242

[HitObjects]
112,304,1021,6,0,L|104:200,1,90,2|0,0:0|0:0,0:0:0:0:
232,208,1374,2,0,L|352:208,1,90,2|0,0:0|0:0,0:0:0:0:
248,200,1639,1,0,0:0:0:0:
176,192,1727,2,0,L|168:88,1,90,2|0,0:0|0:0,0:0:0:0:
352,96,2080,1,6,0:0:0:0:
176,192,2433,6,0,L|288:192,1,90,2|0,0:0|0:0,0:0:0:0:
376,192,2786,2,0,L|384:304,1,90,2|0,0:0|0:0,0:0:0:0:
312,280,3051,1,0,0:0:0:0:
192,280,3139,2,0,L|88:280,1,90,2|0,0:0|0:0,0:0:0:0:
288,280,3492,1,6,0:0:0:0:
392,304,3845,6,0,L|400:200,1,90,2|0,0:0|0:0,0:0:0:0:
272,208,4198,2,0,L|152:208,1,90,2|0,0:0|0:0,0:0:0:0:
256,200,4463,1,0,0:0:0:0:
328,184,4551,2,0,L|336:80,1,90,2|0,0:0|0:0,0:0:0:0:
152,96,4904,1,6,0:0:0:0:
336,192,5257,6,0,L|344:312,1,90,2|0,0:0|0:0,0:0:0:0:
208,280,5610,2,0,L|304:280,1,90,2|0,0:0|0:0,0:0:0:0:
240,304,5874,1,0,0:0:0:0:
128,304,5963,2,0,L|232:304,1,90,2|0,0:0|0:0,0:0:0:0:
400,304,6316,1,6,0:0:0:0:
224,208,6669,6,0,L|216:112,1,90,2|0,0:0|0:0,0:0:0:0:
344,112,7021,2,0,L|248:112,1,90,2|0,0:0|0:0,0:0:0:0:
192,112,7286,1,0,0:0:0:0:
128,112,7374,2,0,L|120:224,1,90,2|0,0:0|0:0,0:0:0:0:
304,200,7727,1,6,0:0:0:0:
152,304,8080,6,0,L|264:304,1,90,2|0,0:0|0:0,0:0:0:0:
352,304,8433,2,0,L|360:200,1,90,2|0,0:0|0:0,0:0:0:0:
288,216,8698,1,0,0:0:0:0:
176,216,8786,2,0,L|72:216,1,90,2|0,0:0|0:0,0:0:0:0:
232,216,9139,1,6,0:0:0:0:
384,216,9492,6,0,L|392:112,1,90,2|0,0:0|0:0,0:0:0:0:
264,128,9845,2,0,L|152:128,1,90,2|0,0:0|0:0,0:0:0:0:
248,112,10110,1,0,0:0:0:0:
320,96,10198,2,0,L|328:216,1,90,2|0,0:0|0:0,0:0:0:0:
136,184,10551,1,6,0:0:0:0:
344,296,10904,6,0,L|232:296,1,90,2|0,0:0|0:0,0:0:0:0:
408,296,11257,2,0,L|416:192,1,90,2|0,0:0|0:0,0:0:0:0:
344,208,11521,1,0,0:0:0:0:
232,208,11610,2,0,L|328:208,1,90,2|0,0:0|0:0,0:0:0:0:
176,208,11963,1,6,0:0:0:0:
120,176,12051,1,0,0:0:0:0:
120,136,12139,1,0,0:0:0:0:
176,112,12227,1,0,0:0:0:0:
424,304,12316,6,0,L|432:200,1,90,2|0,0:0|0:0,0:0:0:0:
304,208,12669,2,0,L|184:208,1,90,2|0,0:0|0:0,0:0:0:0:
288,200,12934,1,0,0:0:0:0:
360,184,13022,2,0,L|368:80,1,90,2|0,0:0|0:0,0:0:0:0:
176,96,13375,1,6,0:0:0:0:
352,192,13728,6,0,L|240:192,1,90,2|0,0:0|0:0,0:0:0:0:
168,192,14081,2,0,L|160:304,1,90,2|0,0:0|0:0,0:0:0:0:
240,280,14346,1,0,0:0:0:0:
352,280,14434,2,0,L|456:280,1,90,2|0,0:0|0:0,0:0:0:0:
264,280,14787,1,6,0:0:0:0:
152,304,15140,6,0,L|144:200,1,90,2|0,0:0|0:0,0:0:0:0:
272,208,15493,2,0,L|392:208,1,90,2|0,0:0|0:0,0:0:0:0:
288,200,15758,1,0,0:0:0:0:
216,192,15846,2,0,L|208:88,1,90,2|0,0:0|0:0,0:0:0:0:
400,104,16199,1,6,0:0:0:0:
208,192,16552,6,0,L|200:312,1,90,2|0,0:0|0:0,0:0:0:0:
336,280,16905,2,0,L|240:280,1,90,2|0,0:0|0:0,0:0:0:0:
304,304,17169,1,0,0:0:0:0:
416,304,17258,2,0,L|312:304,1,90,2|0,0:0|0:0,0:0:0:0:
144,304,17611,1,6,0:0:0:0:
328,120,17963,5,2,0:0:0:0:
416,136,18140,1,0,0:0:0:0:
424,216,18316,1,2,0:0:0:0:
344,264,18493,1,0,0:0:0:0:
184,120,18669,5,2,0:0:0:0:
96,136,18846,1,0,0:0:0:0:
280,136,19022,1,6,0:0:0:0:
368,144,19199,1,0,0:0:0:0:
208,152,19374,5,2,0:0:0:0:
200,224,19551,1,0,0:0:0:0:
296,224,19727,1,2,0:0:0:0:
304,296,19904,1,0,0:0:0:0:
144,288,20080,5,2,0:0:0:0:
136,352,20257,1,0,0:0:0:0:
392,216,20433,1,6,0:0:0:0:
408,288,20610,1,0,0:0:0:0:
240,176,20786,5,2,0:0:0:0:
144,160,20963,1,0,0:0:0:0:
248,144,21139,1,2,0:0:0:0:
344,120,21316,1,0,0:0:0:0:
184,80,21492,5,2,0:0:0:0:
88,72,21669,1,0,0:0:0:0:
328,72,21845,1,6,0:0:0:0:
424,80,22021,1,0,0:0:0:0:
256,120,22198,5,2,0:0:0:0:
224,184,22374,1,2,0:0:0:0:
376,192,22551,1,2,0:0:0:0:
392,256,22727,1,2,0:0:0:0:
192,296,22904,5,2,0:0:0:0:
96,312,23080,1,2,0:0:0:0:
336,296,23257,1,6,0:0:0:0:
432,304,23433,1,2,0:0:0:0:
160,272,23610,1,2,0:0:0:0:
184,192,34551,6,0,P|168:248|240:304,1,135
384,304,34904,2,0,P|440:272|368:208,1,180,8|2,0:0|0:0,0:0:0:0:
152,120,35786,5,8,0:0:0:0:
264,120,35963,1,2,0:0:0:0:
144,128,36139,2,0,P|88:176|152:248,1,180,8|8,0:0|0:0,0:0:0:0:
288,248,36669,1,10,0:0:0:0:
104,248,36933,1,8,0:0:0:0:
288,248,37198,1,8,0:0:0:0:
192,248,37374,2,0,L|184:144,1,90,10|0,0:0|0:0,0:0:0:0:
424,248,37727,6,0,P|480:216|408:144,1,180,8|2,0:0|0:0,0:0:0:0:
184,64,38609,1,8,0:0:0:0:
296,64,38786,1,2,0:0:0:0:
176,72,38963,2,0,P|120:120|184:192,1,180,8|8,0:0|0:0,0:0:0:0:
320,192,39492,1,10,0:0:0:0:
144,192,39756,1,8,0:0:0:0:
320,192,40021,1,8,0:0:0:0:
416,272,40197,2,0,L|304:272,1,90,10|0,0:0|0:0,0:0:0:0:
80,320,40551,6,0,L|72:120,1,180,8|2,0:0|0:0,0:0:0:0:
304,72,41433,1,8,0:0:0:0:
192,72,41610,1,2,0:0:0:0:
312,80,41786,2,0,P|360:152|296:224,1,180,8|8,0:0|0:0,0:0:0:0:
168,224,42316,1,10,0:0:0:0:
360,224,42580,1,8,0:0:0:0:
168,224,42845,1,8,0:0:0:0:
264,320,43021,2,0,L|376:320,1,90,10|0,0:0|0:0,0:0:0:0:
104,320,43374,6,0,L|96:120,1,180,8|2,0:0|0:0,0:0:0:0:
344,48,44256,1,8,0:0:0:0:
240,48,44433,1,2,0:0:0:0:
144,48,44610,2,0,P|96:120|160:192,1,180,8|8,0:0|0:0,0:0:0:0:
288,184,45139,1,10,0:0:0:0:
96,184,45403,1,8,0:0:0:0:
288,184,45668,1,8,0:0:0:0:
144,336,45845,5,10,0:0:0:0:
112,288,45933,1,10,0:0:0:0:
144,240,46021,1,10,0:0:0:0:
208,224,46110,1,10,0:0:0:0:
384,224,46198,6,0,L|272:216,1,90,8|0,0:0|0:0,0:0:0:0:
128,192,46551,2,0,L|240:176,1,90,8|0,0:0|0:0,0:0:0:0:
376,216,46904,6,0,L|264:208,1,90,8|0,0:0|0:0,0:0:0:0:
120,184,47257,2,0,L|208:168,1,90,8|0,0:0|0:0,0:0:0:0:
376,176,47610,6,0,L|384:64,1,90,8|0,0:0|0:0,0:0:0:0:
208,160,47963,2,0,L|200:56,1,90,8|0,0:0|0:0,0:0:0:0:
368,168,48316,6,0,L|376:72,1,90,8|0,0:0|0:0,0:0:0:0:
200,152,48669,2,0,L|192:56,1,90,8|0,0:0|0:0,0:0:0:0:
368,240,49021,6,0,L|256:232,1,90,8|0,0:0|0:0,0:0:0:0:
112,208,49374,2,0,L|224:192,1,90,8|0,0:0|0:0,0:0:0:0:
360,232,49727,6,0,L|248:224,1,90,8|0,0:0|0:0,0:0:0:0:
104,200,50080,2,0,L|192:184,1,90,8|0,0:0|0:0,0:0:0:0:
360,192,50433,6,0,L|368:80,1,90,8|0,0:0|0:0,0:0:0:0:
192,176,50786,2,0,L|184:72,1,90,8|0,0:0|0:0,0:0:0:0:
352,184,51139,6,0,L|360:88,1,90,8|0,0:0|0:0,0:0:0:0:
184,168,51492,2,0,L|176:72,1,90,8|0,0:0|0:0,0:0:0:0:
432,320,51845,6,0,L|440:216,1,90,8|0,0:0|0:0,0:0:0:0:
272,320,52198,2,0,L|168:312,1,90,8|0,0:0|0:0,0:0:0:0:
352,248,52551,2,0,L|464:240,1,90,8|0,0:0|0:0,0:0:0:0:
272,200,52904,2,0,L|152:192,1,90,8|0,0:0|0:0,0:0:0:0:
352,176,53257,6,0,L|360:64,1,90,8|0,0:0|0:0,0:0:0:0:
192,56,53610,2,0,L|304:64,1,90,8|0,0:0|0:0,0:0:0:0:
120,80,53963,2,0,L|112:192,1,90,8|0,0:0|0:0,0:0:0:0:
280,184,54316,2,0,L|168:192,1,90,8|0,0:0|0:0,0:0:0:0:
440,88,54669,6,0,L|448:208,1,90,8|0,0:0|0:0,0:0:0:0:
280,184,55021,2,0,L|392:192,1,90,8|0,0:0|0:0,0:0:0:0:
200,168,55374,2,0,L|192:48,1,90,8|0,0:0|0:0,0:0:0:0:
360,64,55727,2,0,L|368:168,1,90,8|0,0:0|0:0,0:0:0:0:
112,320,56080,5,2,0:0:0:0:
248,304,56786,1,2,0:0:0:0:
128,304,56963,1,0,0:0:0:0:
368,304,57139,2,0,P|368:248|304:200,1,135,4|0,0:0|0:0,0:0:0:0:
136,200,57492,6,0,L|144:96,1,90,2|0,0:0|0:0,0:0:0:0:
312,224,57845,2,0,L|352:336,1,90,6|0,0:0|0:0,0:0:0:0:
176,312,58198,6,0,L|64:312,1,90,2|0,0:0|0:0,0:0:0:0:
416,312,58551,2,0,L|424:216,1,90,6|0,0:0|0:0,0:0:0:0:
256,224,58904,6,0,L|144:224,1,90,2|0,0:0|0:0,0:0:0:0:
336,224,59257,2,0,L|344:336,1,90,6|0,0:0|0:0,0:0:0:0:
176,328,59610,6,0,L|74:328,1,90,2|0,0:0|0:0,0:0:0:0:
392,328,59963,2,0,L|384:232,1,90,6|0,0:0|0:0,0:0:0:0:
352,216,60227,1,0,0:0:0:0:
176,184,60316,5,2,0:0:0:0:
152,144,60404,1,0,0:0:0:0:
168,96,60492,1,0,0:0:0:0:
224,88,60580,1,0,0:0:0:0:
328,88,60669,5,10,0:0:0:0:
352,136,60757,1,0,0:0:0:0:
328,184,60845,1,0,0:0:0:0:
272,192,60933,1,0,0:0:0:0:
112,192,61021,5,2,0:0:0:0:
80,240,61110,1,0,0:0:0:0:
104,288,61198,1,0,0:0:0:0:
168,296,61286,1,0,0:0:0:0:
328,184,61374,5,10,0:0:0:0:
328,240,61463,1,0,0:0:0:0:
296,288,61551,1,0,0:0:0:0:
240,296,61639,1,0,0:0:0:0:
408,296,61727,5,2,0:0:0:0:
464,272,61816,1,0,0:0:0:0:
464,224,61904,1,0,0:0:0:0:
408,200,61992,1,0,0:0:0:0:
232,232,62080,5,10,0:0:0:0:
176,224,62169,1,0,0:0:0:0:
152,192,62257,1,0,0:0:0:0:
176,152,62345,1,0,0:0:0:0:
352,152,62433,5,2,0:0:0:0:
384,112,62521,1,0,0:0:0:0:
360,64,62610,1,0,0:0:0:0:
296,56,62698,1,0,0:0:0:0:
120,192,62786,5,10,0:0:0:0:
128,144,62874,1,0,0:0:0:0:
168,104,62963,1,0,0:0:0:0:
224,96,63051,1,0,0:0:0:0:
400,224,63139,6,0,L|280:224,1,90,2|0,0:0|0:0,0:0:0:0:
160,232,63492,2,0,L|152:344,1,90,6|0,0:0|0:0,0:0:0:0:
312,320,63845,6,0,L|424:320,1,90,2|0,0:0|0:0,0:0:0:0:
96,312,64198,2,0,L|88:216,1,90,6|0,0:0|0:0,0:0:0:0:
256,224,64551,6,0,L|368:224,1,90,2|0,0:0|0:0,0:0:0:0:
176,224,64904,2,0,L|168:336,1,90,6|0,0:0|0:0,0:0:0:0:
336,328,65257,6,0,L|430:328,1,90,2|0,0:0|0:0,0:0:0:0:
152,328,65610,2,0,L|160:224,1,90,6|0,0:0|0:0,0:0:0:0:
192,224,65874,1,0,0:0:0:0:
360,208,65963,5,2,0:0:0:0:
384,160,66051,1,0,0:0:0:0:
360,112,66139,1,0,0:0:0:0:
296,104,66227,1,0,0:0:0:0:
192,208,66316,5,10,0:0:0:0:
136,176,66404,1,0,0:0:0:0:
136,136,66492,1,0,0:0:0:0:
192,112,66580,1,0,0:0:0:0:
344,208,66669,5,2,0:0:0:0:
408,216,66757,1,0,0:0:0:0:
432,264,66845,1,0,0:0:0:0:
408,312,66933,1,0,0:0:0:0:
232,312,67021,2,0,L|176:312,1,45,10|2,0:0|0:0,0:0:0:0:
272,312,67198,2,0,L|336:312,1,45,2|2,0:0|0:0,0:0:0:0:
160,144,67374,6,0,L|48:144,1,90,2|0,0:0|0:0,0:0:0:0:
224,144,67727,1,2,0:0:0:0:
160,144,67816,1,2,0:0:0:0:
128,184,67904,1,2,0:0:0:0:
160,224,67992,1,2,0:0:0:0:
320,224,68080,6,0,L|432:224,1,90,2|0,0:0|0:0,0:0:0:0:
240,224,68433,2,0,L|120:224,1,90,2|0,0:0|0:0,0:0:0:0:
472,161,68786,6,0,L|344:161,1,90,2|0,0:0|0:0,0:0:0:0:
216,160,69139,2,0,L|208:56,1,90,6|0,0:0|0:0,0:0:0:0:
376,72,69492,6,0,L|384:184,1,90,2|0,0:0|0:0,0:0:0:0:
80,72,69845,2,0,L|72:192,1,90,6|0,0:0|0:0,0:0:0:0:
240,176,70198,6,0,L|136:176,1,90,2|0,0:0|0:0,0:0:0:0:
320,176,70551,2,0,L|328:272,1,90,6|0,0:0|0:0,0:0:0:0:
496,264,70904,6,0,L|392:264,1,90,2|0,0:0|0:0,0:0:0:0:
112,72,71257,2,0,L|120:176,1,90,6|0,0:0|0:0,0:0:0:0:
152,176,71521,1,0,0:0:0:0:
328,176,71610,5,2,0:0:0:0:
360,232,71698,1,0,0:0:0:0:
336,288,71786,1,0,0:0:0:0:
272,296,71874,1,0,0:0:0:0:
176,296,71963,5,10,0:0:0:0:
112,272,72051,1,0,0:0:0:0:
112,216,72139,1,0,0:0:0:0:
176,192,72227,1,0,0:0:0:0:
336,192,72315,5,2,0:0:0:0:
400,176,72404,1,0,0:0:0:0:
424,128,72492,1,0,0:0:0:0:
400,80,72580,1,0,0:0:0:0:
232,192,72668,5,10,0:0:0:0:
232,144,72757,1,0,0:0:0:0:
264,104,72845,1,0,0:0:0:0:
328,96,72933,1,0,0:0:0:0:
160,80,73021,5,2,0:0:0:0:
96,88,73110,1,0,0:0:0:0:
64,136,73198,1,0,0:0:0:0:
96,192,73286,1,0,0:0:0:0:
264,192,73374,5,10,0:0:0:0:
288,248,73463,1,0,0:0:0:0:
256,288,73551,1,0,0:0:0:0:
192,296,73639,1,0,0:0:0:0:
360,328,73727,5,2,0:0:0:0:
424,320,73815,1,0,0:0:0:0:
464,280,73904,1,0,0:0:0:0:
448,224,73992,1,0,0:0:0:0:
280,48,74080,5,10,0:0:0:0:
280,96,74168,1,0,0:0:0:0:
312,136,74257,1,0,0:0:0:0:
376,144,74345,1,0,0:0:0:0:
208,168,74433,6,0,L|96:168,1,90,2|0,0:0|0:0,0:0:0:0:
288,304,74786,2,0,L|296:200,1,90,6|0,0:0|0:0,0:0:0:0:
128,208,75139,6,0,L|232:208,1,90,2|0,0:0|0:0,0:0:0:0:
496,72,75492,2,0,L|504:184,1,90,6|0,0:0|0:0,0:0:0:0:
360,168,75845,6,0,L|256:168,1,90,2|0,0:0|0:0,0:0:0:0:
128,168,76198,2,0,L|120:272,1,90,6|0,0:0|0:0,0:0:0:0:
288,264,76551,6,0,L|184:264,1,90,2|0,0:0|0:0,0:0:0:0:
448,264,76904,2,0,L|440:168,1,90,6|0,0:0|0:0,0:0:0:0:
408,144,77168,1,0,0:0:0:0:
240,104,77257,5,2,0:0:0:0:
176,112,77345,1,0,0:0:0:0:
144,160,77433,1,0,0:0:0:0:
176,208,77521,1,0,0:0:0:0:
336,184,77610,5,10,0:0:0:0:
400,200,77698,1,0,0:0:0:0:
432,248,77786,1,0,0:0:0:0:
400,288,77874,1,0,0:0:0:0:
248,320,77963,5,2,0:0:0:0:
240,280,78051,1,0,0:0:0:0:
264,232,78139,1,0,0:0:0:0:
320,216,78227,1,0,0:0:0:0:
416,208,78316,5,10,0:0:0:0:
424,160,78404,1,0,0:0:0:0:
392,112,78492,1,0,0:0:0:0:
328,96,78580,1,0,0:0:0:0:
168,288,78669,5,2,0:0:0:0:
320,288,79198,1,0,0:0:0:0:
256,288,79374,1,2,0:0:0:0:
376,288,79551,1,0,0:0:0:0:
136,288,79727,2,0,P|128:208|192:160,1,135,4|0,0:0|0:0,0:0:0:0:
328,152,80080,6,0,L|208:152,1,90,2|0,0:0|0:0,0:0:0:0:
400,152,80433,2,0,L|408:256,1,90,14|0,0:0|0:0,0:0:0:0:
240,240,80786,6,0,L|360:240,1,90,2|0,0:0|0:0,0:0:0:0:
16,248,81139,2,0,L|8:152,1,90,6|0,0:0|0:0,0:0:0:0:
184,248,81492,6,0,L|192:136,1,90,2|0,0:0|0:0,0:0:0:0:
16,136,81845,2,0,L|128:136,1,90,14|0,0:0|0:0,0:0:0:0:
272,320,82198,6,0,L|160:320,1,90,2|0,0:0|0:0,0:0:0:0:
472,320,82551,2,0,L|480:216,1,90,6|0,0:0|0:0,0:0:0:0:
432,216,82816,1,0,0:0:0:0:
256,312,82904,5,2,0:0:0:0:
192,304,82992,1,0,0:0:0:0:
160,256,83080,1,0,0:0:0:0:
184,208,83169,1,0,0:0:0:0:
280,192,83257,1,10,0:0:0:0:
304,160,83345,1,0,0:0:0:0:
280,120,83433,1,0,0:0:0:0:
216,104,83522,1,0,0:0:0:0:
368,56,83610,5,2,0:0:0:0:
384,104,83698,1,0,0:0:0:0:
360,144,83786,1,0,0:0:0:0:
296,160,83874,1,0,0:0:0:0:
128,104,83963,1,10,0:0:0:0:
72,128,84051,1,0,0:0:0:0:
72,176,84139,1,0,0:0:0:0:
128,200,84227,1,0,0:0:0:0:
288,200,84316,5,2,0:0:0:0:
296,240,84404,1,0,0:0:0:0:
224,240,84492,1,0,0:0:0:0:
216,280,84580,1,0,0:0:0:0:
376,272,84669,1,10,0:0:0:0:
384,224,84757,1,0,0:0:0:0:
352,176,84845,1,0,0:0:0:0:
296,160,84933,1,0,0:0:0:0:
136,312,85021,5,2,0:0:0:0:
128,272,85110,1,0,0:0:0:0:
160,232,85198,1,0,0:0:0:0:
216,224,85286,1,0,0:0:0:0:
384,312,85374,1,10,0:0:0:0:
424,272,85463,1,0,0:0:0:0:
408,208,85551,1,0,0:0:0:0:
344,200,85639,1,0,0:0:0:0:
176,136,85727,6,0,L|72:136,1,90,2|0,0:0|0:0,0:0:0:0:
256,136,86080,2,0,L|360:136,1,90,14|0,0:0|0:0,0:0:0:0:
176,256,86433,6,0,L|184:368,1,90,2|0,0:0|0:0,0:0:0:0:
480,256,86786,2,0,L|368:256,1,90,6|0,0:0|0:0,0:0:0:0:
224,256,87139,6,0,L|336:256,1,90,2|0,0:0|0:0,0:0:0:0:
144,168,87492,2,0,L|136:272,1,90,14|0,0:0|0:0,0:0:0:0:
308,256,87845,6,0,L|204:256,1,90,2|0,0:0|0:0,0:0:0:0:
464,256,88198,2,0,L|472:152,1,90,6|0,0:0|0:0,0:0:0:0:
424,152,88463,1,0,0:0:0:0:
248,256,88551,5,2,0:0:0:0:
208,208,88639,1,0,0:0:0:0:
232,152,88727,1,0,0:0:0:0:
296,144,88816,1,0,0:0:0:0:
136,48,88904,1,10,0:0:0:0:
104,96,88992,1,0,0:0:0:0:
136,144,89080,1,0,0:0:0:0:
200,152,89169,1,0,0:0:0:0:
368,152,89257,5,2,0:0:0:0:
432,176,89345,1,0,0:0:0:0:
432,240,89433,1,0,0:0:0:0:
368,264,89521,1,0,0:0:0:0:
192,312,89610,2,0,L|184:264,1,45,10|2,0:0|0:0,0:0:0:0:
272,312,89786,2,0,L|280:256,1,45,2|2,0:0|0:0,0:0:0:0:
104,312,89963,5,2,0:0:0:0:
256,312,90316,1,2,0:0:0:0:
208,296,90404,1,2,0:0:0:0:
152,280,90492,1,2,0:0:0:0:
104,264,90580,1,2,0:0:0:0:
256,176,90669,6,0,L|352:176,1,90,2|0,0:0|0:0,0:0:0:0:
208,32,91021,2,0,P|176:48|216:128,1,135,2|0,0:0|0:0,0:0:0:0:
360,32,91374,6,0,L|368:128,1,90,2|0,0:0|0:0,0:0:0:0:
200,120,91727,2,0,L|296:120,1,90,14|0,0:0|0:0,0:0:0:0:
456,312,92080,6,0,L|464:192,1,90,2|0,0:0|0:0,0:0:0:0:
144,312,92433,2,0,L|136:216,1,90,6|0,0:0|0:0,0:0:0:0:
304,184,92786,6,0,L|192:184,1,90,2|0,0:0|0:0,0:0:0:0:
384,184,93139,2,0,L|400:64,1,90,14|0,0:0|0:0,0:0:0:0:
224,320,93492,6,0,L|336:320,1,90,2|0,0:0|0:0,0:0:0:0:
48,320,93845,2,0,L|40:216,1,90,6|0,0:0|0:0,0:0:0:0:
80,208,94110,1,0,0:0:0:0:
264,304,94198,5,2,0:0:0:0:
328,296,94286,1,0,0:0:0:0:
352,256,94374,1,0,0:0:0:0:
320,216,94463,1,0,0:0:0:0:
216,208,94551,1,10,0:0:0:0:
152,192,94639,1,0,0:0:0:0:
144,144,94727,1,0,0:0:0:0:
200,112,94816,1,0,0:0:0:0:
360,56,94904,5,2,0:0:0:0:
416,72,94992,1,0,0:0:0:0:
416,104,95080,1,0,0:0:0:0:
360,112,95168,1,0,0:0:0:0:
200,56,95257,1,10,0:0:0:0:
136,64,95345,1,0,0:0:0:0:
112,112,95433,1,0,0:0:0:0:
144,152,95521,1,0,0:0:0:0:
304,160,95610,5,2,0:0:0:0:
312,208,95698,1,0,0:0:0:0:
248,208,95786,1,0,0:0:0:0:
240,256,95874,1,0,0:0:0:0:
416,208,95963,1,10,0:0:0:0:
440,264,96051,1,0,0:0:0:0:
416,312,96139,1,0,0:0:0:0:
360,328,96227,1,0,0:0:0:0:
184,328,96315,5,2,0:0:0:0:
176,288,96404,1,0,0:0:0:0:
232,280,96492,1,0,0:0:0:0:
288,272,96580,1,0,0:0:0:0:
112,184,96668,1,10,0:0:0:0:
96,136,96757,1,0,0:0:0:0:
120,96,96845,1,0,0:0:0:0:
176,88,96933,1,0,0:0:0:0:
352,88,97021,6,0,L|442:88,1,90,2|0,0:0|0:0,0:0:0:0:
272,88,97374,2,0,L|182:88,1,90,14|0,0:0|0:0,0:0:0:0:
352,88,97727,6,0,L|360:192,1,90,2|0,0:0|0:0,0:0:0:0:
56,256,98080,2,0,L|146:256,1,90,6|0,0:0|0:0,0:0:0:0:
312,256,98433,6,0,L|222:256,1,90,2|0,0:0|0:0,0:0:0:0:
384,168,98786,2,0,L|390:257,1,90,14|0,0:0|0:0,0:0:0:0:
222,256,99139,6,0,L|312:256,1,90,2|0,0:0|0:0,0:0:0:0:
64,256,99492,2,0,L|57:166,1,90,6|0,0:0|0:0,0:0:0:0:
96,152,99757,1,0,0:0:0:0:
280,160,99845,5,2,0:0:0:0:
312,208,99933,1,0,0:0:0:0:
288,248,100021,1,0,0:0:0:0:
224,256,100110,1,0,0:0:0:0:
384,320,100198,1,10,0:0:0:0:
400,264,100286,1,0,0:0:0:0:
368,216,100374,1,0,0:0:0:0:
312,208,100463,1,0,0:0:0:0:
160,208,100551,5,2,0:0:0:0:
128,168,100639,1,0,0:0:0:0:
144,120,100727,1,0,0:0:0:0:
200,96,100815,1,0,0:0:0:0:
304,96,100904,1,10,0:0:0:0:
368,112,100992,1,0,0:0:0:0:
392,160,101080,1,0,0:0:0:0:
368,208,101168,1,0,0:0:0:0:
192,208,101257,5,2,0:0:0:0:
328,280,101786,1,2,0:0:0:0:
272,280,101963,1,2,0:0:0:0:
392,280,102139,1,0,0:0:0:0:
152,280,102316,2,0,L|144:176,1,90,4|0,0:0|0:0,0:0:0:0:
328,168,102669,1,0,0:0:0:0:
328,192,104786,5,8,0:0:0:0:
184,192,105051,1,8,0:0:0:0:
384,192,105492,1,2,0:0:0:0:
184,192,107610,5,8,0:0:0:0:
328,192,107875,1,8,0:0:0:0:
136,192,108316,1,2,0:0:0:0:
328,296,110433,5,8,0:0:0:0:
472,296,110698,1,8,0:0:0:0:
272,296,111139,1,2,0:0:0:0:
184,296,113257,5,8,0:0:0:0:
328,296,113522,1,8,0:0:0:0:
248,296,113610,2,0,P|200:264|200:216,1,90
440,224,113963,6,0,L|424:136,1,90,2|0,0:0|0:0,0:0:0:0:
240,136,114316,1,6,0:0:0:0:
64,232,114669,6,0,L|80:112,1,90,2|0,0:0|0:0,0:0:0:0:
272,136,115022,1,6,0:0:0:0:
432,232,115374,6,0,L|440:112,1,90,2|0,0:0|0:0,0:0:0:0:
240,136,115727,1,6,0:0:0:0:
80,232,116080,6,0,L|72:112,1,90,2|0,0:0|0:0,0:0:0:0:
272,136,116433,1,14,0:0:0:0:
456,296,116786,6,0,L|360:296,1,90,2|0,0:0|0:0,0:0:0:0:
176,296,117139,1,6,0:0:0:0:
366,296,117492,6,0,L|456:296,1,90,2|0,0:0|0:0,0:0:0:0:
256,208,117845,1,6,0:0:0:0:
72,128,118198,6,0,L|168:128,1,90,2|0,0:0|0:0,0:0:0:0:
352,128,118551,1,6,0:0:0:0:
162,128,118904,6,0,L|72:128,1,90,2|0,0:0|0:0,0:0:0:0:
272,128,119257,1,14,0:0:0:0:
456,232,119610,5,2,0:0:0:0:
464,296,119786,1,2,0:0:0:0:
288,320,119963,5,6,0:0:0:0:
208,320,120139,1,2,0:0:0:0:
312,288,120316,1,2,0:0:0:0:
320,232,120492,1,2,0:0:0:0:
144,232,120669,5,6,0:0:0:0:
136,176,120845,1,2,0:0:0:0:
240,128,121021,1,2,0:0:0:0:
160,112,121198,1,2,0:0:0:0:
328,32,121374,5,6,0:0:0:0:
248,40,121551,1,2,0:0:0:0:
336,56,121727,1,2,0:0:0:0:
344,104,121904,1,2,0:0:0:0:
96,112,122080,5,14,0:0:0:0:
88,152,122257,1,2,0:0:0:0:
328,104,122433,5,2,0:0:0:0:
344,160,122521,1,2,0:0:0:0:
320,200,122610,1,2,0:0:0:0:
256,208,122698,1,2,0:0:0:0:
160,224,122786,5,2,0:0:0:0:
136,280,122874,1,2,0:0:0:0:
168,328,122963,1,2,0:0:0:0:
224,328,123051,1,2,0:0:0:0:
336,328,123139,5,2,0:0:0:0:
392,320,123227,1,2,0:0:0:0:
392,272,123316,1,2,0:0:0:0:
336,256,123404,1,2,0:0:0:0:
224,248,123492,5,2,0:0:0:0:
160,240,123580,1,2,0:0:0:0:
136,200,123669,1,2,0:0:0:0:
160,160,123757,1,2,0:0:0:0:
336,112,123845,5,2,0:0:0:0:
256,112,124022,1,0,0:0:0:0:
200,112,124110,1,0,0:0:0:0:
360,64,124198,1,2,0:0:0:0:
432,64,124374,1,0,0:0:0:0:
440,112,124463,1,0,0:0:0:0:
320,168,124551,5,2,0:0:0:0:
392,168,124727,1,2,0:0:0:0:
144,216,124904,2,0,P|112:256|160:312,1,135,4|0,0:0|0:0,0:0:0:0:
336,32,125257,5,2,0:0:0:0:
384,56,125433,1,8,0:0:0:0:
336,72,125521,1,0,0:0:0:0:
184,32,125610,5,2,0:0:0:0:
136,56,125786,1,8,0:0:0:0:
184,72,125874,1,0,0:0:0:0:
336,144,125963,5,2,0:0:0:0:
384,128,126139,1,8,0:0:0:0:
336,104,126227,1,0,0:0:0:0:
184,144,126316,5,2,0:0:0:0:
136,120,126492,1,8,0:0:0:0:
184,104,126580,1,0,0:0:0:0:
344,224,126669,5,2,0:0:0:0:
392,208,126845,1,8,0:0:0:0:
344,184,126933,1,0,0:0:0:0:
176,224,127021,5,2,0:0:0:0:
128,200,127197,1,8,0:0:0:0:
176,184,127285,1,0,0:0:0:0:
352,304,127374,5,2,0:0:0:0:
400,288,127550,1,8,0:0:0:0:
352,264,127638,1,0,0:0:0:0:
192,112,127727,5,2,0:0:0:0:
200,64,127816,1,2,0:0:0:0:
256,64,127904,1,2,0:0:0:0:
312,64,127992,1,2,0:0:0:0:
152,336,128080,5,2,0:0:0:0:
104,312,128256,1,8,0:0:0:0:
152,288,128344,1,0,0:0:0:0:
312,280,128433,5,2,0:0:0:0:
360,256,128609,1,8,0:0:0:0:
312,232,128697,1,0,0:0:0:0:
144,248,128786,5,2,0:0:0:0:
96,224,128962,1,8,0:0:0:0:
144,200,129050,1,0,0:0:0:0:
304,184,129139,5,2,0:0:0:0:
352,160,129315,1,8,0:0:0:0:
304,136,129403,1,0,0:0:0:0:
136,104,129492,5,2,0:0:0:0:
88,128,129668,1,8,0:0:0:0:
136,152,129756,1,0,0:0:0:0:
312,104,129844,5,2,0:0:0:0:
360,80,130020,1,8,0:0:0:0:
312,56,130110,1,0,0:0:0:0:
136,328,130197,5,2,0:0:0:0:
88,304,130373,1,8,0:0:0:0:
136,280,130463,1,0,0:0:0:0:
304,280,130551,2,0,P|352:256|344:216,1,90
304,192,130816,1,0,0:0:0:0:
136,168,130904,5,2,0:0:0:0:
88,144,131081,1,8,0:0:0:0:
136,128,131169,1,0,0:0:0:0:
304,128,131257,5,2,0:0:0:0:
400,128,131433,1,8,0:0:0:0:
240,232,131610,5,2,0:0:0:0:
160,232,131787,1,8,0:0:0:0:
152,192,131875,1,0,0:0:0:0:
320,192,131963,5,2,0:0:0:0:
416,192,132139,1,8,0:0:0:0:
280,312,132316,5,2,0:0:0:0:
360,312,132493,1,8,0:0:0:0:
416,312,132581,1,0,0:0:0:0:
248,312,132669,5,2,0:0:0:0:
152,312,132845,1,8,0:0:0:0:
288,208,133022,5,2,0:0:0:0:
208,208,133199,1,8,0:0:0:0:
152,208,133287,1,0,0:0:0:0:
304,56,133374,1,2,0:0:0:0:
312,104,133463,1,2,0:0:0:0:
256,104,133551,1,2,0:0:0:0:
200,104,133639,1,2,0:0:0:0:
360,168,133727,5,2,0:0:0:0:
416,168,133904,1,8,0:0:0:0:
360,168,133992,1,0,0:0:0:0:
200,168,134080,5,2,0:0:0:0:
144,168,134257,1,8,0:0:0:0:
200,168,134345,1,0,0:0:0:0:
416,336,134433,1,2,0:0:0:0:
464,312,134521,1,2,0:0:0:0:
464,264,134610,1,2,0:0:0:0:
416,240,134698,1,2,0:0:0:0:
232,32,134786,6,0,L|176:32,1,45,10|2,0:0|0:0,0:0:0:0:
280,32,134962,2,0,L|347:32,1,45,10|2,0:0|0:0,0:0:0:0:
176,88,135139,5,0,0:0:0:0:
80,240,135492,1,2,0:0:0:0:
88,288,135580,1,0,0:0:0:0:
136,312,135669,1,0,0:0:0:0:
192,312,135757,1,0,0:0:0:0:
360,312,135845,1,2,0:0:0:0:
280,312,136021,1,0,0:0:0:0:
392,312,136198,2,0,P|456:264|424:200,1,135,2|0,0:0|0:0,0:0:0:0:
256,88,136551,5,2,0:0:0:0:
200,104,136727,1,8,0:0:0:0:
256,128,136815,1,0,0:0:0:0:
96,152,136904,5,2,0:0:0:0:
40,176,137080,1,8,0:0:0:0:
96,200,137168,1,0,0:0:0:0:
256,208,137257,5,2,0:0:0:0:
312,232,137433,1,8,0:0:0:0:
256,256,137521,1,0,0:0:0:0:
416,312,137610,5,2,0:0:0:0:
472,288,137786,1,8,0:0:0:0:
416,264,137874,1,0,0:0:0:0:
248,120,137963,6,0,L|168:120,1,45,2|2,0:0|0:0,0:0:0:0:
264,120,138139,2,0,L|328:120,1,45,10|2,0:0|0:0,0:0:0:0:
152,352,138316,5,2,0:0:0:0:
96,328,138492,1,8,0:0:0:0:
152,312,138580,1,0,0:0:0:0:
328,352,138669,5,2,0:0:0:0:
256,352,138845,1,8,0:0:0:0:
200,352,138933,1,0,0:0:0:0:
352,168,139021,6,0,L|344:224,1,45,2|2,0:0|0:0,0:0:0:0:
288,216,139198,1,2,0:0:0:0:
240,216,139286,1,2,0:0:0:0:
400,136,139374,5,2,0:0:0:0:
448,120,139550,1,8,0:0:0:0:
400,104,139638,1,0,0:0:0:0:
224,104,139727,5,2,0:0:0:0:
296,104,139903,1,8,0:0:0:0:
344,104,139991,1,0,0:0:0:0:
256,144,140080,5,2,0:0:0:0:
208,144,140169,1,0,0:0:0:0:
360,288,140257,1,8,0:0:0:0:
408,288,140345,1,0,0:0:0:0:
248,288,140433,5,2,0:0:0:0:
192,312,140610,1,8,0:0:0:0:
248,336,140698,1,0,0:0:0:0:
312,336,140786,5,2,0:0:0:0:
248,336,140963,1,2,0:0:0:0:
240,288,141051,1,2,0:0:0:0:
400,160,141139,5,2,0:0:0:0:
464,160,141315,1,8,0:0:0:0:
400,160,141404,1,0,0:0:0:0:
232,160,141492,6,0,P|172:187|160:256,1,135,2|0,0:0|0:0,0:0:0:0:
248,248,141845,2,0,L|384:248,1,135
208,296,142198,5,2,0:0:0:0:
120,296,142375,1,8,0:0:0:0:
168,296,142463,1,0,0:0:0:0:
328,296,142551,5,2,0:0:0:0:
224,296,142727,1,8,0:0:0:0:
392,296,142904,5,2,0:0:0:0:
480,296,143081,1,8,0:0:0:0:
432,296,143169,1,0,0:0:0:0:
272,112,143257,5,2,0:0:0:0:
376,112,143433,1,8,0:0:0:0:
200,112,143610,5,2,0:0:0:0:
112,112,143787,1,8,0:0:0:0:
160,112,143875,1,0,0:0:0:0:
328,112,143963,5,2,0:0:0:0:
416,112,144139,1,8,0:0:0:0:
368,112,144227,1,0,0:0:0:0:
192,160,144316,5,2,0:0:0:0:
88,160,144492,1,8,0:0:0:0:
144,160,144580,1,0,0:0:0:0:
328,160,144669,5,2,0:0:0:0:
432,160,144845,1,8,0:0:0:0:
376,160,144933,1,0,0:0:0:0:
200,280,145021,5,10,0:0:0:0:
128,280,145198,1,10,0:0:0:0:
312,280,145374,1,8,0:0:0:0:
400,280,145551,1,10,0:0:0:0:
160,184,145727,5,10,0:0:0:0:
64,184,145903,1,10,0:0:0:0:
304,112,146080,1,10,0:0:0:0:
296,168,146169,1,10,0:0:0:0:
240,176,146257,1,10,0:0:0:0:
184,184,146345,1,10,0:0:0:0:
368,184,146433,5,2,0:0:0:0:
192,272,146963,1,2,0:0:0:0:
256,272,147139,1,2,0:0:0:0:
136,272,147316,1,0,0:0:0:0:
392,272,147492,2,0,P|392:208|320:152,1,135,4|0,0:0|0:0,0:0:0:0:
176,152,147845,6,0,L|296:152,1,90,2|0,0:0|0:0,0:0:0:0:
104,152,148198,2,0,L|96:256,1,90,14|0,0:0|0:0,0:0:0:0:
264,240,148551,6,0,L|144:240,1,90,2|0,0:0|0:0,0:0:0:0:
496,248,148904,2,0,L|504:152,1,90,6|0,0:0|0:0,0:0:0:0:
336,248,149257,6,0,L|328:136,1,90,2|0,0:0|0:0,0:0:0:0:
496,136,149610,2,0,L|384:136,1,90,14|0,0:0|0:0,0:0:0:0:
240,320,149963,6,0,L|352:320,1,90,2|0,0:0|0:0,0:0:0:0:
56,320,150316,2,0,L|48:216,1,90,6|0,0:0|0:0,0:0:0:0:
88,224,150581,1,0,0:0:0:0:
256,312,150669,5,2,0:0:0:0:
320,304,150757,1,0,0:0:0:0:
344,264,150845,1,0,0:0:0:0:
320,216,150934,1,0,0:0:0:0:
224,216,151022,1,10,0:0:0:0:
168,208,151110,1,0,0:0:0:0:
144,168,151198,1,0,0:0:0:0:
168,128,151287,1,0,0:0:0:0:
336,56,151375,5,2,0:0:0:0:
384,64,151463,1,0,0:0:0:0:
384,112,151551,1,0,0:0:0:0:
336,120,151639,1,0,0:0:0:0:
168,96,151728,1,10,0:0:0:0:
152,144,151816,1,0,0:0:0:0:
184,176,151904,1,0,0:0:0:0:
248,176,151992,1,0,0:0:0:0:
408,168,152081,5,2,0:0:0:0:
400,208,152169,1,0,0:0:0:0:
344,208,152257,1,0,0:0:0:0:
288,208,152345,1,0,0:0:0:0:
456,208,152434,1,10,0:0:0:0:
448,264,152522,1,0,0:0:0:0:
408,304,152610,1,0,0:0:0:0:
352,312,152698,1,0,0:0:0:0:
192,312,152786,5,2,0:0:0:0:
248,312,152875,1,0,0:0:0:0:
280,280,152963,1,0,0:0:0:0:
248,232,153051,1,0,0:0:0:0:
80,232,153139,1,10,0:0:0:0:
56,184,153228,1,0,0:0:0:0:
88,136,153316,1,0,0:0:0:0:
152,128,153404,1,0,0:0:0:0:
320,128,153492,6,0,L|424:128,1,90,2|0,0:0|0:0,0:0:0:0:
248,128,153845,2,0,L|152:128,1,90,14|0,0:0|0:0,0:0:0:0:
328,200,154198,6,0,L|320:312,1,90,2|0,0:0|0:0,0:0:0:0:
32,256,154551,2,0,L|144:256,1,90,6|0,0:0|0:0,0:0:0:0:
288,256,154904,6,0,L|176:256,1,90,2|0,0:0|0:0,0:0:0:0:
368,168,155257,2,0,L|376:272,1,90,14|0,0:0|0:0,0:0:0:0:
204,256,155610,6,0,L|308:256,1,90,2|0,0:0|0:0,0:0:0:0:
56,256,155963,2,0,L|48:152,1,90,6|0,0:0|0:0,0:0:0:0:
88,160,156228,1,0,0:0:0:0:
264,256,156316,5,2,0:0:0:0:
288,208,156404,1,0,0:0:0:0:
264,160,156492,1,0,0:0:0:0:
208,144,156581,1,0,0:0:0:0:
368,48,156669,1,10,0:0:0:0:
408,96,156757,1,0,0:0:0:0:
368,144,156845,1,0,0:0:0:0:
312,152,156934,1,0,0:0:0:0:
144,152,157022,5,2,0:0:0:0:
96,176,157110,1,0,0:0:0:0:
96,224,157198,1,0,0:0:0:0:
144,248,157286,1,0,0:0:0:0:
320,312,157375,2,0,L|328:264,1,45,10|2,0:0|0:0,0:0:0:0:
248,312,157551,2,0,L|240:256,1,45,2|2,0:0|0:0,0:0:0:0:
408,312,157728,5,2,0:0:0:0:
256,312,158080,1,2,0:0:0:0:
304,296,158168,1,2,0:0:0:0:
360,280,158256,1,2,0:0:0:0:
408,264,158344,1,2,0:0:0:0:
256,176,158433,6,0,L|160:176,1,90,2|0,0:0|0:0,0:0:0:0:
328,32,158786,2,0,L|432:32,1,90,2|0,0:0|0:0,0:0:0:0:
152,32,159139,6,0,L|144:128,1,90,2|0,0:0|0:0,0:0:0:0:
320,120,159492,2,0,L|224:120,1,90,14|0,0:0|0:0,0:0:0:0:
64,312,159845,6,0,L|56:192,1,90,2|0,0:0|0:0,0:0:0:0:
368,312,160198,2,0,L|376:216,1,90,6|0,0:0|0:0,0:0:0:0:
208,184,160551,6,0,L|320:184,1,90,2|0,0:0|0:0,0:0:0:0:
128,184,160904,2,0,L|120:64,1,90,14|0,0:0|0:0,0:0:0:0:
288,320,161257,6,0,L|176:320,1,90,2|0,0:0|0:0,0:0:0:0:
464,320,161610,2,0,L|472:216,1,90,6|0,0:0|0:0,0:0:0:0:
424,216,161875,1,0,0:0:0:0:
248,304,161963,5,2,0:0:0:0:
184,296,162051,1,0,0:0:0:0:
160,256,162139,1,0,0:0:0:0:
192,208,162228,1,0,0:0:0:0:
296,208,162316,1,10,0:0:0:0:
360,200,162404,1,0,0:0:0:0:
384,160,162492,1,0,0:0:0:0:
352,120,162581,1,0,0:0:0:0:
184,56,162669,5,2,0:0:0:0:
136,80,162757,1,0,0:0:0:0:
136,104,162845,1,0,0:0:0:0:
184,120,162933,1,0,0:0:0:0:
360,56,163022,1,10,0:0:0:0:
424,64,163110,1,0,0:0:0:0:
448,120,163198,1,0,0:0:0:0:
416,160,163286,1,0,0:0:0:0:
248,168,163375,5,2,0:0:0:0:
240,216,163463,1,0,0:0:0:0:
296,224,163551,1,0,0:0:0:0:
352,232,163639,1,0,0:0:0:0:
176,232,163728,1,10,0:0:0:0:
112,248,163816,1,0,0:0:0:0:
104,296,163904,1,0,0:0:0:0:
152,336,163992,1,0,0:0:0:0:
336,328,164080,5,2,0:0:0:0:
272,320,164169,1,0,0:0:0:0:
248,280,164257,1,0,0:0:0:0:
280,232,164345,1,0,0:0:0:0:
440,192,164433,1,10,0:0:0:0:
448,144,164522,1,0,0:0:0:0:
416,96,164610,1,0,0:0:0:0:
352,88,164698,1,0,0:0:0:0:
160,88,164786,6,0,L|70:88,1,90,2|0,0:0|0:0,0:0:0:0:
240,88,165139,2,0,L|330:88,1,90,14|0,0:0|0:0,0:0:0:0:
160,88,165492,6,0,L|152:192,1,90,2|0,0:0|0:0,0:0:0:0:
456,256,165845,2,0,L|366:256,1,90,6|0,0:0|0:0,0:0:0:0:
200,256,166198,6,0,L|290:256,1,90,2|0,0:0|0:0,0:0:0:0:
128,168,166551,2,0,L|122:257,1,90,14|0,0:0|0:0,0:0:0:0:
290,256,166904,6,0,L|200:256,1,90,2|0,0:0|0:0,0:0:0:0:
456,256,167257,2,0,L|463:166,1,90,6|0,0:0|0:0,0:0:0:0:
424,160,167522,1,0,0:0:0:0:
232,160,167610,5,2,0:0:0:0:
200,208,167698,1,0,0:0:0:0:
224,248,167786,1,0,0:0:0:0:
288,256,167875,1,0,0:0:0:0:
128,320,167963,1,10,0:0:0:0:
112,264,168051,1,0,0:0:0:0:
144,216,168139,1,0,0:0:0:0:
200,208,168228,1,0,0:0:0:0:
352,208,168316,5,2,0:0:0:0:
384,168,168404,1,0,0:0:0:0:
368,120,168492,5,0,0:0:0:0:
312,96,168580,1,0,0:0:0:0:
208,96,168669,1,10,0:0:0:0:
144,112,168757,1,0,0:0:0:0:
120,160,168845,1,0,0:0:0:0:
152,208,168933,1,0,0:0:0:0:
320,208,169021,5,2,0:0:0:0:
200,224,169551,1,2,0:0:0:0:
256,224,169727,1,2,0:0:0:0:
136,224,169904,1,0,0:0:0:0:
384,128,170080,2,0,P|424:184|384:224,1,135,4|0,0:0|0:0,0:0:0:0:
200,128,170433,6,0,L|80:128,1,90,2|0,0:0|0:0,0:0:0:0:
184,152,170698,1,0,0:0:0:0:
280,152,170786,2,0,L|328:256,1,90,2|0,0:0|0:0,0:0:0:0:
152,256,171139,2,0,L|144:360,1,90,2|0,0:0|0:0,0:0:0:0:
304,344,171492,2,0,L|192:344,1,90,2|0,0:0|0:0,0:0:0:0:
456,144,171845,6,0,L|464:264,1,90,2|0,0:0|0:0,0:0:0:0:
384,240,172110,1,0,0:0:0:0:
304,296,172198,2,0,L|416:296,1,90,2|0,0:0|0:0,0:0:0:0:
232,296,172551,1,2,0:0:0:0:
142,296,172727,2,0,L|232:296,2,90,0|2|0,0:0|0:0|0:0,0:0:0:0:
456,152,173257,6,0,L|464:256,1,90,2|0,0:0|0:0,0:0:0:0:
384,240,173521,1,0,0:0:0:0:
296,240,173610,2,0,L|192:240,1,90,2|0,0:0|0:0,0:0:0:0:
384,240,173963,2,0,L|389:346,1,90,2|0,0:0|0:0,0:0:0:0:
232,328,174316,2,0,L|344:328,1,90,2|0,0:0|0:0,0:0:0:0:
56,152,174669,6,0,L|48:272,1,90,2|0,0:0|0:0,0:0:0:0:
128,240,174933,1,0,0:0:0:0:
232,240,175022,2,0,L|128:240,1,90,2|0,0:0|0:0,0:0:0:0:
312,240,175374,1,2,0:0:0:0:
160,240,175551,2,0,B|112:104|272:112,1,180
488,96,176080,6,0,L|384:96,1,90,2|0,0:0|0:0,0:0:0:0:
320,96,176345,1,0,0:0:0:0:
398,96,176433,2,0,L|406:192,1,90,2|0,0:0|0:0,0:0:0:0:
240,208,176786,2,0,L|232:320,1,90,2|0,0:0|0:0,0:0:0:0:
392,296,177139,2,0,L|488:296,1,90,2|0,0:0|0:0,0:0:0:0:
160,296,177492,6,0,L|152:200,1,90,2|0,0:0|0:0,0:0:0:0:
240,192,177757,1,0,0:0:0:0:
328,176,177845,2,0,L|232:176,1,90,2|0,0:0|0:0,0:0:0:0:
408,176,178198,1,2,0:0:0:0:
320,128,178374,2,0,L|416:128,2,90,0|2|0,0:0|0:0|0:0,0:0:0:0:
72,136,178904,6,0,L|64:240,1,90,2|0,0:0|0:0,0:0:0:0:
144,232,179169,1,0,0:0:0:0:
234,232,179257,2,0,L|138:232,1,90,2|0,0:0|0:0,0:0:0:0:
304,272,179610,2,0,L|416:272,1,90,2|0,0:0|0:0,0:0:0:0:
232,312,179963,2,0,L|336:312,1,90,2|0,0:0|0:0,0:0:0:0:
71,315,180316,6,0,L|63:203,1,90,2|0,0:0|0:0,0:0:0:0:
232,152,180669,2,0,L|112:152,1,90,2|0,0:0|0:0,0:0:0:0:
304,152,181021,1,2,0:0:0:0:
192,56,181374,6,0,L|184:112,1,45,2|2,0:0|0:0,0:0:0:0:
288,104,181551,2,0,L|344:104,1,45,2|2,0:0|0:0,0:0:0:0:
174,102,181727,5,2,0:0:0:0:
174,158,182080,1,0,0:0:0:0:
318,214,182610,1,0,0:0:0:0:
190,214,182963,1,0,0:0:0:0:
342,166,183492,2,8,B|342:30|342:30|208:30,1,270
334,102,184551,5,0,0:0:0:0:
334,158,184904,1,0,0:0:0:0:
190,214,185434,1,0,0:0:0:0:
318,214,185787,1,0,0:0:0:0:
166,166,186316,2,8,B|166:30|166:30|300:30,1,270
158,278,187374,5,0,0:0:0:0:
94,278,187727,1,0,0:0:0:0:
254,278,188257,1,0,0:0:0:0:
382,278,188610,1,0,0:0:0:0:
238,254,189139,2,8,B|238:126|238:126|380:126,1,270
166,70,190198,5,0,0:0:0:0:
230,70,190551,1,0,0:0:0:0:
390,70,191080,1,0,0:0:0:0:
254,70,191433,1,0,0:0:0:0:
414,94,191963,2,8,L|414:274,1,180
286,270,192669,1,8,0:0:0:0:
424,304,193021,6,0,L|408:200,1,90,2|0,0:0|0:0,0:0:0:0:
272,208,193374,2,0,L|152:208,1,90,2|0,0:0|0:0,0:0:0:0:
256,200,193639,1,0,0:0:0:0:
328,192,193727,2,0,L|336:88,1,90,2|0,0:0|0:0,0:0:0:0:
152,96,194080,1,6,0:0:0:0:
336,192,194433,6,0,L|224:192,1,90,2|0,0:0|0:0,0:0:0:0:
136,192,194786,2,0,L|128:304,1,90,2|0,0:0|0:0,0:0:0:0:
200,280,195051,1,0,0:0:0:0:
320,280,195139,2,0,L|424:280,1,90,2|0,0:0|0:0,0:0:0:0:
224,280,195492,1,6,0:0:0:0:
120,304,195845,6,0,L|112:200,1,90,2|0,0:0|0:0,0:0:0:0:
240,208,196198,2,0,L|360:208,1,90,2|0,0:0|0:0,0:0:0:0:
256,200,196463,1,0,0:0:0:0:
184,192,196551,2,0,L|176:88,1,90,2|0,0:0|0:0,0:0:0:0:
360,104,196904,1,6,0:0:0:0:
176,192,197257,6,0,L|168:312,1,90,2|0,0:0|0:0,0:0:0:0:
304,280,197610,2,0,L|208:280,1,90,2|0,0:0|0:0,0:0:0:0:
272,304,197874,1,0,0:0:0:0:
384,304,197963,2,0,L|280:304,1,90,2|0,0:0|0:0,0:0:0:0:
112,304,198316,1,6,0:0:0:0:
288,208,198669,6,0,L|296:112,1,90,2|0,0:0|0:0,0:0:0:0:
168,112,199021,2,0,L|264:112,1,90,2|0,0:0|0:0,0:0:0:0:
312,112,199286,1,0,0:0:0:0:
368,112,199374,2,0,L|376:224,1,90,2|0,0:0|0:0,0:0:0:0:
200,208,199727,1,6,0:0:0:0:
360,304,200080,6,0,L|248:304,1,90,2|0,0:0|0:0,0:0:0:0:
160,304,200433,2,0,L|152:200,1,90,2|0,0:0|0:0,0:0:0:0:
224,216,200698,1,0,0:0:0:0:
336,216,200786,2,0,L|440:216,1,90,2|0,0:0|0:0,0:0:0:0:
240,216,201139,1,6,0:0:0:0:
128,216,201492,6,0,L|120:112,1,90,2|0,0:0|0:0,0:0:0:0:
248,128,201845,2,0,L|360:128,1,90,2|0,0:0|0:0,0:0:0:0:
264,112,202110,1,0,0:0:0:0:
192,96,202198,2,0,L|184:216,1,90,2|0,0:0|0:0,0:0:0:0:
360,184,202551,1,6,0:0:0:0:
168,296,202904,6,0,L|280:296,1,90,2|0,0:0|0:0,0:0:0:0:
104,296,203257,2,0,L|96:192,1,90,2|0,0:0|0:0,0:0:0:0:
168,208,203521,1,0,0:0:0:0:
280,208,203610,2,0,L|184:208,1,90,2|0,0:0|0:0,0:0:0:0:
360,208,203963,1,4,0:0:0:0:
416,176,204051,1,0,0:0:0:0:
416,136,204139,1,0,0:0:0:0:
360,112,204227,1,0,0:0:0:0:
120,304,204316,6,0,L|112:200,1,90,2|0,0:0|0:0,0:0:0:0:
240,208,204669,2,0,L|360:208,1,90,2|0,0:0|0:0,0:0:0:0:
256,200,204934,1,0,0:0:0:0:
192,184,205022,2,0,L|184:80,1,90,2|0,0:0|0:0,0:0:0:0:
360,88,205375,1,6,0:0:0:0:
176,192,205728,6,0,L|288:192,1,90,2|0,0:0|0:0,0:0:0:0:
376,192,206081,2,0,L|384:304,1,90,2|0,0:0|0:0,0:0:0:0:
312,280,206346,1,0,0:0:0:0:
192,280,206434,2,0,L|88:280,1,90,2|0,0:0|0:0,0:0:0:0:
288,280,206787,1,6,0:0:0:0:
392,304,207140,6,0,L|400:200,1,90,2|0,0:0|0:0,0:0:0:0:
272,208,207493,2,0,L|152:208,1,90,2|0,0:0|0:0,0:0:0:0:
256,192,207758,1,0,0:0:0:0:
328,176,207846,2,0,L|336:72,1,90,2|0,0:0|0:0,0:0:0:0:
152,80,208199,1,6,0:0:0:0:
336,192,208552,6,0,L|344:312,1,90,2|0,0:0|0:0,0:0:0:0:
208,280,208905,2,0,L|304:280,1,90,2|0,0:0|0:0,0:0:0:0:
240,304,209169,1,0,0:0:0:0:
128,304,209258,2,0,L|232:304,1,90,2|0,0:0|0:0,0:0:0:0:
400,304,209611,1,6,0:0:0:0:
224,208,209964,6,0,L|216:112,1,90,2|0,0:0|0:0,0:0:0:0:
344,112,210316,2,0,L|248:112,1,90,2|0,0:0|0:0,0:0:0:0:
200,112,210581,1,0,0:0:0:0:
136,112,210669,2,0,L|128:224,1,90,2|0,0:0|0:0,0:0:0:0:
304,200,211022,1,6,0:0:0:0:
152,304,211375,6,0,L|264:304,1,90,2|0,0:0|0:0,0:0:0:0:
352,304,211728,2,0,L|360:200,1,90,2|0,0:0|0:0,0:0:0:0:
288,216,211993,1,0,0:0:0:0:
176,216,212081,2,0,L|72:216,1,90,2|0,0:0|0:0,0:0:0:0:
272,216,212434,1,6,0:0:0:0:
384,216,212787,6,0,L|392:112,1,90,2|0,0:0|0:0,0:0:0:0:
264,128,213140,2,0,L|152:128,1,90,2|0,0:0|0:0,0:0:0:0:
248,112,213405,1,0,0:0:0:0:
320,96,213493,2,0,L|328:216,1,90,2|0,0:0|0:0,0:0:0:0:
160,184,213846,1,6,0:0:0:0:
344,296,214199,6,0,L|232:296,1,90,2|0,0:0|0:0,0:0:0:0:
408,296,214552,2,0,L|416:192,1,90,2|0,0:0|0:0,0:0:0:0:
344,208,214816,1,0,0:0:0:0:
232,208,214905,2,0,L|328:208,1,90,2|0,0:0|0:0,0:0:0:0:
152,208,215258,1,6,0:0:0:0:
96,176,215346,1,0,0:0:0:0:
152,160,215434,1,0,0:0:0:0:
208,144,215522,1,0,0:0:0:0:
256,192,215698,12,0,219845,0:0:0:0:
