osu file format v14

[General]
AudioFilename: audio.mp3
AudioLeadIn: 0
PreviewTime: 125257
Countdown: 0
SampleSet: Soft
StackLeniency: 0.7
Mode: 2
LetterboxInBreaks: 0
WidescreenStoryboard: 0

[Editor]
Bookmarks: 1021,23610,34551,46198,57492,80080,102669,125257,146433,170433,181816,193021,215610
DistanceSpacing: 1.1
BeatDivisor: 4
GridSize: 8
TimelineZoom: 2.999999

[Metadata]
Title:Never Let me Go
TitleUnicode:Never Let me Go
Artist:t+pazolite
ArtistUnicode:t+pazolite
Creator:Unlucky_w
Version:Overdose
Source:
Tags:hardcore drum and bass dnb electronic instrumental Tpazolite M3-35 HORUTUNA HolTunes FORTUNES HTCD-004 あーゆーゆーけーつー!? -R.U.U.K.TOO!?- CHS-0030 Comiket 92 C92 C.H.S CHS tpz
BeatmapID:2876730
BeatmapSetID:1393508

[Difficulty]
HPDrainRate:6
CircleSize:4
OverallDifficulty:9.4
ApproachRate:9.4
SliderMultiplier:1.9
SliderTickRate:2

[Events]
//Background and Video events
0,0,"p.jpg",0,0
//Break Periods
2,23810,34011
//Storyboard Layer 0 (Background)
//Storyboard Layer 1 (Fail)
//Storyboard Layer 2 (Pass)
//Storyboard Layer 3 (Foreground)
//Storyboard Layer 4 (Overlay)
//Storyboard Sound Samples

[TimingPoints]
1022,352.941176470588,4,2,1,100,1,0
34904,-100,4,2,3,100,0,0
46198,-100,4,2,2,50,0,0
56080,-100,4,2,1,100,0,0
57139,-100,4,2,2,100,0,0
57227,-100,4,2,1,100,0,0
79727,-100,4,2,2,100,0,0
79816,-100,4,2,1,100,0,0
102316,-100,4,2,2,100,0,0
102404,-100,4,2,1,100,0,0
102669,-100,4,2,1,60,0,0
113963,-100,4,2,1,100,0,0
123845,-100,4,2,3,100,0,0
124551,-100,4,2,1,100,0,0
124904,-100,4,2,2,100,0,0
124992,-100,4,2,1,100,0,0
125257,-100,4,2,1,100,0,1
135139,-100,4,2,1,100,0,0
136551,-100,4,2,1,100,0,1
146433,-100,4,2,1,100,0,0
147492,-100,4,2,2,100,0,0
147580,-100,4,2,1,100,0,0
170080,-100,4,2,2,100,0,0
170169,-100,4,2,1,100,0,0
181816,-100,4,2,1,70,0,0
193021,-100,4,2,1,100,0,0
215963,-100,4,2,1,90,0,0
216316,-100,4,2,1,80,0,0
216669,-100,4,2,1,70,0,0
217021,-100,4,2,1,60,0,0
217374,-100,4,2,1,50,0,0
217727,-100,4,2,1,40,0,0
218080,-100,4,2,1,30,0,0
218433,-100,4,2,1,20,0,0
218786,-100,4,2,1,10,0,0
219139,-100,4,2,1,5,0,0

[Colours]
Combo1 : 217,109,243
Combo2 : 89,193,255
Combo3 : 43,81,213
Combo4 : 159,153,242

[HitObjects]
145,90,1021,6,0,L|273:90,1,95,2|0,0:0|0:0,0:0:0:0:
80,112,1374,2,0,L|72:232,1,95,2|0,0:0|0:0,0:0:0:0:
144,208,1639,1,0,0:0:0:0:
239,208,1727,2,0,L|127:208,1,95,2|0,0:0|0:0,0:0:0:0:
384,208,2080,1,6,0:0:0:0:
192,344,2433,6,0,L|184:240,1,95,2|0,0:0|0:0,0:0:0:0:
344,344,2786,2,0,L|240:344,1,95,2|0,0:0|0:0,0:0:0:0:
304,320,3051,1,0,0:0:0:0:
424,320,3139,1,2,0:0:0:0:
448,272,3227,1,0,0:0:0:0:
424,224,3316,1,0,0:0:0:0:
360,200,3404,1,0,0:0:0:0:
176,200,3492,1,6,0:0:0:0:
384,200,3845,6,0,L|392:88,1,95,2|0,0:0|0:0,0:0:0:0:
232,104,4198,2,0,L|328:104,1,95,2|0,0:0|0:0,0:0:0:0:
264,128,4463,1,0,0:0:0:0:
168,128,4551,2,0,L|160:240,1,95,2|0,0:0|0:0,0:0:0:0:
400,216,4904,1,6,0:0:0:0:
200,320,5257,6,0,L|320:320,1,95,2|0,0:0|0:0,0:0:0:0:
136,320,5610,2,0,L|128:208,1,95,2|0,0:0|0:0,0:0:0:0:
208,208,5874,1,0,0:0:0:0:
328,200,5963,1,2,0:0:0:0:
360,152,6051,1,0,0:0:0:0:
336,104,6139,1,0,0:0:0:0:
280,88,6227,1,0,0:0:0:0:
112,88,6316,1,6,0:0:0:0:
312,40,6669,6,0,L|184:40,1,95,2|0,0:0|0:0,0:0:0:0:
384,40,7022,2,0,L|392:160,1,95,2|0,0:0|0:0,0:0:0:0:
312,128,7287,1,0,0:0:0:0:
217,128,7375,2,0,L|329:128,1,95,2|0,0:0|0:0,0:0:0:0:
72,208,7727,1,6,0:0:0:0:
272,232,8081,6,0,L|376:232,1,95,2|0,0:0|0:0,0:0:0:0:
208,344,8434,2,0,L|312:344,1,95,2|0,0:0|0:0,0:0:0:0:
248,320,8699,1,0,0:0:0:0:
128,320,8787,1,2,0:0:0:0:
96,272,8875,1,0,0:0:0:0:
128,224,8964,1,0,0:0:0:0:
192,216,9052,1,0,0:0:0:0:
368,216,9139,1,6,0:0:0:0:
168,200,9493,6,0,L|160:88,1,95,2|0,0:0|0:0,0:0:0:0:
320,104,9846,2,0,L|224:104,1,95,2|0,0:0|0:0,0:0:0:0:
288,128,10111,1,0,0:0:0:0:
384,128,10199,2,0,L|392:240,1,95,2|0,0:0|0:0,0:0:0:0:
144,224,10552,1,6,0:0:0:0:
344,320,10905,6,0,L|224:320,1,95,2|0,0:0|0:0,0:0:0:0:
408,320,11258,2,0,L|416:208,1,95,2|0,0:0|0:0,0:0:0:0:
336,208,11522,1,0,0:0:0:0:
216,208,11611,1,2,0:0:0:0:
160,184,11699,1,0,0:0:0:0:
160,128,11787,1,0,0:0:0:0:
216,104,11875,1,0,0:0:0:0:
392,104,11963,5,6,0:0:0:0:
440,128,12051,1,0,0:0:0:0:
392,160,12139,1,0,0:0:0:0:
440,192,12227,1,0,0:0:0:0:
240,280,12316,6,0,L|344:280,1,95,2|0,0:0|0:0,0:0:0:0:
168,280,12669,2,0,L|280:280,1,95,2|0,0:0|0:0,0:0:0:0:
208,256,12933,1,0,0:0:0:0:
104,256,13021,2,0,L|96:152,1,95,2|0,0:0|0:0,0:0:0:0:
336,96,13374,2,0,L|344:208,1,95,6|0,0:0|0:0,0:0:0:0:
184,96,13727,6,0,L|280:96,1,95,2|0,0:0|0:0,0:0:0:0:
112,96,14080,2,0,L|104:200,1,95,2|0,0:0|0:0,0:0:0:0:
184,200,14345,1,0,0:0:0:0:
288,200,14433,1,2,0:0:0:0:
296,248,14521,1,0,0:0:0:0:
232,248,14610,1,0,0:0:0:0:
224,288,14698,1,0,0:0:0:0:
400,288,14786,2,0,L|408:192,1,95,6|0,0:0|0:0,0:0:0:0:
264,72,15139,6,0,L|152:72,1,95,2|0,0:0|0:0,0:0:0:0:
336,72,15492,2,0,L|344:176,1,95,2|0,0:0|0:0,0:0:0:0:
264,168,15757,1,0,0:0:0:0:
160,168,15845,2,0,L|152:280,1,95,2|0,0:0|0:0,0:0:0:0:
392,264,16198,2,0,L|400:152,1,95,6|0,0:0|0:0,0:0:0:0:
248,280,16551,6,0,L|136:280,1,95,2|0,0:0|0:0,0:0:0:0:
312,280,16904,2,0,L|200:280,1,95,2|0,0:0|0:0,0:0:0:0:
272,256,17169,1,0,0:0:0:0:
376,256,17257,1,2,0:0:0:0:
432,248,17345,1,0,0:0:0:0:
448,224,17433,1,0,0:0:0:0:
432,192,17521,1,0,0:0:0:0:
231,190,17610,2,0,L|223:86,1,95,6|0,0:0|0:0,0:0:0:0:
392,96,17963,5,2,0:0:0:0:
288,96,18139,1,0,0:0:0:0:
120,96,18316,1,2,0:0:0:0:
224,96,18492,1,0,0:0:0:0:
392,96,18669,5,2,0:0:0:0:
400,168,18845,1,0,0:0:0:0:
152,304,19022,1,6,0:0:0:0:
48,304,19198,1,0,0:0:0:0:
224,304,19374,5,2,0:0:0:0:
328,304,19551,1,0,0:0:0:0:
152,304,19727,1,2,0:0:0:0:
136,232,19904,1,0,0:0:0:0:
312,144,20080,5,2,0:0:0:0:
208,144,20257,1,0,0:0:0:0:
464,144,20433,1,6,0:0:0:0:
472,216,20610,1,0,0:0:0:0:
296,288,20786,5,2,0:0:0:0:
400,288,20963,1,0,0:0:0:0:
224,288,21139,1,2,0:0:0:0:
216,216,21316,1,0,0:0:0:0:
48,136,21492,5,2,0:0:0:0:
152,136,21669,1,0,0:0:0:0:
424,136,21845,1,6,0:0:0:0:
432,184,22021,1,0,0:0:0:0:
192,56,22198,5,2,0:0:0:0:
320,56,22374,1,2,0:0:0:0:
184,104,22551,1,2,0:0:0:0:
328,104,22727,1,2,0:0:0:0:
176,152,22904,5,2,0:0:0:0:
336,152,23080,1,2,0:0:0:0:
56,192,23257,1,6,0:0:0:0:
184,192,23433,1,2,0:0:0:0:
472,184,23610,1,2,0:0:0:0:
272,80,34551,6,0,P|360:88|424:128,1,142.5
128,80,34904,2,0,P|120:144|208:192,1,142.5,8|0,0:0|0:0,0:0:0:0:
408,200,35257,1,2,0:0:0:0:
96,288,35786,5,8,0:0:0:0:
408,288,35963,1,2,0:0:0:0:
256,288,36139,2,0,P|232:232|280:176,1,142.5,8|0,0:0|0:0,0:0:0:0:
376,176,36492,1,8,0:0:0:0:
96,288,36669,6,0,L|88:184,1,95,10|0,0:0|0:0,0:0:0:0:
184,168,36933,1,8,0:0:0:0:
376,168,37198,1,8,0:0:0:0:
104,192,37374,2,0,P|80:128|136:80,1,142.5,10|0,0:0|0:0,0:0:0:0:
384,192,37727,6,0,P|424:168|400:80,1,142.5,8|0,0:0|0:0,0:0:0:0:
112,88,38080,1,2,0:0:0:0:
416,288,38610,5,8,0:0:0:0:
104,288,38787,1,2,0:0:0:0:
256,288,38963,2,0,P|280:232|232:176,1,142.5,8|0,0:0|0:0,0:0:0:0:
136,176,39316,1,8,0:0:0:0:
416,288,39493,6,0,L|424:184,1,95,10|0,0:0|0:0,0:0:0:0:
328,168,39757,1,8,0:0:0:0:
136,168,40022,1,8,0:0:0:0:
408,192,40198,2,0,P|432:128|376:80,1,142.5,10|0,0:0|0:0,0:0:0:0:
160,160,40551,6,0,P|120:136|144:48,1,142.5,8|0,0:0|0:0,0:0:0:0:
392,32,40904,1,2,0:0:0:0:
104,304,41433,5,8,0:0:0:0:
392,304,41610,1,2,0:0:0:0:
256,288,41786,2,0,L|400:248,1,142.5,8|0,0:0|0:0,0:0:0:0:
304,232,42139,1,8,0:0:0:0:
64,192,42316,6,0,L|48:72,1,95,10|0,0:0|0:0,0:0:0:0:
160,80,42580,1,8,0:0:0:0:
352,80,42845,1,8,0:0:0:0:
80,192,43021,2,0,P|72:248|168:288,1,142.5,10|0,0:0|0:0,0:0:0:0:
416,296,43374,6,0,P|432:248|360:184,1,142.5,8|0,0:0|0:0,0:0:0:0:
136,184,43727,1,2,0:0:0:0:
408,304,44257,5,8,0:0:0:0:
120,304,44434,1,2,0:0:0:0:
256,288,44610,2,0,L|112:248,1,142.5,8|0,0:0|0:0,0:0:0:0:
208,232,44963,1,8,0:0:0:0:
448,192,45140,6,0,L|464:72,1,95,10|0,0:0|0:0,0:0:0:0:
352,80,45404,1,8,0:0:0:0:
136,176,45669,1,8,0:0:0:0:
288,176,45845,1,10,0:0:0:0:
352,176,45933,1,10,0:0:0:0:
288,176,46021,1,10,0:0:0:0:
352,176,46110,1,10,0:0:0:0:
152,280,46198,6,0,L|40:288,1,95,8|0,0:0|0:0,0:0:0:0:
216,304,46551,2,0,L|320:312,1,95,8|0,0:0|0:0,0:0:0:0:
160,264,46904,6,0,L|48:272,1,95,8|0,0:0|0:0,0:0:0:0:
224,288,47257,2,0,L|328:296,1,95,8|0,0:0|0:0,0:0:0:0:
472,288,47610,6,0,L|368:296,1,95,8|0,0:0|0:0,0:0:0:0:
224,272,47963,2,0,L|336:288,1,95,8|0,0:0|0:0,0:0:0:0:
480,272,48316,6,0,L|360:288,1,95,8|0,0:0|0:0,0:0:0:0:
232,256,48669,2,0,L|336:272,1,95,8|0,0:0|0:0,0:0:0:0:
168,216,49021,6,0,L|56:224,1,95,8|0,0:0|0:0,0:0:0:0:
240,200,49374,2,0,L|352:216,1,95,8|0,0:0|0:0,0:0:0:0:
176,192,49727,6,0,L|64:208,1,95,8|0,0:0|0:0,0:0:0:0:
248,176,50080,2,0,L|344:192,1,95,8|0,0:0|0:0,0:0:0:0:
496,176,50433,6,0,L|368:200,1,95,8|0,0:0|0:0,0:0:0:0:
256,160,50786,2,0,L|368:176,1,95,8|0,0:0|0:0,0:0:0:0:
512,144,51139,6,0,L|416:160,1,95,8|0,0:0|0:0,0:0:0:0:
264,144,51492,2,0,L|384:168,1,95,8|0,0:0|0:0,0:0:0:0:
120,72,51845,6,0,L|112:208,1,95,8|0,0:0|0:0,0:0:0:0:
272,152,52198,2,0,L|280:248,1,95,8|0,0:0|0:0,0:0:0:0:
120,248,52551,2,0,L|224:256,1,95,8|0,0:0|0:0,0:0:0:0:
376,304,52904,2,0,L|384:200,1,95,8|0,0:0|0:0,0:0:0:0:
216,192,53257,6,0,L|312:184,1,95,8|0,0:0|0:0,0:0:0:0:
144,136,53610,2,0,L|32:120,1,95,8|0,0:0|0:0,0:0:0:0:
216,64,53963,2,0,L|224:168,1,95,8|0,0:0|0:0,0:0:0:0:
392,152,54316,2,0,L|400:256,1,95,8|0,0:0|0:0,0:0:0:0:
120,176,54669,6,0,L|112:288,1,95,8|0,0:0|0:0,0:0:0:0:
288,280,55021,2,0,L|168:288,1,95,8|0,0:0|0:0,0:0:0:0:
376,120,55374,2,0,L|488:136,1,95,8|0,0:0|0:0,0:0:0:0:
192,120,55727,2,0,L|88:136,1,95,8|0,0:0|0:0,0:0:0:0:
392,120,56080,5,2,0:0:0:0:
408,160,56169,1,0,0:0:0:0:
336,160,56257,1,0,0:0:0:0:
328,208,56345,1,0,0:0:0:0:
400,216,56433,5,0,0:0:0:0:
424,272,56521,1,0,0:0:0:0:
392,312,56610,1,0,0:0:0:0:
328,320,56698,1,0,0:0:0:0:
424,320,56786,1,2,0:0:0:0:
328,320,56963,1,0,0:0:0:0:
80,320,57139,2,0,P|48:256|88:192,1,142.5,4|0,0:0|0:0,0:0:0:0:
320,160,57492,5,2,0:0:0:0:
192,160,57669,1,0,0:0:0:0:
448,160,57845,2,0,L|456:280,1,95,6|0,0:0|0:0,0:0:0:0:
192,160,58198,5,2,0:0:0:0:
320,160,58375,1,0,0:0:0:0:
64,160,58551,2,0,L|56:280,1,95,6|0,0:0|0:0,0:0:0:0:
320,160,58904,5,2,0:0:0:0:
192,160,59081,1,0,0:0:0:0:
448,160,59257,2,0,L|456:280,1,95,6|0,0:0|0:0,0:0:0:0:
192,160,59610,5,2,0:0:0:0:
320,160,59787,1,0,0:0:0:0:
80,160,59963,2,0,L|56:232,1,47.5,6|0,0:0|0:0,0:0:0:0:
80,240,60139,1,0,0:0:0:0:
128,256,60227,1,0,0:0:0:0:
296,168,60316,6,0,L|352:168,1,47.5,2|0,0:0|0:0,0:0:0:0:
256,224,60492,2,0,L|312:224,1,47.5
392,264,60669,1,10,0:0:0:0:
424,296,60757,1,0,0:0:0:0:
408,336,60845,1,0,0:0:0:0:
360,344,60933,1,0,0:0:0:0:
256,344,61021,6,0,L|200:344,1,47.5,2|0,0:0|0:0,0:0:0:0:
296,304,61198,2,0,L|352:304,1,47.5
184,280,61374,1,10,0:0:0:0:
152,232,61463,1,0,0:0:0:0:
176,184,61551,1,0,0:0:0:0:
232,176,61639,1,0,0:0:0:0:
320,176,61727,6,0,L|328:112,1,47.5,2|0,0:0|0:0,0:0:0:0:
168,96,61904,2,0,L|112:96,1,47.5
296,96,62080,1,10,0:0:0:0:
360,104,62169,1,0,0:0:0:0:
392,160,62257,1,0,0:0:0:0:
360,208,62345,1,0,0:0:0:0:
183,264,62433,6,0,L|135:264,1,47.5,2|0,0:0|0:0,0:0:0:0:
328,264,62610,2,0,L|400:264,1,47.5
176,344,62786,1,10,0:0:0:0:
112,328,62874,1,0,0:0:0:0:
88,280,62963,1,0,0:0:0:0:
112,232,63051,1,0,0:0:0:0:
320,160,63139,5,2,0:0:0:0:
192,160,63316,1,0,0:0:0:0:
448,160,63492,2,0,L|456:280,1,95,6|0,0:0|0:0,0:0:0:0:
192,160,63845,5,2,0:0:0:0:
320,160,64022,1,0,0:0:0:0:
64,160,64198,2,0,L|56:280,1,95,6|0,0:0|0:0,0:0:0:0:
320,160,64551,5,2,0:0:0:0:
192,160,64728,1,0,0:0:0:0:
448,160,64904,2,0,L|456:280,1,95,6|0,0:0|0:0,0:0:0:0:
192,160,65257,5,2,0:0:0:0:
320,160,65434,1,0,0:0:0:0:
72,168,65610,2,0,L|40:256,1,47.5,6|0,0:0|0:0,0:0:0:0:
72,256,65786,1,0,0:0:0:0:
128,264,65874,1,0,0:0:0:0:
312,264,65963,6,0,L|368:264,1,47.5,2|0,0:0|0:0,0:0:0:0:
272,264,66139,2,0,L|216:264,1,47.5
336,232,66316,1,10,0:0:0:0:
360,184,66404,1,0,0:0:0:0:
336,144,66492,1,0,0:0:0:0:
272,128,66580,1,0,0:0:0:0:
184,128,66669,6,0,L|176:176,1,47.5,2|0,0:0|0:0,0:0:0:0:
272,176,66845,2,0,L|320:176,1,47.5
152,248,67021,1,10,0:0:0:0:
88,248,67109,1,2,0:0:0:0:
152,248,67197,1,2,0:0:0:0:
88,248,67286,1,2,0:0:0:0:
272,320,67374,6,0,L|160:320,1,95,2|0,0:0|0:0,0:0:0:0:
440,320,67727,1,2,0:0:0:0:
472,280,67816,1,2,0:0:0:0:
448,224,67904,1,2,0:0:0:0:
384,208,67992,1,2,0:0:0:0:
192,96,68080,5,2,0:0:0:0:
96,96,68257,1,0,0:0:0:0:
344,96,68433,1,2,0:0:0:0:
440,96,68610,1,0,0:0:0:0:
192,160,68786,5,2,0:0:0:0:
320,160,68963,1,0,0:0:0:0:
64,160,69139,2,0,L|56:280,1,95,6|0,0:0|0:0,0:0:0:0:
320,256,69492,5,2,0:0:0:0:
448,256,69669,1,0,0:0:0:0:
192,160,69845,2,0,L|200:280,1,95,6|0,0:0|0:0,0:0:0:0:
448,256,70198,5,2,0:0:0:0:
320,256,70375,1,0,0:0:0:0:
64,160,70551,2,0,L|56:280,1,95,6|0,0:0|0:0,0:0:0:0:
320,160,70904,5,2,0:0:0:0:
192,160,71081,1,0,0:0:0:0:
448,168,71257,2,0,L|472:248,1,47.5,6|0,0:0|0:0,0:0:0:0:
440,256,71433,1,0,0:0:0:0:
384,264,71521,1,0,0:0:0:0:
136,160,71610,6,0,L|128:216,1,47.5,2|0,0:0|0:0,0:0:0:0:
216,216,71786,2,0,L|224:272,1,47.5
104,272,71963,1,10,0:0:0:0:
80,304,72051,1,0,0:0:0:0:
104,344,72139,1,0,0:0:0:0:
160,344,72227,1,0,0:0:0:0:
256,344,72315,6,0,L|312:344,1,47.5,2|0,0:0|0:0,0:0:0:0:
216,304,72492,2,0,L|160:304,1,47.5
336,280,72668,1,10,0:0:0:0:
360,232,72757,1,0,0:0:0:0:
336,184,72845,1,0,0:0:0:0:
280,176,72933,1,0,0:0:0:0:
192,176,73021,6,0,L|184:112,1,47.5,2|0,0:0|0:0,0:0:0:0:
352,96,73198,2,0,L|408:96,1,47.5
224,96,73374,1,10,0:0:0:0:
160,120,73463,1,0,0:0:0:0:
136,168,73551,1,0,0:0:0:0:
168,216,73639,1,0,0:0:0:0:
352,264,73727,6,0,L|400:264,1,47.5,2|0,0:0|0:0,0:0:0:0:
216,264,73904,2,0,L|144:264,1,47.5
352,336,74080,1,10,0:0:0:0:
416,328,74168,1,0,0:0:0:0:
448,280,74257,1,0,0:0:0:0:
416,224,74345,1,0,0:0:0:0:
192,160,74433,5,2,0:0:0:0:
320,160,74610,1,0,0:0:0:0:
64,160,74786,2,0,L|56:280,1,95,6|0,0:0|0:0,0:0:0:0:
320,160,75139,5,2,0:0:0:0:
192,160,75316,1,0,0:0:0:0:
448,160,75492,2,0,L|456:280,1,95,6|0,0:0|0:0,0:0:0:0:
192,160,75845,5,2,0:0:0:0:
64,160,76022,1,0,0:0:0:0:
320,160,76198,2,0,L|328:280,1,95,6|0,0:0|0:0,0:0:0:0:
64,160,76551,5,2,0:0:0:0:
192,160,76728,1,0,0:0:0:0:
448,160,76904,2,0,L|480:248,1,47.5,6|0,0:0|0:0,0:0:0:0:
448,248,77080,1,0,0:0:0:0:
392,264,77168,1,0,0:0:0:0:
192,264,77257,6,0,L|136:264,1,47.5,2|0,0:0|0:0,0:0:0:0:
240,264,77433,2,0,L|296:264,1,47.5
104,232,77610,1,10,0:0:0:0:
80,184,77698,1,0,0:0:0:0:
104,136,77786,1,0,0:0:0:0:
168,128,77874,1,0,0:0:0:0:
328,128,77963,6,0,L|336:176,1,47.5,2|0,0:0|0:0,0:0:0:0:
264,176,78139,2,0,L|216:176,1,47.5
368,128,78316,1,10,0:0:0:0:
392,184,78404,1,0,0:0:0:0:
360,232,78492,1,0,0:0:0:0:
296,240,78580,1,0,0:0:0:0:
112,328,78669,6,0,L|208:328,1,95,2|0,0:0|0:0,0:0:0:0:
352,328,79021,1,2,0:0:0:0:
296,304,79110,1,2,0:0:0:0:
352,288,79198,1,2,0:0:0:0:
104,208,79374,2,0,L|120:104,1,95,2|0,0:0|0:0,0:0:0:0:
192,88,79639,1,0,0:0:0:0:
408,208,79727,2,0,P|416:136|352:96,1,142.5,4|0,0:0|0:0,0:0:0:0:
192,88,80080,5,2,0:0:0:0:
320,88,80257,1,0,0:0:0:0:
72,88,80433,2,0,L|176:88,1,95,14|0,0:0|0:0,0:0:0:0:
424,88,80786,5,2,0:0:0:0:
296,88,80963,1,0,0:0:0:0:
48,184,81139,2,0,L|40:288,1,95,6|0,0:0|0:0,0:0:0:0:
296,288,81492,5,2,0:0:0:0:
168,288,81669,1,0,0:0:0:0:
416,288,81845,2,0,L|312:288,1,95,14|0,0:0|0:0,0:0:0:0:
64,88,82198,5,2,0:0:0:0:
192,88,82374,1,0,0:0:0:0:
448,88,82551,1,6,0:0:0:0:
480,128,82639,1,0,0:0:0:0:
464,168,82727,1,0,0:0:0:0:
416,192,82816,1,0,0:0:0:0:
264,240,82904,6,0,L|208:240,1,47.5,2|0,0:0|0:0,0:0:0:0:
304,280,83080,2,0,L|240:280,1,47.5
96,288,83257,1,10,0:0:0:0:
64,272,83345,1,0,0:0:0:0:
64,240,83433,1,0,0:0:0:0:
96,224,83521,1,0,0:0:0:0:
264,192,83610,6,0,L|312:192,1,47.5,2|0,0:0|0:0,0:0:0:0:
216,192,83786,2,0,L|152:192,1,47.5
352,192,83963,1,10,0:0:0:0:
416,184,84051,1,0,0:0:0:0:
440,136,84139,1,0,0:0:0:0:
416,88,84227,1,0,0:0:0:0:
232,48,84316,6,0,L|288:48,1,47.5,2|0,0:0|0:0,0:0:0:0:
360,48,84492,2,0,L|368:128,1,47.5
176,96,84669,2,0,L|168:160,1,47.5,10|0,0:0|0:0,0:0:0:0:
256,144,84845,2,0,L|312:144,1,47.5
112,224,85021,6,0,L|192:224,1,47.5,2|0,0:0|0:0,0:0:0:0:
336,224,85198,2,0,L|384:224,1,47.5
112,224,85374,1,10,0:0:0:0:
48,288,85463,1,0,0:0:0:0:
48,248,85551,1,0,0:0:0:0:
112,320,85639,1,0,0:0:0:0:
320,88,85727,5,2,0:0:0:0:
192,88,85904,1,0,0:0:0:0:
440,88,86080,2,0,L|336:88,1,95,14|0,0:0|0:0,0:0:0:0:
88,88,86433,5,2,0:0:0:0:
216,88,86610,1,0,0:0:0:0:
464,184,86786,2,0,L|472:288,1,95,6|0,0:0|0:0,0:0:0:0:
224,288,87139,5,2,0:0:0:0:
96,288,87316,1,0,0:0:0:0:
344,288,87492,2,0,L|456:288,1,95,14|0,0:0|0:0,0:0:0:0:
176,136,87845,5,2,0:0:0:0:
432,136,88021,1,0,0:0:0:0:
168,72,88198,1,6,0:0:0:0:
104,72,88286,1,0,0:0:0:0:
88,120,88374,1,0,0:0:0:0:
104,160,88463,1,0,0:0:0:0:
256,240,88551,6,0,L|303:240,1,47.5,2|0,0:0|0:0,0:0:0:0:
216,288,88727,2,0,L|280:288,1,47.5
424,288,88904,1,10,0:0:0:0:
464,248,88992,1,0,0:0:0:0:
448,200,89080,1,0,0:0:0:0:
392,192,89168,1,0,0:0:0:0:
224,192,89257,6,0,L|176:192,1,47.5,2|0,0:0|0:0,0:0:0:0:
272,144,89433,2,0,L|336:144,1,47.5
144,136,89610,1,10,0:0:0:0:
80,120,89698,1,2,0:0:0:0:
144,96,89786,1,2,0:0:0:0:
80,80,89874,1,2,0:0:0:0:
256,192,89963,6,0,L|160:192,1,95,2|0,0:0|0:0,0:0:0:0:
448,192,90316,1,2,0:0:0:0:
472,240,90404,1,2,0:0:0:0:
448,280,90492,1,2,0:0:0:0:
392,288,90580,1,2,0:0:0:0:
208,312,90669,2,0,L|320:312,1,95,2|0,0:0|0:0,0:0:0:0:
64,312,91021,2,0,L|56:200,1,95,2|0,0:0|0:0,0:0:0:0:
320,184,91374,5,2,0:0:0:0:
192,184,91551,1,0,0:0:0:0:
440,184,91727,2,0,L|344:184,1,95,14|0,0:0|0:0,0:0:0:0:
88,88,92080,5,2,0:0:0:0:
216,88,92257,1,0,0:0:0:0:
472,89,92433,2,0,L|480:193,1,95,6|0,0:0|0:0,0:0:0:0:
224,240,92786,5,2,0:0:0:0:
352,240,92963,1,0,0:0:0:0:
96,240,93139,2,0,L|216:240,1,95,14|0,0:0|0:0,0:0:0:0:
448,240,93492,5,2,0:0:0:0:
320,240,93668,1,0,0:0:0:0:
64,96,93845,1,6,0:0:0:0:
48,136,93933,1,0,0:0:0:0:
64,176,94021,1,0,0:0:0:0:
120,184,94110,1,0,0:0:0:0:
272,240,94198,6,0,L|224:240,1,47.5,2|0,0:0|0:0,0:0:0:0:
312,240,94374,2,0,L|320:288,1,47.5
152,320,94551,1,10,0:0:0:0:
128,272,94639,1,0,0:0:0:0:
152,224,94727,1,0,0:0:0:0:
216,224,94815,1,0,0:0:0:0:
392,216,94904,6,0,L|400:168,1,47.5,2|0,0:0|0:0,0:0:0:0:
312,152,95080,2,0,L|376:152,1,47.5
176,152,95257,1,10,0:0:0:0:
112,152,95345,1,0,0:0:0:0:
80,104,95433,1,0,0:0:0:0:
112,56,95521,1,0,0:0:0:0:
304,48,95610,6,0,L|248:48,1,47.5,2|0,0:0|0:0,0:0:0:0:
184,48,95786,2,0,L|176:128,1,47.5
376,88,95963,2,0,L|384:152,1,47.5,10|0,0:0|0:0,0:0:0:0:
296,144,96139,2,0,L|240:144,1,47.5
448,224,96315,6,0,L|376:224,1,47.5,2|0,0:0|0:0,0:0:0:0:
224,224,96492,2,0,L|176:224,1,47.5
448,224,96668,1,10,0:0:0:0:
488,272,96757,1,0,0:0:0:0:
448,320,96845,1,0,0:0:0:0:
376,328,96933,1,0,0:0:0:0:
216,184,97021,5,2,0:0:0:0:
344,184,97198,1,0,0:0:0:0:
88,184,97374,2,0,L|184:184,1,95,14|0,0:0|0:0,0:0:0:0:
440,88,97727,5,2,0:0:0:0:
312,88,97904,1,0,0:0:0:0:
56,88,98080,2,0,L|48:192,1,95,6|0,0:0|0:0,0:0:0:0:
304,240,98433,5,2,0:0:0:0:
176,240,98610,1,0,0:0:0:0:
432,240,98786,2,0,L|312:240,1,95,14|0,0:0|0:0,0:0:0:0:
80,240,99139,5,2,0:0:0:0:
344,240,99315,1,0,0:0:0:0:
72,232,99492,1,6,0:0:0:0:
48,192,99580,1,0,0:0:0:0:
72,144,99669,1,0,0:0:0:0:
128,136,99757,1,0,0:0:0:0:
296,136,99845,5,2,0:0:0:0:
360,144,99933,1,0,0:0:0:0:
384,192,100021,1,0,0:0:0:0:
360,240,100110,1,0,0:0:0:0:
200,288,100198,1,10,0:0:0:0:
144,280,100286,1,0,0:0:0:0:
120,240,100374,1,0,0:0:0:0:
144,192,100462,1,0,0:0:0:0:
296,192,100551,6,0,L|344:192,1,47.5,2|0,0:0|0:0,0:0:0:0:
256,192,100727,2,0,L|184:192,1,47.5
360,88,100904,1,10,0:0:0:0:
416,96,100992,1,0,0:0:0:0:
432,144,101080,1,0,0:0:0:0:
416,192,101168,1,0,0:0:0:0:
168,192,101257,6,0,L|160:88,1,95,2|0,0:0|0:0,0:0:0:0:
336,96,101610,1,2,0:0:0:0:
280,120,101698,1,2,0:0:0:0:
336,144,101786,1,2,0:0:0:0:
72,280,101963,2,0,L|168:280,1,95,2|0,0:0|0:0,0:0:0:0:
461,281,102316,6,0,P|469:211|365:169,1,190,4|0,0:0|0:0,0:0:0:0:
320,160,102757,1,0,0:0:0:0:
373,165,102845,1,0,0:0:0:0:
392,208,102933,1,0,0:0:0:0:
376,248,103021,5,0,0:0:0:0:
288,256,103110,1,0,0:0:0:0:
272,296,103198,1,0,0:0:0:0:
288,336,103286,1,0,0:0:0:0:
376,344,103374,5,0,0:0:0:0:
328,312,103463,1,0,0:0:0:0:
376,280,103551,1,0,0:0:0:0:
464,256,103639,1,0,0:0:0:0:
472,216,103727,5,0,0:0:0:0:
456,176,103816,1,0,0:0:0:0:
400,152,103904,1,0,0:0:0:0:
344,144,103992,1,0,0:0:0:0:
296,112,104080,5,0,0:0:0:0:
280,72,104169,1,0,0:0:0:0:
336,64,104257,1,0,0:0:0:0:
392,56,104345,1,0,0:0:0:0:
440,80,104433,5,0,0:0:0:0:
448,120,104521,1,0,0:0:0:0:
424,168,104610,1,0,0:0:0:0:
368,184,104698,1,0,0:0:0:0:
208,192,104786,5,8,0:0:0:0:
272,232,104963,1,0,0:0:0:0:
216,232,105051,1,8,0:0:0:0:
272,232,105139,1,0,0:0:0:0:
320,248,105227,1,0,0:0:0:0:
336,296,105316,1,0,0:0:0:0:
312,336,105404,1,0,0:0:0:0:
224,336,105492,5,0,0:0:0:0:
168,336,105580,1,0,0:0:0:0:
120,312,105668,1,0,0:0:0:0:
104,272,105756,1,0,0:0:0:0:
120,232,105844,5,0,0:0:0:0:
216,256,105933,1,0,0:0:0:0:
232,296,106021,1,0,0:0:0:0:
216,336,106109,1,0,0:0:0:0:
136,336,106198,5,0,0:0:0:0:
184,304,106287,1,0,0:0:0:0:
136,272,106375,1,0,0:0:0:0:
48,248,106463,1,0,0:0:0:0:
40,216,106551,5,0,0:0:0:0:
56,176,106640,1,0,0:0:0:0:
112,152,106728,1,0,0:0:0:0:
168,144,106816,1,0,0:0:0:0:
216,112,106904,5,0,0:0:0:0:
232,72,106993,1,0,0:0:0:0:
176,64,107081,1,0,0:0:0:0:
120,56,107169,1,0,0:0:0:0:
72,80,107257,5,0,0:0:0:0:
64,120,107345,1,0,0:0:0:0:
88,168,107434,1,0,0:0:0:0:
144,184,107521,1,0,0:0:0:0:
312,176,107610,5,8,0:0:0:0:
248,208,107787,1,0,0:0:0:0:
304,224,107875,1,8,0:0:0:0:
320,272,107963,1,0,0:0:0:0:
304,320,108051,1,0,0:0:0:0:
240,336,108139,1,0,0:0:0:0:
296,352,108227,1,0,0:0:0:0:
376,360,108316,5,0,0:0:0:0:
432,344,108404,1,0,0:0:0:0:
456,304,108492,1,0,0:0:0:0:
432,248,108580,1,0,0:0:0:0:
384,216,108669,5,0,0:0:0:0:
296,208,108757,1,0,0:0:0:0:
280,168,108845,1,0,0:0:0:0:
312,128,108933,1,0,0:0:0:0:
224,120,109021,5,0,0:0:0:0:
176,88,109110,1,0,0:0:0:0:
232,56,109198,1,0,0:0:0:0:
320,56,109286,1,0,0:0:0:0:
344,96,109374,5,0,0:0:0:0:
320,128,109463,1,0,0:0:0:0:
264,144,109551,1,0,0:0:0:0:
208,160,109639,1,0,0:0:0:0:
184,208,109727,5,0,0:0:0:0:
208,248,109816,1,0,0:0:0:0:
264,264,109904,1,0,0:0:0:0:
320,280,109992,1,0,0:0:0:0:
376,272,110080,5,0,0:0:0:0:
424,240,110169,1,0,0:0:0:0:
424,192,110257,1,0,0:0:0:0:
376,168,110345,1,0,0:0:0:0:
200,168,110433,5,8,0:0:0:0:
264,200,110610,1,0,0:0:0:0:
208,216,110698,1,8,0:0:0:0:
192,264,110786,1,0,0:0:0:0:
208,312,110874,1,0,0:0:0:0:
272,328,110962,1,0,0:0:0:0:
216,344,111050,1,0,0:0:0:0:
136,352,111139,5,0,0:0:0:0:
80,336,111227,1,0,0:0:0:0:
56,296,111315,1,0,0:0:0:0:
80,240,111403,1,0,0:0:0:0:
128,208,111492,5,0,0:0:0:0:
216,200,111580,1,0,0:0:0:0:
232,160,111668,1,0,0:0:0:0:
200,120,111756,1,0,0:0:0:0:
288,112,111844,5,0,0:0:0:0:
336,80,111933,1,0,0:0:0:0:
280,48,112021,1,0,0:0:0:0:
192,48,112109,1,0,0:0:0:0:
168,88,112197,5,0,0:0:0:0:
192,120,112286,1,0,0:0:0:0:
248,136,112374,1,0,0:0:0:0:
304,152,112462,1,0,0:0:0:0:
328,200,112550,5,0,0:0:0:0:
304,256,112639,1,0,0:0:0:0:
248,272,112727,1,0,0:0:0:0:
192,272,112815,1,0,0:0:0:0:
136,264,112903,5,0,0:0:0:0:
88,232,112992,1,0,0:0:0:0:
88,184,113080,1,0,0:0:0:0:
136,160,113168,1,0,0:0:0:0:
320,144,113257,5,8,0:0:0:0:
376,200,113433,1,0,0:0:0:0:
320,224,113521,1,8,0:0:0:0:
120,224,113610,2,0,P|88:272|136:344,1,142.5
304,344,113963,6,0,L|176:344,1,95,2|0,0:0|0:0,0:0:0:0:
456,344,114316,1,6,0:0:0:0:
208,240,114669,2,0,L|312:240,1,95,2|0,0:0|0:0,0:0:0:0:
56,240,115021,1,6,0:0:0:0:
304,128,115374,6,0,L|176:128,1,95,2|0,0:0|0:0,0:0:0:0:
456,128,115727,1,6,0:0:0:0:
208,24,116080,2,0,L|312:24,1,95,2|0,0:0|0:0,0:0:0:0:
56,24,116433,2,0,P|8:80|64:136,1,142.5,14|0,0:0|0:0,0:0:0:0:
256,144,116786,6,0,L|264:264,1,95,2|0,0:0|0:0,0:0:0:0:
336,240,117051,1,0,0:0:0:0:
512,240,117139,1,6,0:0:0:0:
256,336,117492,2,0,L|360:336,1,95,2|0,0:0|0:0,0:0:0:0:
280,312,117757,1,0,0:0:0:0:
104,312,117845,1,6,0:0:0:0:
360,272,118198,6,0,L|232:272,1,95,2|0,0:0|0:0,0:0:0:0:
192,272,118463,1,0,0:0:0:0:
368,176,118551,1,6,0:0:0:0:
112,64,118904,2,0,L|104:168,1,95,2|0,0:0|0:0,0:0:0:0:
184,160,119169,1,0,0:0:0:0:
360,64,119257,2,0,L|464:64,1,95,14|0,0:0|0:0,0:0:0:0:
216,64,119610,5,2,0:0:0:0:
120,64,119786,1,2,0:0:0:0:
440,72,119963,1,6,0:0:0:0:
448,144,120139,1,2,0:0:0:0:
280,320,120316,5,2,0:0:0:0:
376,320,120492,1,2,0:0:0:0:
88,320,120669,1,6,0:0:0:0:
80,248,120845,1,2,0:0:0:0:
248,192,121021,5,2,0:0:0:0:
152,192,121198,1,2,0:0:0:0:
440,152,121374,1,6,0:0:0:0:
432,80,121551,1,2,0:0:0:0:
280,80,121727,5,2,0:0:0:0:
184,80,121904,1,2,0:0:0:0:
496,208,122080,1,14,0:0:0:0:
400,208,122257,1,2,0:0:0:0:
160,88,122433,6,2,L|144:152,1,47.5
232,136,122610,2,2,L|264:184,1,47.5
160,200,122786,6,2,L|192:256,1,47.5
264,248,122963,2,2,L|328:248,1,47.5
232,320,123139,6,2,L|312:320,1,47.5
368,320,123316,2,2,L|448:320,1,47.5
240,48,123492,5,6,0:0:0:0:
192,48,123580,1,2,0:0:0:0:
280,48,123669,1,2,0:0:0:0:
328,48,123757,1,2,0:0:0:0:
136,144,123845,5,2,0:0:0:0:
256,144,124021,1,0,0:0:0:0:
264,192,124110,1,0,0:0:0:0:
88,240,124198,1,2,0:0:0:0:
200,312,124374,1,0,0:0:0:0:
208,352,124463,1,0,0:0:0:0:
296,352,124551,6,0,L|416:352,1,95,2|2,0:0|0:0,0:0:0:0:
112,192,124904,2,0,P|64:160|128:104,1,142.5,4|0,0:0|0:0,0:0:0:0:
352,8,125257,5,2,0:0:0:0:
216,16,125433,1,8,0:0:0:0:
200,64,125521,1,0,0:0:0:0:
352,8,125610,5,2,0:0:0:0:
216,72,125786,1,8,0:0:0:0:
192,112,125874,1,0,0:0:0:0:
352,8,125963,5,2,0:0:0:0:
216,128,126139,1,8,0:0:0:0:
184,168,126227,1,0,0:0:0:0:
352,8,126316,5,2,0:0:0:0:
216,184,126492,1,8,0:0:0:0:
176,224,126580,1,0,0:0:0:0:
352,8,126669,5,2,0:0:0:0:
216,240,126845,1,8,0:0:0:0:
168,272,126933,1,0,0:0:0:0:
352,8,127021,5,2,0:0:0:0:
216,296,127198,1,8,0:0:0:0:
160,320,127286,1,0,0:0:0:0:
352,8,127374,5,2,0:0:0:0:
216,352,127551,1,8,0:0:0:0:
152,360,127639,1,0,0:0:0:0:
312,128,127727,1,2,0:0:0:0:
376,136,127816,1,2,0:0:0:0:
312,160,127904,1,2,0:0:0:0:
376,168,127992,1,2,0:0:0:0:
160,8,128080,5,2,0:0:0:0:
296,16,128256,1,8,0:0:0:0:
312,64,128344,1,0,0:0:0:0:
160,8,128433,5,2,0:0:0:0:
296,72,128609,1,8,0:0:0:0:
320,112,128697,1,0,0:0:0:0:
160,8,128786,5,2,0:0:0:0:
296,128,128962,1,8,0:0:0:0:
328,168,129050,1,0,0:0:0:0:
160,8,129139,5,2,0:0:0:0:
296,184,129315,1,8,0:0:0:0:
336,224,129403,1,0,0:0:0:0:
160,8,129492,5,2,0:0:0:0:
296,240,129668,1,8,0:0:0:0:
344,272,129756,1,0,0:0:0:0:
160,8,129844,5,2,0:0:0:0:
296,296,130021,1,8,0:0:0:0:
352,320,130109,1,0,0:0:0:0:
160,8,130197,5,2,0:0:0:0:
296,352,130374,1,8,0:0:0:0:
360,360,130462,1,0,0:0:0:0:
88,272,130551,5,0,0:0:0:0:
64,232,130639,1,0,0:0:0:0:
88,184,130727,1,0,0:0:0:0:
160,184,130816,1,0,0:0:0:0:
392,16,130904,5,2,0:0:0:0:
280,24,131080,1,8,0:0:0:0:
272,72,131169,1,0,0:0:0:0:
120,80,131257,5,2,0:0:0:0:
240,96,131433,1,8,0:0:0:0:
256,136,131521,1,0,0:0:0:0:
416,136,131610,5,2,0:0:0:0:
296,144,131786,1,8,0:0:0:0:
272,184,131874,1,0,0:0:0:0:
104,192,131963,5,2,0:0:0:0:
224,208,132139,1,8,0:0:0:0:
256,232,132227,1,0,0:0:0:0:
424,248,132316,5,2,0:0:0:0:
304,272,132492,1,8,0:0:0:0:
264,288,132580,1,0,0:0:0:0:
96,304,132669,5,2,0:0:0:0:
208,328,132845,1,8,0:0:0:0:
256,336,132933,1,0,0:0:0:0:
432,352,133021,5,2,0:0:0:0:
320,360,133198,1,8,0:0:0:0:
264,376,133286,1,0,0:0:0:0:
72,280,133374,1,2,0:0:0:0:
136,288,133462,1,2,0:0:0:0:
72,328,133550,1,2,0:0:0:0:
136,336,133639,1,2,0:0:0:0:
312,192,133727,5,2,0:0:0:0:
192,192,133904,1,8,0:0:0:0:
144,208,133992,1,0,0:0:0:0:
328,144,134080,5,2,0:0:0:0:
192,192,134257,1,8,0:0:0:0:
144,208,134345,1,0,0:0:0:0:
360,208,134433,5,2,0:0:0:0:
424,200,134521,1,2,0:0:0:0:
360,248,134610,1,2,0:0:0:0:
424,240,134698,1,2,0:0:0:0:
192,304,134786,1,10,0:0:0:0:
136,312,134874,1,2,0:0:0:0:
312,304,134963,1,10,0:0:0:0:
368,312,135051,1,2,0:0:0:0:
104,232,135139,6,0,L|240:224,1,95
464,192,135492,1,2,0:0:0:0:
448,128,135581,1,0,0:0:0:0:
384,72,135669,1,0,0:0:0:0:
304,72,135757,1,0,0:0:0:0:
80,72,135845,5,2,0:0:0:0:
320,120,136021,1,0,0:0:0:0:
72,136,136198,2,0,L|64:248,1,95,2|0,0:0|0:0,0:0:0:0:
328,120,136551,5,2,0:0:0:0:
184,128,136727,1,8,0:0:0:0:
168,176,136815,1,0,0:0:0:0:
328,120,136904,5,2,0:0:0:0:
184,184,137080,1,8,0:0:0:0:
160,224,137168,1,0,0:0:0:0:
328,120,137257,5,2,0:0:0:0:
184,240,137433,1,8,0:0:0:0:
152,280,137521,1,0,0:0:0:0:
328,120,137610,5,2,0:0:0:0:
184,296,137786,1,8,0:0:0:0:
144,336,137874,1,0,0:0:0:0:
385,352,137963,5,2,0:0:0:0:
328,344,138051,1,2,0:0:0:0:
127,352,138139,1,10,0:0:0:0:
184,344,138227,1,2,0:0:0:0:
376,96,138316,5,2,0:0:0:0:
256,96,138492,1,8,0:0:0:0:
200,112,138580,1,0,0:0:0:0:
432,96,138669,5,2,0:0:0:0:
376,168,138845,1,8,0:0:0:0:
320,184,138933,1,0,0:0:0:0:
168,328,139021,1,2,0:0:0:0:
104,312,139109,1,2,0:0:0:0:
168,296,139197,1,2,0:0:0:0:
104,288,139286,1,2,0:0:0:0:
312,248,139374,5,2,0:0:0:0:
168,248,139550,1,8,0:0:0:0:
152,200,139639,1,0,0:0:0:0:
312,248,139727,5,2,0:0:0:0:
168,248,139903,1,8,0:0:0:0:
120,224,139992,1,0,0:0:0:0:
352,248,140080,5,2,0:0:0:0:
400,224,140169,1,0,0:0:0:0:
200,152,140257,1,8,0:0:0:0:
160,144,140301,1,0,0:0:0:0:
136,128,140345,1,0,0:0:0:0:
120,96,140389,1,0,0:0:0:0:
328,56,140433,5,2,0:0:0:0:
448,72,140610,1,8,0:0:0:0:
408,112,140698,1,0,0:0:0:0:
248,160,140786,1,2,0:0:0:0:
240,208,140874,1,0,0:0:0:0:
328,216,140963,1,2,0:0:0:0:
336,264,141051,1,2,0:0:0:0:
152,56,141139,5,2,0:0:0:0:
272,72,141316,1,8,0:0:0:0:
328,80,141404,1,0,0:0:0:0:
112,128,141492,2,0,L|112:224,1,95,2|8,0:0|0:0,0:0:0:0:
168,248,141757,1,0,0:0:0:0:
400,328,141845,5,0,0:0:0:0:
424,296,141933,1,0,0:0:0:0:
400,264,142021,1,0,0:0:0:0:
344,256,142110,1,0,0:0:0:0:
160,48,142198,5,2,0:0:0:0:
288,48,142374,1,8,0:0:0:0:
312,80,142462,1,0,0:0:0:0:
160,72,142551,5,2,0:0:0:0:
288,80,142727,1,8,0:0:0:0:
320,88,142815,1,0,0:0:0:0:
160,104,142904,5,2,0:0:0:0:
288,104,143080,1,8,0:0:0:0:
328,112,143168,1,0,0:0:0:0:
160,128,143257,5,2,0:0:0:0:
288,136,143433,1,8,0:0:0:0:
336,144,143521,1,0,0:0:0:0:
168,168,143610,5,2,0:0:0:0:
88,192,143786,1,8,0:0:0:0:
128,200,143874,1,0,0:0:0:0:
336,184,143962,5,2,0:0:0:0:
440,208,144139,1,8,0:0:0:0:
400,216,144227,1,0,0:0:0:0:
192,256,144315,5,2,0:0:0:0:
56,296,144492,1,8,0:0:0:0:
96,304,144580,1,0,0:0:0:0:
312,296,144669,5,2,0:0:0:0:
480,312,144845,1,8,0:0:0:0:
440,320,144933,1,0,0:0:0:0:
200,168,145021,6,0,L|136:168,1,47.5,10|0,0:0|0:0,0:0:0:0:
312,168,145198,2,0,L|368:168,1,47.5,10|0,0:0|0:0,0:0:0:0:
184,136,145374,2,0,L|136:136,1,47.5,8|0,0:0|0:0,0:0:0:0:
328,136,145551,2,0,L|384:136,1,47.5,10|0,0:0|0:0,0:0:0:0:
160,104,145727,6,0,L|104:104,1,47.5,10|0,0:0|0:0,0:0:0:0:
352,104,145904,2,0,L|408:104,1,47.5,10|0,0:0|0:0,0:0:0:0:
184,176,146080,1,10,0:0:0:0:
104,176,146169,1,10,0:0:0:0:
184,224,146257,1,10,0:0:0:0:
104,224,146345,1,10,0:0:0:0:
328,56,146433,6,0,L|336:168,1,95,2|0,0:0|0:0,0:0:0:0:
184,120,146786,1,2,0:0:0:0:
240,144,146874,1,2,0:0:0:0:
184,168,146963,1,2,0:0:0:0:
432,288,147139,2,0,L|312:296,1,95,2|0,0:0|0:0,0:0:0:0:
96,320,147492,2,0,P|56:272|104:216,1,142.5,4|0,0:0|0:0,0:0:0:0:
320,88,147845,5,2,0:0:0:0:
192,88,148022,1,0,0:0:0:0:
448,88,148198,2,0,L|344:88,1,95,14|0,0:0|0:0,0:0:0:0:
96,88,148551,5,2,0:0:0:0:
224,88,148728,1,0,0:0:0:0:
472,184,148904,2,0,L|480:288,1,95,6|0,0:0|0:0,0:0:0:0:
232,288,149257,5,2,0:0:0:0:
360,288,149434,1,0,0:0:0:0:
112,288,149610,2,0,L|216:288,1,95,14|0,0:0|0:0,0:0:0:0:
464,88,149963,5,2,0:0:0:0:
336,88,150139,1,0,0:0:0:0:
80,88,150316,1,6,0:0:0:0:
48,128,150404,1,0,0:0:0:0:
64,168,150492,1,0,0:0:0:0:
120,176,150580,1,0,0:0:0:0:
272,216,150669,6,0,L|320:216,1,47.5,2|0,0:0|0:0,0:0:0:0:
232,216,150845,2,0,L|224:288,1,47.5
384,328,151021,2,0,L|297:329,1,47.5,10|0,0:0|0:0,0:0:0:0:
424,328,151198,2,0,L|431:279,1,47.5
264,216,151374,6,0,L|200:216,1,47.5,2|0,0:0|0:0,0:0:0:0:
288,176,151551,2,0,L|337:176,1,47.5
160,120,151727,1,10,0:0:0:0:
112,144,151816,1,0,0:0:0:0:
112,184,151904,1,0,0:0:0:0:
160,208,151992,1,0,0:0:0:0:
336,216,152080,6,0,L|344:280,1,47.5,2|0,0:0|0:0,0:0:0:0:
256,264,152257,2,0,L|208:264,1,47.5
392,272,152433,2,0,L|384:328,1,47.5,10|0,0:0|0:0,0:0:0:0:
296,320,152610,2,0,L|248:320,1,47.5
440,168,152786,6,0,L|384:168,1,47.5,2|0,0:0|0:0,0:0:0:0:
216,168,152963,2,0,L|169:168,1,47.5
440,80,153139,1,10,0:0:0:0:
480,128,153227,1,0,0:0:0:0:
440,168,153316,1,0,0:0:0:0:
376,176,153404,1,0,0:0:0:0:
192,88,153492,5,2,0:0:0:0:
320,88,153669,1,0,0:0:0:0:
72,88,153845,2,0,L|176:88,1,95,14|0,0:0|0:0,0:0:0:0:
424,88,154198,5,2,0:0:0:0:
296,88,154375,1,0,0:0:0:0:
48,184,154551,2,0,L|40:288,1,95,6|0,0:0|0:0,0:0:0:0:
288,288,154904,5,2,0:0:0:0:
160,288,155081,1,0,0:0:0:0:
416,288,155257,2,0,L|312:288,1,95,14|0,0:0|0:0,0:0:0:0:
56,88,155610,5,2,0:0:0:0:
320,88,155786,1,0,0:0:0:0:
56,88,155963,1,6,0:0:0:0:
40,136,156051,1,0,0:0:0:0:
64,176,156139,1,0,0:0:0:0:
120,184,156227,1,0,0:0:0:0:
272,184,156316,6,0,L|280:240,1,47.5,2|0,0:0|0:0,0:0:0:0:
192,240,156492,2,0,L|256:240,1,47.5
80,240,156669,1,10,0:0:0:0:
56,192,156757,1,0,0:0:0:0:
80,152,156845,1,0,0:0:0:0:
144,136,156933,1,0,0:0:0:0:
312,112,157021,6,0,L|256:112,1,47.5,2|0,0:0|0:0,0:0:0:0:
184,112,157198,2,0,L|176:184,1,47.5
368,184,157374,1,10,0:0:0:0:
432,192,157463,1,2,0:0:0:0:
368,224,157551,1,2,0:0:0:0:
432,232,157639,1,2,0:0:0:0:
256,184,157727,6,0,L|352:184,1,95,2|0,0:0|0:0,0:0:0:0:
64,184,158080,1,2,0:0:0:0:
32,224,158168,1,0,0:0:0:0:
64,264,158256,1,0,0:0:0:0:
128,264,158344,1,0,0:0:0:0:
304,304,158433,6,0,L|192:304,1,95,2|0,0:0|0:0,0:0:0:0:
448,304,158786,2,0,L|456:192,1,95,2|0,0:0|0:0,0:0:0:0:
192,88,159139,5,2,0:0:0:0:
320,88,159316,1,0,0:0:0:0:
64,88,159492,2,0,L|56:200,1,95,14|0,0:0|0:0,0:0:0:0:
320,128,159845,5,2,0:0:0:0:
192,128,160022,1,0,0:0:0:0:
448,184,160198,2,0,L|344:184,1,95,6|0,0:0|0:0,0:0:0:0:
96,264,160551,5,2,0:0:0:0:
224,264,160728,1,0,0:0:0:0:
480,264,160904,2,0,L|488:160,1,95,14|0,0:0|0:0,0:0:0:0:
240,144,161257,5,2,0:0:0:0:
112,144,161433,1,0,0:0:0:0:
392,88,161610,1,6,0:0:0:0:
456,96,161698,1,0,0:0:0:0:
480,136,161786,1,0,0:0:0:0:
456,176,161874,1,0,0:0:0:0:
304,224,161963,6,0,L|240:224,1,47.5,2|0,0:0|0:0,0:0:0:0:
336,264,162139,2,0,L|248:264,1,47.5
128,264,162315,2,0,L|80:264,1,47.5,10|0,0:0|0:0,0:0:0:0:
168,264,162492,2,0,L|176:216,1,47.5
344,80,162668,6,0,L|408:80,1,47.5,2|0,0:0|0:0,0:0:0:0:
304,80,162845,2,0,L|248:80,1,47.5
432,136,163021,1,10,0:0:0:0:
456,176,163110,1,0,0:0:0:0:
432,216,163198,1,0,0:0:0:0:
376,224,163286,1,0,0:0:0:0:
192,256,163374,6,0,L|184:320,1,47.5,2|0,0:0|0:0,0:0:0:0:
263,304,163551,2,0,L|311:304,1,47.5
128,256,163727,2,0,L|136:312,1,47.5,10|0,0:0|0:0,0:0:0:0:
216,304,163904,2,0,L|264:304,1,47.5
72,168,164080,6,0,L|128:168,1,47.5,2|0,0:0|0:0,0:0:0:0:
304,168,164257,2,0,L|312:96,1,47.5
72,168,164433,1,10,0:0:0:0:
40,216,164521,1,0,0:0:0:0:
72,256,164610,1,0,0:0:0:0:
136,272,164698,1,0,0:0:0:0:
320,88,164786,5,2,0:0:0:0:
192,88,164963,1,0,0:0:0:0:
448,88,165139,2,0,L|336:88,1,95,14|0,0:0|0:0,0:0:0:0:
96,88,165492,5,2,0:0:0:0:
224,88,165669,1,0,0:0:0:0:
480,88,165845,2,0,L|488:192,1,95,6|0,0:0|0:0,0:0:0:0:
232,288,166198,5,2,0:0:0:0:
376,288,166375,1,0,0:0:0:0:
120,288,166551,2,0,L|112:168,1,95,14|0,0:0|0:0,0:0:0:0:
376,152,166904,5,2,0:0:0:0:
120,152,167080,1,0,0:0:0:0:
384,64,167257,1,6,0:0:0:0:
440,88,167345,1,0,0:0:0:0:
456,128,167433,1,0,0:0:0:0:
432,168,167521,1,0,0:0:0:0:
256,192,167610,5,0,0:0:0:0:
224,240,167698,1,0,0:0:0:0:
256,280,167786,1,0,0:0:0:0:
312,288,167874,1,0,0:0:0:0:
136,288,167963,1,10,0:0:0:0:
104,240,168051,1,0,0:0:0:0:
128,192,168139,1,0,0:0:0:0:
192,176,168227,1,0,0:0:0:0:
352,112,168315,6,0,L|360:160,1,47.5,2|0,0:0|0:0,0:0:0:0:
264,112,168492,2,0,L|216:112,1,47.5
376,112,168669,1,10,0:0:0:0:
400,168,168757,1,0,0:0:0:0:
384,216,168845,1,0,0:0:0:0:
320,232,168933,1,0,0:0:0:0:
112,296,169021,6,0,L|224:296,1,95,2|0,0:0|0:0,0:0:0:0:
368,320,169374,1,2,0:0:0:0:
312,320,169463,1,2,0:0:0:0:
368,320,169551,1,2,0:0:0:0:
128,296,169727,2,0,L|120:176,1,95,2|0,0:0|0:0,0:0:0:0:
376,200,170080,2,0,P|416:128|360:96,1,142.5,4|0,0:0|0:0,0:0:0:0:
168,96,170433,6,0,L|56:96,1,95,2|0,0:0|0:0,0:0:0:0:
152,120,170697,1,0,0:0:0:0:
344,120,170786,2,0,L|352:224,1,95,2|0,0:0|0:0,0:0:0:0:
192,216,171139,2,0,L|288:216,1,95,2|0,0:0|0:0,0:0:0:0:
128,216,171492,2,0,L|24:216,1,95,2|0,0:0|0:0,0:0:0:0:
320,312,171845,6,0,L|448:312,1,95,2|0,0:0|0:0,0:0:0:0:
336,288,172110,1,0,0:0:0:0:
144,312,172198,2,0,L|136:184,1,95,2|0,0:0|0:0,0:0:0:0:
312,216,172551,1,2,0:0:0:0:
144,312,172727,2,0,L|32:312,2,95,0|2|0,0:0|0:0|0:0,0:0:0:0:
432,312,173257,6,0,L|320:312,1,95,2|0,0:0|0:0,0:0:0:0:
280,312,173521,1,0,0:0:0:0:
472,208,173610,2,0,L|464:104,1,95,2|0,0:0|0:0,0:0:0:0:
296,104,173963,2,0,L|192:104,1,95,2|0,0:0|0:0,0:0:0:0:
360,104,174316,2,0,L|368:200,1,95,2|0,0:0|0:0,0:0:0:0:
80,312,174669,6,0,L|184:312,1,95,2|0,0:0|0:0,0:0:0:0:
232,312,174933,1,0,0:0:0:0:
40,232,175022,2,0,L|48:112,1,95,2|0,0:0|0:0,0:0:0:0:
176,136,175375,1,2,0:0:0:0:
424,312,175551,1,0,0:0:0:0:
472,296,175639,1,0,0:0:0:0:
488,248,175727,1,0,0:0:0:0:
416,136,175904,1,0,0:0:0:0:
112,96,176080,6,0,L|104:200,1,95,2|0,0:0|0:0,0:0:0:0:
184,200,176344,1,0,0:0:0:0:
376,128,176433,2,0,L|384:232,1,95,2|0,0:0|0:0,0:0:0:0:
224,224,176786,2,0,L|320:224,1,95,2|0,0:0|0:0,0:0:0:0:
160,224,177139,2,0,L|168:336,1,95,2|0,0:0|0:0,0:0:0:0:
456,328,177492,6,0,L|464:224,1,95,2|0,0:0|0:0,0:0:0:0:
384,224,177757,1,0,0:0:0:0:
192,320,177845,2,0,L|304:320,1,95,2|0,0:0|0:0,0:0:0:0:
432,320,178198,1,2,0:0:0:0:
296,184,178374,2,0,L|432:184,2,95,0|2|0,0:0|0:0|0:0,0:0:0:0:
8,96,178904,6,0,L|104:96,1,95,2|0,0:0|0:0,0:0:0:0:
160,96,179169,1,0,0:0:0:0:
352,312,179257,2,0,P|360:232|352:208,1,95,2|0,0:0|0:0,0:0:0:0:
200,312,179610,2,0,L|304:312,1,95,2|0,0:0|0:0,0:0:0:0:
136,312,179963,2,0,L|128:192,1,95,2|0,0:0|0:0,0:0:0:0:
432,152,180316,6,0,L|440:280,1,95,2|0,0:0|0:0,0:0:0:0:
272,144,180669,2,0,L|144:144,1,95,2|0,0:0|0:0,0:0:0:0:
336,144,181021,2,0,L|456:144,1,95,2|0,0:0|0:0,0:0:0:0:
280,336,181374,1,2,0:0:0:0:
224,328,181463,1,2,0:0:0:0:
280,336,181551,1,2,0:0:0:0:
224,328,181639,1,2,0:0:0:0:
424,72,181727,5,2,0:0:0:0:
432,128,182080,1,0,0:0:0:0:
304,128,182610,5,0,0:0:0:0:
168,128,182963,1,0,0:0:0:0:
368,128,183492,2,8,P|408:224|272:288,1,285
88,72,184551,5,0,0:0:0:0:
80,128,184904,1,0,0:0:0:0:
232,128,185434,5,0,0:0:0:0:
368,128,185787,1,0,0:0:0:0:
168,128,186316,2,8,P|304:160|328:320,1,285
88,288,187374,5,0,0:0:0:0:
200,288,187727,1,0,0:0:0:0:
360,328,188257,5,0,0:0:0:0:
224,328,188610,1,0,0:0:0:0:
424,328,189139,2,8,P|288:296|208:160,1,285
448,328,190198,5,0,0:0:0:0:
336,328,190551,1,0,0:0:0:0:
152,328,191081,5,0,0:0:0:0:
312,328,191434,1,0,0:0:0:0:
88,328,191963,2,8,P|128:216|200:200,1,190
408,224,192669,2,0,P|440:144|392:120,1,142.5,8|0,0:0|0:0,0:0:0:0:
232,64,193021,6,0,L|344:64,1,95,2|0,0:0|0:0,0:0:0:0:
208,208,193374,2,0,L|200:328,1,95,2|0,0:0|0:0,0:0:0:0:
264,304,193639,1,0,0:0:0:0:
360,304,193727,2,0,L|368:192,1,95,2|0,0:0|0:0,0:0:0:0:
128,208,194080,1,6,0:0:0:0:
336,344,194433,6,0,L|344:240,1,95,2|0,0:0|0:0,0:0:0:0:
168,344,194786,2,0,L|272:344,1,95,2|0,0:0|0:0,0:0:0:0:
208,320,195051,1,0,0:0:0:0:
88,320,195139,1,2,0:0:0:0:
64,272,195227,1,0,0:0:0:0:
88,224,195316,1,0,0:0:0:0:
152,200,195404,1,0,0:0:0:0:
336,200,195492,1,6,0:0:0:0:
128,200,195845,6,0,L|120:88,1,95,2|0,0:0|0:0,0:0:0:0:
280,104,196198,2,0,L|184:104,1,95,2|0,0:0|0:0,0:0:0:0:
248,128,196463,1,0,0:0:0:0:
344,128,196551,2,0,L|352:240,1,95,2|0,0:0|0:0,0:0:0:0:
112,216,196904,1,6,0:0:0:0:
312,320,197257,6,0,L|192:320,1,95,2|0,0:0|0:0,0:0:0:0:
376,320,197610,2,0,L|384:208,1,95,2|0,0:0|0:0,0:0:0:0:
304,208,197874,1,0,0:0:0:0:
184,200,197963,1,2,0:0:0:0:
152,152,198051,1,0,0:0:0:0:
176,104,198139,1,0,0:0:0:0:
232,88,198227,1,0,0:0:0:0:
400,88,198316,1,6,0:0:0:0:
200,40,198669,6,0,L|328:40,1,95,2|0,0:0|0:0,0:0:0:0:
128,40,199022,2,0,L|120:160,1,95,2|0,0:0|0:0,0:0:0:0:
200,128,199287,1,0,0:0:0:0:
295,128,199375,2,0,L|183:128,1,95,2|0,0:0|0:0,0:0:0:0:
440,208,199727,1,6,0:0:0:0:
240,232,200081,6,0,L|136:232,1,95,2|0,0:0|0:0,0:0:0:0:
304,344,200434,2,0,L|200:344,1,95,2|0,0:0|0:0,0:0:0:0:
264,320,200699,1,0,0:0:0:0:
376,320,200787,1,2,0:0:0:0:
408,272,200875,1,0,0:0:0:0:
376,224,200964,1,0,0:0:0:0:
312,216,201052,1,0,0:0:0:0:
144,216,201140,1,6,0:0:0:0:
344,200,201493,6,0,L|352:88,1,95,2|0,0:0|0:0,0:0:0:0:
192,104,201846,2,0,L|288:104,1,95,2|0,0:0|0:0,0:0:0:0:
224,128,202111,1,0,0:0:0:0:
128,128,202199,2,0,L|120:240,1,95,2|0,0:0|0:0,0:0:0:0:
368,224,202552,1,6,0:0:0:0:
168,320,202905,6,0,L|288:320,1,95,2|0,0:0|0:0,0:0:0:0:
104,320,203258,2,0,L|96:208,1,95,2|0,0:0|0:0,0:0:0:0:
176,208,203522,1,0,0:0:0:0:
288,208,203611,1,2,0:0:0:0:
344,184,203699,1,0,0:0:0:0:
344,128,203787,1,0,0:0:0:0:
288,104,203875,1,0,0:0:0:0:
120,104,203963,5,6,0:0:0:0:
72,128,204051,1,0,0:0:0:0:
120,160,204139,1,0,0:0:0:0:
72,192,204227,1,0,0:0:0:0:
272,280,204316,6,0,L|168:280,1,95,2|0,0:0|0:0,0:0:0:0:
336,280,204669,2,0,L|224:280,1,95,2|0,0:0|0:0,0:0:0:0:
296,256,204933,1,0,0:0:0:0:
408,256,205021,2,0,L|416:152,1,95,2|0,0:0|0:0,0:0:0:0:
176,96,205374,2,0,L|168:208,1,95,6|0,0:0|0:0,0:0:0:0:
328,96,205727,6,0,L|232:96,1,95,2|0,0:0|0:0,0:0:0:0:
400,96,206080,2,0,L|408:200,1,95,2|0,0:0|0:0,0:0:0:0:
328,200,206345,1,0,0:0:0:0:
224,200,206433,1,2,0:0:0:0:
216,248,206521,1,0,0:0:0:0:
280,248,206610,1,0,0:0:0:0:
288,288,206698,1,0,0:0:0:0:
112,288,206786,2,0,L|104:192,1,95,6|0,0:0|0:0,0:0:0:0:
248,72,207139,6,0,L|360:72,1,95,2|0,0:0|0:0,0:0:0:0:
176,72,207492,2,0,L|168:176,1,95,2|0,0:0|0:0,0:0:0:0:
248,168,207757,1,0,0:0:0:0:
352,168,207845,2,0,L|360:280,1,95,2|0,0:0|0:0,0:0:0:0:
120,264,208198,2,0,L|112:152,1,95,6|0,0:0|0:0,0:0:0:0:
264,280,208551,6,0,L|376:280,1,95,2|0,0:0|0:0,0:0:0:0:
200,280,208904,2,0,L|312:280,1,95,2|0,0:0|0:0,0:0:0:0:
240,256,209169,1,0,0:0:0:0:
136,256,209257,1,2,0:0:0:0:
80,248,209345,1,0,0:0:0:0:
64,224,209433,1,0,0:0:0:0:
80,192,209521,1,0,0:0:0:0:
280,192,209610,2,0,L|288:88,1,95,6|0,0:0|0:0,0:0:0:0:
440,288,209963,6,0,L|328:288,1,95,2|0,0:0|0:0,0:0:0:0:
200,288,210316,2,0,L|192:168,1,95,2|0,0:0|0:0,0:0:0:0:
272,192,210580,1,0,0:0:0:0:
384,112,210669,2,0,L|288:112,1,95,2|0,0:0|0:0,0:0:0:0:
56,112,211021,2,0,L|48:208,1,95,6|0,0:0|0:0,0:0:0:0:
192,208,211374,6,0,L|304:208,1,95,2|0,0:0|0:0,0:0:0:0:
128,208,211727,2,0,L|120:320,1,95,2|0,0:0|0:0,0:0:0:0:
200,304,211992,1,0,0:0:0:0:
312,304,212080,1,2,0:0:0:0:
320,256,212169,1,0,0:0:0:0:
256,256,212257,1,0,0:0:0:0:
248,208,212345,1,0,0:0:0:0:
416,208,212433,2,0,L|424:104,1,95,6|0,0:0|0:0,0:0:0:0:
272,40,212786,6,0,L|176:40,1,95,2|0,0:0|0:0,0:0:0:0:
336,40,213139,2,0,L|344:144,1,95,2|0,0:0|0:0,0:0:0:0:
256,128,213404,1,0,0:0:0:0:
152,128,213492,2,0,L|144:240,1,95,2|0,0:0|0:0,0:0:0:0:
384,224,213845,2,0,L|496:224,1,95,6|0,0:0|0:0,0:0:0:0:
328,304,214198,6,0,L|224:304,1,95,2|0,0:0|0:0,0:0:0:0:
384,304,214551,2,0,L|392:200,1,95,2|0,0:0|0:0,0:0:0:0:
312,208,214816,1,0,0:0:0:0:
200,208,214904,1,2,0:0:0:0:
168,168,214992,1,0,0:0:0:0:
200,120,215080,1,0,0:0:0:0:
256,112,215169,1,0,0:0:0:0:
424,120,215257,5,6,0:0:0:0:
376,136,215345,1,0,0:0:0:0:
424,168,215433,1,0,0:0:0:0:
376,192,215521,1,0,0:0:0:0:
256,192,215610,12,0,219845,0:0:0:0:
