osu file format v14

[General]
AudioFilename: Marry+me,+Nightmare.mp3
AudioLeadIn: 0
PreviewTime: 61096
Countdown: 0
SampleSet: Soft
StackLeniency: 0.2
Mode: 0
LetterboxInBreaks: 0
WidescreenStoryboard: 1

[Editor]
DistanceSpacing: 0.1
BeatDivisor: 4
GridSize: 4
TimelineZoom: 5.099998

[Metadata]
Title:Marry me, nightmare
TitleUnicode:Marry me, nightmare
Artist:t+pazolite
ArtistUnicode:t+pazolite
Creator:Jaitonat
Version:yea
Source:
Tags:
BeatmapID:1492914
BeatmapSetID:409106

[Difficulty]
HPDrainRate:6
CircleSize:4
OverallDifficulty:10
ApproachRate:10
SliderMultiplier:1.6
SliderTickRate:1

[Events]
//Background and Video events
0,0,"bg.jpg",0,0
//Break Periods
2,26675,30615
2,61210,64218
//Storyboard Layer 0 (Background)
//Storyboard Layer 1 (Fail)
//Storyboard Layer 2 (Pass)
//Storyboard Layer 3 (Foreground)
//Storyboard Sound Samples

[TimingPoints]
252,240,3,2,1,100,1,0
7932,234.375,4,2,1,100,1,0
8622,240,5,2,1,100,1,0
11982,-66.6666666666667,4,2,1,100,0,0
12222,-100,4,2,1,100,0,0
23262,-66.6666666666667,3,2,1,100,0,0
24462,-100,3,2,1,100,0,0
25422,247.933884297521,3,2,1,100,1,0
31124,-100,4,2,1,100,0,0
35587,-1000,4,2,1,100,0,0
36826,247.933884297521,3,2,1,100,1,0
39057,-57.1428571428571,4,2,1,100,0,0
39801,-100,4,2,1,100,0,0
42032,-50,4,2,1,100,0,0
42528,247.933884297521,3,2,1,100,1,0
42528,-100,4,2,1,100,0,0
46990,-50,4,2,1,100,0,0
48230,240,3,2,1,100,1,0
53750,240,3,2,1,100,1,0
55550,-100,4,2,1,100,0,0
56030,240,3,2,1,100,1,0
56030,-66.6666666666667,4,2,1,100,0,0
56630,240,3,2,1,100,1,0
59510,260.869565217391,3,2,1,100,1,0
64727,256.410256410256,3,2,1,100,1,0
67280,243.90243902439,3,2,1,100,1,0
69461,238.095238095238,4,2,1,100,1,0
69707,238.095238095238,5,2,1,100,1,0
74458,230.769230769231,5,2,1,100,1,0
76765,225.563909774436,3,2,1,100,1,0
78118,216.606498194946,4,2,1,100,1,0
79630,211.267605633803,4,2,1,100,1,0
107090,222.222222222222,4,2,1,100,1,0
121312,-1000,4,2,1,100,0,0

[HitObjects]
56,56,7212,6,0,L|144:72,1,80
217,123,7452,2,0,L|138:108,1,80
67,144,7692,2,0,L|155:160,1,80
298,146,7932,5,0,0:0:0:0:
380,132,8049,1,0,0:0:0:0:
254,231,8166,1,0,0:0:0:0:
288,320,8283,1,0,0:0:0:0:
164,186,8400,1,0,0:0:0:0:
65,213,8517,1,0,0:0:0:0:
333,225,8622,6,0,L|418:214,1,80
496,199,8862,1,0,0:0:0:0:
192,286,8982,6,0,L|113:309,1,80
35,334,9222,1,0,0:0:0:0:
185,241,9342,5,0,0:0:0:0:
200,221,9402,1,0,0:0:0:0:
209,197,9462,1,0,0:0:0:0:
212,173,9522,1,0,0:0:0:0:
208,148,9582,1,0,0:0:0:0:
198,125,9642,1,0,0:0:0:0:
183,106,9702,1,0,0:0:0:0:
163,91,9762,1,0,0:0:0:0:
140,82,9822,6,0,L|89:95,2,40
357,89,10062,1,0,0:0:0:0:
357,89,10182,2,0,L|318:98,3,40
224,185,10422,2,0,B|249:191|249:191|261:202,1,40
382,214,10542,2,0,B|376:239|376:239|366:249,1,40
280,305,10662,2,0,B|255:299|255:299|243:288,1,40
365,338,10782,6,0,L|452:328,1,80
167,271,11022,1,0,0:0:0:0:
167,271,11142,6,0,L|116:284,2,40
70,205,11382,1,0,0:0:0:0:
225,174,11502,5,0,0:0:0:0:
236,187,11562,1,0,0:0:0:0:
246,202,11622,1,0,0:0:0:0:
254,218,11682,1,0,0:0:0:0:
259,234,11742,1,0,0:0:0:0:
263,252,11802,1,0,0:0:0:0:
263,270,11862,1,0,0:0:0:0:
262,287,11922,1,0,0:0:0:0:
257,309,11982,6,0,B|241:346|241:346|334:337,1,120.000004577637
451,250,12222,1,0,0:0:0:0:
199,349,12342,2,0,P|282:328|374:340,1,160
111,372,12702,6,0,L|88:278,1,80
67,188,12942,1,0,0:0:0:0:
403,272,13062,6,0,L|380:178,1,80
359,88,13302,1,0,0:0:0:0:
270,278,13422,5,0,0:0:0:0:
264,256,13482,1,0,0:0:0:0:
258,234,13542,1,0,0:0:0:0:
253,213,13602,1,0,0:0:0:0:
247,191,13662,1,0,0:0:0:0:
241,170,13722,1,0,0:0:0:0:
236,148,13782,1,0,0:0:0:0:
230,127,13842,1,0,0:0:0:0:
225,105,13902,6,0,L|203:17,1,80
154,185,14142,1,0,0:0:0:0:
117,69,14262,1,0,0:0:0:0:
359,204,14382,1,0,0:0:0:0:
339,146,14442,1,0,0:0:0:0:
322,88,14502,2,0,L|305:26,1,40
431,146,14622,2,0,L|441:107,1,40
277,248,14742,2,0,L|260:186,1,40
400,280,14862,6,0,P|425:310|399:307,1,80
305,352,15102,1,0,0:0:0:0:
197,272,15222,2,0,P|153:273|110:293,1,80
52,332,15462,1,0,0:0:0:0:
131,203,15582,1,0,0:0:0:0:
130,179,15642,1,0,0:0:0:0:
126,155,15702,1,0,0:0:0:0:
117,133,15762,1,0,0:0:0:0:
87,93,15822,5,0,0:0:0:0:
133,57,15882,1,0,0:0:0:0:
183,64,15942,1,0,0:0:0:0:
232,35,16002,1,0,0:0:0:0:
290,32,16062,6,0,L|267:117,1,80
239,195,16302,1,0,0:0:0:0:
365,126,16422,1,0,0:0:0:0:
320,268,16542,5,0,0:0:0:0:
432,305,16662,1,0,0:0:0:0:
404,336,16722,1,0,0:0:0:0:
359,347,16782,1,0,0:0:0:0:
393,226,16902,1,0,0:0:0:0:
205,309,17022,6,0,L|186:266,3,40
93,216,17262,1,0,0:0:0:0:
317,169,17382,2,0,L|298:126,3,40
205,76,17622,1,0,0:0:0:0:
337,203,17742,1,0,0:0:0:0:
355,227,17802,1,0,0:0:0:0:
366,258,17862,1,0,0:0:0:0:
370,289,17922,1,0,0:0:0:0:
364,321,17982,5,0,0:0:0:0:
328,339,18042,1,0,0:0:0:0:
286,326,18102,1,0,0:0:0:0:
246,337,18162,1,0,0:0:0:0:
202,320,18222,6,0,L|177:272,3,40
109,331,18462,1,0,0:0:0:0:
291,171,18582,6,0,L|318:230,3,40
344,317,18822,1,0,0:0:0:0:
347,289,18882,1,0,0:0:0:0:
363,268,18942,1,0,0:0:0:0:
391,264,19002,1,0,0:0:0:0:
417,276,19062,1,0,0:0:0:0:
431,300,19122,1,0,0:0:0:0:
429,328,19182,6,0,P|413:342|381:351,3,40
304,322,19422,1,0,0:0:0:0:
176,216,19542,6,0,L|155:170,3,40
110,82,19782,1,0,0:0:0:0:
228,129,19902,5,0,0:0:0:0:
259,130,19962,1,0,0:0:0:0:
284,111,20022,1,0,0:0:0:0:
292,81,20082,1,0,0:0:0:0:
286,52,20142,5,0,0:0:0:0:
304,74,20202,1,0,0:0:0:0:
323,97,20262,1,0,0:0:0:0:
342,119,20322,1,0,0:0:0:0:
361,143,20382,6,0,L|414:202,1,80
112,158,20622,5,0,0:0:0:0:
112,158,20742,2,0,L|165:217,1,80
177,311,20982,1,0,0:0:0:0:
264,238,21102,6,0,P|260:185|272:154,1,80
334,73,21342,1,0,0:0:0:0:
188,111,21462,2,0,L|135:52,1,80
47,73,21702,1,0,0:0:0:0:
140,183,21822,1,0,0:0:0:0:
153,207,21882,1,0,0:0:0:0:
159,235,21942,1,0,0:0:0:0:
156,264,22002,1,0,0:0:0:0:
144,290,22062,1,0,0:0:0:0:
125,311,22122,5,0,0:0:0:0:
99,323,22182,1,0,0:0:0:0:
71,328,22242,1,0,0:0:0:0:
43,332,22302,6,0,L|126:353,1,80
285,285,22542,1,0,0:0:0:0:
166,163,22662,5,0,0:0:0:0:
166,163,22782,2,0,L|249:184,1,80
337,147,23022,2,0,L|391:162,1,40
181,263,23142,2,0,L|142:252,1,40
285,285,23262,5,0,0:0:0:0:
159,345,23382,1,0,0:0:0:0:
374,62,23502,5,0,0:0:0:0:
248,122,23622,1,0,0:0:0:0:
482,272,23742,5,0,0:0:0:0:
356,332,23862,1,0,0:0:0:0:
408,207,23982,5,0,0:0:0:0:
238,123,24102,1,0,0:0:0:0:
238,123,24162,1,0,0:0:0:0:
238,123,24222,1,0,0:0:0:0:
374,62,24342,1,0,0:0:0:0:
182,200,24462,5,0,0:0:0:0:
406,206,24702,5,0,0:0:0:0:
280,266,24822,1,0,0:0:0:0:
190,69,25182,5,0,0:0:0:0:
64,129,25302,1,0,0:0:0:0:
406,206,25422,5,0,0:0:0:0:
256,192,25483,12,0,26475,0:0:0:0:
312,106,31124,6,0,L|395:63,1,80
203,86,31372,1,0,0:0:0:0:
329,199,31496,1,0,0:0:0:0:
329,199,31558,1,0,0:0:0:0:
329,199,31620,2,0,L|412:156,1,80
100,200,31868,6,0,L|183:157,1,80
203,86,32116,1,0,0:0:0:0:
177,280,32240,1,0,0:0:0:0:
177,280,32302,1,0,0:0:0:0:
177,280,32364,2,0,L|260:237,1,80
426,280,32612,6,0,B|406:292|406:292|377:283,1,40
272,321,32736,2,0,B|292:309|292:309|321:318,1,40
374,361,32860,1,0,0:0:0:0:
106,341,32983,1,0,0:0:0:0:
106,341,33045,1,0,0:0:0:0:
106,341,33107,2,0,L|189:298,1,80
138,227,33355,6,0,P|153:199|158:175,3,40
155,108,33603,1,0,0:0:0:0:
70,91,33727,1,0,0:0:0:0:
70,91,33789,1,0,0:0:0:0:
70,91,33851,1,0,0:0:0:0:
231,67,33975,1,0,0:0:0:0:
229,147,34099,6,0,L|312:135,1,80
412,120,34347,1,0,0:0:0:0:
109,233,34471,1,0,0:0:0:0:
109,233,34533,1,0,0:0:0:0:
109,233,34595,2,0,L|192:221,1,80
383,203,34843,6,0,L|303:214,1,80
412,120,35091,1,0,0:0:0:0:
183,304,35215,1,0,0:0:0:0:
183,304,35277,1,0,0:0:0:0:
183,304,35339,2,0,L|266:292,1,80
375,322,35587,2,0,L|327:331,1,48
461,306,36579,1,0,0:0:0:0:
57,322,36826,6,0,B|92:332|92:332|183:309|183:309|207:277,1,160
74,126,37197,1,0,0:0:0:0:
346,51,37321,1,0,0:0:0:0:
287,310,37445,1,0,0:0:0:0:
49,324,37569,6,0,B|113:340|113:340|209:308,1,160
456,180,37941,1,0,0:0:0:0:
209,91,38065,1,0,0:0:0:0:
371,308,38189,1,0,0:0:0:0:
51,323,38313,6,0,P|104:346|211:325,1,160
441,257,38685,1,0,0:0:0:0:
262,262,38809,2,0,L|235:174,1,80
349,261,39057,1,0,0:0:0:0:
102,229,39181,1,0,0:0:0:0:
381,186,39305,1,0,0:0:0:0:
85,142,39429,5,0,0:0:0:0:
75,189,39491,1,0,0:0:0:0:
102,229,39553,1,0,0:0:0:0:
419,112,39677,1,0,0:0:0:0:
58,49,39801,6,0,B|131:81|131:81|221:63,1,160
339,37,40173,1,0,0:0:0:0:
174,259,40297,1,0,0:0:0:0:
442,195,40421,1,0,0:0:0:0:
54,89,40545,6,0,P|109:111|208:93,1,160
339,37,40916,1,0,0:0:0:0:
268,245,41040,2,0,L|235:164,1,80
366,330,41288,2,0,L|382:289,3,40
409,217,41536,1,0,0:0:0:0:
161,330,41660,1,0,0:0:0:0:
260,361,41784,2,0,L|244:320,3,40
42,347,42032,6,0,L|63:257,1,80
366,330,42280,2,0,L|345:240,1,80
139,223,42528,6,0,L|160:119,1,80
108,67,42775,1,0,0:0:0:0:
62,147,42899,1,0,0:0:0:0:
387,223,43023,5,0,0:0:0:0:
409,126,43147,1,0,0:0:0:0:
327,173,43271,2,0,L|311:94,1,80
219,65,43519,6,0,L|228:105,2,40
456,183,43767,2,0,L|457:141,2,40
249,191,44015,2,0,P|197:199|166:216,1,80
91,256,44263,1,0,0:0:0:0:
131,78,44387,1,0,0:0:0:0:
303,255,44511,2,0,P|347:283|382:288,1,80
458,273,44759,5,0,0:0:0:0:
267,246,44883,1,0,0:0:0:0:
456,155,45007,1,0,0:0:0:0:
354,339,45131,1,0,0:0:0:0:
354,339,45193,1,0,0:0:0:0:
354,339,45255,1,0,0:0:0:0:
450,176,45379,1,0,0:0:0:0:
230,281,45503,6,0,P|184:295|93:231,1,160
74,153,45875,1,0,0:0:0:0:
82,347,45999,2,0,L|33:273,1,80
201,151,46247,1,0,0:0:0:0:
230,281,46370,1,0,0:0:0:0:
74,153,46494,2,0,L|62:62,1,80
269,205,46742,2,0,L|301:113,1,80
360,81,46990,5,0,0:0:0:0:
390,141,47051,1,0,0:0:0:0:
387,209,47113,1,0,0:0:0:0:
352,267,47175,1,0,0:0:0:0:
294,302,47237,1,0,0:0:0:0:
226,305,47299,1,0,0:0:0:0:
165,274,47361,1,0,0:0:0:0:
126,219,47423,1,0,0:0:0:0:
116,162,47486,5,0,0:0:0:0:
134,109,47547,1,0,0:0:0:0:
182,81,47609,1,0,0:0:0:0:
237,89,47671,1,0,0:0:0:0:
255,142,47734,5,0,0:0:0:0:
241,179,47796,1,0,0:0:0:0:
213,186,47858,1,0,0:0:0:0:
198,179,47920,1,0,0:0:0:0:
196,171,47982,1,0,0:0:0:0:
393,62,48230,5,0,0:0:0:0:
358,302,48350,1,0,0:0:0:0:
302,290,48410,1,0,0:0:0:0:
246,280,48470,1,0,0:0:0:0:
191,269,48530,1,0,0:0:0:0:
136,259,48590,1,0,0:0:0:0:
445,163,48710,5,0,0:0:0:0:
283,210,48830,1,0,0:0:0:0:
418,251,48950,1,0,0:0:0:0:
325,123,49070,1,0,0:0:0:0:
110,300,49190,5,0,0:0:0:0:
171,311,49250,1,0,0:0:0:0:
234,323,49310,1,0,0:0:0:0:
297,335,49370,1,0,0:0:0:0:
357,346,49430,2,0,L|392:355,4,20
121,215,49670,6,0,P|102:200|82:170,1,40
330,276,49790,2,0,L|354:225,1,40
131,127,49910,2,0,P|116:94|115:71,1,40
376,168,50030,2,0,L|395:123,1,40
219,60,50150,1,0,0:0:0:0:
277,161,50270,5,0,0:0:0:0:
257,167,50330,1,0,0:0:0:0:
237,173,50390,1,0,0:0:0:0:
307,192,50510,1,0,0:0:0:0:
243,148,50630,1,0,0:0:0:0:
297,216,50750,1,0,0:0:0:0:
250,120,50870,1,0,0:0:0:0:
288,241,50990,1,0,0:0:0:0:
35,82,51110,6,0,L|55:139,1,40
168,130,51230,2,0,L|148:187,1,40
152,257,51350,5,0,0:0:0:0:
130,289,51410,1,0,0:0:0:0:
93,305,51470,1,0,0:0:0:0:
55,298,51530,1,0,0:0:0:0:
33,283,51590,5,0,0:0:0:0:
405,348,51710,1,0,0:0:0:0:
365,181,51830,2,0,P|333:233|333:263,1,80
458,177,52069,1,0,0:0:0:0:
430,124,52129,1,0,0:0:0:0:
377,98,52189,1,0,0:0:0:0:
319,108,52249,1,0,0:0:0:0:
279,151,52309,1,0,0:0:0:0:
259,36,52550,5,0,0:0:0:0:
439,20,52670,1,0,0:0:0:0:
290,198,52790,1,0,0:0:0:0:
259,36,52910,1,0,0:0:0:0:
460,176,53030,1,0,0:0:0:0:
290,198,53150,1,0,0:0:0:0:
439,20,53270,5,0,0:0:0:0:
460,176,53390,1,0,0:0:0:0:
231,117,53510,2,0,L|213:172,1,40
131,248,53630,2,0,L|144:210,1,40
222,257,53750,6,0,P|243:297|348:336,2,160
218,155,54350,1,0,0:0:0:0:
103,203,54470,2,0,L|138:359,2,160
256,192,55010,12,0,55790,0:0:0:0:
349,74,56030,6,0,B|382:68|382:68|404:42,1,60.0000022888184
190,97,56270,2,0,B|157:103|157:103|135:129,1,60.0000022888184
269,44,56510,1,0,0:0:0:0:
303,192,56630,6,0,L|316:241,1,40
229,330,56750,1,0,0:0:0:0:
214,260,56810,1,0,0:0:0:0:
196,193,56870,2,0,L|184:149,2,40
420,247,57110,5,0,0:0:0:0:
401,196,57170,1,0,0:0:0:0:
382,145,57230,2,0,L|363:94,1,40
57,212,57350,1,0,0:0:0:0:
122,176,57410,1,0,0:0:0:0:
181,170,57470,1,0,0:0:0:0:
239,182,57530,1,0,0:0:0:0:
278,206,57590,2,0,L|321:195,1,40
382,145,57710,5,0,0:0:0:0:
433,142,57770,1,0,0:0:0:0:
473,175,57830,2,0,L|442:117,3,40
256,280,58070,2,0,B|229:269|229:269|205:243,3,40
116,304,58310,5,0,0:0:0:0:
128,257,58370,1,0,0:0:0:0:
132,209,58430,1,0,0:0:0:0:
127,162,58490,1,0,0:0:0:0:
113,116,58550,1,0,0:0:0:0:
154,71,58610,1,0,0:0:0:0:
204,101,58670,1,0,0:0:0:0:
252,65,58730,1,0,0:0:0:0:
306,90,58790,5,0,0:0:0:0:
358,60,58850,1,0,0:0:0:0:
389,76,58910,2,0,L|388:42,1,20
422,61,58970,1,0,0:0:0:0:
457,67,59030,1,0,0:0:0:0:
487,47,59090,5,0,0:0:0:0:
471,79,59150,2,0,L|498:87,1,20
476,114,59210,1,0,0:0:0:0:
453,141,59270,1,0,0:0:0:0:
458,176,59330,1,0,0:0:0:0:
425,190,59390,2,0,L|442:208,1,20
418,221,59450,2,0,L|450:234,1,20
431,257,59510,1,0,0:0:0:0:
256,192,59575,12,0,61010,0:0:0:0:
97,95,64727,6,0,L|150:91,1,40
214,128,64855,2,0,L|174:131,1,40
298,120,64983,1,0,0:0:0:0:
422,56,65111,1,0,0:0:0:0:
422,56,65175,1,0,0:0:0:0:
422,56,65239,2,0,L|382:59,3,40
289,147,65496,6,0,L|350:142,1,40
422,56,65624,1,0,0:0:0:0:
422,56,65688,1,0,0:0:0:0:
422,56,65752,2,0,L|380:60,2,40
460,190,66009,6,0,L|421:193,1,40
315,246,66137,2,0,L|378:241,1,40
230,252,66265,1,0,0:0:0:0:
441,311,66393,1,0,0:0:0:0:
441,311,66457,1,0,0:0:0:0:
441,311,66521,2,0,L|401:314,3,40
243,274,66778,6,0,L|282:270,1,40
162,336,66906,1,0,0:0:0:0:
162,336,66970,1,0,0:0:0:0:
162,336,67034,2,0,L|122:339,1,40
55,300,67162,2,0,L|94:296,1,40
145,119,67280,6,0,B|142:94|142:94|156:70,1,40
215,168,67401,2,0,B|230:148|230:148|257:141,1,40
182,252,67523,1,0,0:0:0:0:
101,200,67645,1,0,0:0:0:0:
101,200,67706,1,0,0:0:0:0:
101,200,67767,2,0,B|76:203|76:203|52:188,3,40
298,166,68011,6,0,L|356:172,1,40
457,199,68133,1,0,0:0:0:0:
457,199,68194,1,0,0:0:0:0:
457,199,68255,2,0,L|388:209,1,40
230,237,68377,1,0,0:0:0:0:
230,237,68438,1,0,0:0:0:0:
230,237,68499,5,0,0:0:0:0:
216,215,68560,1,0,0:0:0:0:
209,190,68621,1,0,0:0:0:0:
209,165,68682,1,0,0:0:0:0:
216,141,68743,1,0,0:0:0:0:
229,119,68804,1,0,0:0:0:0:
247,101,68865,1,0,0:0:0:0:
269,89,68926,1,0,0:0:0:0:
294,84,68987,5,0,0:0:0:0:
320,85,69048,1,0,0:0:0:0:
344,93,69109,1,0,0:0:0:0:
365,107,69170,1,0,0:0:0:0:
379,128,69231,2,0,L|388:175,1,40
145,252,69353,2,0,L|136:205,1,40
311,251,69461,2,0,L|313:269,12,10
84,336,69707,6,0,L|65:245,1,80
47,160,69945,1,0,0:0:0:0:
423,343,70064,2,0,L|404:252,1,80
386,167,70302,1,0,0:0:0:0:
192,306,70421,5,0,0:0:0:0:
312,217,70540,1,0,0:0:0:0:
320,308,70659,1,0,0:0:0:0:
185,224,70778,1,0,0:0:0:0:
459,203,70897,6,0,L|445:118,1,80
432,40,71135,1,0,0:0:0:0:
75,227,71254,2,0,L|61:142,1,80
48,64,71492,1,0,0:0:0:0:
214,152,71611,5,0,0:0:0:0:
318,147,71730,1,0,0:0:0:0:
312,47,71849,1,0,0:0:0:0:
211,56,71968,1,0,0:0:0:0:
361,216,72087,6,0,P|402:217|447:207,1,80
465,202,72326,1,0,0:0:0:0:
152,182,72445,2,0,P|111:181|66:191,1,80
48,196,72684,1,0,0:0:0:0:
280,87,72802,6,0,P|281:46|271:1,1,80
246,296,73040,2,0,P|245:337|255:382,1,80
377,134,73278,6,0,B|416:109|416:109|460:120,1,80
190,101,73516,1,0,0:0:0:0:
336,247,73635,2,0,B|361:286|361:286|352:318,1,80
312,47,73873,1,0,0:0:0:0:
144,185,73992,2,0,P|115:149|105:99,1,80
413,311,74230,2,0,P|366:338|326:346,1,80
423,83,74458,6,0,L|438:172,1,80
475,246,74688,1,0,0:0:0:0:
130,106,74804,2,0,L|145:195,1,80
182,269,75034,1,0,0:0:0:0:
364,167,75150,5,0,0:0:0:0:
217,144,75265,1,0,0:0:0:0:
374,202,75381,1,0,0:0:0:0:
227,179,75496,1,0,0:0:0:0:
106,181,75611,6,0,L|121:270,1,80
158,344,75842,1,0,0:0:0:0:
386,129,75958,6,0,L|401:218,1,80
438,292,76188,1,0,0:0:0:0:
236,213,76304,5,0,0:0:0:0:
380,231,76419,1,0,0:0:0:0:
158,344,76535,1,0,0:0:0:0:
356,313,76650,1,0,0:0:0:0:
150,143,76765,6,0,P|125:183|87:205,1,80
27,233,76990,1,0,0:0:0:0:
289,43,77103,6,0,P|300:89|289:131,1,80
270,196,77328,1,0,0:0:0:0:
388,92,77441,1,0,0:0:0:0:
270,196,77554,1,0,0:0:0:0:
428,162,77667,1,0,0:0:0:0:
296,89,77780,1,0,0:0:0:0:
270,196,77892,6,0,P|242:234|207:255,1,80
383,248,78118,1,0,0:0:0:0:
134,228,78226,1,0,0:0:0:0:
365,330,78334,5,0,0:0:0:0:
193,166,78442,1,0,0:0:0:0:
106,306,78551,1,0,0:0:0:0:
253,295,78659,2,0,P|295:259|315:217,1,80
322,151,78876,5,0,0:0:0:0:
179,348,78984,1,0,0:0:0:0:
441,309,79092,1,0,0:0:0:0:
106,306,79201,5,0,0:0:0:0:
106,306,79417,1,0,0:0:0:0:
58,218,79630,6,0,L|49:149,1,53.3333333333333
42,79,79770,1,0,0:0:0:0:
42,79,79841,1,0,0:0:0:0:
194,236,79982,2,0,B|250:242|250:242|299:232,1,106.666666666667
388,251,80193,1,0,0:0:0:0:
388,251,80263,1,0,0:0:0:0:
316,66,80404,5,0,0:0:0:0:
254,120,80475,2,0,B|227:126|227:126|194:123,1,53.3333333333333
131,77,80615,1,0,0:0:0:0:
131,77,80686,1,0,0:0:0:0:
409,47,80827,6,0,P|447:91|454:161,1,106.666666666667
473,251,81038,1,0,0:0:0:0:
473,251,81108,1,0,0:0:0:0:
334,179,81249,1,0,0:0:0:0:
333,269,81320,2,0,P|304:298|277:311,1,53.3333333333333
215,313,81460,5,0,0:0:0:0:
138,340,81531,1,0,0:0:0:0:
77,285,81601,1,0,0:0:0:0:
99,213,81672,2,0,B|195:179|165:241|270:202,1,160
334,179,81953,1,0,0:0:0:0:
133,90,82094,5,0,0:0:0:0:
133,90,82165,2,0,L|114:32,1,53.3333333333333
436,266,82306,5,0,0:0:0:0:
355,246,82377,2,0,L|336:188,1,53.3333333333333
145,343,82517,5,0,0:0:0:0:
226,323,82588,2,0,L|245:265,1,53.3333333333333
294,143,82728,1,0,0:0:0:0:
294,143,82799,1,0,0:0:0:0:
382,324,82939,1,0,0:0:0:0:
436,266,83010,6,0,P|439:219|409:142,1,106.666666666667
378,97,83221,1,0,0:0:0:0:
297,56,83362,2,0,L|135:100,1,160
36,132,83644,1,0,0:0:0:0:
330,169,83855,5,0,0:0:0:0:
169,209,83996,1,0,0:0:0:0:
362,280,84207,6,0,L|207:321,1,160
106,292,84489,1,0,0:0:0:0:
248,156,84700,5,0,0:0:0:0:
432,245,84841,1,0,0:0:0:0:
437,224,84911,1,0,0:0:0:0:
376,39,85052,1,0,0:0:0:0:
337,255,85263,5,0,0:0:0:0:
332,234,85333,1,0,0:0:0:0:
413,347,85475,1,0,0:0:0:0:
418,326,85545,1,0,0:0:0:0:
307,347,85686,5,0,0:0:0:0:
302,326,85756,1,0,0:0:0:0:
265,256,85827,1,0,0:0:0:0:
181,263,85897,1,0,0:0:0:0:
126,332,85968,2,0,L|116:214,1,106.666666666667
47,187,86179,2,0,P|89:151|153:156,1,106.666666666667
218,186,86390,1,0,0:0:0:0:
98,61,86531,5,0,0:0:0:0:
98,61,86601,2,0,L|163:70,1,53.3333333333333
333,66,86742,2,0,B|280:80|280:80|222:76,1,106.666666666667
421,54,86953,1,0,0:0:0:0:
421,54,87024,1,0,0:0:0:0:
289,216,87235,5,0,0:0:0:0:
79,220,87376,1,0,0:0:0:0:
79,220,87446,2,0,L|144:229,1,53.3333333333333
261,293,87587,2,0,B|205:289|205:289|150:303,1,106.666666666667
349,281,87798,1,0,0:0:0:0:
349,281,87869,1,0,0:0:0:0:
412,330,88080,5,0,0:0:0:0:
129,335,88221,1,0,0:0:0:0:
78,343,88291,1,0,0:0:0:0:
39,308,88361,1,0,0:0:0:0:
42,257,88432,1,0,0:0:0:0:
84,227,88503,2,0,L|200:204,1,106.666666666667
386,146,88714,6,0,L|315:132,1,53.3333333333333
65,90,88855,1,0,0:0:0:0:
65,90,88925,2,0,L|136:76,1,53.3333333333333
444,72,89066,1,0,0:0:0:0:
444,72,89136,2,0,L|373:58,1,53.3333333333333
310,39,89277,1,0,0:0:0:0:
238,79,89348,5,0,0:0:0:0:
450,201,89489,1,0,0:0:0:0:
343,227,89700,5,0,0:0:0:0:
430,304,89770,2,0,L|362:291,1,53.3333333333333
296,163,89911,1,0,0:0:0:0:
203,241,89981,2,0,L|271:228,1,53.3333333333333
155,307,90122,2,0,P|100:335|43:324,1,106.666666666667
242,320,90334,6,0,L|310:307,2,53.3333333333333
88,247,90545,2,0,P|65:218|60:189,1,53.3333333333333
120,114,90686,2,0,P|124:77|141:53,1,53.3333333333333
196,107,90827,1,0,0:0:0:0:
256,207,90968,2,0,B|338:222|338:222|418:192,1,160
488,159,91249,1,0,0:0:0:0:
321,91,91390,5,0,0:0:0:0:
392,49,91460,2,0,L|456:59,1,53.3333333333333
305,104,91601,1,0,0:0:0:0:
244,47,91672,1,0,0:0:0:0:
33,147,91813,6,0,B|90:142|90:142|197:181,1,160
290,209,92094,1,0,0:0:0:0:
204,284,92306,1,0,0:0:0:0:
166,295,92376,1,0,0:0:0:0:
128,285,92446,1,0,0:0:0:0:
101,256,92517,1,0,0:0:0:0:
272,341,92658,2,0,L|450:306,1,160
466,301,92939,1,0,0:0:0:0:
172,299,93151,5,0,0:0:0:0:
276,133,93291,1,0,0:0:0:0:
223,192,93362,2,0,L|167:202,1,53.3333333333333
32,147,93503,2,0,L|159:126,1,106.666666666667
204,76,93714,1,0,0:0:0:0:
204,76,93784,1,0,0:0:0:0:
231,317,93996,5,0,0:0:0:0:
335,151,94136,1,0,0:0:0:0:
282,210,94207,2,0,L|226:220,1,53.3333333333333
91,165,94348,2,0,B|144:146|144:146|218:144,1,106.666666666667
263,94,94559,1,0,0:0:0:0:
263,94,94629,1,0,0:0:0:0:
420,134,94841,5,0,0:0:0:0:
363,232,94982,1,0,0:0:0:0:
350,269,95052,1,0,0:0:0:0:
363,306,95122,1,0,0:0:0:0:
396,328,95193,2,0,L|283:349,1,106.666666666667
71,265,95404,5,0,0:0:0:0:
71,265,95475,2,0,L|133:269,1,53.3333333333333
302,273,95615,1,0,0:0:0:0:
302,273,95686,2,0,L|246:282,1,53.3333333333333
72,155,95827,5,0,0:0:0:0:
142,105,95897,1,0,0:0:0:0:
282,145,96038,2,0,L|454:130,1,160
350,56,96320,6,0,L|242:66,1,106.666666666667
156,189,96531,2,0,P|108:228|57:237,1,106.666666666667
332,234,96742,2,0,P|386:251|442:250,1,106.666666666667
238,232,96953,6,0,L|191:334,1,106.666666666667
293,303,97165,1,0,0:0:0:0:
177,103,97306,5,0,0:0:0:0:
235,158,97376,2,0,L|188:260,1,106.666666666667
136,347,97587,1,0,0:0:0:0:
407,24,97729,5,0,0:0:0:0:
349,79,97799,2,0,L|396:181,1,106.666666666667
259,58,98010,6,0,P|200:83|139:79,1,106.666666666667
77,45,98221,2,0,P|69:95|94:146,1,106.666666666667
161,221,98432,2,0,P|170:267|157:332,1,106.666666666667
55,353,98644,5,0,0:0:0:0:
262,233,98784,1,0,0:0:0:0:
252,270,98855,1,0,0:0:0:0:
364,321,98996,1,0,0:0:0:0:
354,284,99067,1,0,0:0:0:0:
453,218,99207,1,0,0:0:0:0:
446,255,99278,1,0,0:0:0:0:
454,354,99418,5,0,0:0:0:0:
454,354,99489,2,0,P|422:303|420:246,1,106.666666666667
332,205,99700,2,0,P|370:169|433:159,1,106.666666666667
225,226,99911,6,0,L|247:217,10,13.3333333333333
114,212,100122,1,0,0:0:0:0:
71,204,100157,1,0,0:0:0:0:
41,173,100192,1,0,0:0:0:0:
36,130,100227,1,0,0:0:0:0:
58,93,100262,1,0,0:0:0:0:
97,76,100298,1,0,0:0:0:0:
138,78,100334,6,0,L|162:135,2,53.3333333333333
282,128,100545,2,0,L|252:191,2,53.3333333333333
41,173,100756,6,0,L|65:230,1,53.3333333333333
273,266,100897,1,0,0:0:0:0:
273,266,100968,2,0,L|243:329,1,53.3333333333333
43,295,101108,2,0,L|67:352,2,53.3333333333333
145,232,101320,1,0,0:0:0:0:
220,191,101390,2,0,P|272:178|327:197,1,106.666666666667
413,240,101601,5,0,0:0:0:0:
208,45,101742,1,0,0:0:0:0:
208,45,101813,2,0,L|228:100,1,53.3333333333333
314,76,101953,1,0,0:0:0:0:
424,50,102024,5,0,0:0:0:0:
395,81,102094,1,0,0:0:0:0:
383,120,102164,1,0,0:0:0:0:
384,162,102235,1,0,0:0:0:0:
401,198,102305,1,0,0:0:0:0:
431,227,102376,1,0,0:0:0:0:
358,292,102446,5,0,0:0:0:0:
326,320,102516,1,0,0:0:0:0:
288,335,102586,1,0,0:0:0:0:
246,345,102657,1,0,0:0:0:0:
209,339,102727,1,0,0:0:0:0:
168,327,102798,1,0,0:0:0:0:
114,256,102869,6,0,P|82:201|82:154,1,106.666666666667
135,83,103080,2,0,L|160:64,6,20
194,175,103291,6,0,L|254:183,1,53.3333333333333
355,199,103432,1,0,0:0:0:0:
355,199,103503,1,0,0:0:0:0:
314,76,103644,6,0,L|374:84,2,53.3333333333333
56,126,103855,1,0,0:0:0:0:
135,83,103925,2,0,L|195:91,2,53.3333333333333
94,203,104137,2,0,P|114:244|133:258,1,53.3333333333333
187,289,104277,1,0,0:0:0:0:
422,278,104489,6,0,P|366:275|311:281,1,106.666666666667
257,343,104700,5,0,0:0:0:0:
257,343,104770,1,0,0:0:0:0:
257,343,104841,1,0,0:0:0:0:
270,305,104911,1,0,0:0:0:0:
276,265,104981,1,0,0:0:0:0:
276,225,105052,1,0,0:0:0:0:
268,186,105122,1,0,0:0:0:0:
250,153,105193,1,0,0:0:0:0:
198,254,105334,6,0,L|366:214,1,160
462,201,105615,1,0,0:0:0:0:
221,131,105827,5,0,0:0:0:0:
200,102,105897,1,0,0:0:0:0:
194,67,105967,1,0,0:0:0:0:
204,34,106038,1,0,0:0:0:0:
290,66,106179,1,0,0:0:0:0:
86,198,106460,5,0,0:0:0:0:
463,239,106672,1,0,0:0:0:0:
144,293,106883,1,0,0:0:0:0:
440,81,107090,6,0,L|349:99,1,80
153,63,107312,1,0,0:0:0:0:
405,170,107423,2,0,L|314:188,1,80
283,39,107645,1,0,0:0:0:0:
118,188,107756,6,0,L|209:206,1,80
405,170,107978,1,0,0:0:0:0:
153,277,108089,2,0,L|244:295,1,80
361,96,108311,1,0,0:0:0:0:
341,313,108423,5,0,0:0:0:0:
350,333,108478,1,0,0:0:0:0:
368,347,108534,1,0,0:0:0:0:
390,351,108589,1,0,0:0:0:0:
412,345,108645,1,0,0:0:0:0:
428,330,108700,1,0,0:0:0:0:
436,309,108756,1,0,0:0:0:0:
434,286,108811,1,0,0:0:0:0:
424,263,108867,6,0,L|331:279,1,80
190,170,109090,1,0,0:0:0:0:
281,336,109201,2,0,L|188:352,1,80
349,127,109423,5,0,0:0:0:0:
100,166,109534,1,0,0:0:0:0:
344,215,109645,1,0,0:0:0:0:
131,248,109756,2,0,L|222:256,1,80
370,304,109978,1,0,0:0:0:0:
147,93,110090,1,0,0:0:0:0:
339,223,110201,5,0,0:0:0:0:
366,229,110256,1,0,0:0:0:0:
394,226,110312,1,0,0:0:0:0:
420,214,110367,1,0,0:0:0:0:
440,194,110423,1,0,0:0:0:0:
452,168,110478,1,0,0:0:0:0:
455,140,110534,1,0,0:0:0:0:
448,112,110589,1,0,0:0:0:0:
433,86,110645,6,0,L|348:111,1,80
258,67,110867,1,0,0:0:0:0:
117,196,110978,6,0,L|202:221,1,80
292,177,111200,1,0,0:0:0:0:
497,281,111312,6,0,L|412:306,1,80
322,262,111534,1,0,0:0:0:0:
160,320,111645,6,0,L|245:345,1,80
71,292,111867,1,0,0:0:0:0:
159,205,111978,5,0,0:0:0:0:
178,176,112033,1,0,0:0:0:0:
186,143,112089,1,0,0:0:0:0:
183,109,112144,1,0,0:0:0:0:
168,79,112200,1,0,0:0:0:0:
144,55,112255,1,0,0:0:0:0:
113,41,112311,1,0,0:0:0:0:
79,39,112366,1,0,0:0:0:0:
48,56,112423,6,0,L|131:78,1,80
438,67,112645,5,0,0:0:0:0:
350,98,112756,2,0,L|267:120,1,80
45,160,112978,5,0,0:0:0:0:
133,191,113089,2,0,L|216:213,1,80
353,211,113312,1,0,0:0:0:0:
203,295,113423,1,0,0:0:0:0:
365,264,113534,1,0,0:0:0:0:
216,349,113645,1,0,0:0:0:0:
449,219,113756,5,0,0:0:0:0:
233,143,113867,1,0,0:0:0:0:
233,143,113923,1,0,0:0:0:0:
233,143,113978,1,0,0:0:0:0:
381,296,114090,1,0,0:0:0:0:
230,223,114201,6,0,P|184:223|142:245,1,80
56,324,114423,1,0,0:0:0:0:
378,174,114534,2,0,P|373:125|353:81,1,80
307,38,114756,1,0,0:0:0:0:
325,272,114867,6,0,L|409:290,1,80
485,261,115089,1,0,0:0:0:0:
238,193,115201,2,0,L|154:175,1,80
78,204,115423,1,0,0:0:0:0:
309,131,115534,5,0,0:0:0:0:
279,96,115589,1,0,0:0:0:0:
240,72,115645,1,0,0:0:0:0:
196,59,115700,1,0,0:0:0:0:
151,60,115756,1,0,0:0:0:0:
108,74,115811,1,0,0:0:0:0:
70,100,115867,1,0,0:0:0:0:
41,135,115922,1,0,0:0:0:0:
27,172,115978,6,0,L|110:189,1,80
184,256,116201,1,0,0:0:0:0:
451,69,116312,6,0,L|368:86,1,80
294,153,116535,1,0,0:0:0:0:
319,288,116645,6,0,P|366:316|401:325,1,80
488,349,116867,1,0,0:0:0:0:
214,114,116978,6,0,P|167:86|132:77,1,80
45,53,117200,1,0,0:0:0:0:
217,230,117312,5,0,0:0:0:0:
245,229,117367,1,0,0:0:0:0:
273,223,117423,1,0,0:0:0:0:
298,210,117478,1,0,0:0:0:0:
320,192,117534,1,0,0:0:0:0:
337,169,117589,1,0,0:0:0:0:
349,143,117645,1,0,0:0:0:0:
354,115,117700,1,0,0:0:0:0:
352,80,117756,5,0,0:0:0:0:
433,141,117867,1,0,0:0:0:0:
236,124,117978,1,0,0:0:0:0:
388,228,118089,1,0,0:0:0:0:
310,76,118201,5,0,0:0:0:0:
284,260,118312,1,0,0:0:0:0:
414,158,118423,1,0,0:0:0:0:
207,216,118534,1,0,0:0:0:0:
356,301,118645,5,0,0:0:0:0:
290,124,118756,1,0,0:0:0:0:
292,338,118867,1,0,0:0:0:0:
383,94,118978,1,0,0:0:0:0:
209,301,119089,5,0,0:0:0:0:
436,292,119201,1,0,0:0:0:0:
285,206,119312,1,0,0:0:0:0:
139,266,119534,5,0,0:0:0:0:
135,273,119589,1,0,0:0:0:0:
129,278,119645,1,0,0:0:0:0:
122,281,119700,1,0,0:0:0:0:
114,281,119756,1,0,0:0:0:0:
106,279,119811,1,0,0:0:0:0:
100,274,119867,1,0,0:0:0:0:
96,267,119922,1,0,0:0:0:0:
95,259,119978,1,0,0:0:0:0:
97,251,120034,1,0,0:0:0:0:
101,245,120089,1,0,0:0:0:0:
107,240,120145,1,0,0:0:0:0:
114,238,120200,1,0,0:0:0:0:
122,238,120256,1,0,0:0:0:0:
129,241,120311,1,0,0:0:0:0:
135,247,120367,1,0,0:0:0:0:
141,256,120423,5,0,0:0:0:0:
117,251,120478,1,0,0:0:0:0:
95,242,120534,1,0,0:0:0:0:
76,227,120589,1,0,0:0:0:0:
60,209,120645,1,0,0:0:0:0:
48,188,120700,1,0,0:0:0:0:
42,165,120756,1,0,0:0:0:0:
40,142,120811,1,0,0:0:0:0:
44,118,120867,1,0,0:0:0:0:
53,96,120923,1,0,0:0:0:0:
66,76,120978,1,0,0:0:0:0:
84,60,121034,1,0,0:0:0:0:
105,47,121089,1,0,0:0:0:0:
127,40,121145,1,0,0:0:0:0:
151,38,121200,1,0,0:0:0:0:
175,41,121256,1,0,0:0:0:0:
197,51,121312,6,0,L|310:43,1,112
256,192,122923,12,0,126701,0:0:0:0:
