osu file format v14

[General]
AudioFilename: audio.mp3
AudioLeadIn: 0
PreviewTime: 102882
Countdown: 0
SampleSet: Normal
StackLeniency: 0.7
Mode: 1
LetterboxInBreaks: 0
WidescreenStoryboard: 0

[Editor]
Bookmarks: 83974,104184,114290,124395,144605,168605,188815,209026,209045,209065,209085,209105,209124,209144,209164,209183,209203,209223,209243,209262,209282,209302,209322,209341,209361,209381,209401,209420,209440,209460,209480,209499,209519,209539,209558,209578,209598,209618,209637,209657,219131
DistanceSpacing: 0.8
BeatDivisor: 4
GridSize: 32
TimelineZoom: 0.9

[Metadata]
Title:Knotfunk
TitleUnicode:Knotfunk
Artist:t+pazolite
ArtistUnicode:t+pazolite
Creator:Nifty
Version:Kantan
Source:
Tags:Ayyri eiri- 108 Sketches 5 C.H.S.H.C CHS C.H.S CHSHC CHSHC-0005 M3-39 M3 tpz
BeatmapID:1514129
BeatmapSetID:716533

[Difficulty]
HPDrainRate:7
CircleSize:2
OverallDifficulty:3
ApproachRate:10
SliderMultiplier:1.4
SliderTickRate:1

[Events]
//Background and Video events
0,0,"65697083_p0_master1200.jpg",0,60
//Break Periods
//Storyboard Layer 0 (Background)
//Storyboard Layer 1 (Fail)
//Storyboard Layer 2 (Pass)
//Storyboard Layer 3 (Foreground)
//Storyboard Sound Samples

[TimingPoints]
3133,631.578947368421,4,1,0,40,1,0
3133,-55.5555555555556,4,1,0,40,0,0
33448,315.789473684211,4,1,0,40,1,0
37237,-100,4,1,0,50,0,0
38500,-100,4,1,0,60,0,0
43474,-100,4,1,0,80,0,0
104184,-100,4,1,0,80,0,1
113026,-100,4,1,0,80,0,0
114290,-100,4,1,0,80,0,1
123132,-100,4,1,0,80,0,0
124395,631.578947368421,4,1,0,40,1,0
124395,-55.5555555555556,4,1,0,40,0,0
144605,315.789473684211,4,1,0,50,1,0
149657,-100,4,1,0,60,0,0
154710,-100,4,1,0,70,0,0
159762,-100,4,1,0,80,0,0
188815,-100,4,1,0,80,0,1
197657,-100,4,1,0,80,0,0
198920,-100,4,1,0,80,0,1
207762,-100,4,1,0,80,0,0
229157,-100,4,1,0,40,0,0
229236,631.578947368421,4,1,0,40,1,0
229236,-55.5555555555556,4,1,0,40,0,0

[HitObjects]
256,160,3133,5,0,0:0:0:0:
256,128,4396,1,8,0:0:0:0:
256,96,5027,1,0,0:0:0:0:
256,160,8185,1,0,0:0:0:0:
256,160,9448,1,8,0:0:0:0:
256,160,10080,1,0,0:0:0:0:
256,160,13238,1,0,0:0:0:0:
256,160,14501,1,8,0:0:0:0:
258,150,15133,1,0,0:0:0:0:
256,160,15764,1,0,0:0:0:0:
256,160,16396,1,8,0:0:0:0:
256,160,17027,1,0,0:0:0:0:
256,160,18290,1,0,0:0:0:0:
256,160,19554,1,8,0:0:0:0:
250,153,20185,1,0,0:0:0:0:
256,160,20817,1,0,0:0:0:0:
256,160,21448,1,8,0:0:0:0:
256,160,22080,1,8,0:0:0:0:
256,160,23343,1,0,0:0:0:0:
256,160,24606,1,8,0:0:0:0:
261,139,25238,1,0,0:0:0:0:
256,160,25869,1,0,0:0:0:0:
256,160,26501,1,8,0:0:0:0:
256,160,27133,1,0,0:0:0:0:
256,160,28396,1,0,0:0:0:0:
256,160,29659,1,8,0:0:0:0:
256,160,30290,1,0,0:0:0:0:
256,160,30922,1,0,0:0:0:0:
256,160,32185,1,0,0:0:0:0:
256,128,35974,1,0,0:0:0:0:
256,128,37237,1,0,0:0:0:0:
256,128,38500,1,0,0:0:0:0:
256,128,39132,1,0,0:0:0:0:
256,128,39763,1,0,0:0:0:0:
256,128,40395,1,0,0:0:0:0:
256,128,41026,1,0,0:0:0:0:
256,128,41342,1,0,0:0:0:0:
256,128,41658,1,0,0:0:0:0:
256,128,41974,1,0,0:0:0:0:
256,128,42290,1,0,0:0:0:0:
256,128,43553,5,0,0:0:0:0:
256,128,44184,1,8,0:0:0:0:
256,96,44500,1,8,0:0:0:0:
256,96,44816,1,0,0:0:0:0:
256,96,45448,1,8,0:0:0:0:
256,96,46079,1,0,0:0:0:0:
256,96,46395,1,0,0:0:0:0:
256,96,46711,1,8,0:0:0:0:
256,96,47342,1,0,0:0:0:0:
256,88,47974,1,8,0:0:0:0:
256,96,48605,1,0,0:0:0:0:
256,96,49237,1,8,0:0:0:0:
256,96,49553,1,12,0:0:0:0:
256,96,49869,1,0,0:0:0:0:
256,96,50500,1,0,0:0:0:0:
256,96,50816,1,8,0:0:0:0:
256,96,51132,1,0,0:0:0:0:
256,96,51763,1,8,0:0:0:0:
256,96,52395,1,0,0:0:0:0:
256,96,53658,1,0,0:0:0:0:
256,96,54290,1,8,0:0:0:0:
256,96,54605,1,8,0:0:0:0:
256,160,54921,1,0,0:0:0:0:
256,160,55553,1,8,0:0:0:0:
256,160,56184,1,0,0:0:0:0:
256,160,56500,1,0,0:0:0:0:
256,160,56816,1,8,0:0:0:0:
258,145,58079,1,8,0:0:0:0:
256,160,58711,1,0,0:0:0:0:
256,128,59342,1,8,0:0:0:0:
256,160,59658,1,12,0:0:0:0:
256,160,59974,1,0,0:0:0:0:
256,160,60605,1,8,0:0:0:0:
256,160,61237,1,0,0:0:0:0:
256,160,61553,1,0,0:0:0:0:
256,160,62184,1,8,0:0:0:0:
256,160,62500,1,8,0:0:0:0:
256,160,63763,1,0,0:0:0:0:
256,160,64395,1,8,0:0:0:0:
256,160,64711,1,8,0:0:0:0:
256,160,65026,1,0,0:0:0:0:
256,160,65658,1,8,0:0:0:0:
256,160,66290,1,0,0:0:0:0:
256,160,66605,1,0,0:0:0:0:
256,160,66921,1,8,0:0:0:0:
256,160,67553,1,0,0:0:0:0:
262,154,68184,1,8,0:0:0:0:
256,160,68816,1,0,0:0:0:0:
265,160,69448,1,8,0:0:0:0:
265,160,69763,1,12,0:0:0:0:
265,160,70079,1,0,0:0:0:0:
265,160,70711,1,8,0:0:0:0:
265,160,71342,1,0,0:0:0:0:
269,144,71974,1,0,0:0:0:0:
269,144,72290,1,8,0:0:0:0:
269,144,72605,1,0,0:0:0:0:
269,147,73869,1,0,0:0:0:0:
269,147,74500,1,8,0:0:0:0:
269,147,74816,1,8,0:0:0:0:
269,147,75132,1,0,0:0:0:0:
269,147,75763,1,8,0:0:0:0:
269,147,76395,1,0,0:0:0:0:
269,147,76711,1,0,0:0:0:0:
270,135,77026,1,8,0:0:0:0:
273,117,78290,1,8,0:0:0:0:
266,134,78921,1,0,0:0:0:0:
266,134,79553,1,8,0:0:0:0:
265,121,79869,1,12,0:0:0:0:
263,125,80184,1,0,0:0:0:0:
265,121,80816,1,8,0:0:0:0:
265,121,81448,1,0,0:0:0:0:
265,121,81763,1,0,0:0:0:0:
265,121,82395,1,8,0:0:0:0:
265,121,82711,1,8,0:0:0:0:
260,111,83974,1,0,0:0:0:0:
260,111,84605,1,8,0:0:0:0:
262,100,85237,1,0,0:0:0:0:
262,100,86184,1,8,0:0:0:0:
263,90,86500,1,0,0:0:0:0:
263,80,87132,1,8,0:0:0:0:
262,88,87763,1,0,0:0:0:0:
262,88,88395,1,8,0:0:0:0:
264,71,88711,1,0,0:0:0:0:
262,68,89026,1,0,0:0:0:0:
264,71,89658,1,8,0:0:0:0:
273,75,90290,1,0,0:0:0:0:
273,75,91237,1,8,0:0:0:0:
261,62,91553,1,0,0:0:0:0:
264,71,92184,1,8,0:0:0:0:
256,128,92500,1,8,0:0:0:0:
264,71,92816,1,0,0:0:0:0:
249,74,93448,1,8,0:0:0:0:
229,70,94079,1,0,0:0:0:0:
248,73,94711,1,8,0:0:0:0:
243,78,95342,1,0,0:0:0:0:
245,70,96290,1,8,0:0:0:0:
242,68,96605,1,0,0:0:0:0:
245,70,97237,1,8,0:0:0:0:
245,70,97869,1,0,0:0:0:0:
245,70,98184,1,0,0:0:0:0:
245,70,98500,1,8,0:0:0:0:
243,54,99448,1,0,0:0:0:0:
246,60,99763,1,8,0:0:0:0:
244,67,100395,1,0,0:0:0:0:
244,67,101342,1,8,0:0:0:0:
244,67,101658,1,0,0:0:0:0:
246,73,102290,1,8,0:0:0:0:
246,73,102921,1,0,0:0:0:0:
255,86,104184,1,0,0:0:0:0:
255,86,104500,1,8,0:0:0:0:
254,78,104816,1,0,0:0:0:0:
254,78,105448,1,8,0:0:0:0:
254,78,106079,1,0,0:0:0:0:
254,78,106711,1,8,0:0:0:0:
254,78,107026,1,8,0:0:0:0:
254,78,107342,1,0,0:0:0:0:
254,78,107974,1,8,0:0:0:0:
254,78,108921,1,0,0:0:0:0:
251,56,109237,1,8,0:0:0:0:
265,59,109553,1,8,0:0:0:0:
256,66,110184,1,0,0:0:0:0:
265,59,110500,1,8,0:0:0:0:
271,64,111132,1,0,0:0:0:0:
268,55,111763,1,0,0:0:0:0:
261,51,112079,1,8,0:0:0:0:
263,47,112711,1,8,0:0:0:0:
264,62,113026,1,0,0:0:0:0:
282,72,114290,1,0,0:0:0:0:
265,116,114605,1,8,0:0:0:0:
265,116,114921,1,0,0:0:0:0:
265,116,115553,1,8,0:0:0:0:
261,133,116184,1,0,0:0:0:0:
263,122,116816,1,8,0:0:0:0:
264,122,117132,1,8,0:0:0:0:
263,122,117448,1,0,0:0:0:0:
256,122,118079,1,8,0:0:0:0:
256,128,119026,1,8,0:0:0:0:
256,96,119342,1,0,0:0:0:0:
262,103,119658,1,8,0:0:0:0:
252,102,120290,1,8,0:0:0:0:
246,100,120605,1,0,0:0:0:0:
252,102,121237,1,8,0:0:0:0:
250,88,121869,1,0,0:0:0:0:
251,83,122500,1,0,0:0:0:0:
251,83,123132,1,8,0:0:0:0:
256,66,124395,1,0,0:0:0:0:
256,68,125658,1,8,0:0:0:0:
253,60,126289,1,0,0:0:0:0:
253,60,126921,1,0,0:0:0:0:
253,60,127552,1,8,0:0:0:0:
253,60,128184,1,0,0:0:0:0:
270,77,129447,1,0,0:0:0:0:
260,80,130710,1,8,0:0:0:0:
260,80,131342,1,0,0:0:0:0:
260,80,131973,1,0,0:0:0:0:
260,80,132605,1,8,0:0:0:0:
260,80,133237,1,8,0:0:0:0:
259,80,134500,1,0,0:0:0:0:
259,80,135763,1,8,0:0:0:0:
259,80,136395,1,0,0:0:0:0:
259,80,137026,1,0,0:0:0:0:
259,80,137658,1,8,0:0:0:0:
259,80,138289,1,0,0:0:0:0:
257,80,139552,1,0,0:0:0:0:
257,80,140816,1,8,0:0:0:0:
257,80,141447,1,0,0:0:0:0:
257,80,142079,1,0,0:0:0:0:
257,80,143342,1,0,0:0:0:0:
255,80,144605,1,8,0:0:0:0:
240,82,145236,1,0,0:0:0:0:
240,71,146499,1,0,0:0:0:0:
240,71,147131,1,8,0:0:0:0:
240,71,147762,1,0,0:0:0:0:
241,73,149026,1,0,0:0:0:0:
241,73,149657,1,8,0:0:0:0:
241,73,150289,1,8,0:0:0:0:
241,68,151552,1,0,0:0:0:0:
241,68,152183,1,8,0:0:0:0:
241,68,152815,1,8,0:0:0:0:
241,66,154078,1,0,0:0:0:0:
241,66,154710,1,0,0:0:0:0:
234,60,155341,1,8,0:0:0:0:
235,58,156605,1,8,0:0:0:0:
235,58,157236,1,0,0:0:0:0:
235,58,157868,1,8,0:0:0:0:
235,58,159131,1,8,0:0:0:0:
235,58,159762,1,0,0:0:0:0:
236,42,160394,1,0,0:0:0:0:
239,42,161657,1,0,0:0:0:0:
239,50,162289,1,8,0:0:0:0:
236,57,162920,1,0,0:0:0:0:
236,57,163552,1,0,0:0:0:0:
236,57,163868,1,0,0:0:0:0:
236,57,164183,1,0,0:0:0:0:
236,57,164815,1,0,0:0:0:0:
236,57,165447,1,0,0:0:0:0:
236,57,166078,1,0,0:0:0:0:
236,57,166394,1,0,0:0:0:0:
236,57,166710,1,0,0:0:0:0:
236,57,167026,1,0,0:0:0:0:
234,40,167341,1,8,0:0:0:0:
234,39,167973,1,0,0:0:0:0:
234,39,168605,1,4,0:0:0:0:
240,110,169236,1,8,0:0:0:0:
239,101,169868,1,8,0:0:0:0:
246,83,170815,1,8,0:0:0:0:
235,105,171131,1,0,0:0:0:0:
235,105,171762,1,8,0:0:0:0:
235,105,172394,1,8,0:0:0:0:
237,95,173657,1,0,0:0:0:0:
237,95,174289,1,8,0:0:0:0:
237,95,174920,1,0,0:0:0:0:
231,88,175868,1,8,0:0:0:0:
236,86,176183,1,8,0:0:0:0:
236,86,176815,1,8,0:0:0:0:
236,86,177447,1,0,0:0:0:0:
236,86,178078,1,8,0:0:0:0:
236,86,178710,1,0,0:0:0:0:
236,86,179341,1,8,0:0:0:0:
236,86,179973,1,8,0:0:0:0:
231,76,180920,1,8,0:0:0:0:
236,70,181236,1,0,0:0:0:0:
236,70,181868,1,8,0:0:0:0:
236,70,182499,1,0,0:0:0:0:
232,60,183131,1,8,0:0:0:0:
233,58,184394,1,8,0:0:0:0:
233,58,185026,1,0,0:0:0:0:
241,52,185973,1,8,0:0:0:0:
233,58,186289,1,0,0:0:0:0:
228,43,186920,1,8,0:0:0:0:
233,36,187552,1,0,0:0:0:0:
255,86,188815,1,0,0:0:0:0:
255,86,189131,1,8,0:0:0:0:
254,78,189447,1,0,0:0:0:0:
254,78,190078,1,8,0:0:0:0:
254,78,190710,1,0,0:0:0:0:
254,78,191341,1,8,0:0:0:0:
254,78,191657,1,8,0:0:0:0:
254,78,191973,1,0,0:0:0:0:
254,78,192605,1,8,0:0:0:0:
254,78,193552,1,0,0:0:0:0:
251,56,193868,1,8,0:0:0:0:
265,59,194183,1,8,0:0:0:0:
256,66,194815,1,0,0:0:0:0:
265,59,195131,1,8,0:0:0:0:
271,64,195762,1,0,0:0:0:0:
268,55,196394,1,0,0:0:0:0:
261,51,196710,1,8,0:0:0:0:
263,47,197341,1,8,0:0:0:0:
264,62,197657,1,0,0:0:0:0:
282,72,198920,1,0,0:0:0:0:
265,116,199236,1,8,0:0:0:0:
265,116,199552,1,0,0:0:0:0:
265,116,200183,1,8,0:0:0:0:
261,133,200815,1,0,0:0:0:0:
263,122,201447,1,8,0:0:0:0:
264,122,201762,1,8,0:0:0:0:
263,122,202078,1,0,0:0:0:0:
256,122,202710,1,8,0:0:0:0:
262,113,203657,1,0,0:0:0:0:
262,113,203973,1,8,0:0:0:0:
262,103,204289,1,8,0:0:0:0:
252,102,204920,1,8,0:0:0:0:
246,100,205236,1,0,0:0:0:0:
252,102,205868,1,8,0:0:0:0:
251,83,206183,1,8,0:0:0:0:
250,88,206499,1,0,0:0:0:0:
251,83,207131,1,0,0:0:0:0:
251,83,207762,1,8,0:0:0:0:
256,128,209026,1,12,0:0:0:0:
213,142,209657,1,8,0:0:0:0:
230,136,209973,1,0,0:0:0:0:
230,136,210289,1,0,0:0:0:0:
233,123,210920,1,8,0:0:0:0:
233,123,211552,1,0,0:0:0:0:
233,123,211868,1,0,0:0:0:0:
236,111,212183,1,8,0:0:0:0:
237,111,212815,1,0,0:0:0:0:
237,111,213447,1,8,0:0:0:0:
237,111,214078,1,0,0:0:0:0:
237,111,214710,1,8,0:0:0:0:
246,96,215026,1,12,0:0:0:0:
246,96,215341,1,0,0:0:0:0:
236,98,215973,1,8,0:0:0:0:
236,98,216605,1,0,0:0:0:0:
236,98,216920,1,0,0:0:0:0:
236,98,217236,1,8,0:0:0:0:
236,98,217868,1,0,0:0:0:0:
269,147,219131,1,0,0:0:0:0:
269,147,219762,1,8,0:0:0:0:
269,147,220078,1,8,0:0:0:0:
269,147,220394,1,0,0:0:0:0:
269,147,221026,1,8,0:0:0:0:
269,147,221657,1,0,0:0:0:0:
269,147,221973,1,0,0:0:0:0:
270,135,222289,1,8,0:0:0:0:
273,117,223552,1,8,0:0:0:0:
266,134,224183,1,0,0:0:0:0:
266,134,224815,1,8,0:0:0:0:
265,121,225131,1,12,0:0:0:0:
263,125,225447,1,0,0:0:0:0:
265,121,226078,1,8,0:0:0:0:
265,121,226710,1,0,0:0:0:0:
265,121,227026,1,0,0:0:0:0:
265,121,227657,1,8,0:0:0:0:
265,121,227973,1,8,0:0:0:0:
267,115,229236,1,0,0:0:0:0:
267,115,230499,1,8,0:0:0:0:
271,99,231130,1,0,0:0:0:0:
253,85,234288,1,0,0:0:0:0:
258,66,235551,1,8,0:0:0:0:
258,66,236183,1,0,0:0:0:0:
