osu file format v14

[General]
AudioFilename: audio.mp3
AudioLeadIn: 0
PreviewTime: 102856
Countdown: 0
SampleSet: Normal
StackLeniency: 0.7
Mode: 1
LetterboxInBreaks: 0
WidescreenStoryboard: 0

[Editor]
Bookmarks: 3120,13225,33435,43540,63750,83961,104171,124382,144592,168592,188802,209013,229223,249433
DistanceSpacing: 0.9
BeatDivisor: 16
GridSize: 32
TimelineZoom: 2.2

[Metadata]
Title:Knotfunk
TitleUnicode:Knotfunk
Artist:t+pazolite
ArtistUnicode:t+pazolite
Creator:KatK1
Version:Hell Oni
Source:
Tags:mpg mappers' guild fa featured artist vulkin beaw stingy 108 Sketches 5 C.H.S.H.C CHS C.H.S CHSHC CHSHC-0005 M3-39 M3 Music Media-Mix Market tpz tpazolite sv technical electronic instrumental
BeatmapID:4429937
BeatmapSetID:2110356

[Difficulty]
HPDrainRate:5.5
CircleSize:4
OverallDifficulty:6.5
ApproachRate:8
SliderMultiplier:1.4
SliderTickRate:1

[Events]
//Background and Video events
0,0,"knotfunk.jpg",0,0
//Break Periods
2,33435,34579
//Storyboard Layer 0 (Background)
//Storyboard Layer 1 (Fail)
//Storyboard Layer 2 (Pass)
//Storyboard Layer 3 (Foreground)
//Storyboard Layer 4 (Overlay)
//Storyboard Sound Samples

[TimingPoints]
593,631.578947368421,7,1,0,40,1,8
3120,631.578947368421,4,1,0,40,1,0
3120,-125,4,1,0,40,0,0
4067,-124.99759,4,1,0,40,0,0
4225,-124.99553,4,1,0,40,0,0
4383,-124.99237,4,1,0,40,0,0
5014,-124.96143,4,1,0,40,0,0
5646,-124.8781,4,1,0,40,0,0
8172,-123.077675,4,1,0,40,0,0
8173,-123.076164,4,1,0,40,0,0
9120,-121.23279,4,1,0,40,0,0
9277,-120.836395,4,1,0,40,0,0
9435,-120.408585,4,1,0,40,0,0
10067,-118.388596,4,1,0,40,0,0
10699,-115.83598,4,1,0,40,0,0
13195,-100,4,1,0,50,0,0
33405,-250,4,1,0,20,0,0
33435,315.789473684211,4,1,0,20,1,0
33435,-250,4,1,0,20,0,0
34698,-213.69162,4,1,0,30,0,0
35329,-211.38843,4,1,0,35,0,0
35645,-208.57307,4,1,0,37,0,0
35961,-204.75389,4,1,0,40,0,0
36277,-200.0434,4,1,0,43,0,0
36592,-194.59007,4,1,0,45,0,0
36908,-188.4986,4,1,0,47,0,0
37224,-181.92653,4,1,0,50,0,0
37540,-175.01045,4,1,0,53,0,0
37856,-167.8771,4,1,0,55,0,0
38171,-160.66278,4,1,0,57,0,0
38487,-153.41945,4,1,0,60,0,0
38645,-152.99812,4,1,0,61,0,0
38803,-151.80504,4,1,0,62,0,0
38961,-149.8541,4,1,0,63,0,0
39119,-147.20366,4,1,0,63,0,0
39277,-143.92935,4,1,0,64,0,0
39435,-140.11908,4,1,0,65,0,0
39592,-135.8956,4,1,0,66,0,0
39750,-131.30098,4,1,0,67,0,0
39908,-126.45453,4,1,0,67,0,0
40066,-121.443794,4,1,0,68,0,0
40224,-116.34759,4,1,0,69,0,0
40382,-111.2347,4,1,0,70,0,0
40540,-106.163246,4,1,0,71,0,0
40698,-101.180756,4,1,0,72,0,0
40856,-96.32482,4,1,0,73,0,0
41013,-91.65322,4,1,0,73,0,0
41092,-89.367165,4,1,0,74,0,0
41171,-87.12704,4,1,0,74,0,0
41250,-84.93441,4,1,0,75,0,0
41329,-82.79045,4,1,0,75,0,0
41408,-80.69604,4,1,0,75,0,0
41487,-78.65176,4,1,0,76,0,0
41566,-76.65794,4,1,0,76,0,0
41645,-74.71468,4,1,0,77,0,0
41724,-72.82188,4,1,0,77,0,0
41803,-70.97928,4,1,0,77,0,0
41882,-69.18645,4,1,0,78,0,0
41961,-67.4428,4,1,0,78,0,0
42040,-65.74771,4,1,0,79,0,0
42119,-64.100395,4,1,0,79,0,0
42198,-62.5,4,1,0,80,0,0
42277,-50,4,1,0,80,0,0
42356,-125,4,1,0,20,0,0
43461,-125,4,1,0,70,0,0
43540,-125,4,1,0,70,0,0
43592,-125.65235,4,1,0,70,0,0
43645,-126.32428,4,1,0,70,0,0
43698,-127.00344,4,1,0,70,0,0
43750,-127.67693,4,1,0,70,0,0
43803,-128.37074,4,1,0,70,0,0
43856,-129.07217,4,1,0,70,0,0
44013,-131.19565,4,1,0,70,0,0
44166,-117.647058823529,4,1,0,70,0,0
44324,-114.942528735632,4,1,0,70,0,0
44482,-83.3333300000001,4,1,0,70,0,0
44798,-99.9999952000002,4,1,0,70,0,0
44956,-92.5925925925926,4,1,0,70,0,0
45035,-94.3396226415094,4,1,0,70,0,0
45114,-96.1538461538461,4,1,0,70,0,0
45193,-98.0392156862745,4,1,0,70,0,0
45272,-100,4,1,0,70,0,0
45430,-95.2380952380952,4,1,0,70,0,0
45587,-100,4,1,0,70,0,0
45666,-98.0392156862745,4,1,0,70,0,0
45745,-96.1538461538461,4,1,0,70,0,0
45824,-94.3396226415094,4,1,0,70,0,0
45903,-92.5925925925926,4,1,0,70,0,0
46061,-100,4,1,0,70,0,0
46114,-101.010101010101,4,1,0,70,0,0
46166,-102.040816326531,4,1,0,70,0,0
46219,-103.092783505155,4,1,0,70,0,0
46377,-100,4,1,0,70,0,0
46535,-98.0392156862745,4,1,0,70,0,0
46614,-96.1538461538461,4,1,0,70,0,0
46693,-94.3396226415094,4,1,0,70,0,0
46851,-90.9090909090909,4,1,0,70,0,0
47008,-83.3333333333333,4,1,0,70,0,0
47061,-85.1063829787234,4,1,0,70,0,0
47114,-86.9565217391304,4,1,0,70,0,0
47166,-88.8888888888889,4,1,0,70,0,0
47324,-100,4,1,0,70,0,0
47482,-90.9090909090909,4,1,0,70,0,0
47640,-98.0392156862745,4,1,0,70,0,0
47719,-96.1538461538461,4,1,0,70,0,0
47798,-94.3396226415094,4,1,0,70,0,0
47956,-87.719298245614,4,1,0,70,0,0
48114,-98.0392156862745,4,1,0,70,0,0
48193,-96.1538461538461,4,1,0,70,0,0
48272,-94.3396226415094,4,1,0,70,0,0
48351,-92.5925925925926,4,1,0,70,0,0
48430,-90.9090909090909,4,1,0,70,0,0
48587,-76.92308,4,1,0,70,0,0
48640,-78.44111,4,1,0,70,0,0
48693,-80.020256,4,1,0,70,0,0
48745,-81.63265,4,1,0,70,0,0
48798,-83.34432,4,1,0,70,0,0
48851,-85.12932,4,1,0,70,0,0
48903,-86.95652,4,1,0,70,0,0
49061,-90.9090909090909,4,1,0,70,0,0
49219,-95.2380952380952,4,1,0,70,0,0
49535,-71.4285714285714,4,1,0,70,0,0
49851,-100,4,1,0,70,0,0
50008,-90.9090909090909,4,1,0,70,0,0
50087,-92.5925925925926,4,1,0,70,0,0
50166,-94.3396226415094,4,1,0,70,0,0
50245,-96.1538461538461,4,1,0,70,0,0
50324,-98.0392156862745,4,1,0,70,0,0
50482,-99.9999999999999,4,1,0,70,0,0
50640,-106.382978723404,4,1,0,70,0,0
50719,-105.263157894737,4,1,0,70,0,0
50798,-104.166666666667,4,1,0,70,0,0
50956,-111.111111111111,4,1,0,70,0,0
51114,-83.3333333333333,4,1,0,70,0,0
51166,-85.1063829787234,4,1,0,70,0,0
51219,-86.9565217391304,4,1,0,70,0,0
51272,-88.8888888888889,4,1,0,70,0,0
51430,-100,4,1,0,70,0,0
51587,-95.2380952380954,4,1,0,70,0,0
51745,-90.9090909090909,4,1,0,70,0,0
51903,-100,4,1,0,70,0,0
51982,-97.5609756097561,4,1,0,70,0,0
52061,-95.2380952380952,4,1,0,70,0,0
52219,-86.9565217391304,4,1,0,70,0,0
52377,-83.333336,4,1,0,70,0,0
52430,-84.6859,4,1,0,70,0,0
52482,-86.03428,4,1,0,70,0,0
52535,-87.43069,4,1,0,70,0,0
52619,-89.69042,4,1,0,70,0,0
52693,-91.72949,4,1,0,70,0,0
52798,-94.70256,4,1,0,70,0,0
52903,-97.772,4,1,0,70,0,0
53008,-100.78982,4,1,0,70,0,0
53114,-104.03142,4,1,0,70,0,0
53219,-107.45477,4,1,0,70,0,0
53324,-111.1111,4,1,0,70,0,0
53482,-117.647058823529,4,1,0,70,0,0
53640,-125,4,1,0,70,0,0
53693,-124.178734,4,1,0,70,0,0
53780,-122.84228,4,1,0,70,0,0
53903,-120.97732,4,1,0,70,0,0
54114,-117.843796,4,1,0,70,0,0
54272,-115.55062,4,1,0,70,0,0
54351,-114.42082,4,1,0,70,0,0
54430,-113.30207,4,1,0,70,0,0
54587,-83.3333270833332,4,1,0,70,0,0
54903,-100,4,1,0,70,0,0
54982,-98.0392156862745,4,1,0,70,0,0
55061,-96.1538461538461,4,1,0,70,0,0
55219,-90.9090909090909,4,1,0,70,0,0
55377,-100,4,1,0,70,0,0
55456,-102.040816326531,4,1,0,70,0,0
55535,-104.166666666667,4,1,0,70,0,0
55693,-111.111111111111,4,1,0,70,0,0
55851,-100,4,1,0,70,0,0
55930,-102.564102564103,4,1,0,70,0,0
56008,-105.263157894737,4,1,0,70,0,0
56166,-90.9090909090909,4,1,0,70,0,0
56219,-89.6860986547085,4,1,0,70,0,0
56272,-88.4955752212389,4,1,0,70,0,0
56324,-87.3362445414847,4,1,0,70,0,0
56482,-90.9090909090909,4,1,0,70,0,0
56640,-86.9565217391304,4,1,0,70,0,0
56798,-95.2380952380952,4,1,0,70,0,0
56877,-97.5609756097561,4,1,0,70,0,0
56956,-100,4,1,0,70,0,0
57114,-83.3333333333333,4,1,0,70,0,0
57166,-85.1063829787234,4,1,0,70,0,0
57219,-86.9565217391304,4,1,0,70,0,0
57272,-88.8888888888889,4,1,0,70,0,0
57430,-100,4,1,0,70,0,0
57587,-94.3396226415094,4,1,0,70,0,0
57666,-96.1538461538461,4,1,0,70,0,0
57745,-98.0392156862745,4,1,0,70,0,0
57903,-90.9090909090909,4,1,0,70,0,0
57982,-92.5925925925926,4,1,0,70,0,0
58061,-94.3396226415094,4,1,0,70,0,0
58219,-100,4,1,0,70,0,0
58298,-97.5609756097561,4,1,0,70,0,0
58377,-95.2380952380952,4,1,0,70,0,0
58456,-93.0232558139535,4,1,0,70,0,0
58535,-90.9090909090909,4,1,0,70,0,0
58693,-76.92308,4,1,0,70,0,0
58745,-78.41673,4,1,0,70,0,0
58798,-80,4,1,0,70,0,0
58851,-81.64852,4,1,0,70,0,0
58903,-83.33333,4,1,0,70,0,0
58956,-85.123634,4,1,0,70,0,0
59008,-86.95651,4,1,0,70,0,0
59166,-90.9090909090909,4,1,0,70,0,0
59324,-95.2380952380952,4,1,0,70,0,0
59640,-71.4285714285714,4,1,0,70,0,0
59956,-100,4,1,0,70,0,0
60114,-86.9565217391304,4,1,0,70,0,0
60193,-88.8888888888889,4,1,0,70,0,0
60272,-90.9090909090909,4,1,0,70,0,0
60430,-86.9565217391304,4,1,0,70,0,0
60587,-80,4,1,0,70,0,0
60745,-90.9090909090909,4,1,0,70,0,0
60824,-89.2857142857143,4,1,0,70,0,0
60903,-87.719298245614,4,1,0,70,0,0
60982,-86.2068965517241,4,1,0,70,0,0
61061,-84.7457627118644,4,1,0,70,0,0
61219,-76.9230769230769,4,1,0,70,0,0
61272,-78.7401574803149,4,1,0,70,0,0
61324,-80.6451612903226,4,1,0,70,0,0
61377,-82.6446280991736,4,1,0,70,0,0
61535,-90.9090909090909,4,1,0,70,0,0
61614,-89.2857142857143,4,1,0,70,0,0
61693,-87.719298245614,4,1,0,70,0,0
61851,-100,4,1,0,70,0,0
62008,-90.9090909090909,4,1,0,70,0,0
62087,-88.2352967128028,4,1,0,70,0,0
62166,-85.7143346939055,4,1,0,70,0,0
62324,-90.9090909090909,4,1,0,70,0,0
62482,-100,4,1,0,70,0,0
62640,-86.95952,4,1,0,70,0,0
62693,-88.24763,4,1,0,70,0,0
62745,-89.549065,4,1,0,70,0,0
62798,-90.91564,4,1,0,70,0,0
62956,-95.24887,4,1,0,70,0,0
63035,-97.574165,4,1,0,70,0,0
63114,-100.01584,4,1,0,70,0,0
63272,-105.285095,4,1,0,70,0,0
63430,-111.14045,4,1,0,70,0,0
63508,-114.27796,4,1,0,70,0,0
63587,-117.64158,4,1,0,70,0,0
63731,-125,4,1,0,70,0,0
63783,-125.65235,4,1,0,70,0,0
63836,-126.32428,4,1,0,70,0,0
63889,-127.00344,4,1,0,70,0,0
63941,-127.67693,4,1,0,70,0,0
63994,-128.37074,4,1,0,70,0,0
64047,-129.07217,4,1,0,70,0,0
64204,-131.19565,4,1,0,70,0,0
64376,-117.647058823529,4,1,0,70,0,0
64534,-114.942528735632,4,1,0,70,0,0
64692,-83.3333300000001,4,1,0,70,0,0
65008,-99.9999952000002,4,1,0,70,0,0
65166,-92.5925925925926,4,1,0,70,0,0
65245,-94.3396226415094,4,1,0,70,0,0
65324,-96.1538461538461,4,1,0,70,0,0
65403,-98.0392156862745,4,1,0,70,0,0
65482,-100,4,1,0,70,0,0
65640,-95.2380952380952,4,1,0,70,0,0
65797,-100,4,1,0,70,0,0
65876,-98.0392156862745,4,1,0,70,0,0
65955,-96.1538461538461,4,1,0,70,0,0
66034,-94.3396226415094,4,1,0,70,0,0
66113,-92.5925925925926,4,1,0,70,0,0
66271,-100,4,1,0,70,0,0
66324,-101.010101010101,4,1,0,70,0,0
66376,-102.040816326531,4,1,0,70,0,0
66429,-103.092783505155,4,1,0,70,0,0
66587,-100,4,1,0,70,0,0
66745,-98.0392156862745,4,1,0,70,0,0
66824,-96.1538461538461,4,1,0,70,0,0
66903,-94.3396226415094,4,1,0,70,0,0
67061,-90.9090909090909,4,1,0,70,0,0
67218,-83.3333333333333,4,1,0,70,0,0
67271,-85.1063829787234,4,1,0,70,0,0
67324,-86.9565217391304,4,1,0,70,0,0
67376,-88.8888888888889,4,1,0,70,0,0
67534,-100,4,1,0,70,0,0
67692,-90.9090909090909,4,1,0,70,0,0
67850,-98.0392156862745,4,1,0,70,0,0
67929,-96.1538461538461,4,1,0,70,0,0
68008,-94.3396226415094,4,1,0,70,0,0
68166,-87.719298245614,4,1,0,70,0,0
68324,-98.0392156862745,4,1,0,70,0,0
68403,-96.1538461538461,4,1,0,70,0,0
68482,-94.3396226415094,4,1,0,70,0,0
68561,-92.5925925925926,4,1,0,70,0,0
68640,-90.9090909090909,4,1,0,70,0,0
68797,-76.92308,4,1,0,70,0,0
68850,-78.44111,4,1,0,70,0,0
68903,-80.020256,4,1,0,70,0,0
68955,-81.63265,4,1,0,70,0,0
69008,-83.34432,4,1,0,70,0,0
69061,-85.12932,4,1,0,70,0,0
69113,-86.95652,4,1,0,70,0,0
69271,-90.9090909090909,4,1,0,70,0,0
69429,-95.2380952380952,4,1,0,70,0,0
69745,-71.4285714285714,4,1,0,70,0,0
70061,-100,4,1,0,70,0,0
70218,-90.9090909090909,4,1,0,70,0,0
70297,-92.5925925925926,4,1,0,70,0,0
70376,-94.3396226415094,4,1,0,70,0,0
70455,-96.1538461538461,4,1,0,70,0,0
70534,-98.0392156862745,4,1,0,70,0,0
70692,-90.9090909090909,4,1,0,70,0,0
70777,-92.5925925925926,4,1,0,70,0,0
70850,-94.3396226415094,4,1,0,70,0,0
70929,-96.1538461538461,4,1,0,70,0,0
71008,-98.0392156862745,4,1,0,70,0,0
71166,-105.263157894737,4,1,0,70,0,0
71324,-83.3333333333333,4,1,0,70,0,0
71376,-85.1063829787234,4,1,0,70,0,0
71429,-86.9565217391304,4,1,0,70,0,0
71482,-88.8888888888889,4,1,0,70,0,0
71640,-100,4,1,0,70,0,0
71797,-95.2380952380954,4,1,0,70,0,0
71955,-90.9090909090909,4,1,0,70,0,0
72113,-100,4,1,0,70,0,0
72192,-97.5609756097561,4,1,0,70,0,0
72271,-95.2380952380952,4,1,0,70,0,0
72429,-86.9565217391304,4,1,0,70,0,0
72573,-83.333336,4,1,0,70,0,0
72626,-84.6859,4,1,0,70,0,0
72678,-86.03428,4,1,0,70,0,0
72731,-87.43069,4,1,0,70,0,0
72829,-90.072685,4,1,0,70,0,0
72889,-91.72949,4,1,0,70,0,0
72994,-94.70256,4,1,0,70,0,0
73099,-97.772,4,1,0,70,0,0
73204,-100.78982,4,1,0,70,0,0
73310,-104.03142,4,1,0,70,0,0
73415,-107.45477,4,1,0,70,0,0
73520,-111.1111,4,1,0,70,0,0
73678,-117.647058823529,4,1,0,70,0,0
73850,-125,4,1,0,70,0,0
73903,-124.178734,4,1,0,70,0,0
73990,-122.84228,4,1,0,70,0,0
74113,-120.97732,4,1,0,70,0,0
74324,-117.843796,4,1,0,70,0,0
74482,-115.55062,4,1,0,70,0,0
74561,-114.42082,4,1,0,70,0,0
74640,-113.30207,4,1,0,70,0,0
74797,-83.3333270833332,4,1,0,70,0,0
75113,-100,4,1,0,70,0,0
75192,-98.0392156862745,4,1,0,70,0,0
75271,-96.1538461538461,4,1,0,70,0,0
75429,-90.9090909090909,4,1,0,70,0,0
75513,-92.5925925925926,4,1,0,70,0,0
75587,-94.3396226415094,4,1,0,70,0,0
75666,-96.1538461538461,4,1,0,70,0,0
75745,-98.0392156862745,4,1,0,70,0,0
75903,-105.263157894737,4,1,0,70,0,0
76061,-100,4,1,0,70,0,0
76140,-102.564102564103,4,1,0,70,0,0
76218,-105.263157894737,4,1,0,70,0,0
76376,-90.9090909090909,4,1,0,70,0,0
76429,-89.6860986547085,4,1,0,70,0,0
76482,-88.4955752212389,4,1,0,70,0,0
76534,-87.3362445414847,4,1,0,70,0,0
76692,-90.9090909090909,4,1,0,70,0,0
76850,-86.9565217391304,4,1,0,70,0,0
77008,-95.2380952380952,4,1,0,70,0,0
77087,-97.5609756097561,4,1,0,70,0,0
77166,-100,4,1,0,70,0,0
77324,-83.3333333333333,4,1,0,70,0,0
77376,-85.1063829787234,4,1,0,70,0,0
77429,-86.9565217391304,4,1,0,70,0,0
77482,-88.8888888888889,4,1,0,70,0,0
77640,-100,4,1,0,70,0,0
77797,-94.3396226415094,4,1,0,70,0,0
77876,-96.1538461538461,4,1,0,70,0,0
77955,-98.0392156862745,4,1,0,70,0,0
78113,-90.9090909090909,4,1,0,70,0,0
78192,-92.5925925925926,4,1,0,70,0,0
78271,-94.3396226415094,4,1,0,70,0,0
78429,-87.719298245614,4,1,0,70,0,0
78508,-85.4700854700855,4,1,0,70,0,0
78587,-83.3333333333333,4,1,0,70,0,0
78666,-81.3008130081301,4,1,0,70,0,0
78745,-79.3650793650794,4,1,0,70,0,0
78903,-71.4285714285714,4,1,0,70,0,0
78961,-72.463768115942,4,1,0,70,0,0
79013,-73.5294117647059,4,1,0,70,0,0
79061,-74.6268656716418,4,1,0,70,0,0
79113,-75.7575757575758,4,1,0,70,0,0
79166,-76.9230769230769,4,1,0,70,0,0
79218,-78.125,4,1,0,70,0,0
79376,-89.2857142857143,4,1,0,70,0,0
79534,-95.2380952380952,4,1,0,70,0,0
79850,-71.4285714285714,4,1,0,70,0,0
80166,-100,4,1,0,70,0,0
80324,-86.9565217391304,4,1,0,70,0,0
80403,-88.8888888888889,4,1,0,70,0,0
80482,-90.9090909090909,4,1,0,70,0,0
80640,-86.9565217391304,4,1,0,70,0,0
80797,-80,4,1,0,70,0,0
80955,-90.9090909090909,4,1,0,70,0,0
81034,-89.2857142857143,4,1,0,70,0,0
81113,-87.719298245614,4,1,0,70,0,0
81192,-86.2068965517241,4,1,0,70,0,0
81271,-84.7457627118644,4,1,0,70,0,0
81429,-76.9230769230769,4,1,0,70,0,0
81482,-78.7401574803149,4,1,0,70,0,0
81534,-80.6451612903226,4,1,0,70,0,0
81587,-82.6446280991736,4,1,0,70,0,0
81745,-90.9090909090909,4,1,0,70,0,0
81824,-89.2857142857143,4,1,0,70,0,0
81903,-87.719298245614,4,1,0,70,0,0
82061,-100,4,1,0,70,0,0
82218,-90.9090909090909,4,1,0,70,0,0
82297,-88.2352967128028,4,1,0,70,0,0
82376,-85.7143346939055,4,1,0,70,0,0
82534,-90.9090909090909,4,1,0,70,0,0
82692,-100,4,1,0,70,0,0
82850,-86.95952,4,1,0,70,0,0
82903,-88.24763,4,1,0,70,0,0
82955,-89.549065,4,1,0,70,0,0
83008,-90.91564,4,1,0,70,0,0
83166,-95.24887,4,1,0,70,0,0
83245,-97.574165,4,1,0,70,0,0
83324,-100.01584,4,1,0,70,0,0
83482,-105.285095,4,1,0,70,0,0
83566,-108.108108108108,4,1,0,70,0,0
83640,-111.111111111111,4,1,0,70,0,0
83956,-83.333336,4,1,0,80,0,0
84008,-84.493835,4,1,0,80,0,0
84061,-85.71041,4,1,0,80,0,0
84114,-86.96252,4,1,0,80,0,0
84166,-88.22707,4,1,0,80,0,0
84219,-89.55436,4,1,0,80,0,0
84272,-90.92219,4,1,0,80,0,0
84430,-100,4,1,0,80,0,0
84587,-90.9090909090909,4,1,0,80,0,0
84745,-100,4,1,0,80,0,0
84824,-96.774505724212,4,1,0,80,0,0
84903,-93.7500058593754,4,1,0,80,0,0
85061,-86.9565217391304,4,1,0,80,0,0
85140,-80,4,1,0,80,0,0
85193,-81.6326530612245,4,1,0,80,0,0
85219,-86.9565217391304,4,1,0,80,0,0
85245,-83.3333333333333,4,1,0,80,0,0
85298,-85.1063829787234,4,1,0,80,0,0
85377,-82.6446280991736,4,1,0,80,0,0
85535,-86.9565217391304,4,1,0,80,0,0
85614,-88.8888888888889,4,1,0,80,0,0
85693,-90.9090909090909,4,1,0,80,0,0
85851,-80,4,1,0,80,0,0
86008,-90.9090909090909,4,1,0,80,0,0
86087,-88.8888888888889,4,1,0,80,0,0
86166,-86.9565217391304,4,1,0,80,0,0
86482,-83.333336,4,1,0,80,0,0
86535,-84.51457,4,1,0,80,0,0
86587,-85.706535,4,1,0,80,0,0
86640,-86.95651,4,1,0,80,0,0
86693,-88.2435,4,1,0,80,0,0
86745,-89.54378,4,1,0,80,0,0
86798,-90.90909,4,1,0,80,0,0
86956,-100,4,1,0,80,0,0
87035,-97.5609756097561,4,1,0,80,0,0
87114,-95.2380952380952,4,1,0,80,0,0
87272,-105.263157894737,4,1,0,80,0,0
87351,-102.564102564103,4,1,0,80,0,0
87430,-100,4,1,0,80,0,0
87587,-80,4,1,0,80,0,0
87666,-76.9230769230769,4,1,0,80,0,0
87719,-78.4313725490196,4,1,0,80,0,0
87745,-90.9090909090909,4,1,0,80,0,0
87772,-80,4,1,0,80,0,0
87824,-81.6326530612245,4,1,0,80,0,0
87903,-79.3650793650794,4,1,0,80,0,0
88061,-86.9565217391304,4,1,0,80,0,0
88140,-85.4700854700855,4,1,0,80,0,0
88219,-84.0336134453781,4,1,0,80,0,0
88377,-90.9090909090909,4,1,0,80,0,0
88535,-86.9565217391304,4,1,0,80,0,0
88614,-88.8888888888889,4,1,0,80,0,0
88693,-90.9090909090909,4,1,0,80,0,0
88772,-93.0232558139535,4,1,0,80,0,0
88851,-95.2380952380952,4,1,0,80,0,0
89008,-83.333336,4,1,0,80,0,0
89061,-84.51457,4,1,0,80,0,0
89114,-85.72978,4,1,0,80,0,0
89166,-86.95651,4,1,0,80,0,0
89219,-88.2435,4,1,0,80,0,0
89272,-89.56915,4,1,0,80,0,0
89324,-90.90909,4,1,0,80,0,0
89482,-100,4,1,0,80,0,0
89640,-90.9090909090909,4,1,0,80,0,0
89719,-92.5925925925926,4,1,0,80,0,0
89798,-94.3396226415094,4,1,0,80,0,0
89877,-96.1538461538461,4,1,0,80,0,0
89956,-98.0392156862745,4,1,0,80,0,0
90114,-86.9565217391304,4,1,0,80,0,0
90193,-80,4,1,0,80,0,0
90245,-81.6326530612245,4,1,0,80,0,0
90272,-86.9565217391304,4,1,0,80,0,0
90298,-83.3333333333333,4,1,0,80,0,0
90351,-85.1063829787234,4,1,0,80,0,0
90430,-82.6446280991736,4,1,0,80,0,0
90587,-90.9090909090909,4,1,0,80,0,0
90666,-93.0232558139535,4,1,0,80,0,0
90745,-95.2380952380952,4,1,0,80,0,0
90824,-97.5609756097561,4,1,0,80,0,0
90903,-100,4,1,0,80,0,0
91061,-95.2380952380952,4,1,0,80,0,0
91219,-86.9565217391304,4,1,0,80,0,0
91535,-83.333336,4,1,0,80,0,0
91587,-84.49198,4,1,0,80,0,0
91640,-85.706535,4,1,0,80,0,0
91693,-86.95651,4,1,0,80,0,0
91745,-88.21887,4,1,0,80,0,0
91798,-89.54378,4,1,0,80,0,0
91851,-90.90909,4,1,0,80,0,0
92008,-100,4,1,0,80,0,0
92087,-97.5609756097561,4,1,0,80,0,0
92166,-95.2381,4,1,0,80,0,0
92324,-83.333336,4,1,0,80,0,0
92403,-82.47422,4,1,0,80,0,0
92482,-81.63265,4,1,0,80,0,0
92561,-80.808075,4,1,0,80,0,0
92640,-79.99999,4,1,0,80,0,0
92719,-76.9230769230769,4,1,0,80,0,0
92772,-78.4313725490196,4,1,0,80,0,0
92798,-90.9090909090909,4,1,0,80,0,0
92824,-80,4,1,0,80,0,0
92877,-81.6326530612245,4,1,0,80,0,0
92956,-82.3045267489712,4,1,0,80,0,0
93035,-82.9875518672199,4,1,0,80,0,0
93114,-83.6820083682008,4,1,0,80,0,0
93272,-90.9090909090909,4,1,0,80,0,0
93430,-100,4,1,0,80,0,0
94061,-83.333336,4,1,0,80,0,0
94113,-84.493835,4,1,0,80,0,0
94166,-85.71041,4,1,0,80,0,0
94219,-86.96252,4,1,0,80,0,0
94271,-88.22707,4,1,0,80,0,0
94324,-89.55436,4,1,0,80,0,0
94377,-90.92219,4,1,0,80,0,0
94535,-100,4,1,0,80,0,0
94692,-90.9090909090909,4,1,0,80,0,0
94850,-100,4,1,0,80,0,0
94929,-96.774505724212,4,1,0,80,0,0
95008,-93.7500058593754,4,1,0,80,0,0
95166,-86.9565217391304,4,1,0,80,0,0
95245,-80,4,1,0,80,0,0
95298,-81.6326530612245,4,1,0,80,0,0
95324,-86.9565217391304,4,1,0,80,0,0
95350,-83.3333333333333,4,1,0,80,0,0
95403,-85.1063829787234,4,1,0,80,0,0
95482,-82.6446280991736,4,1,0,80,0,0
95640,-86.9565217391304,4,1,0,80,0,0
95719,-88.8888888888889,4,1,0,80,0,0
95798,-90.9090909090909,4,1,0,80,0,0
95956,-80,4,1,0,80,0,0
96113,-90.9090909090909,4,1,0,80,0,0
96192,-88.8888888888889,4,1,0,80,0,0
96271,-86.9565217391304,4,1,0,80,0,0
96587,-83.333336,4,1,0,80,0,0
96640,-84.51457,4,1,0,80,0,0
96692,-85.706535,4,1,0,80,0,0
96745,-86.95651,4,1,0,80,0,0
96798,-88.2435,4,1,0,80,0,0
96850,-89.54378,4,1,0,80,0,0
96903,-90.90909,4,1,0,80,0,0
97061,-100,4,1,0,80,0,0
97140,-97.5609756097561,4,1,0,80,0,0
97219,-95.2380952380952,4,1,0,80,0,0
97377,-105.263157894737,4,1,0,80,0,0
97456,-102.564102564103,4,1,0,80,0,0
97535,-100,4,1,0,80,0,0
97692,-80,4,1,0,80,0,0
97771,-76.9230769230769,4,1,0,80,0,0
97824,-78.4313725490196,4,1,0,80,0,0
97850,-90.9090909090909,4,1,0,80,0,0
97877,-80,4,1,0,80,0,0
97929,-81.6326530612245,4,1,0,80,0,0
98008,-79.3650793650794,4,1,0,80,0,0
98166,-86.9565217391304,4,1,0,80,0,0
98245,-85.4700854700855,4,1,0,80,0,0
98324,-84.0336134453781,4,1,0,80,0,0
98482,-90.9090909090909,4,1,0,80,0,0
98640,-86.9565217391304,4,1,0,80,0,0
98719,-88.8888888888889,4,1,0,80,0,0
98798,-90.9090909090909,4,1,0,80,0,0
98877,-93.0232558139535,4,1,0,80,0,0
98956,-95.2380952380952,4,1,0,80,0,0
99113,-100,4,1,0,80,0,0
99166,-98.35045,4,1,0,80,0,0
99219,-96.75444,4,1,0,80,0,0
99271,-95.23809,4,1,0,80,0,0
99324,-93.74072,4,1,0,80,0,0
99377,-92.28971,4,1,0,80,0,0
99429,-90.90909,4,1,0,80,0,0
99587,-100,4,1,0,80,0,0
99745,-90.9090909090909,4,1,0,80,0,0
99824,-92.5925925925926,4,1,0,80,0,0
99903,-94.3396226415094,4,1,0,80,0,0
99982,-96.1538461538461,4,1,0,80,0,0
100061,-98.0392156862745,4,1,0,80,0,0
100219,-86.9565217391304,4,1,0,80,0,0
100298,-80,4,1,0,80,0,0
100350,-81.6326530612245,4,1,0,80,0,0
100377,-86.9565217391304,4,1,0,80,0,0
100403,-83.3333333333333,4,1,0,80,0,0
100456,-85.1063829787234,4,1,0,80,0,0
100535,-82.6446280991736,4,1,0,80,0,0
100692,-90.9090909090909,4,1,0,80,0,0
100771,-93.0232558139535,4,1,0,80,0,0
100850,-95.2380952380952,4,1,0,80,0,0
100929,-97.5609756097561,4,1,0,80,0,0
101008,-100,4,1,0,80,0,0
101166,-95.2380952380952,4,1,0,80,0,0
101324,-86.9565217391304,4,1,0,80,0,0
101640,-83.333336,4,1,0,80,0,0
101692,-84.49198,4,1,0,80,0,0
101745,-85.706535,4,1,0,80,0,0
101798,-86.95651,4,1,0,80,0,0
101850,-88.21887,4,1,0,80,0,0
101903,-89.54378,4,1,0,80,0,0
101956,-90.90909,4,1,0,80,0,0
102113,-100,4,1,0,80,0,0
102192,-97.5609756097561,4,1,0,80,0,0
102271,-95.2380952380952,4,1,0,80,0,0
102429,-84.7457627118644,4,1,0,80,0,0
102508,-82.6446280991736,4,1,0,80,0,0
102587,-76.92308,4,1,0,80,0,0
102666,-78.43137,4,1,0,80,0,0
102745,-80,4,1,0,80,0,0
102824,-81.63265,4,1,0,80,0,0
102903,-83.333336,4,1,0,80,0,0
102987,-83.333336,4,1,0,20,0,0
103777,-111.111111111111,4,1,0,70,0,0
103856,-111.11111,4,1,0,70,0,0
103908,-109.109808725362,4,1,0,70,0,0
103935,-108.18929,4,1,0,70,0,0
103961,-107.142846664541,4,1,0,70,0,0
104013,-105.37987,4,1,0,70,0,0
104066,-103.448263686088,4,1,0,70,0,0
104092,-102.608765,4,1,0,70,0,0
104119,-101.678490908464,4,1,0,70,0,0
104171,-66.6666666666667,4,1,0,70,0,1
104219,-67.7966101694915,4,1,0,70,0,1
104272,-68.9655172413793,4,1,0,70,0,1
104324,-70.1754385964912,4,1,0,70,0,1
104482,-68.9655172413793,4,1,0,70,0,1
104561,-69.9300699300699,4,1,0,70,0,1
104640,-70.9219858156028,4,1,0,70,0,1
104719,-71.9424460431655,4,1,0,70,0,1
104877,-68.4931506849315,4,1,0,70,0,1
104956,-69.4444444444444,4,1,0,70,0,1
105114,-67.8334011667345,4,1,0,70,0,1
105272,-67.2449734382355,4,1,0,70,0,1
105430,-71.4285714285714,4,1,0,70,0,1
105482,-70.1754385964912,4,1,0,70,0,1
105535,-68.9655172413793,4,1,0,70,0,1
105587,-67.7966101694915,4,1,0,70,0,1
105745,-74.0740740740741,4,1,0,70,0,1
105824,-72.992700729927,4,1,0,70,0,1
105903,-71.9424460431655,4,1,0,70,0,1
105982,-70.9219858156028,4,1,0,70,0,1
106140,-77.5193798449612,4,1,0,70,0,1
106219,-76.3358778625954,4,1,0,70,0,1
106298,-75.187969924812,4,1,0,70,0,1
106377,-74.0740740740741,4,1,0,70,0,1
106535,-76.9230769230769,4,1,0,70,0,1
106693,-71.4285714285714,4,1,0,70,0,1
106745,-72.7272727272727,4,1,0,70,0,1
106798,-74.0740740740741,4,1,0,70,0,1
106851,-75.4716981132076,4,1,0,70,0,1
107008,-71.9424460431655,4,1,0,70,0,1
107087,-72.992700729927,4,1,0,70,0,1
107166,-74.0740740740741,4,1,0,70,0,1
107245,-75.187969924812,4,1,0,70,0,1
107403,-68.0272108843538,4,1,0,70,0,1
107482,-68.9655172413793,4,1,0,70,0,1
107561,-69.9300699300699,4,1,0,70,0,1
107640,-70.9219858156028,4,1,0,70,0,1
107798,-64.9350649350649,4,1,0,70,0,1
107956,-62.5,4,1,0,70,0,1
108008,-61.9195046439628,4,1,0,70,0,1
108061,-61.3496932515337,4,1,0,70,0,1
108114,-60.790273556231,4,1,0,70,0,1
108272,-68.4931506849315,4,1,0,70,0,1
108351,-67.5675675675676,4,1,0,70,0,1
108430,-66.6666666666667,4,1,0,70,0,1
108508,-65.7894736842105,4,1,0,70,0,1
108587,-64.9350649350649,4,1,0,70,0,1
108745,-71.1845102505695,4,1,0,70,0,1
108903,-68.0781537204711,4,1,0,70,0,1
108982,-68.903741473162,4,1,0,70,0,1
109061,-69.7350069735007,4,1,0,70,0,1
109219,-66.6666666666667,4,1,0,70,0,1
109272,-67.7966101694915,4,1,0,70,0,1
109325,-68.9655172413793,4,1,0,70,0,1
109377,-70.1754385964912,4,1,0,70,0,1
109535,-68.9655172413793,4,1,0,70,0,1
109614,-69.9300699300699,4,1,0,70,0,1
109693,-70.9219858156028,4,1,0,70,0,1
109772,-71.9424460431655,4,1,0,70,0,1
109930,-68.4931506849315,4,1,0,70,0,1
110009,-69.4444444444444,4,1,0,70,0,1
110092,-70.4225352112676,4,1,0,70,0,1
110167,-71.4285714285714,4,1,0,70,0,1
110325,-69.4444444444444,4,1,0,70,0,1
110483,-71.4285714285714,4,1,0,70,0,1
110535,-70.1754385964912,4,1,0,70,0,1
110588,-68.9655172413793,4,1,0,70,0,1
110640,-67.7966101694915,4,1,0,70,0,1
110798,-74.0740740740741,4,1,0,70,0,1
110877,-72.992700729927,4,1,0,70,0,1
110956,-71.9424460431655,4,1,0,70,0,1
111035,-70.9219858156028,4,1,0,70,0,1
111193,-77.5193798449612,4,1,0,70,0,1
111272,-76.3358778625954,4,1,0,70,0,1
111351,-75.187969924812,4,1,0,70,0,1
111430,-74.0740740740741,4,1,0,70,0,1
111588,-76.9230769230769,4,1,0,70,0,1
111746,-71.4285714285714,4,1,0,70,0,1
111798,-72.7272727272727,4,1,0,70,0,1
111851,-74.0740740740741,4,1,0,70,0,1
111904,-75.4716981132076,4,1,0,70,0,1
112061,-71.9424460431655,4,1,0,70,0,1
112140,-72.992700729927,4,1,0,70,0,1
112219,-74.0740740740741,4,1,0,70,0,1
112298,-75.187969924812,4,1,0,70,0,1
112456,-71.4285714285714,4,1,0,70,0,1
112535,-72.463768115942,4,1,0,70,0,1
112693,-71.4285714285714,4,1,0,70,0,1
112772,-70.6713780918728,4,1,0,70,0,1
112851,-69.9300699300699,4,1,0,70,0,1
113013,-62.5,4,1,0,70,0,0
113066,-63.8284291823578,4,1,0,70,0,0
113119,-65.2188091045458,4,1,0,70,0,0
113171,-66.6666666666667,4,1,0,70,0,0
113250,-66.6666666666667,4,1,0,20,0,0
113882,-100,4,1,0,80,0,0
114013,-98.381065,4,1,0,80,0,0
114066,-96.78408,4,1,0,80,0,0
114119,-95.23809,4,1,0,80,0,0
114171,-93.76855,4,1,0,80,0,0
114224,-92.316666,4,1,0,80,0,0
114277,-66.6666666666667,4,1,0,80,0,1
114329,-67.7966101694915,4,1,0,80,0,1
114382,-68.9655172413793,4,1,0,80,0,1
114435,-70.1754385964912,4,1,0,80,0,1
114592,-68.0272108843538,4,1,0,80,0,1
114671,-68.9655172413793,4,1,0,80,0,1
114750,-69.9300699300699,4,1,0,80,0,1
114829,-70.9219858156028,4,1,0,80,0,1
114987,-69.4444444444444,4,1,0,80,0,1
115066,-70.4225352112676,4,1,0,80,0,1
115224,-68.9655172413793,4,1,0,80,0,1
115303,-69.9300699300699,4,1,0,80,0,1
115382,-70.9219858156028,4,1,0,80,0,1
115540,-71.4285714285714,4,1,0,80,0,1
115592,-70.1754385964912,4,1,0,80,0,1
115645,-68.9655172413793,4,1,0,80,0,1
115698,-67.7966101694915,4,1,0,80,0,1
115856,-71.4285714285714,4,1,0,80,0,1
115935,-70.4225352112676,4,1,0,80,0,1
116013,-69.4444444444444,4,1,0,80,0,1
116092,-68.4931506849315,4,1,0,80,0,1
116171,-67.5675675675676,4,1,0,80,0,1
116250,-66.6666666666667,4,1,0,80,0,1
116329,-65.7894736842105,4,1,0,80,0,1
116408,-64.9350649350649,4,1,0,80,0,1
116487,-64.1025641025641,4,1,0,80,0,1
116645,-63.2911392405063,4,1,0,80,0,1
116803,-62.5,4,1,0,80,0,1
116856,-63.4920634920635,4,1,0,80,0,1
116908,-64.5161290322581,4,1,0,80,0,1
116961,-65.5737704918033,4,1,0,80,0,1
117119,-66.6666666666667,4,1,0,80,0,1
117198,-67.5675675675676,4,1,0,80,0,1
117277,-68.4931506849315,4,1,0,80,0,1
117356,-69.4444444444444,4,1,0,80,0,1
117513,-67.5675675675676,4,1,0,80,0,1
117592,-68.4931506849315,4,1,0,80,0,1
117671,-69.4444444444444,4,1,0,80,0,1
117750,-70.4225352112676,4,1,0,80,0,1
117829,-71.4285714285714,4,1,0,80,0,1
117908,-72.463768115942,4,1,0,80,0,1
118066,-76.9230769230769,4,1,0,80,0,1
118119,-75.4716981132076,4,1,0,80,0,1
118171,-74.0740740740741,4,1,0,80,0,1
118224,-72.7272727272727,4,1,0,80,0,1
118382,-75.187969924812,4,1,0,80,0,1
118461,-74.0740740740741,4,1,0,80,0,1
118540,-72.992700729927,4,1,0,80,0,1
118619,-71.9424460431655,4,1,0,80,0,1
118698,-70.9219858156028,4,1,0,80,0,1
118777,-69.9300699300699,4,1,0,80,0,1
118856,-68.9655172413793,4,1,0,80,0,1
118935,-68.0272108843538,4,1,0,80,0,1
119013,-67.1140939597315,4,1,0,80,0,1
119171,-69.204152249135,4,1,0,80,0,1
119329,-66.6666666666667,4,1,0,80,0,1
119382,-67.7966101694915,4,1,0,80,0,1
119435,-68.9655172413793,4,1,0,80,0,1
119487,-70.1754385964912,4,1,0,80,0,1
119645,-69.9300699300699,4,1,0,80,0,1
119724,-69.4444444444444,4,1,0,80,0,1
119803,-68.9655172413793,4,1,0,80,0,1
119882,-68.4931506849315,4,1,0,80,0,1
120040,-73.5294117647059,4,1,0,80,0,1
120119,-72.992700729927,4,1,0,80,0,1
120198,-72.463768115942,4,1,0,80,0,1
120277,-71.9424460431655,4,1,0,80,0,1
120356,-71.4285714285714,4,1,0,80,0,1
120435,-70.9219858156028,4,1,0,80,0,1
120592,-71.4285714285714,4,1,0,80,0,1
120645,-70.1754385964912,4,1,0,80,0,1
120698,-68.9655172413793,4,1,0,80,0,1
120750,-67.7966101694915,4,1,0,80,0,1
120908,-68.4931506849315,4,1,0,80,0,1
120987,-68.9655172413793,4,1,0,80,0,1
121066,-69.4444444444444,4,1,0,80,0,1
121145,-69.9300699300699,4,1,0,80,0,1
121224,-70.4225352112676,4,1,0,80,0,1
121303,-70.9219858156028,4,1,0,80,0,1
121382,-71.4285714285714,4,1,0,80,0,1
121461,-71.9424460431655,4,1,0,80,0,1
121540,-72.463768115942,4,1,0,80,0,1
121698,-67.8748387972579,4,1,0,80,0,1
121856,-62.5,4,1,0,80,0,1
121908,-63.4920634920635,4,1,0,80,0,1
121961,-64.5161290322581,4,1,0,80,0,1
122013,-65.5737704918033,4,1,0,80,0,1
122171,-66.6666666666667,4,1,0,80,0,1
122250,-66.1419406045373,4,1,0,80,0,1
122329,-65.621103746965,4,1,0,80,0,1
122408,-65.1041666666667,4,1,0,80,0,1
122487,-64.5911380958533,4,1,0,80,0,1
122566,-64.0820249919897,4,1,0,80,0,1
122645,-63.5727908455181,4,1,0,80,0,1
122724,-63.0715862503942,4,1,0,80,0,1
122803,-62.570391690652,4,1,0,80,0,1
122882,-62.0732464307883,4,1,0,80,0,1
122961,-61.5839389087326,4,1,0,80,0,1
123040,-61.0910868104344,4,1,0,80,0,1
123119,-59.9988000239995,4,1,0,80,0,0
123171,-61.2257393008021,4,1,0,80,0,0
123224,-62.5,4,1,0,80,0,0
123277,-63.8284291823578,4,1,0,80,0,0
123435,-74.6268656716418,4,1,0,80,0,0
123592,-76.3358778625954,4,1,0,74,0,0
123750,-78.125,4,1,0,71,0,0
124066,-87.9711699999997,4,1,0,66,0,0
124224,-89.70507,4,1,0,63,0,0
124382,631.578947368421,4,1,0,60,1,0
124382,-45.680416,4,1,0,60,0,0
125013,-50.207638,4,1,0,55,0,0
125329,-58.82353,4,1,0,55,0,0
125487,-60.037273,4,1,0,55,0,0
125645,-61.27607,4,1,0,50,0,0
126276,-66.483574,4,1,0,45,0,0
126908,-72.14295,4,1,0,40,0,0
127539,-78.27398,4,1,0,40,0,0
128171,-84.93701,4,1,0,40,0,0
129434,-100.00001,4,1,0,40,0,0
130382,-100.00001,4,1,0,41,0,0
131960,-100.00001,4,1,0,42,0,0
133224,-100.00001,4,1,0,43,0,0
134487,-100.00001,4,1,0,43,0,0
135434,-98.30587,4,1,0,44,0,0
135592,-98.02602,4,1,0,44,0,0
135750,-97.74699,4,1,0,44,0,0
136382,-96.63871,4,1,0,45,0,0
137013,-95.54472,4,1,0,45,0,0
137645,-94.46141,4,1,0,46,0,0
138276,-93.392075,4,1,0,48,0,0
139539,-91.28791,4,1,0,50,0,0
140487,-89.73976,4,1,0,54,0,0
140645,-89.48431,4,1,0,54,0,0
140803,-89.229576,4,1,0,55,0,0
141434,-88.21947,4,1,0,57,0,0
142066,-87.21921,4,1,0,60,0,0
143013,-85.74161,4,1,0,67,0,0
143171,-85.49752,4,1,0,69,0,0
143329,-85.254135,4,1,0,70,0,0
144513,-85.254135,4,1,0,60,0,0
144592,315.789473684211,4,1,0,50,1,0
144592,-172.413793103448,4,1,0,50,0,0
144907,-172.48851,4,1,0,51,0,0
145065,-171.76653,4,1,0,51,0,0
145223,-171.03984,4,1,0,51,0,0
145381,-170.30865,4,1,0,52,0,0
145460,-169.9414,4,1,0,52,0,0
145618,-169.2038,4,1,0,52,0,0
145697,-168.83348,4,1,0,52,0,0
145776,-168.46216,4,1,0,52,0,0
145934,-167.71667,4,1,0,53,0,0
146170,-166.59642,4,1,0,53,0,0
146328,-165.84218,4,1,0,53,0,0
146486,-165.08472,4,1,0,54,0,0
146644,-164.32425,4,1,0,54,0,0
146723,-163.94295,4,1,0,54,0,0
146960,-162.79498,4,1,0,55,0,0
147118,-162.02654,4,1,0,55,0,0
147434,-160.48285,4,1,0,56,0,0
147592,-159.70796,4,1,0,56,0,0
147749,-158.93617,4,1,0,56,0,0
147907,-158.15782,4,1,0,57,0,0
147986,-157.76805,4,1,0,57,0,0
148144,-156.98752,4,1,0,57,0,0
148223,-156.59677,4,1,0,57,0,0
148302,-156.20572,4,1,0,57,0,0
148460,-155.4228,4,1,0,58,0,0
148697,-154.24669,4,1,0,58,0,0
148855,-153.46162,4,1,0,58,0,0
149013,-152.67598,4,1,0,59,0,0
149170,-151.89487,4,1,0,59,0,0
149249,-151.5017,4,1,0,59,0,0
149644,-149.53517,4,1,0,60,0,0
149960,-147.96222,4,1,0,61,0,0
150118,-147.17618,4,1,0,61,0,0
150276,-146.39058,4,1,0,61,0,0
150434,-145.60555,4,1,0,62,0,0
150513,-145.21327,4,1,0,62,0,0
150670,-144.43427,4,1,0,62,0,0
150749,-144.0426,4,1,0,62,0,0
150828,-143.65115,4,1,0,62,0,0
150986,-142.86899,4,1,0,63,0,0
151223,-141.69777,4,1,0,63,0,0
151381,-140.91847,4,1,0,63,0,0
151539,-140.1405,4,1,0,64,0,0
151697,-139.36395,4,1,0,64,0,0
151776,-138.97623,4,1,0,64,0,0
152013,-137.81546,4,1,0,65,0,0
152170,-137.04861,4,1,0,65,0,0
152486,-135.51056,4,1,0,66,0,0
152644,-134.7444,4,1,0,66,0,0
152802,-133.9803,4,1,0,66,0,0
152960,-133.21829,4,1,0,67,0,0
153039,-132.83812,4,1,0,67,0,0
153197,-132.0794,4,1,0,67,0,0
153276,-131.70091,4,1,0,67,0,0
153355,-131.323,4,1,0,67,0,0
153513,-130.56897,4,1,0,68,0,0
153749,-129.44722,4,1,0,68,0,0
153907,-128.69934,4,1,0,68,0,0
154065,-127.95407,4,1,0,69,0,0
154223,-127.21142,4,1,0,69,0,0
154302,-126.841125,4,1,0,69,0,0
154697,-111.11111,4,1,0,70,0,0
154855,-111.11082,4,1,0,70,0,0
155013,-111.10885,4,1,0,70,0,0
155170,-111.103516,4,1,0,70,0,0
155328,-111.09308,4,1,0,70,0,0
155486,-111.07586,4,1,0,70,0,0
155565,-111.064186,4,1,0,70,0,0
155723,-111.03363,4,1,0,70,0,0
155802,-111.014336,4,1,0,70,0,0
155881,-110.99208,4,1,0,70,0,0
156039,-110.937874,4,1,0,70,0,0
156118,-110.9055,4,1,0,70,0,0
156197,-110.869354,4,1,0,70,0,0
156276,-110.82921,4,1,0,70,0,0
156434,-110.736145,4,1,0,70,0,0
156592,-110.62473,4,1,0,70,0,0
156749,-110.49426,4,1,0,70,0,0
156828,-110.420715,4,1,0,70,0,0
157065,-110.16598,4,1,0,70,0,0
157223,-109.96597,4,1,0,70,0,0
157381,-109.74018,4,1,0,70,0,0
157539,-109.48729,4,1,0,70,0,0
157697,-109.20604,4,1,0,70,0,0
157855,-108.89523,4,1,0,70,0,0
158013,-108.55377,4,1,0,70,0,0
158092,-108.371216,4,1,0,70,0,0
158249,-107.98446,4,1,0,70,0,0
158328,-107.77756,4,1,0,70,0,0
158407,-107.56231,4,1,0,70,0,0
158565,-107.10637,4,1,0,70,0,0
158644,-106.86551,4,1,0,70,0,0
158802,-106.357666,4,1,0,70,0,0
158960,-105.81458,4,1,0,70,0,0
159118,-105.23587,4,1,0,70,0,0
159276,-104.6213,4,1,0,70,0,0
159355,-104.30052,4,1,0,70,0,0
159592,-103.28417,4,1,0,70,0,0
159749,-102.566444,4,1,0,70,0,0
159828,-102.19198,4,1,0,70,0,0
159907,-101.808655,4,1,0,71,0,0
159986,-101.41653,4,1,0,71,0,0
160065,-101.015656,4,1,0,72,0,0
160144,-100.60611,4,1,0,72,0,0
160223,-100.18796,4,1,0,73,0,0
160302,-99.60483,4,1,0,73,0,0
160381,-99.02507,4,1,0,74,0,0
160460,-98.4487,4,1,0,74,0,0
160539,-97.87569,4,1,0,75,0,0
160618,-97.30601,4,1,0,75,0,0
160697,-96.73965,4,1,0,76,0,0
160776,-96.17658,4,1,0,76,0,0
160855,-95.61679,4,1,0,77,0,0
160934,-95.06025,4,1,0,77,0,0
161013,-94.50697,4,1,0,78,0,0
161092,-93.95689,4,1,0,78,0,0
161170,-93.41692,4,1,0,78,0,0
161249,-92.8732,4,1,0,79,0,0
161328,-92.332634,4,1,0,79,0,0
161407,-91.79521,4,1,0,80,0,0
161486,-91.26093,4,1,0,80,0,0
161565,-90.72975,4,1,0,81,0,0
161644,-90.20167,4,1,0,81,0,0
161723,-89.67664,4,1,0,82,0,0
161802,-89.15469,4,1,0,82,0,0
161881,-88.63577,4,1,0,83,0,0
161960,-88.11987,4,1,0,83,0,0
162039,-87.60698,4,1,0,84,0,0
162118,-87.09705,4,1,0,84,0,0
162197,-86.59012,4,1,0,85,0,0
162276,-86.08612,4,1,0,85,0,0
162355,-85.585075,4,1,0,85,0,0
162434,-85.08693,4,1,0,86,0,0
162513,-84.59168,4,1,0,86,0,0
162592,-84.09932,4,1,0,87,0,0
162670,-83.616,4,1,0,87,0,0
162749,-83.12932,4,1,0,88,0,0
162828,-82.64547,4,1,0,88,0,0
162907,-82.16443,4,1,0,89,0,0
162986,-81.6862,4,1,0,89,0,0
163065,-81.210754,4,1,0,90,0,0
163144,-80.738075,4,1,0,90,0,0
163223,-80.268135,4,1,0,91,0,0
163302,-79.80094,4,1,0,91,0,0
163381,-79.33647,4,1,0,92,0,0
163460,-78.874695,4,1,0,92,0,0
163539,-78.41561,4,1,0,93,0,0
163618,-77.9592,4,1,0,93,0,0
163697,-77.50545,4,1,0,93,0,0
163776,-77.05432,4,1,0,94,0,0
163855,-76.605835,4,1,0,94,0,0
163934,-76.15996,4,1,0,95,0,0
164013,-75.71667,4,1,0,95,0,0
164092,-75.27597,4,1,0,96,0,0
164170,-74.84336,4,1,0,96,0,0
164249,-74.40774,4,1,0,97,0,0
164328,-73.97465,4,1,0,97,0,0
164407,-73.54408,4,1,0,98,0,0
164486,-73.11603,4,1,0,98,0,0
164565,-72.69046,4,1,0,99,0,0
164644,-72.26736,4,1,0,99,0,0
164723,-71.84673,4,1,0,100,0,0
164802,-71.42856,4,1,0,100,0,0
164881,-71.42856,4,1,0,60,0,0
165434,-83.333336,4,1,0,60,0,0
166065,-90.90909,4,1,0,60,0,0
166381,-95.2380952380952,4,1,0,60,0,0
166697,-100,4,1,0,60,0,0
167013,-105.263157894737,4,1,0,60,0,0
167249,-90.90909,4,1,0,80,0,0
167486,-91.95402,4,1,0,80,0,0
167565,-92.48554,4,1,0,80,0,0
167644,-93.023254,4,1,0,80,0,0
167802,-94.117645,4,1,0,80,0,0
167960,-95.2381,4,1,0,80,0,0
168118,-111.11111,4,1,0,60,0,0
168513,-111.11111,4,1,0,80,0,0
168592,315.789473684211,4,1,0,80,1,0
168592,-83.333336,4,1,0,80,0,0
168639,-84.493835,4,1,0,80,0,0
168692,-85.71041,4,1,0,80,0,0
168745,-86.96252,4,1,0,80,0,0
168797,-88.22707,4,1,0,80,0,0
168850,-89.55436,4,1,0,80,0,0
168903,-90.92219,4,1,0,80,0,0
169061,-100,4,1,0,80,0,0
169218,-90.9090909090909,4,1,0,80,0,0
169376,-100,4,1,0,80,0,0
169455,-96.774505724212,4,1,0,80,0,0
169534,-93.7500058593754,4,1,0,80,0,0
169692,-86.9565217391304,4,1,0,80,0,0
169771,-80,4,1,0,80,0,0
169824,-81.6326530612245,4,1,0,80,0,0
169850,-86.9565217391304,4,1,0,80,0,0
169876,-83.3333333333333,4,1,0,80,0,0
169929,-85.1063829787234,4,1,0,80,0,0
170008,-81.6326530612245,4,1,0,80,0,0
170166,-86.9565217391304,4,1,0,80,0,0
170245,-88.8888888888889,4,1,0,80,0,0
170324,-90.9090909090909,4,1,0,80,0,0
170482,-80,4,1,0,80,0,0
170639,-90.9090909090909,4,1,0,80,0,0
170718,-88.8888888888889,4,1,0,80,0,0
170797,-86.9565217391304,4,1,0,80,0,0
171113,-83.333336,4,1,0,80,0,0
171166,-84.51457,4,1,0,80,0,0
171218,-85.706535,4,1,0,80,0,0
171271,-86.95651,4,1,0,80,0,0
171324,-88.2435,4,1,0,80,0,0
171376,-89.54378,4,1,0,80,0,0
171429,-90.90909,4,1,0,80,0,0
171587,-100,4,1,0,80,0,0
171666,-97.5609756097561,4,1,0,80,0,0
171745,-95.2380952380952,4,1,0,80,0,0
171903,-105.263157894737,4,1,0,80,0,0
171982,-102.564102564103,4,1,0,80,0,0
172061,-100,4,1,0,80,0,0
172218,-80,4,1,0,80,0,0
172297,-76.9230769230769,4,1,0,80,0,0
172350,-78.4313725490196,4,1,0,80,0,0
172376,-90.9090909090909,4,1,0,80,0,0
172403,-80,4,1,0,80,0,0
172455,-81.6326530612245,4,1,0,80,0,0
172534,-78.4313725490196,4,1,0,80,0,0
172692,-86.9565217391304,4,1,0,80,0,0
172771,-85.4700854700855,4,1,0,80,0,0
172850,-84.0336134453781,4,1,0,80,0,0
173008,-90.9090909090909,4,1,0,80,0,0
173166,-86.9565217391304,4,1,0,80,0,0
173245,-88.8888888888889,4,1,0,80,0,0
173324,-90.9090909090909,4,1,0,80,0,0
173403,-93.0232558139535,4,1,0,80,0,0
173482,-95.2380952380952,4,1,0,80,0,0
173639,-83.333336,4,1,0,80,0,0
173692,-84.51457,4,1,0,80,0,0
173745,-85.72978,4,1,0,80,0,0
173797,-86.95651,4,1,0,80,0,0
173850,-88.2435,4,1,0,80,0,0
173903,-89.56915,4,1,0,80,0,0
173955,-90.90909,4,1,0,80,0,0
174113,-100,4,1,0,80,0,0
174271,-90.9090909090909,4,1,0,80,0,0
174350,-92.5925925925926,4,1,0,80,0,0
174429,-94.3396226415094,4,1,0,80,0,0
174508,-96.1538461538461,4,1,0,80,0,0
174587,-98.0392156862745,4,1,0,80,0,0
174745,-86.9565217391304,4,1,0,80,0,0
174824,-80,4,1,0,80,0,0
174876,-81.6326530612245,4,1,0,80,0,0
174903,-86.9565217391304,4,1,0,80,0,0
174929,-83.3333333333333,4,1,0,80,0,0
174982,-85.1063829787234,4,1,0,80,0,0
175061,-81.6326530612245,4,1,0,80,0,0
175218,-90.9090909090909,4,1,0,80,0,0
175297,-93.0232558139535,4,1,0,80,0,0
175376,-95.2380952380952,4,1,0,80,0,0
175455,-97.5609756097561,4,1,0,80,0,0
175534,-100,4,1,0,80,0,0
175692,-95.2380952380952,4,1,0,80,0,0
175850,-86.9565217391304,4,1,0,80,0,0
176166,-83.333336,4,1,0,80,0,0
176218,-84.49198,4,1,0,80,0,0
176271,-85.706535,4,1,0,80,0,0
176324,-86.95651,4,1,0,80,0,0
176376,-88.21887,4,1,0,80,0,0
176429,-89.54378,4,1,0,80,0,0
176482,-90.90909,4,1,0,80,0,0
176639,-100,4,1,0,80,0,0
176718,-97.5609756097561,4,1,0,80,0,0
176797,-95.2380952380952,4,1,0,80,0,0
176955,-83.333336,4,1,0,80,0,0
177034,-82.47423,4,1,0,80,0,0
177113,-81.63265,4,1,0,80,0,0
177192,-80.808075,4,1,0,80,0,0
177271,-79.99999,4,1,0,80,0,0
177350,-76.9230769230769,4,1,0,80,0,0
177403,-78.4313725490196,4,1,0,80,0,0
177429,-90.9090909090909,4,1,0,80,0,0
177455,-80,4,1,0,80,0,0
177508,-81.6326530612245,4,1,0,80,0,0
177587,-82.3045267489712,4,1,0,80,0,0
177666,-82.9875518672199,4,1,0,80,0,0
177745,-83.6820083682008,4,1,0,80,0,0
177903,-90.9090909090909,4,1,0,80,0,0
178061,-100,4,1,0,80,0,0
178692,-83.333336,4,1,0,80,0,0
178744,-84.493835,4,1,0,80,0,0
178797,-85.71041,4,1,0,80,0,0
178850,-86.96252,4,1,0,80,0,0
178902,-88.22707,4,1,0,80,0,0
178955,-89.55436,4,1,0,80,0,0
179008,-90.92219,4,1,0,80,0,0
179166,-100,4,1,0,80,0,0
179323,-90.9090909090909,4,1,0,80,0,0
179481,-100,4,1,0,80,0,0
179560,-96.774505724212,4,1,0,80,0,0
179639,-93.7500058593754,4,1,0,80,0,0
179797,-86.9565217391304,4,1,0,80,0,0
179876,-80,4,1,0,80,0,0
179929,-81.6326530612245,4,1,0,80,0,0
179955,-86.9565217391304,4,1,0,80,0,0
179981,-83.3333333333333,4,1,0,80,0,0
180034,-85.1063829787234,4,1,0,80,0,0
180113,-81.6326530612245,4,1,0,80,0,0
180271,-86.9565217391304,4,1,0,80,0,0
180350,-88.8888888888889,4,1,0,80,0,0
180429,-90.9090909090909,4,1,0,80,0,0
180587,-80,4,1,0,80,0,0
180744,-90.9090909090909,4,1,0,80,0,0
180823,-88.8888888888889,4,1,0,80,0,0
180902,-86.9565217391304,4,1,0,80,0,0
181218,-83.333336,4,1,0,80,0,0
181271,-84.51457,4,1,0,80,0,0
181323,-85.706535,4,1,0,80,0,0
181376,-86.95651,4,1,0,80,0,0
181429,-88.2435,4,1,0,80,0,0
181481,-89.54378,4,1,0,80,0,0
181534,-90.90909,4,1,0,80,0,0
181692,-100,4,1,0,80,0,0
181771,-97.5609756097561,4,1,0,80,0,0
181850,-95.2380952380952,4,1,0,80,0,0
182008,-105.263157894737,4,1,0,80,0,0
182087,-102.564102564103,4,1,0,80,0,0
182166,-100,4,1,0,80,0,0
182323,-80,4,1,0,80,0,0
182402,-76.9230769230769,4,1,0,80,0,0
182455,-78.4313725490196,4,1,0,80,0,0
182481,-90.9090909090909,4,1,0,80,0,0
182508,-80,4,1,0,80,0,0
182560,-81.6326530612245,4,1,0,80,0,0
182639,-78.4313725490196,4,1,0,80,0,0
182797,-86.9565217391304,4,1,0,80,0,0
182876,-85.4700854700855,4,1,0,80,0,0
182955,-84.0336134453781,4,1,0,80,0,0
183113,-90.9090909090909,4,1,0,80,0,0
183271,-86.9565217391304,4,1,0,80,0,0
183350,-88.8888888888889,4,1,0,80,0,0
183429,-90.9090909090909,4,1,0,80,0,0
183508,-93.0232558139535,4,1,0,80,0,0
183587,-95.2380952380952,4,1,0,80,0,0
183744,-100,4,1,0,80,0,0
183797,-98.35045,4,1,0,80,0,0
183850,-96.75444,4,1,0,80,0,0
183902,-95.23809,4,1,0,80,0,0
183955,-93.74072,4,1,0,80,0,0
184008,-92.28971,4,1,0,80,0,0
184060,-90.90909,4,1,0,80,0,0
184218,-100,4,1,0,80,0,0
184376,-90.9090909090909,4,1,0,80,0,0
184455,-92.5925925925926,4,1,0,80,0,0
184534,-94.3396226415094,4,1,0,80,0,0
184613,-96.1538461538461,4,1,0,80,0,0
184692,-98.0392156862745,4,1,0,80,0,0
184850,-86.9565217391304,4,1,0,80,0,0
184929,-80,4,1,0,80,0,0
184981,-81.6326530612245,4,1,0,80,0,0
185008,-86.9565217391304,4,1,0,80,0,0
185034,-83.3333333333333,4,1,0,80,0,0
185087,-85.1063829787234,4,1,0,80,0,0
185166,-81.6326530612245,4,1,0,80,0,0
185323,-90.9090909090909,4,1,0,80,0,0
185402,-93.0232558139535,4,1,0,80,0,0
185481,-95.2380952380952,4,1,0,80,0,0
185560,-97.5609756097561,4,1,0,80,0,0
185639,-100,4,1,0,80,0,0
185797,-95.2380952380952,4,1,0,80,0,0
185955,-86.9565217391304,4,1,0,80,0,0
186271,-83.333336,4,1,0,80,0,0
186323,-84.49198,4,1,0,80,0,0
186376,-85.706535,4,1,0,80,0,0
186429,-86.95651,4,1,0,80,0,0
186481,-88.21887,4,1,0,80,0,0
186534,-89.54378,4,1,0,80,0,0
186587,-90.90909,4,1,0,80,0,0
186744,-100,4,1,0,80,0,0
186823,-97.5609756097561,4,1,0,80,0,0
186902,-95.2380952380952,4,1,0,80,0,0
187060,-84.7457627118644,4,1,0,80,0,0
187139,-82.6446280991736,4,1,0,80,0,0
187218,-76.92308,4,1,0,80,0,0
187297,-78.43137,4,1,0,80,0,0
187376,-80,4,1,0,80,0,0
187455,-81.63265,4,1,0,80,0,0
187534,-83.333336,4,1,0,80,0,0
187618,-83.333336,4,1,0,20,0,0
188407,-111.111111111111,4,1,0,70,0,0
188539,-109.109808725362,4,1,0,70,0,0
188592,-107.142846664541,4,1,0,70,0,0
188644,-105.280749019584,4,1,0,70,0,0
188697,-103.448263686088,4,1,0,70,0,0
188749,-101.678490908464,4,1,0,70,0,0
188802,-66.6666666666667,4,1,0,70,0,1
188849,-67.7966101694915,4,1,0,70,0,1
188902,-68.9655172413793,4,1,0,70,0,1
188955,-70.1754385964912,4,1,0,70,0,1
189112,-69.4444444444444,4,1,0,70,0,1
189191,-70.4225352112676,4,1,0,70,0,1
189270,-71.4285714285714,4,1,0,70,0,1
189349,-72.463768115942,4,1,0,70,0,1
189507,-68.4931506849315,4,1,0,70,0,1
189586,-69.4444444444444,4,1,0,70,0,1
189744,-67.5675675675676,4,1,0,70,0,1
189823,-68.4931506849315,4,1,0,70,0,1
189902,-69.4444444444444,4,1,0,70,0,1
190060,-70.1754385964912,4,1,0,70,0,1
190113,-68.9655172413793,4,1,0,70,0,1
190165,-67.7966101694915,4,1,0,70,0,1
190218,-66.6666666666667,4,1,0,70,0,1
190376,-72.463768115942,4,1,0,70,0,1
190455,-71.9424460431655,4,1,0,70,0,1
190534,-71.4285714285714,4,1,0,70,0,1
190613,-70.9219858156028,4,1,0,70,0,1
190771,-78.740157480315,4,1,0,70,0,1
190850,-78.125,4,1,0,70,0,1
190929,-77.5193798449612,4,1,0,70,0,1
191008,-76.9230769230769,4,1,0,70,0,1
191087,-76.3358778625954,4,1,0,70,0,1
191165,-75.7575757575758,4,1,0,70,0,1
191323,-71.4285714285714,4,1,0,70,0,1
191376,-72.7272727272727,4,1,0,70,0,1
191429,-74.0740740740741,4,1,0,70,0,1
191481,-75.4716981132076,4,1,0,70,0,1
191639,-67.5675675675676,4,1,0,70,0,1
191718,-68.4931506849315,4,1,0,70,0,1
191797,-69.4444444444444,4,1,0,70,0,1
191876,-70.4225352112676,4,1,0,70,0,1
192034,-65.7894736842105,4,1,0,70,0,1
192113,-66.6666666666667,4,1,0,70,0,1
192192,-67.5675675675676,4,1,0,70,0,1
192271,-68.4931506849315,4,1,0,70,0,1
192350,-69.4444444444444,4,1,0,70,0,1
192429,-70.4225352112676,4,1,0,70,0,1
192587,-66.6666666666667,4,1,0,70,0,1
192639,-65.5737704918033,4,1,0,70,0,1
192692,-64.5161290322581,4,1,0,70,0,1
192744,-63.4920634920635,4,1,0,70,0,1
192902,-66.6666666666667,4,1,0,70,0,1
192981,-65.7894736842105,4,1,0,70,0,1
193060,-64.9350649350649,4,1,0,70,0,1
193139,-64.1025641025641,4,1,0,70,0,1
193218,-63.2911392405063,4,1,0,70,0,1
193297,-62.5,4,1,0,70,0,1
193376,-61.7283950617284,4,1,0,70,0,1
193534,-68.0781537204711,4,1,0,70,0,1
193613,-68.903741473162,4,1,0,70,0,1
193692,-69.7350069735007,4,1,0,70,0,1
193850,-66.6666666666667,4,1,0,70,0,1
193902,-67.7966101694915,4,1,0,70,0,1
193955,-68.9655172413793,4,1,0,70,0,1
194008,-70.1754385964912,4,1,0,70,0,1
194165,-69.4444444444444,4,1,0,70,0,1
194244,-70.4225352112676,4,1,0,70,0,1
194323,-71.4285714285714,4,1,0,70,0,1
194402,-72.463768115942,4,1,0,70,0,1
194560,-68.4931506849315,4,1,0,70,0,1
194639,-69.4444444444444,4,1,0,70,0,1
194797,-67.5675675675676,4,1,0,70,0,1
194876,-68.4931506849315,4,1,0,70,0,1
194955,-69.4444444444444,4,1,0,70,0,1
195113,-70.1754385964912,4,1,0,70,0,1
195166,-68.9655172413793,4,1,0,70,0,1
195218,-67.7966101694915,4,1,0,70,0,1
195271,-66.6666666666667,4,1,0,70,0,1
195429,-72.463768115942,4,1,0,70,0,1
195508,-71.9424460431655,4,1,0,70,0,1
195587,-71.4285714285714,4,1,0,70,0,1
195666,-70.9219858156028,4,1,0,70,0,1
195824,-78.740157480315,4,1,0,70,0,1
195903,-78.125,4,1,0,70,0,1
195982,-77.5193798449612,4,1,0,70,0,1
196061,-76.9230769230769,4,1,0,70,0,1
196140,-76.3358778625954,4,1,0,70,0,1
196218,-75.7575757575758,4,1,0,70,0,1
196376,-71.4285714285714,4,1,0,70,0,1
196429,-72.7272727272727,4,1,0,70,0,1
196482,-74.0740740740741,4,1,0,70,0,1
196534,-75.4716981132076,4,1,0,70,0,1
196692,-67.5675675675676,4,1,0,70,0,1
196771,-68.4931506849315,4,1,0,70,0,1
196850,-69.4444444444444,4,1,0,70,0,1
196929,-70.4225352112676,4,1,0,70,0,1
197087,-65.7894736842105,4,1,0,70,0,1
197166,-66.6666666666667,4,1,0,70,0,1
197245,-67.5675675675676,4,1,0,70,0,1
197324,-68.4931506849315,4,1,0,70,0,1
197403,-69.4444444444444,4,1,0,70,0,1
197482,-70.4225352112676,4,1,0,70,0,1
197644,-58.8235294117647,4,1,0,70,0,0
197697,-59.9988000239995,4,1,0,70,0,0
197749,-61.2257393008021,4,1,0,70,0,0
197802,-62.5,4,1,0,70,0,0
197881,-62.5,4,1,0,20,0,0
198513,-83.3333333333333,4,1,0,80,0,0
198639,-82.203041512536,4,1,0,80,0,0
198692,-81.0898475510866,4,1,0,80,0,0
198745,-80,4,1,0,80,0,0
198797,-78.9577575996842,4,1,0,80,0,0
198850,-77.930174563591,4,1,0,80,0,0
198907,-66.6666666666667,4,1,0,80,0,1
198945,-67.7966101694915,4,1,0,80,0,1
198998,-68.9655172413793,4,1,0,80,0,1
199051,-70.1754385964912,4,1,0,80,0,1
199208,-68.0272108843538,4,1,0,80,0,1
199287,-68.9655172413793,4,1,0,80,0,1
199366,-69.9300699300699,4,1,0,80,0,1
199445,-70.9219858156028,4,1,0,80,0,1
199603,-69.4444444444444,4,1,0,80,0,1
199682,-70.4225352112676,4,1,0,80,0,1
199766,-69.6427327808343,4,1,0,80,0,1
199840,-68.9655172413793,4,1,0,80,0,1
199919,-69.9300699300699,4,1,0,80,0,1
199998,-70.9219858156028,4,1,0,80,0,1
200156,-71.4285714285714,4,1,0,80,0,1
200208,-70.1754385964912,4,1,0,80,0,1
200261,-68.9655172413793,4,1,0,80,0,1
200314,-67.7966101694915,4,1,0,80,0,1
200472,-71.4285714285714,4,1,0,80,0,1
200551,-70.4225352112676,4,1,0,80,0,1
200629,-69.4444444444444,4,1,0,80,0,1
200708,-68.4931506849315,4,1,0,80,0,1
200787,-67.5675675675676,4,1,0,80,0,1
200866,-66.6666666666667,4,1,0,80,0,1
200945,-65.7894736842105,4,1,0,80,0,1
201024,-64.9350649350649,4,1,0,80,0,1
201103,-64.1025641025641,4,1,0,80,0,1
201261,-63.2911392405063,4,1,0,80,0,1
201419,-62.5,4,1,0,80,0,1
201472,-63.4920634920635,4,1,0,80,0,1
201524,-64.5161290322581,4,1,0,80,0,1
201577,-65.5737704918033,4,1,0,80,0,1
201735,-66.6666666666667,4,1,0,80,0,1
201814,-67.5675675675676,4,1,0,80,0,1
201893,-68.4931506849315,4,1,0,80,0,1
201972,-69.4444444444444,4,1,0,80,0,1
202129,-67.5675675675676,4,1,0,80,0,1
202208,-68.4931506849315,4,1,0,80,0,1
202287,-69.4444444444444,4,1,0,80,0,1
202366,-70.4225352112676,4,1,0,80,0,1
202445,-71.4285714285714,4,1,0,80,0,1
202524,-72.463768115942,4,1,0,80,0,1
202682,-76.9230769230769,4,1,0,80,0,1
202735,-75.4716981132076,4,1,0,80,0,1
202787,-74.0740740740741,4,1,0,80,0,1
202840,-72.7272727272727,4,1,0,80,0,1
202998,-75.187969924812,4,1,0,80,0,1
203077,-74.0740740740741,4,1,0,80,0,1
203156,-72.992700729927,4,1,0,80,0,1
203235,-71.9424460431655,4,1,0,80,0,1
203314,-70.9219858156028,4,1,0,80,0,1
203393,-69.9300699300699,4,1,0,80,0,1
203472,-68.9655172413793,4,1,0,80,0,1
203551,-68.0272108843538,4,1,0,80,0,1
203629,-67.1140939597315,4,1,0,80,0,1
203787,-69.204152249135,4,1,0,80,0,1
203945,-66.6666666666667,4,1,0,80,0,1
203998,-67.7966101694915,4,1,0,80,0,1
204051,-68.9655172413793,4,1,0,80,0,1
204103,-70.1754385964912,4,1,0,80,0,1
204261,-69.9300699300699,4,1,0,80,0,1
204340,-69.4444444444444,4,1,0,80,0,1
204419,-68.9655172413793,4,1,0,80,0,1
204498,-68.4931506849315,4,1,0,80,0,1
204656,-73.5294117647059,4,1,0,80,0,1
204735,-72.992700729927,4,1,0,80,0,1
204814,-72.463768115942,4,1,0,80,0,1
204893,-71.9424460431655,4,1,0,80,0,1
204972,-71.4285714285714,4,1,0,80,0,1
205051,-70.9219858156028,4,1,0,80,0,1
205208,-71.4285714285714,4,1,0,80,0,1
205261,-70.1754385964912,4,1,0,80,0,1
205314,-68.9655172413793,4,1,0,80,0,1
205366,-67.7966101694915,4,1,0,80,0,1
205524,-68.4931506849315,4,1,0,80,0,1
205603,-68.9655172413793,4,1,0,80,0,1
205682,-69.4444444444444,4,1,0,80,0,1
205761,-69.9300699300699,4,1,0,80,0,1
205840,-70.4225352112676,4,1,0,80,0,1
205919,-70.9219858156028,4,1,0,80,0,1
205998,-71.4285714285714,4,1,0,80,0,1
206077,-71.9424460431655,4,1,0,80,0,1
206156,-72.463768115942,4,1,0,80,0,1
206234,-72.992700729927,4,1,0,80,0,1
206314,-73.5294117647059,4,1,0,80,0,1
206472,-62.5,4,1,0,80,0,1
206524,-63.4920634920635,4,1,0,80,0,1
206577,-64.5161290322581,4,1,0,80,0,1
206629,-65.5737704918033,4,1,0,80,0,1
206787,-66.6666666666667,4,1,0,80,0,1
206866,-66.1419406045373,4,1,0,80,0,1
206945,-65.621103746965,4,1,0,80,0,1
207024,-65.1041666666667,4,1,0,80,0,1
207103,-64.5911380958533,4,1,0,80,0,1
207182,-64.0820249919897,4,1,0,80,0,1
207261,-63.5727908455181,4,1,0,80,0,1
207340,-63.0715862503942,4,1,0,80,0,1
207419,-62.570391690652,4,1,0,80,0,1
207498,-62.0732464307883,4,1,0,80,0,1
207577,-61.5839389087326,4,1,0,80,0,1
207656,-61.0910868104344,4,1,0,80,0,1
207749,-59.9988000239995,4,1,0,80,0,0
207797,-61.2257393008021,4,1,0,80,0,0
207850,-62.5,4,1,0,80,0,0
207903,-63.8284291823578,4,1,0,80,0,0
208065,-74.6268656716418,4,1,0,80,0,0
208218,-76.3358778625954,4,1,0,74,0,0
208376,-78.125,4,1,0,71,0,0
208692,-87.97117,4,1,0,66,0,0
208850,-89.70507,4,1,0,63,0,0
209008,-33.333332,4,1,0,100,0,0
209565,-117.647058823529,4,1,0,70,0,0
209797,-114.942528735632,4,1,0,70,0,0
209955,-83.3333300000001,4,1,0,70,0,0
210271,-99.9999952000002,4,1,0,70,0,0
210429,-92.5925925925926,4,1,0,70,0,0
210508,-94.3396226415094,4,1,0,70,0,0
210587,-96.1538461538461,4,1,0,70,0,0
210666,-98.0392156862745,4,1,0,70,0,0
210745,-100,4,1,0,70,0,0
210903,-95.2380952380952,4,1,0,70,0,0
211060,-100,4,1,0,70,0,0
211139,-98.0392156862745,4,1,0,70,0,0
211218,-96.1538461538461,4,1,0,70,0,0
211297,-94.3396226415094,4,1,0,70,0,0
211376,-92.5925925925926,4,1,0,70,0,0
211534,-100,4,1,0,70,0,0
211587,-101.010101010101,4,1,0,70,0,0
211639,-102.040816326531,4,1,0,70,0,0
211692,-103.092783505155,4,1,0,70,0,0
211850,-100,4,1,0,70,0,0
212008,-98.0392156862745,4,1,0,70,0,0
212087,-96.1538461538461,4,1,0,70,0,0
212166,-94.3396226415094,4,1,0,70,0,0
212324,-90.9090909090909,4,1,0,70,0,0
212481,-83.3333333333333,4,1,0,70,0,0
212534,-85.1063829787234,4,1,0,70,0,0
212587,-86.9565217391304,4,1,0,70,0,0
212639,-88.8888888888889,4,1,0,70,0,0
212797,-100,4,1,0,70,0,0
212955,-90.9090909090909,4,1,0,70,0,0
213113,-98.0392156862745,4,1,0,70,0,0
213192,-96.1538461538461,4,1,0,70,0,0
213271,-94.3396226415094,4,1,0,70,0,0
213429,-87.719298245614,4,1,0,70,0,0
213587,-98.0392156862745,4,1,0,70,0,0
213666,-96.1538461538461,4,1,0,70,0,0
213745,-94.3396226415094,4,1,0,70,0,0
213824,-92.5925925925926,4,1,0,70,0,0
213903,-90.9090909090909,4,1,0,70,0,0
214060,-76.92308,4,1,0,70,0,0
214113,-78.44111,4,1,0,70,0,0
214166,-80.020256,4,1,0,70,0,0
214218,-81.63265,4,1,0,70,0,0
214271,-83.34432,4,1,0,70,0,0
214324,-85.12932,4,1,0,70,0,0
214376,-86.95652,4,1,0,70,0,0
214534,-90.9090909090909,4,1,0,70,0,0
214692,-95.2380952380952,4,1,0,70,0,0
215008,-71.4285714285714,4,1,0,70,0,0
215324,-100,4,1,0,70,0,0
215481,-90.9090909090909,4,1,0,70,0,0
215560,-92.5925925925926,4,1,0,70,0,0
215639,-94.3396226415094,4,1,0,70,0,0
215718,-96.1538461538461,4,1,0,70,0,0
215797,-98.0392156862745,4,1,0,70,0,0
215955,-99.9999999999999,4,1,0,70,0,0
216113,-106.382978723404,4,1,0,70,0,0
216192,-105.263157894737,4,1,0,70,0,0
216271,-104.166666666667,4,1,0,70,0,0
216429,-111.111111111111,4,1,0,70,0,0
216587,-83.3333333333333,4,1,0,70,0,0
216639,-85.1063829787234,4,1,0,70,0,0
216692,-86.9565217391304,4,1,0,70,0,0
216745,-88.8888888888889,4,1,0,70,0,0
216903,-100,4,1,0,70,0,0
217060,-95.2380952380954,4,1,0,70,0,0
217218,-90.9090909090909,4,1,0,70,0,0
217376,-100,4,1,0,70,0,0
217455,-97.5609756097561,4,1,0,70,0,0
217534,-95.2380952380952,4,1,0,70,0,0
217692,-86.9565217391304,4,1,0,70,0,0
217835,-83.333336,4,1,0,70,0,0
217888,-84.6859,4,1,0,70,0,0
217940,-86.03428,4,1,0,70,0,0
217993,-87.43069,4,1,0,70,0,0
218092,-90.10005,4,1,0,70,0,0
218151,-91.72949,4,1,0,70,0,0
218256,-94.70256,4,1,0,70,0,0
218361,-97.772,4,1,0,70,0,0
218466,-100.78982,4,1,0,70,0,0
218572,-104.03142,4,1,0,70,0,0
218677,-107.45477,4,1,0,70,0,0
218782,-111.1111,4,1,0,70,0,0
218940,-117.647058823529,4,1,0,70,0,0
219113,-125,4,1,0,70,0,0
219166,-124.178734,4,1,0,70,0,0
219253,-122.84228,4,1,0,70,0,0
219376,-120.97732,4,1,0,70,0,0
219587,-117.843796,4,1,0,70,0,0
219745,-115.55062,4,1,0,70,0,0
219824,-114.42082,4,1,0,70,0,0
219903,-113.30207,4,1,0,70,0,0
220060,-83.3333270833332,4,1,0,70,0,0
220376,-100,4,1,0,70,0,0
220455,-98.0392156862745,4,1,0,70,0,0
220534,-96.1538461538461,4,1,0,70,0,0
220692,-90.9090909090909,4,1,0,70,0,0
220850,-100,4,1,0,70,0,0
220929,-102.040816326531,4,1,0,70,0,0
221008,-104.166666666667,4,1,0,70,0,0
221166,-111.111111111111,4,1,0,70,0,0
221324,-100,4,1,0,70,0,0
221403,-102.564102564103,4,1,0,70,0,0
221481,-105.263157894737,4,1,0,70,0,0
221639,-90.9090909090909,4,1,0,70,0,0
221692,-89.6860986547085,4,1,0,70,0,0
221745,-88.4955752212389,4,1,0,70,0,0
221797,-87.3362445414847,4,1,0,70,0,0
221955,-90.9090909090909,4,1,0,70,0,0
222113,-86.9565217391304,4,1,0,70,0,0
222271,-95.2380952380952,4,1,0,70,0,0
222350,-97.5609756097561,4,1,0,70,0,0
222429,-100,4,1,0,70,0,0
222587,-83.3333333333333,4,1,0,70,0,0
222639,-85.1063829787234,4,1,0,70,0,0
222692,-86.9565217391304,4,1,0,70,0,0
222745,-88.8888888888889,4,1,0,70,0,0
222903,-100,4,1,0,70,0,0
223060,-94.3396226415094,4,1,0,70,0,0
223139,-96.1538461538461,4,1,0,70,0,0
223218,-98.0392156862745,4,1,0,70,0,0
223376,-90.9090909090909,4,1,0,70,0,0
223455,-92.5925925925926,4,1,0,70,0,0
223534,-94.3396226415094,4,1,0,70,0,0
223692,-87.719298245614,4,1,0,70,0,0
223771,-85.4700854700855,4,1,0,70,0,0
223850,-83.3333333333333,4,1,0,70,0,0
223929,-81.3008130081301,4,1,0,70,0,0
223993,-79.3650793650794,4,1,0,70,0,0
224151,-71.4285714285714,4,1,0,70,0,0
224209,-72.463768115942,4,1,0,70,0,0
224261,-73.5294117647059,4,1,0,70,0,0
224309,-74.6268656716418,4,1,0,70,0,0
224361,-75.7575757575758,4,1,0,70,0,0
224414,-76.9230769230769,4,1,0,70,0,0
224466,-78.125,4,1,0,70,0,0
224624,-89.2857142857143,4,1,0,70,0,0
224782,-95.2380952380952,4,1,0,70,0,0
225113,-71.4285714285714,4,1,0,70,0,0
225429,-100,4,1,0,70,0,0
225587,-86.9565217391304,4,1,0,70,0,0
225666,-88.8888888888889,4,1,0,70,0,0
225745,-90.9090909090909,4,1,0,70,0,0
225903,-86.9565217391304,4,1,0,70,0,0
226060,-80,4,1,0,70,0,0
226218,-90.9090909090909,4,1,0,70,0,0
226297,-89.2857142857143,4,1,0,70,0,0
226376,-87.719298245614,4,1,0,70,0,0
226455,-86.2068965517241,4,1,0,70,0,0
226534,-84.7457627118644,4,1,0,70,0,0
226692,-76.9230769230769,4,1,0,70,0,0
226745,-78.7401574803149,4,1,0,70,0,0
226797,-80.6451612903226,4,1,0,70,0,0
226850,-82.6446280991736,4,1,0,70,0,0
227008,-90.9090909090909,4,1,0,70,0,0
227087,-89.2857142857143,4,1,0,70,0,0
227166,-87.719298245614,4,1,0,70,0,0
227324,-100,4,1,0,70,0,0
227481,-90.9090909090909,4,1,0,70,0,0
227560,-88.2352967128028,4,1,0,70,0,0
227639,-85.7143346939055,4,1,0,70,0,0
227797,-90.9090909090909,4,1,0,70,0,0
227955,-100,4,1,0,70,0,0
228113,-86.95952,4,1,0,70,0,0
228166,-88.24763,4,1,0,70,0,0
228218,-89.549065,4,1,0,70,0,0
228271,-90.91564,4,1,0,70,0,0
228429,-95.24887,4,1,0,70,0,0
228508,-97.574165,4,1,0,70,0,0
228587,-100.01584,4,1,0,70,0,0
228745,-105.26316,4,1,0,70,0,0
228823,-108.2305,4,1,0,70,0,0
228903,-111.05948,4,1,0,70,0,0
228960,-113.310425,4,1,0,70,0,0
229013,-115.48683,4,1,0,70,0,0
229065,-117.70501,4,1,0,70,0,0
229118,-120.05526,4,1,0,70,0,0
229170,-122.45421,4,1,0,70,0,0
229203,-122.45421,4,1,0,40,0,0
229223,631.578947368421,4,1,0,40,1,0
229223,-62.500004,4,1,0,40,0,0
230170,-65.57293,4,1,0,40,0,0
230328,-66.11527,4,1,0,40,0,0
230486,-66.66667,4,1,0,40,0,0
231117,-68.96364,4,1,0,40,0,0
231749,-71.42858,4,1,0,40,0,0
234275,-83.333336,4,1,0,40,0,0
235223,-88.89359,4,1,0,40,0,0
235380,-89.88685,4,1,0,40,0,0
235538,-90.909096,4,1,0,40,0,0
236170,-95.24169,4,1,0,40,0,0
236801,-100,4,1,0,40,0,0

[HitObjects]
288,160,3120,5,8,0:0:0:0:
224,160,4067,1,0,0:0:0:0:
288,160,4225,1,8,0:0:0:0:
288,160,4383,1,8,0:0:0:0:
288,160,5014,1,8,0:0:0:0:
288,160,8172,5,8,0:0:0:0:
224,160,9120,1,0,0:0:0:0:
288,160,9277,1,8,0:0:0:0:
288,160,9435,1,8,0:0:0:0:
288,160,10067,1,8,0:0:0:0:
288,160,13225,5,8,0:0:0:0:
224,160,14172,1,0,0:0:0:0:
288,160,14330,1,8,0:0:0:0:
288,160,14488,1,8,0:0:0:0:
288,160,15120,1,8,0:0:0:0:
224,160,15751,1,0,0:0:0:0:
288,160,16383,1,8,0:0:0:0:
224,160,17014,1,0,0:0:0:0:
288,160,18277,5,8,0:0:0:0:
224,160,19225,1,0,0:0:0:0:
288,160,19383,1,8,0:0:0:0:
288,160,19541,1,8,0:0:0:0:
288,160,20172,1,8,0:0:0:0:
224,160,20804,1,0,0:0:0:0:
288,160,21435,1,8,0:0:0:0:
288,160,22067,1,8,0:0:0:0:
288,160,23330,5,8,0:0:0:0:
224,160,24277,1,0,0:0:0:0:
288,160,24435,1,8,0:0:0:0:
288,160,24593,1,8,0:0:0:0:
288,160,25225,1,8,0:0:0:0:
224,160,25856,1,0,0:0:0:0:
288,160,26488,1,8,0:0:0:0:
224,160,27120,1,0,0:0:0:0:
224,160,28383,5,0,0:0:0:0:
224,160,29330,1,0,0:0:0:0:
224,160,29488,1,0,0:0:0:0:
288,160,29646,1,8,0:0:0:0:
224,160,30277,1,0,0:0:0:0:
288,160,30909,1,8,0:0:0:0:
288,160,31856,1,8,0:0:0:0:
224,160,32014,1,0,0:0:0:0:
288,160,32172,1,8,0:0:0:0:
224,160,35329,5,0,0:0:0:0:
224,160,35645,1,0,0:0:0:0:
224,160,35961,5,0,0:0:0:0:
224,160,36277,1,0,0:0:0:0:
224,160,36592,5,0,0:0:0:0:
224,160,36908,1,0,0:0:0:0:
224,160,37224,5,0,0:0:0:0:
224,160,37540,1,0,0:0:0:0:
224,160,37856,5,0,0:0:0:0:
224,160,38171,1,0,0:0:0:0:
224,160,38487,5,0,0:0:0:0:
224,160,38645,1,0,0:0:0:0:
224,160,38803,1,0,0:0:0:0:
224,160,38961,1,0,0:0:0:0:
224,160,39119,1,0,0:0:0:0:
224,160,39277,1,0,0:0:0:0:
224,160,39435,1,0,0:0:0:0:
224,160,39592,1,0,0:0:0:0:
224,160,39750,5,0,0:0:0:0:
288,160,39908,1,8,0:0:0:0:
224,160,40066,1,0,0:0:0:0:
288,160,40224,1,8,0:0:0:0:
224,160,40382,1,0,0:0:0:0:
288,160,40540,1,8,0:0:0:0:
224,160,40698,1,0,0:0:0:0:
288,160,40856,1,8,0:0:0:0:
224,160,41013,5,0,0:0:0:0:
224,160,41092,1,0,0:0:0:0:
288,160,41171,1,8,0:0:0:0:
288,160,41250,1,8,0:0:0:0:
224,160,41329,1,0,0:0:0:0:
224,160,41408,1,0,0:0:0:0:
288,160,41487,1,8,0:0:0:0:
224,160,41566,1,0,0:0:0:0:
224,160,41645,1,0,0:0:0:0:
224,160,41724,1,0,0:0:0:0:
288,160,41803,1,8,0:0:0:0:
288,160,41882,1,8,0:0:0:0:
224,160,41961,1,0,0:0:0:0:
224,160,42040,1,0,0:0:0:0:
288,160,42119,1,8,0:0:0:0:
288,160,42198,1,8,0:0:0:0:
224,160,43540,5,0,0:0:0:0:
224,160,43592,1,0,0:0:0:0:
224,160,43645,1,0,0:0:0:0:
224,160,43698,1,0,0:0:0:0:
288,160,43750,1,8,0:0:0:0:
288,160,43803,1,8,0:0:0:0:
224,160,43856,1,0,0:0:0:0:
224,160,44013,1,0,0:0:0:0:
288,160,44171,1,8,0:0:0:0:
224,160,44329,1,0,0:0:0:0:
288,224,44487,1,12,0:0:0:0:
224,160,44803,5,0,0:0:0:0:
288,160,44961,1,8,0:0:0:0:
224,160,45040,1,0,0:0:0:0:
288,160,45119,1,8,0:0:0:0:
288,160,45198,1,8,0:0:0:0:
224,160,45277,1,0,0:0:0:0:
288,160,45435,1,8,0:0:0:0:
224,160,45592,1,0,0:0:0:0:
288,160,45671,1,8,0:0:0:0:
224,160,45750,1,0,0:0:0:0:
224,160,45829,1,0,0:0:0:0:
288,160,45908,1,8,0:0:0:0:
224,160,46066,5,0,0:0:0:0:
288,160,46119,1,8,0:0:0:0:
288,160,46171,1,8,0:0:0:0:
224,160,46224,1,0,0:0:0:0:
288,160,46382,1,8,0:0:0:0:
224,160,46540,1,0,0:0:0:0:
224,160,46619,1,0,0:0:0:0:
288,160,46698,1,8,0:0:0:0:
224,160,46856,1,0,0:0:0:0:
288,160,47013,5,8,0:0:0:0:
224,160,47066,1,0,0:0:0:0:
224,160,47119,1,0,0:0:0:0:
288,160,47171,1,8,0:0:0:0:
224,160,47329,1,0,0:0:0:0:
288,160,47487,1,8,0:0:0:0:
224,160,47645,1,0,0:0:0:0:
288,160,47724,1,8,0:0:0:0:
224,160,47803,1,0,0:0:0:0:
288,160,47961,5,8,0:0:0:0:
224,160,48119,1,0,0:0:0:0:
288,160,48198,1,8,0:0:0:0:
224,160,48277,1,0,0:0:0:0:
288,160,48356,1,8,0:0:0:0:
224,160,48435,1,0,0:0:0:0:
288,160,48592,5,8,0:0:0:0:
224,160,48645,1,0,0:0:0:0:
224,160,48698,1,0,0:0:0:0:
288,160,48750,1,8,0:0:0:0:
288,160,48803,1,8,0:0:0:0:
288,160,48856,1,8,0:0:0:0:
224,160,48908,1,0,0:0:0:0:
224,160,49066,1,0,0:0:0:0:
288,160,49224,1,8,0:0:0:0:
288,224,49540,1,12,0:0:0:0:
224,160,49856,5,0,0:0:0:0:
288,160,50013,1,8,0:0:0:0:
288,160,50092,1,8,0:0:0:0:
224,160,50171,1,0,0:0:0:0:
288,160,50250,1,8,0:0:0:0:
224,160,50329,1,0,0:0:0:0:
288,160,50487,1,8,0:0:0:0:
224,160,50645,1,0,0:0:0:0:
224,160,50724,1,0,0:0:0:0:
224,160,50803,1,0,0:0:0:0:
288,160,50961,1,8,0:0:0:0:
224,160,51119,5,0,0:0:0:0:
288,160,51171,1,8,0:0:0:0:
288,160,51224,1,8,0:0:0:0:
224,160,51277,1,0,0:0:0:0:
224,160,51435,1,0,0:0:0:0:
288,160,51592,1,8,0:0:0:0:
288,160,51750,1,8,0:0:0:0:
224,160,51908,1,0,0:0:0:0:
224,160,51987,1,0,0:0:0:0:
288,160,52066,1,8,0:0:0:0:
288,160,52224,1,8,0:0:0:0:
224,160,52382,5,0,0:0:0:0:
224,160,52435,1,0,0:0:0:0:
224,160,52487,1,0,0:0:0:0:
288,160,52540,1,8,0:0:0:0:
224,160,52619,1,0,0:0:0:0:
288,160,52698,1,8,0:0:0:0:
288,160,52803,1,8,0:0:0:0:
224,160,52908,1,0,0:0:0:0:
288,160,53013,1,8,0:0:0:0:
224,160,53132,1,0,0:0:0:0:
288,160,53250,1,8,0:0:0:0:
224,160,53329,1,0,0:0:0:0:
288,160,53487,1,8,0:0:0:0:
224,160,53645,5,0,0:0:0:0:
288,160,53698,1,8,0:0:0:0:
224,160,53785,1,0,0:0:0:0:
288,160,53921,1,8,0:0:0:0:
224,160,54119,1,0,0:0:0:0:
288,160,54277,1,8,0:0:0:0:
288,160,54356,1,8,0:0:0:0:
224,160,54435,1,0,0:0:0:0:
288,224,54592,1,12,0:0:0:0:
224,160,54908,5,0,0:0:0:0:
288,160,54987,1,8,0:0:0:0:
224,160,55066,1,0,0:0:0:0:
288,160,55224,1,8,0:0:0:0:
224,160,55382,1,0,0:0:0:0:
224,160,55461,1,0,0:0:0:0:
288,160,55540,1,8,0:0:0:0:
224,160,55698,1,0,0:0:0:0:
288,160,55856,1,8,0:0:0:0:
224,160,55935,1,0,0:0:0:0:
288,160,56013,1,8,0:0:0:0:
224,160,56171,5,0,0:0:0:0:
224,160,56224,1,0,0:0:0:0:
224,160,56277,1,0,0:0:0:0:
288,160,56329,1,8,0:0:0:0:
224,160,56487,1,0,0:0:0:0:
288,160,56645,1,8,0:0:0:0:
224,160,56803,1,0,0:0:0:0:
288,160,56882,1,8,0:0:0:0:
224,160,56961,1,0,0:0:0:0:
288,160,57119,5,8,0:0:0:0:
224,160,57171,1,0,0:0:0:0:
224,160,57224,1,0,0:0:0:0:
288,160,57277,1,8,0:0:0:0:
224,160,57435,1,0,0:0:0:0:
288,160,57592,1,8,0:0:0:0:
288,160,57671,1,8,0:0:0:0:
224,160,57750,1,0,0:0:0:0:
288,160,57908,1,8,0:0:0:0:
224,160,57987,1,0,0:0:0:0:
288,160,58066,1,8,0:0:0:0:
224,160,58224,1,0,0:0:0:0:
288,160,58303,1,8,0:0:0:0:
224,160,58382,1,0,0:0:0:0:
224,160,58461,1,0,0:0:0:0:
288,160,58540,1,8,0:0:0:0:
224,160,58698,5,0,0:0:0:0:
288,160,58750,1,8,0:0:0:0:
288,160,58803,1,8,0:0:0:0:
224,160,58856,1,0,0:0:0:0:
288,160,58908,1,8,0:0:0:0:
288,160,58961,1,8,0:0:0:0:
224,160,59013,1,0,0:0:0:0:
224,160,59171,1,0,0:0:0:0:
288,160,59329,1,8,0:0:0:0:
288,224,59645,1,12,0:0:0:0:
224,160,59961,5,0,0:0:0:0:
288,160,60119,1,8,0:0:0:0:
288,160,60198,1,8,0:0:0:0:
224,160,60277,1,0,0:0:0:0:
224,160,60435,1,0,0:0:0:0:
288,160,60592,1,8,0:0:0:0:
224,160,60750,1,0,0:0:0:0:
288,160,60829,1,8,0:0:0:0:
224,160,60908,1,0,0:0:0:0:
224,160,60987,1,0,0:0:0:0:
288,160,61066,1,8,0:0:0:0:
224,160,61224,5,0,0:0:0:0:
288,160,61277,1,8,0:0:0:0:
288,160,61329,1,8,0:0:0:0:
224,160,61382,1,0,0:0:0:0:
288,160,61540,1,8,0:0:0:0:
288,160,61619,1,8,0:0:0:0:
224,160,61698,1,0,0:0:0:0:
288,160,61856,1,8,0:0:0:0:
224,160,62013,1,0,0:0:0:0:
224,160,62092,1,0,0:0:0:0:
288,160,62171,1,8,0:0:0:0:
288,160,62329,1,8,0:0:0:0:
224,160,62487,5,0,0:0:0:0:
288,160,62645,1,8,0:0:0:0:
288,160,62698,1,8,0:0:0:0:
288,160,62750,1,8,0:0:0:0:
224,160,62803,1,0,0:0:0:0:
288,160,62961,1,8,0:0:0:0:
224,160,63040,1,0,0:0:0:0:
288,160,63119,1,8,0:0:0:0:
288,160,63277,1,8,0:0:0:0:
224,160,63435,1,0,0:0:0:0:
224,160,63513,1,0,0:0:0:0:
288,160,63592,1,8,0:0:0:0:
224,160,63750,1,0,0:0:0:0:
224,160,63803,1,0,0:0:0:0:
224,160,63856,1,0,0:0:0:0:
224,160,63908,1,0,0:0:0:0:
288,160,63961,1,8,0:0:0:0:
288,160,64013,1,8,0:0:0:0:
224,160,64066,1,0,0:0:0:0:
224,160,64224,1,0,0:0:0:0:
288,160,64382,1,8,0:0:0:0:
224,160,64540,1,0,0:0:0:0:
288,224,64698,1,12,0:0:0:0:
224,160,65013,5,0,0:0:0:0:
288,160,65171,1,8,0:0:0:0:
224,160,65329,1,0,0:0:0:0:
224,160,65408,1,0,0:0:0:0:
288,160,65487,1,8,0:0:0:0:
288,160,65645,1,8,0:0:0:0:
224,160,65803,1,0,0:0:0:0:
288,160,65961,1,8,0:0:0:0:
224,160,66040,1,0,0:0:0:0:
288,160,66119,1,8,0:0:0:0:
224,160,66277,5,0,0:0:0:0:
288,160,66329,1,8,0:0:0:0:
288,160,66382,1,8,0:0:0:0:
224,160,66435,1,0,0:0:0:0:
288,160,66592,1,8,0:0:0:0:
224,160,66750,1,0,0:0:0:0:
224,160,66829,1,0,0:0:0:0:
288,160,66908,1,8,0:0:0:0:
224,160,67066,1,0,0:0:0:0:
288,160,67224,1,8,0:0:0:0:
224,160,67277,1,0,0:0:0:0:
224,160,67329,1,0,0:0:0:0:
288,160,67382,1,8,0:0:0:0:
224,160,67540,5,0,0:0:0:0:
288,160,67698,1,8,0:0:0:0:
288,160,67856,1,8,0:0:0:0:
288,160,67935,1,8,0:0:0:0:
224,160,68013,1,0,0:0:0:0:
288,160,68171,5,8,0:0:0:0:
224,160,68329,1,0,0:0:0:0:
288,160,68408,1,8,0:0:0:0:
224,160,68487,1,0,0:0:0:0:
288,160,68566,1,8,0:0:0:0:
224,160,68645,1,0,0:0:0:0:
288,160,68803,5,8,0:0:0:0:
224,160,68856,1,0,0:0:0:0:
224,160,68908,1,0,0:0:0:0:
288,160,68961,1,8,0:0:0:0:
288,160,69013,1,8,0:0:0:0:
288,160,69066,1,8,0:0:0:0:
224,160,69119,1,0,0:0:0:0:
224,160,69277,1,0,0:0:0:0:
288,160,69435,1,8,0:0:0:0:
288,224,69750,1,12,0:0:0:0:
224,160,70066,5,0,0:0:0:0:
288,160,70224,1,8,0:0:0:0:
224,160,70303,1,0,0:0:0:0:
288,160,70382,1,8,0:0:0:0:
288,160,70461,1,8,0:0:0:0:
224,160,70540,1,0,0:0:0:0:
288,160,70698,1,8,0:0:0:0:
288,160,70777,1,8,0:0:0:0:
224,160,70856,1,0,0:0:0:0:
288,160,70935,1,8,0:0:0:0:
288,160,71013,1,8,0:0:0:0:
288,160,71171,1,8,0:0:0:0:
224,160,71329,5,0,0:0:0:0:
288,160,71382,1,8,0:0:0:0:
288,160,71435,1,8,0:0:0:0:
224,160,71487,1,0,0:0:0:0:
224,160,71645,1,0,0:0:0:0:
288,160,71803,1,8,0:0:0:0:
288,160,71961,1,8,0:0:0:0:
224,160,72119,1,0,0:0:0:0:
224,160,72198,1,0,0:0:0:0:
288,160,72277,1,8,0:0:0:0:
288,160,72435,1,8,0:0:0:0:
224,160,72592,5,0,0:0:0:0:
224,160,72645,1,0,0:0:0:0:
224,160,72698,1,0,0:0:0:0:
288,160,72750,1,8,0:0:0:0:
224,160,72829,1,0,0:0:0:0:
288,160,72908,1,8,0:0:0:0:
224,160,73013,1,0,0:0:0:0:
288,160,73119,1,8,0:0:0:0:
288,160,73224,1,8,0:0:0:0:
224,160,73342,1,0,0:0:0:0:
224,160,73461,1,0,0:0:0:0:
288,160,73540,1,8,0:0:0:0:
288,160,73698,1,8,0:0:0:0:
224,160,73856,5,0,0:0:0:0:
288,160,73908,1,8,0:0:0:0:
224,160,73996,1,0,0:0:0:0:
288,160,74132,1,8,0:0:0:0:
224,160,74329,1,0,0:0:0:0:
288,160,74487,1,8,0:0:0:0:
288,160,74566,1,8,0:0:0:0:
224,160,74645,1,0,0:0:0:0:
288,224,74803,1,12,0:0:0:0:
224,160,75119,5,0,0:0:0:0:
224,160,75198,1,0,0:0:0:0:
224,160,75277,1,0,0:0:0:0:
288,160,75435,1,8,0:0:0:0:
288,160,75513,1,8,0:0:0:0:
224,160,75592,1,0,0:0:0:0:
224,160,75671,1,0,0:0:0:0:
288,160,75750,1,8,0:0:0:0:
224,160,75908,1,0,0:0:0:0:
288,160,76066,1,8,0:0:0:0:
224,160,76145,1,0,0:0:0:0:
288,160,76224,1,8,0:0:0:0:
224,160,76382,5,0,0:0:0:0:
224,160,76435,1,0,0:0:0:0:
224,160,76487,1,0,0:0:0:0:
288,160,76540,1,8,0:0:0:0:
224,160,76698,1,0,0:0:0:0:
288,160,76856,1,8,0:0:0:0:
288,160,77013,1,8,0:0:0:0:
288,160,77092,1,8,0:0:0:0:
224,160,77171,1,0,0:0:0:0:
288,160,77329,1,8,0:0:0:0:
224,160,77382,1,0,0:0:0:0:
224,160,77435,1,0,0:0:0:0:
288,160,77487,1,8,0:0:0:0:
224,160,77645,5,0,0:0:0:0:
224,160,77803,1,0,0:0:0:0:
288,160,77882,1,8,0:0:0:0:
224,160,77961,1,0,0:0:0:0:
288,160,78119,1,8,0:0:0:0:
224,160,78198,1,0,0:0:0:0:
288,160,78277,1,8,0:0:0:0:
288,160,78435,1,8,0:0:0:0:
288,160,78513,1,8,0:0:0:0:
224,160,78592,1,0,0:0:0:0:
224,160,78671,1,0,0:0:0:0:
288,160,78750,5,8,0:0:0:0:
224,160,78908,1,0,0:0:0:0:
224,160,78961,1,0,0:0:0:0:
288,160,79013,1,8,0:0:0:0:
288,160,79066,1,8,0:0:0:0:
288,160,79119,1,8,0:0:0:0:
288,160,79171,1,8,0:0:0:0:
224,160,79224,1,0,0:0:0:0:
224,160,79382,1,0,0:0:0:0:
288,160,79540,1,8,0:0:0:0:
288,224,79856,1,12,0:0:0:0:
224,160,80171,5,0,0:0:0:0:
288,160,80329,1,8,0:0:0:0:
224,160,80408,1,0,0:0:0:0:
288,160,80487,1,8,0:0:0:0:
224,160,80645,1,0,0:0:0:0:
288,160,80803,1,8,0:0:0:0:
224,160,80961,1,0,0:0:0:0:
224,160,81040,1,0,0:0:0:0:
288,160,81119,1,8,0:0:0:0:
288,160,81198,1,8,0:0:0:0:
224,160,81277,1,0,0:0:0:0:
224,160,81435,5,0,0:0:0:0:
288,160,81487,1,8,0:0:0:0:
288,160,81540,1,8,0:0:0:0:
224,160,81592,1,0,0:0:0:0:
288,160,81750,1,8,0:0:0:0:
288,160,81829,1,8,0:0:0:0:
224,160,81908,1,0,0:0:0:0:
288,160,82066,1,8,0:0:0:0:
224,160,82224,1,0,0:0:0:0:
224,160,82303,1,0,0:0:0:0:
288,160,82382,1,8,0:0:0:0:
288,160,82540,1,8,0:0:0:0:
224,160,82698,5,0,0:0:0:0:
288,160,82856,1,8,0:0:0:0:
288,160,82908,1,8,0:0:0:0:
288,160,82961,1,8,0:0:0:0:
224,160,83013,1,0,0:0:0:0:
288,160,83171,1,8,0:0:0:0:
224,160,83250,1,0,0:0:0:0:
288,160,83329,1,8,0:0:0:0:
288,160,83487,1,8,0:0:0:0:
288,160,83566,1,8,0:0:0:0:
224,160,83645,1,0,0:0:0:0:
288,160,83961,1,8,0:0:0:0:
288,160,84013,1,8,0:0:0:0:
288,160,84066,1,8,0:0:0:0:
288,160,84119,1,8,0:0:0:0:
224,160,84171,1,0,0:0:0:0:
224,160,84224,1,0,0:0:0:0:
288,160,84277,1,8,0:0:0:0:
224,160,84435,1,0,0:0:0:0:
288,160,84592,1,8,0:0:0:0:
224,160,84750,1,0,0:0:0:0:
224,160,84829,1,0,0:0:0:0:
288,160,84908,1,8,0:0:0:0:
224,160,85066,5,0,0:0:0:0:
288,160,85145,1,8,0:0:0:0:
224,160,85198,1,0,0:0:0:0:
224,160,85250,1,0,0:0:0:0:
288,160,85303,1,8,0:0:0:0:
224,160,85382,1,0,0:0:0:0:
288,160,85540,1,8,0:0:0:0:
224,160,85619,1,0,0:0:0:0:
288,160,85698,1,8,0:0:0:0:
288,160,85856,1,8,0:0:0:0:
224,160,86013,1,0,0:0:0:0:
224,160,86092,1,0,0:0:0:0:
288,160,86171,1,8,0:0:0:0:
224,160,86487,5,0,0:0:0:0:
288,160,86540,1,8,0:0:0:0:
288,160,86592,1,8,0:0:0:0:
224,160,86645,1,0,0:0:0:0:
224,160,86698,1,0,0:0:0:0:
224,160,86750,1,0,0:0:0:0:
288,160,86803,1,8,0:0:0:0:
224,160,86961,1,0,0:0:0:0:
224,160,87040,1,0,0:0:0:0:
288,160,87119,1,8,0:0:0:0:
224,160,87277,1,0,0:0:0:0:
288,160,87356,1,8,0:0:0:0:
288,160,87435,1,8,0:0:0:0:
224,160,87592,5,0,0:0:0:0:
288,160,87671,1,8,0:0:0:0:
288,160,87724,1,8,0:0:0:0:
224,160,87777,1,0,0:0:0:0:
224,160,87829,1,0,0:0:0:0:
288,160,87908,1,8,0:0:0:0:
224,160,88066,1,0,0:0:0:0:
288,160,88145,1,8,0:0:0:0:
224,160,88224,1,0,0:0:0:0:
288,160,88382,5,8,0:0:0:0:
224,160,88540,1,0,0:0:0:0:
288,160,88619,1,8,0:0:0:0:
224,160,88698,1,0,0:0:0:0:
224,160,88777,1,0,0:0:0:0:
288,160,88856,1,8,0:0:0:0:
224,160,89013,5,0,0:0:0:0:
288,160,89066,1,8,0:0:0:0:
288,160,89119,1,8,0:0:0:0:
224,160,89171,1,0,0:0:0:0:
224,160,89224,1,0,0:0:0:0:
224,160,89277,1,0,0:0:0:0:
288,160,89329,1,8,0:0:0:0:
224,160,89487,1,0,0:0:0:0:
288,160,89645,1,8,0:0:0:0:
288,160,89724,1,8,0:0:0:0:
224,160,89803,1,0,0:0:0:0:
288,160,89882,1,8,0:0:0:0:
288,160,89961,1,8,0:0:0:0:
288,160,90119,5,8,0:0:0:0:
224,160,90198,1,0,0:0:0:0:
288,160,90250,1,8,0:0:0:0:
288,160,90303,1,8,0:0:0:0:
224,160,90356,1,0,0:0:0:0:
288,160,90435,1,8,0:0:0:0:
224,160,90592,1,0,0:0:0:0:
288,160,90671,1,8,0:0:0:0:
288,160,90750,1,8,0:0:0:0:
224,160,90829,1,0,0:0:0:0:
288,160,90908,1,8,0:0:0:0:
224,160,91066,1,0,0:0:0:0:
288,160,91224,1,8,0:0:0:0:
288,160,91540,5,8,0:0:0:0:
288,160,91592,1,8,0:0:0:0:
224,160,91645,1,0,0:0:0:0:
224,160,91698,1,0,0:0:0:0:
224,160,91750,1,0,0:0:0:0:
224,160,91803,1,0,0:0:0:0:
288,160,91856,1,8,0:0:0:0:
224,160,92013,1,0,0:0:0:0:
288,160,92092,1,8,0:0:0:0:
288,160,92171,1,8,0:0:0:0:
288,160,92329,5,8,0:0:0:0:
224,160,92408,1,0,0:0:0:0:
288,160,92487,1,8,0:0:0:0:
288,160,92566,1,8,0:0:0:0:
224,160,92645,1,0,0:0:0:0:
288,160,92724,1,8,0:0:0:0:
224,160,92777,1,0,0:0:0:0:
224,160,92829,1,0,0:0:0:0:
288,160,92882,1,8,0:0:0:0:
288,160,92961,1,8,0:0:0:0:
288,160,93040,1,8,0:0:0:0:
224,160,93119,1,0,0:0:0:0:
224,160,93277,1,0,0:0:0:0:
288,160,93435,5,8,0:0:0:0:
224,160,93750,1,0,0:0:0:0:
288,160,93908,1,8,0:0:0:0:
288,160,94066,1,8,0:0:0:0:
288,160,94119,1,8,0:0:0:0:
224,160,94171,1,0,0:0:0:0:
224,160,94224,1,0,0:0:0:0:
224,160,94277,1,0,0:0:0:0:
224,160,94329,1,0,0:0:0:0:
288,160,94382,1,8,0:0:0:0:
224,160,94540,1,0,0:0:0:0:
288,160,94698,1,8,0:0:0:0:
224,160,94856,1,0,0:0:0:0:
224,160,94935,1,0,0:0:0:0:
288,160,95013,1,8,0:0:0:0:
224,160,95171,5,0,0:0:0:0:
288,160,95250,1,8,0:0:0:0:
224,160,95303,1,0,0:0:0:0:
224,160,95356,1,0,0:0:0:0:
288,160,95408,1,8,0:0:0:0:
224,160,95487,1,0,0:0:0:0:
288,160,95645,1,8,0:0:0:0:
288,160,95724,1,8,0:0:0:0:
224,160,95803,1,0,0:0:0:0:
288,160,95961,1,8,0:0:0:0:
224,160,96119,1,0,0:0:0:0:
288,160,96198,1,8,0:0:0:0:
224,160,96277,1,0,0:0:0:0:
288,160,96592,5,8,0:0:0:0:
288,160,96645,1,8,0:0:0:0:
288,160,96698,1,8,0:0:0:0:
224,160,96750,1,0,0:0:0:0:
224,160,96803,1,0,0:0:0:0:
224,160,96856,1,0,0:0:0:0:
288,160,96908,1,8,0:0:0:0:
224,160,97066,1,0,0:0:0:0:
224,160,97145,1,0,0:0:0:0:
288,160,97224,1,8,0:0:0:0:
224,160,97382,1,0,0:0:0:0:
288,160,97461,1,8,0:0:0:0:
224,160,97540,1,0,0:0:0:0:
288,160,97698,5,8,0:0:0:0:
224,160,97777,1,0,0:0:0:0:
224,160,97829,1,0,0:0:0:0:
288,160,97882,1,8,0:0:0:0:
288,160,97935,1,8,0:0:0:0:
224,160,98013,1,0,0:0:0:0:
288,160,98171,1,8,0:0:0:0:
224,160,98250,1,0,0:0:0:0:
288,160,98329,1,8,0:0:0:0:
288,160,98487,5,8,0:0:0:0:
224,160,98645,1,0,0:0:0:0:
288,160,98724,1,8,0:0:0:0:
288,160,98803,1,8,0:0:0:0:
224,160,98882,1,0,0:0:0:0:
288,160,98961,1,8,0:0:0:0:
224,160,99119,5,0,0:0:0:0:
224,160,99171,1,0,0:0:0:0:
224,160,99224,1,0,0:0:0:0:
224,160,99277,1,0,0:0:0:0:
224,160,99329,1,0,0:0:0:0:
224,160,99382,1,0,0:0:0:0:
288,160,99435,1,8,0:0:0:0:
224,160,99592,1,0,0:0:0:0:
288,160,99750,1,8,0:0:0:0:
288,160,99829,1,8,0:0:0:0:
224,160,99908,1,0,0:0:0:0:
224,160,99987,1,0,0:0:0:0:
288,160,100066,1,8,0:0:0:0:
288,160,100224,5,8,0:0:0:0:
224,160,100303,1,0,0:0:0:0:
288,160,100356,1,8,0:0:0:0:
288,160,100408,1,8,0:0:0:0:
224,160,100461,1,0,0:0:0:0:
288,160,100540,1,8,0:0:0:0:
224,160,100698,1,0,0:0:0:0:
288,160,100777,1,8,0:0:0:0:
224,160,100856,1,0,0:0:0:0:
224,160,100935,1,0,0:0:0:0:
288,160,101013,1,8,0:0:0:0:
224,160,101171,1,0,0:0:0:0:
288,160,101329,1,8,0:0:0:0:
288,160,101645,5,8,0:0:0:0:
288,160,101698,1,8,0:0:0:0:
288,160,101750,1,8,0:0:0:0:
288,160,101803,1,8,0:0:0:0:
224,160,101856,1,0,0:0:0:0:
224,160,101908,1,0,0:0:0:0:
288,160,101961,1,8,0:0:0:0:
224,160,102119,1,0,0:0:0:0:
224,160,102198,1,0,0:0:0:0:
288,160,102277,1,8,0:0:0:0:
288,160,102435,1,8,0:0:0:0:
224,160,102513,1,0,0:0:0:0:
288,160,102592,5,8,0:0:0:0:
288,160,102671,1,8,0:0:0:0:
288,160,102750,1,8,0:0:0:0:
288,160,102829,1,8,0:0:0:0:
224,160,102908,1,0,0:0:0:0:
288,160,103856,5,8,0:0:0:0:
288,160,103908,1,8,0:0:0:0:
288,160,103961,1,8,0:0:0:0:
288,160,104013,1,8,0:0:0:0:
288,160,104066,1,8,0:0:0:0:
288,160,104119,1,8,0:0:0:0:
224,160,104171,5,0,0:0:0:0:
224,160,104224,1,0,0:0:0:0:
224,160,104277,1,0,0:0:0:0:
288,160,104329,1,8,0:0:0:0:
288,160,104487,1,8,0:0:0:0:
288,160,104566,1,8,0:0:0:0:
224,160,104645,1,0,0:0:0:0:
288,160,104724,1,8,0:0:0:0:
224,160,104882,1,0,0:0:0:0:
224,160,104961,1,0,0:0:0:0:
288,160,105119,1,8,0:0:0:0:
288,160,105277,1,8,0:0:0:0:
224,160,105435,5,0,0:0:0:0:
224,160,105487,1,0,0:0:0:0:
288,160,105540,1,8,0:0:0:0:
288,160,105592,1,8,0:0:0:0:
288,160,105750,1,8,0:0:0:0:
224,160,105829,1,0,0:0:0:0:
224,160,105908,1,0,0:0:0:0:
288,160,105987,1,8,0:0:0:0:
224,160,106145,1,0,0:0:0:0:
288,160,106224,1,8,0:0:0:0:
224,160,106303,1,0,0:0:0:0:
288,160,106382,1,8,0:0:0:0:
288,160,106540,1,8,0:0:0:0:
224,160,106698,5,0,0:0:0:0:
288,160,106750,1,8,0:0:0:0:
288,160,106803,1,8,0:0:0:0:
224,160,106856,1,0,0:0:0:0:
288,160,107013,1,8,0:0:0:0:
288,160,107092,1,8,0:0:0:0:
224,160,107171,1,0,0:0:0:0:
288,160,107250,1,8,0:0:0:0:
288,160,107408,1,8,0:0:0:0:
224,160,107487,1,0,0:0:0:0:
224,160,107566,1,0,0:0:0:0:
288,160,107645,1,8,0:0:0:0:
288,160,107803,1,8,0:0:0:0:
224,160,107961,5,0,0:0:0:0:
288,160,108013,1,8,0:0:0:0:
288,160,108066,1,8,0:0:0:0:
288,160,108119,1,8,0:0:0:0:
224,160,108277,5,0,0:0:0:0:
288,160,108356,1,8,0:0:0:0:
288,160,108435,1,8,0:0:0:0:
224,160,108513,1,0,0:0:0:0:
288,160,108592,1,8,0:0:0:0:
224,160,108750,1,0,0:0:0:0:
288,160,108908,5,8,0:0:0:0:
224,160,108987,1,0,0:0:0:0:
288,160,109066,1,8,0:0:0:0:
224,160,109224,5,0,0:0:0:0:
224,160,109277,1,0,0:0:0:0:
224,160,109329,1,0,0:0:0:0:
288,160,109382,1,8,0:0:0:0:
288,160,109540,1,8,0:0:0:0:
288,160,109619,1,8,0:0:0:0:
224,160,109698,1,0,0:0:0:0:
224,160,109777,1,0,0:0:0:0:
288,160,109935,1,8,0:0:0:0:
224,160,110013,1,0,0:0:0:0:
224,160,110092,1,0,0:0:0:0:
288,160,110171,1,8,0:0:0:0:
288,160,110329,1,8,0:0:0:0:
224,160,110487,5,0,0:0:0:0:
224,160,110540,1,0,0:0:0:0:
288,160,110592,1,8,0:0:0:0:
288,160,110645,1,8,0:0:0:0:
288,160,110803,1,8,0:0:0:0:
224,160,110882,1,0,0:0:0:0:
224,160,110961,1,0,0:0:0:0:
288,160,111040,1,8,0:0:0:0:
288,160,111198,1,8,0:0:0:0:
288,160,111277,1,8,0:0:0:0:
224,160,111356,1,0,0:0:0:0:
288,160,111435,1,8,0:0:0:0:
288,160,111592,1,8,0:0:0:0:
224,160,111750,5,0,0:0:0:0:
288,160,111803,1,8,0:0:0:0:
288,160,111856,1,8,0:0:0:0:
224,160,111908,1,0,0:0:0:0:
288,160,112066,1,8,0:0:0:0:
288,160,112145,1,8,0:0:0:0:
224,160,112224,1,0,0:0:0:0:
288,160,112303,1,8,0:0:0:0:
288,160,112461,1,8,0:0:0:0:
224,160,112540,1,0,0:0:0:0:
288,160,112698,1,8,0:0:0:0:
224,160,112777,1,0,0:0:0:0:
288,160,112856,1,8,0:0:0:0:
288,160,113013,5,8,0:0:0:0:
224,160,113066,1,0,0:0:0:0:
224,160,113119,1,0,0:0:0:0:
224,160,113171,1,0,0:0:0:0:
288,160,113961,5,8,0:0:0:0:
288,160,114013,1,8,0:0:0:0:
288,160,114066,1,8,0:0:0:0:
288,160,114119,1,8,0:0:0:0:
288,160,114171,1,8,0:0:0:0:
288,160,114224,1,8,0:0:0:0:
224,160,114277,5,0,0:0:0:0:
224,160,114329,1,0,0:0:0:0:
224,160,114382,1,0,0:0:0:0:
288,160,114435,1,8,0:0:0:0:
288,160,114592,1,8,0:0:0:0:
288,160,114671,1,8,0:0:0:0:
224,160,114750,1,0,0:0:0:0:
288,160,114829,1,8,0:0:0:0:
224,160,114987,1,0,0:0:0:0:
224,160,115066,1,0,0:0:0:0:
288,160,115224,1,8,0:0:0:0:
224,160,115303,1,0,0:0:0:0:
288,160,115382,1,8,0:0:0:0:
224,160,115540,5,0,0:0:0:0:
224,160,115592,1,0,0:0:0:0:
288,160,115645,1,8,0:0:0:0:
288,160,115698,1,8,0:0:0:0:
288,160,115856,1,8,0:0:0:0:
288,160,115935,1,8,0:0:0:0:
224,160,116013,1,0,0:0:0:0:
288,160,116092,1,8,0:0:0:0:
224,160,116171,1,0,0:0:0:0:
288,160,116250,1,8,0:0:0:0:
224,160,116329,1,0,0:0:0:0:
224,160,116408,1,0,0:0:0:0:
288,160,116487,1,8,0:0:0:0:
288,160,116645,1,8,0:0:0:0:
224,160,116803,5,0,0:0:0:0:
288,160,116856,1,8,0:0:0:0:
288,160,116908,1,8,0:0:0:0:
224,160,116961,1,0,0:0:0:0:
288,160,117119,1,8,0:0:0:0:
288,160,117198,1,8,0:0:0:0:
224,160,117277,1,0,0:0:0:0:
288,160,117356,1,8,0:0:0:0:
288,160,117513,1,8,0:0:0:0:
224,160,117592,1,0,0:0:0:0:
224,160,117671,1,0,0:0:0:0:
288,160,117750,1,8,0:0:0:0:
224,160,117829,1,0,0:0:0:0:
288,160,117908,1,8,0:0:0:0:
224,160,118066,5,0,0:0:0:0:
288,160,118119,1,8,0:0:0:0:
288,160,118171,1,8,0:0:0:0:
288,160,118224,1,8,0:0:0:0:
224,160,118382,5,0,0:0:0:0:
288,160,118461,1,8,0:0:0:0:
224,160,118540,1,0,0:0:0:0:
224,160,118619,1,0,0:0:0:0:
288,160,118698,1,8,0:0:0:0:
288,160,118777,1,8,0:0:0:0:
224,160,118856,1,0,0:0:0:0:
224,160,118935,1,0,0:0:0:0:
288,160,119013,1,8,0:0:0:0:
288,160,119171,1,8,0:0:0:0:
224,160,119329,5,0,0:0:0:0:
224,160,119382,1,0,0:0:0:0:
224,160,119435,1,0,0:0:0:0:
288,160,119487,1,8,0:0:0:0:
288,160,119645,1,8,0:0:0:0:
288,160,119724,1,8,0:0:0:0:
224,160,119803,1,0,0:0:0:0:
288,160,119882,1,8,0:0:0:0:
224,160,120040,1,0,0:0:0:0:
288,160,120119,1,8,0:0:0:0:
224,160,120198,1,0,0:0:0:0:
288,160,120277,1,8,0:0:0:0:
224,160,120356,1,0,0:0:0:0:
288,160,120435,1,8,0:0:0:0:
224,160,120592,5,0,0:0:0:0:
224,160,120645,1,0,0:0:0:0:
288,160,120698,1,8,0:0:0:0:
288,160,120750,1,8,0:0:0:0:
288,160,120908,1,8,0:0:0:0:
288,160,120987,1,8,0:0:0:0:
224,160,121066,1,0,0:0:0:0:
288,160,121145,1,8,0:0:0:0:
224,160,121224,1,0,0:0:0:0:
224,160,121303,1,0,0:0:0:0:
288,160,121382,1,8,0:0:0:0:
224,160,121461,1,0,0:0:0:0:
288,160,121540,1,8,0:0:0:0:
288,160,121698,1,8,0:0:0:0:
224,160,121856,5,0,0:0:0:0:
288,160,121908,1,8,0:0:0:0:
288,160,121961,1,8,0:0:0:0:
224,160,122013,1,0,0:0:0:0:
288,160,122171,1,8,0:0:0:0:
288,160,122250,1,8,0:0:0:0:
224,160,122329,1,0,0:0:0:0:
288,160,122408,1,8,0:0:0:0:
224,160,122487,1,0,0:0:0:0:
224,160,122566,1,0,0:0:0:0:
288,160,122645,1,8,0:0:0:0:
224,160,122724,1,0,0:0:0:0:
288,160,122803,1,8,0:0:0:0:
288,160,122882,1,8,0:0:0:0:
224,160,122961,1,0,0:0:0:0:
224,160,123040,1,0,0:0:0:0:
288,160,123119,5,8,0:0:0:0:
224,160,123171,1,0,0:0:0:0:
224,160,123224,1,0,0:0:0:0:
224,160,123277,1,0,0:0:0:0:
288,160,123435,1,8,0:0:0:0:
224,160,123592,1,0,0:0:0:0:
288,160,123750,1,8,0:0:0:0:
288,160,124066,1,8,0:0:0:0:
288,160,124224,1,8,0:0:0:0:
224,160,124382,5,0,0:0:0:0:
224,160,125329,1,0,0:0:0:0:
288,160,125487,1,8,0:0:0:0:
288,160,125645,1,8,0:0:0:0:
288,160,126276,1,8,0:0:0:0:
224,160,126908,1,0,0:0:0:0:
288,160,127539,1,8,0:0:0:0:
224,160,128171,1,0,0:0:0:0:
288,160,129434,5,8,0:0:0:0:
224,160,130382,1,0,0:0:0:0:
288,160,130539,1,8,0:0:0:0:
288,160,130697,1,8,0:0:0:0:
288,160,131329,1,8,0:0:0:0:
224,160,131960,1,0,0:0:0:0:
288,160,132592,1,8,0:0:0:0:
288,160,133224,1,8,0:0:0:0:
288,160,134487,5,8,0:0:0:0:
224,160,135434,1,0,0:0:0:0:
288,160,135592,1,8,0:0:0:0:
288,160,135750,1,8,0:0:0:0:
288,160,136382,1,8,0:0:0:0:
224,160,137013,1,0,0:0:0:0:
288,160,137645,1,8,0:0:0:0:
224,160,138276,1,0,0:0:0:0:
224,160,139539,5,0,0:0:0:0:
224,160,140487,1,0,0:0:0:0:
224,160,140645,1,0,0:0:0:0:
288,160,140803,1,8,0:0:0:0:
224,160,141434,1,0,0:0:0:0:
288,160,142066,1,8,0:0:0:0:
288,160,143013,1,8,0:0:0:0:
224,160,143171,1,0,0:0:0:0:
288,160,143329,1,8,0:0:0:0:
288,160,144592,5,8,0:0:0:0:
224,160,144907,1,0,0:0:0:0:
288,160,145065,1,8,0:0:0:0:
224,160,145223,1,0,0:0:0:0:
224,160,145381,1,0,0:0:0:0:
288,160,145460,1,8,0:0:0:0:
224,160,145618,1,0,0:0:0:0:
288,160,145697,1,8,0:0:0:0:
224,160,145776,1,0,0:0:0:0:
288,160,145934,5,8,0:0:0:0:
224,160,146170,1,0,0:0:0:0:
288,160,146328,1,8,0:0:0:0:
224,160,146486,1,0,0:0:0:0:
288,160,146644,1,8,0:0:0:0:
224,160,146723,1,0,0:0:0:0:
224,160,146960,1,0,0:0:0:0:
288,160,147118,5,8,0:0:0:0:
224,160,147434,1,0,0:0:0:0:
288,160,147592,1,8,0:0:0:0:
224,160,147749,1,0,0:0:0:0:
288,160,147907,1,8,0:0:0:0:
224,160,147986,1,0,0:0:0:0:
288,160,148144,1,8,0:0:0:0:
224,160,148223,1,0,0:0:0:0:
288,160,148302,1,8,0:0:0:0:
288,160,148460,5,8,0:0:0:0:
224,160,148697,1,0,0:0:0:0:
288,160,148855,1,8,0:0:0:0:
224,160,149013,1,0,0:0:0:0:
288,160,149170,1,8,0:0:0:0:
224,160,149249,1,0,0:0:0:0:
288,160,149644,5,8,0:0:0:0:
224,160,149960,1,0,0:0:0:0:
288,160,150118,1,8,0:0:0:0:
224,160,150276,1,0,0:0:0:0:
224,160,150434,1,0,0:0:0:0:
288,160,150513,1,8,0:0:0:0:
224,160,150670,1,0,0:0:0:0:
288,160,150749,1,8,0:0:0:0:
224,160,150828,1,0,0:0:0:0:
288,160,150986,5,8,0:0:0:0:
224,160,151223,1,0,0:0:0:0:
288,160,151381,1,8,0:0:0:0:
224,160,151539,1,0,0:0:0:0:
288,160,151697,1,8,0:0:0:0:
224,160,151776,1,0,0:0:0:0:
224,160,152013,1,0,0:0:0:0:
288,160,152170,5,8,0:0:0:0:
224,160,152486,1,0,0:0:0:0:
288,160,152644,1,8,0:0:0:0:
224,160,152802,1,0,0:0:0:0:
288,160,152960,1,8,0:0:0:0:
224,160,153039,1,0,0:0:0:0:
288,160,153197,1,8,0:0:0:0:
224,160,153276,1,0,0:0:0:0:
288,160,153355,1,8,0:0:0:0:
288,160,153513,5,8,0:0:0:0:
224,160,153749,1,0,0:0:0:0:
288,160,153907,1,8,0:0:0:0:
224,160,154065,1,0,0:0:0:0:
288,160,154223,1,8,0:0:0:0:
224,160,154302,1,0,0:0:0:0:
224,160,154697,5,0,0:0:0:0:
288,160,154855,1,8,0:0:0:0:
224,160,155013,1,0,0:0:0:0:
288,160,155170,1,8,0:0:0:0:
224,160,155328,1,0,0:0:0:0:
224,160,155486,1,0,0:0:0:0:
288,160,155565,1,8,0:0:0:0:
224,160,155723,1,0,0:0:0:0:
288,160,155802,1,8,0:0:0:0:
224,160,155881,1,0,0:0:0:0:
288,160,156039,1,8,0:0:0:0:
224,160,156118,1,0,0:0:0:0:
224,160,156197,1,0,0:0:0:0:
288,160,156276,1,8,0:0:0:0:
288,160,156434,1,8,0:0:0:0:
224,160,156592,1,0,0:0:0:0:
288,160,156749,1,8,0:0:0:0:
224,160,156828,1,0,0:0:0:0:
224,160,157065,1,0,0:0:0:0:
288,160,157223,5,8,0:0:0:0:
224,160,157381,1,0,0:0:0:0:
288,160,157539,1,8,0:0:0:0:
288,160,157697,1,8,0:0:0:0:
224,160,157855,1,0,0:0:0:0:
288,160,158013,1,8,0:0:0:0:
224,160,158092,1,0,0:0:0:0:
288,160,158249,1,8,0:0:0:0:
224,160,158328,1,0,0:0:0:0:
288,160,158407,1,8,0:0:0:0:
224,160,158565,1,0,0:0:0:0:
288,160,158644,1,8,0:0:0:0:
224,160,158802,1,0,0:0:0:0:
288,160,158960,1,8,0:0:0:0:
224,160,159118,1,0,0:0:0:0:
288,160,159276,1,8,0:0:0:0:
224,160,159355,1,0,0:0:0:0:
224,160,159592,1,0,0:0:0:0:
288,160,159749,5,8,0:0:0:0:
224,160,159828,1,0,0:0:0:0:
224,160,159907,1,0,0:0:0:0:
224,160,159986,1,0,0:0:0:0:
288,160,160065,1,8,0:0:0:0:
224,160,160144,1,0,0:0:0:0:
288,160,160223,1,8,0:0:0:0:
288,160,160302,1,8,0:0:0:0:
224,160,160381,1,0,0:0:0:0:
288,160,160460,1,8,0:0:0:0:
224,160,160539,1,0,0:0:0:0:
288,160,160618,1,8,0:0:0:0:
288,160,160697,1,8,0:0:0:0:
224,160,160776,1,0,0:0:0:0:
288,160,160855,1,8,0:0:0:0:
288,160,160934,1,8,0:0:0:0:
224,160,161013,5,0,0:0:0:0:
288,160,161092,1,8,0:0:0:0:
288,160,161170,1,8,0:0:0:0:
288,160,161249,1,8,0:0:0:0:
224,160,161328,1,0,0:0:0:0:
224,160,161407,1,0,0:0:0:0:
288,160,161486,1,8,0:0:0:0:
288,160,161565,1,8,0:0:0:0:
224,160,161644,1,0,0:0:0:0:
224,160,161723,1,0,0:0:0:0:
288,160,161802,1,8,0:0:0:0:
224,160,161881,1,0,0:0:0:0:
288,160,161960,1,8,0:0:0:0:
288,160,162039,1,8,0:0:0:0:
224,160,162118,1,0,0:0:0:0:
224,160,162197,1,0,0:0:0:0:
288,160,162276,5,8,0:0:0:0:
224,160,162355,1,0,0:0:0:0:
288,160,162434,1,8,0:0:0:0:
288,160,162513,1,8,0:0:0:0:
224,160,162592,1,0,0:0:0:0:
224,160,162670,1,0,0:0:0:0:
288,160,162749,1,8,0:0:0:0:
288,160,162828,1,8,0:0:0:0:
224,160,162907,5,0,0:0:0:0:
224,160,162986,1,0,0:0:0:0:
288,160,163065,1,8,0:0:0:0:
224,160,163144,1,0,0:0:0:0:
224,160,163223,1,0,0:0:0:0:
224,160,163302,1,0,0:0:0:0:
288,160,163381,1,8,0:0:0:0:
288,160,163460,1,8,0:0:0:0:
224,160,163539,5,0,0:0:0:0:
288,160,163618,1,8,0:0:0:0:
288,160,163697,1,8,0:0:0:0:
288,160,163776,1,8,0:0:0:0:
224,160,163855,1,0,0:0:0:0:
288,160,163934,1,8,0:0:0:0:
224,160,164013,1,0,0:0:0:0:
224,160,164092,1,0,0:0:0:0:
288,160,164170,5,8,0:0:0:0:
224,160,164249,1,0,0:0:0:0:
288,160,164328,1,8,0:0:0:0:
288,160,164407,1,8,0:0:0:0:
224,160,164486,1,0,0:0:0:0:
288,160,164565,1,8,0:0:0:0:
288,160,164644,1,8,0:0:0:0:
288,160,164723,1,8,0:0:0:0:
224,160,164802,5,0,0:0:0:0:
224,160,165434,5,0,0:0:0:0:
224,160,166065,5,0,0:0:0:0:
224,160,166381,5,0,0:0:0:0:
224,160,166697,5,0,0:0:0:0:
224,160,167013,5,0,0:0:0:0:
288,160,167328,5,8,0:0:0:0:
224,160,167486,1,0,0:0:0:0:
224,160,167565,1,0,0:0:0:0:
288,160,167644,1,8,0:0:0:0:
288,160,167802,1,8,0:0:0:0:
224,160,167960,1,0,0:0:0:0:
288,160,168276,5,8,0:0:0:0:
288,160,168592,5,8,0:0:0:0:
288,160,168644,1,8,0:0:0:0:
288,160,168697,1,8,0:0:0:0:
288,160,168749,1,8,0:0:0:0:
224,160,168802,1,0,0:0:0:0:
224,160,168855,1,0,0:0:0:0:
288,160,168907,1,8,0:0:0:0:
224,160,169065,1,0,0:0:0:0:
288,160,169223,1,8,0:0:0:0:
224,160,169381,1,0,0:0:0:0:
224,160,169460,1,0,0:0:0:0:
288,160,169539,1,8,0:0:0:0:
224,160,169697,5,0,0:0:0:0:
288,160,169776,1,8,0:0:0:0:
224,160,169828,1,0,0:0:0:0:
224,160,169881,1,0,0:0:0:0:
288,160,169934,1,8,0:0:0:0:
224,160,170013,1,0,0:0:0:0:
288,160,170170,1,8,0:0:0:0:
224,160,170249,1,0,0:0:0:0:
288,160,170328,1,8,0:0:0:0:
288,160,170486,1,8,0:0:0:0:
224,160,170644,1,0,0:0:0:0:
224,160,170723,1,0,0:0:0:0:
288,160,170802,1,8,0:0:0:0:
224,160,171118,5,0,0:0:0:0:
288,160,171170,1,8,0:0:0:0:
288,160,171223,1,8,0:0:0:0:
224,160,171276,1,0,0:0:0:0:
224,160,171328,1,0,0:0:0:0:
224,160,171381,1,0,0:0:0:0:
288,160,171434,1,8,0:0:0:0:
224,160,171592,1,0,0:0:0:0:
224,160,171670,1,0,0:0:0:0:
288,160,171749,1,8,0:0:0:0:
224,160,171907,1,0,0:0:0:0:
288,160,171986,1,8,0:0:0:0:
288,160,172065,1,8,0:0:0:0:
224,160,172223,5,0,0:0:0:0:
288,160,172302,1,8,0:0:0:0:
288,160,172355,1,8,0:0:0:0:
224,160,172407,1,0,0:0:0:0:
224,160,172460,1,0,0:0:0:0:
288,160,172539,1,8,0:0:0:0:
224,160,172697,1,0,0:0:0:0:
288,160,172776,1,8,0:0:0:0:
224,160,172855,1,0,0:0:0:0:
288,160,173013,5,8,0:0:0:0:
224,160,173170,1,0,0:0:0:0:
288,160,173249,1,8,0:0:0:0:
224,160,173328,1,0,0:0:0:0:
224,160,173407,1,0,0:0:0:0:
288,160,173486,1,8,0:0:0:0:
224,160,173644,5,0,0:0:0:0:
288,160,173697,1,8,0:0:0:0:
288,160,173749,1,8,0:0:0:0:
224,160,173802,1,0,0:0:0:0:
224,160,173855,1,0,0:0:0:0:
224,160,173907,1,0,0:0:0:0:
288,160,173960,1,8,0:0:0:0:
224,160,174118,1,0,0:0:0:0:
288,160,174276,1,8,0:0:0:0:
288,160,174355,1,8,0:0:0:0:
224,160,174434,1,0,0:0:0:0:
288,160,174513,1,8,0:0:0:0:
288,160,174592,1,8,0:0:0:0:
288,160,174749,5,8,0:0:0:0:
224,160,174828,1,0,0:0:0:0:
288,160,174881,1,8,0:0:0:0:
288,160,174934,1,8,0:0:0:0:
224,160,174986,1,0,0:0:0:0:
288,160,175065,1,8,0:0:0:0:
224,160,175223,1,0,0:0:0:0:
288,160,175302,1,8,0:0:0:0:
288,160,175381,1,8,0:0:0:0:
224,160,175460,1,0,0:0:0:0:
288,160,175539,1,8,0:0:0:0:
224,160,175697,1,0,0:0:0:0:
288,160,175855,1,8,0:0:0:0:
288,160,176170,5,8,0:0:0:0:
288,160,176223,1,8,0:0:0:0:
224,160,176276,1,0,0:0:0:0:
224,160,176328,1,0,0:0:0:0:
224,160,176381,1,0,0:0:0:0:
224,160,176434,1,0,0:0:0:0:
288,160,176486,1,8,0:0:0:0:
224,160,176644,1,0,0:0:0:0:
288,160,176723,1,8,0:0:0:0:
288,160,176802,1,8,0:0:0:0:
288,160,176960,5,8,0:0:0:0:
224,160,177039,1,0,0:0:0:0:
288,160,177118,1,8,0:0:0:0:
288,160,177197,1,8,0:0:0:0:
224,160,177276,1,0,0:0:0:0:
288,160,177355,1,8,0:0:0:0:
224,160,177407,1,0,0:0:0:0:
224,160,177460,1,0,0:0:0:0:
288,160,177513,1,8,0:0:0:0:
288,160,177592,1,8,0:0:0:0:
288,160,177670,1,8,0:0:0:0:
224,160,177749,1,0,0:0:0:0:
224,160,177907,1,0,0:0:0:0:
288,160,178065,5,8,0:0:0:0:
224,160,178381,1,0,0:0:0:0:
288,160,178697,5,8,0:0:0:0:
288,160,178749,1,8,0:0:0:0:
224,160,178802,1,0,0:0:0:0:
224,160,178855,1,0,0:0:0:0:
224,160,178907,1,0,0:0:0:0:
224,160,178960,1,0,0:0:0:0:
288,160,179013,1,8,0:0:0:0:
224,160,179170,1,0,0:0:0:0:
288,160,179328,1,8,0:0:0:0:
224,160,179486,1,0,0:0:0:0:
224,160,179565,1,0,0:0:0:0:
288,160,179644,1,8,0:0:0:0:
224,160,179802,5,0,0:0:0:0:
288,160,179881,1,8,0:0:0:0:
224,160,179934,1,0,0:0:0:0:
224,160,179986,1,0,0:0:0:0:
288,160,180039,1,8,0:0:0:0:
224,160,180118,1,0,0:0:0:0:
288,160,180276,1,8,0:0:0:0:
288,160,180355,1,8,0:0:0:0:
224,160,180434,1,0,0:0:0:0:
288,160,180592,1,8,0:0:0:0:
224,160,180749,1,0,0:0:0:0:
288,160,180828,1,8,0:0:0:0:
224,160,180907,1,0,0:0:0:0:
288,160,181223,5,8,0:0:0:0:
288,160,181276,1,8,0:0:0:0:
288,160,181328,1,8,0:0:0:0:
224,160,181381,1,0,0:0:0:0:
224,160,181434,1,0,0:0:0:0:
224,160,181486,1,0,0:0:0:0:
288,160,181539,1,8,0:0:0:0:
224,160,181697,1,0,0:0:0:0:
224,160,181776,1,0,0:0:0:0:
288,160,181855,1,8,0:0:0:0:
224,160,182013,1,0,0:0:0:0:
288,160,182092,1,8,0:0:0:0:
224,160,182170,1,0,0:0:0:0:
288,160,182328,5,8,0:0:0:0:
224,160,182407,1,0,0:0:0:0:
224,160,182460,1,0,0:0:0:0:
288,160,182513,1,8,0:0:0:0:
288,160,182565,1,8,0:0:0:0:
224,160,182644,1,0,0:0:0:0:
288,160,182802,1,8,0:0:0:0:
224,160,182881,1,0,0:0:0:0:
288,160,182960,1,8,0:0:0:0:
288,160,183118,5,8,0:0:0:0:
224,160,183276,1,0,0:0:0:0:
288,160,183355,1,8,0:0:0:0:
288,160,183434,1,8,0:0:0:0:
224,160,183513,1,0,0:0:0:0:
288,160,183592,1,8,0:0:0:0:
224,160,183749,5,0,0:0:0:0:
224,160,183802,1,0,0:0:0:0:
224,160,183855,1,0,0:0:0:0:
224,160,183907,1,0,0:0:0:0:
224,160,183960,1,0,0:0:0:0:
224,160,184013,1,0,0:0:0:0:
288,160,184065,1,8,0:0:0:0:
224,160,184223,1,0,0:0:0:0:
288,160,184381,1,8,0:0:0:0:
288,160,184460,1,8,0:0:0:0:
224,160,184539,1,0,0:0:0:0:
224,160,184618,1,0,0:0:0:0:
288,160,184697,1,8,0:0:0:0:
288,160,184855,5,8,0:0:0:0:
224,160,184934,1,0,0:0:0:0:
288,160,184986,1,8,0:0:0:0:
288,160,185039,1,8,0:0:0:0:
224,160,185092,1,0,0:0:0:0:
288,160,185170,1,8,0:0:0:0:
224,160,185328,1,0,0:0:0:0:
288,160,185407,1,8,0:0:0:0:
224,160,185486,1,0,0:0:0:0:
224,160,185565,1,0,0:0:0:0:
288,160,185644,1,8,0:0:0:0:
224,160,185802,1,0,0:0:0:0:
288,160,185960,1,8,0:0:0:0:
288,160,186276,5,8,0:0:0:0:
288,160,186328,1,8,0:0:0:0:
288,160,186381,1,8,0:0:0:0:
288,160,186434,1,8,0:0:0:0:
224,160,186486,1,0,0:0:0:0:
224,160,186539,1,0,0:0:0:0:
288,160,186592,1,8,0:0:0:0:
224,160,186749,1,0,0:0:0:0:
224,160,186828,1,0,0:0:0:0:
288,160,186907,1,8,0:0:0:0:
288,160,187065,1,8,0:0:0:0:
224,160,187144,1,0,0:0:0:0:
288,160,187223,5,8,0:0:0:0:
288,160,187302,1,8,0:0:0:0:
288,160,187381,1,8,0:0:0:0:
288,160,187460,1,8,0:0:0:0:
224,160,187539,1,0,0:0:0:0:
288,160,188486,5,8,0:0:0:0:
288,160,188539,1,8,0:0:0:0:
288,160,188592,1,8,0:0:0:0:
288,160,188644,1,8,0:0:0:0:
288,160,188697,1,8,0:0:0:0:
288,160,188749,1,8,0:0:0:0:
224,160,188802,5,0,0:0:0:0:
224,160,188855,1,0,0:0:0:0:
224,160,188907,1,0,0:0:0:0:
288,160,188960,1,8,0:0:0:0:
288,160,189118,1,8,0:0:0:0:
288,160,189197,1,8,0:0:0:0:
224,160,189276,1,0,0:0:0:0:
288,160,189355,1,8,0:0:0:0:
224,160,189513,1,0,0:0:0:0:
224,160,189592,1,0,0:0:0:0:
288,160,189749,1,8,0:0:0:0:
224,160,189828,1,0,0:0:0:0:
288,160,189907,1,8,0:0:0:0:
224,160,190065,5,0,0:0:0:0:
224,160,190118,1,0,0:0:0:0:
288,160,190170,1,8,0:0:0:0:
288,160,190223,1,8,0:0:0:0:
288,160,190381,1,8,0:0:0:0:
224,160,190460,1,0,0:0:0:0:
288,160,190539,1,8,0:0:0:0:
288,160,190618,1,8,0:0:0:0:
288,160,190776,1,8,0:0:0:0:
224,160,190855,1,0,0:0:0:0:
224,160,190934,1,0,0:0:0:0:
288,160,191013,1,8,0:0:0:0:
224,160,191092,1,0,0:0:0:0:
288,160,191170,1,8,0:0:0:0:
224,160,191328,5,0,0:0:0:0:
288,160,191381,1,8,0:0:0:0:
288,160,191434,1,8,0:0:0:0:
224,160,191486,1,0,0:0:0:0:
288,160,191644,1,8,0:0:0:0:
288,160,191723,1,8,0:0:0:0:
224,160,191802,1,0,0:0:0:0:
288,160,191881,1,8,0:0:0:0:
288,160,192039,1,8,0:0:0:0:
224,160,192118,1,0,0:0:0:0:
224,160,192197,1,0,0:0:0:0:
288,160,192276,1,8,0:0:0:0:
224,160,192355,1,0,0:0:0:0:
288,160,192434,1,8,0:0:0:0:
224,160,192592,5,0,0:0:0:0:
288,160,192644,1,8,0:0:0:0:
288,160,192697,1,8,0:0:0:0:
288,160,192749,1,8,0:0:0:0:
224,160,192907,5,0,0:0:0:0:
288,160,192986,1,8,0:0:0:0:
288,160,193065,1,8,0:0:0:0:
224,160,193144,1,0,0:0:0:0:
288,160,193223,1,8,0:0:0:0:
288,160,193302,1,8,0:0:0:0:
224,160,193381,1,0,0:0:0:0:
288,160,193539,5,8,0:0:0:0:
224,160,193618,1,0,0:0:0:0:
288,160,193697,1,8,0:0:0:0:
224,160,193855,5,0,0:0:0:0:
224,160,193907,1,0,0:0:0:0:
224,160,193960,1,0,0:0:0:0:
288,160,194013,1,8,0:0:0:0:
288,160,194170,1,8,0:0:0:0:
288,160,194249,1,8,0:0:0:0:
224,160,194328,1,0,0:0:0:0:
224,160,194407,1,0,0:0:0:0:
288,160,194565,1,8,0:0:0:0:
224,160,194644,1,0,0:0:0:0:
288,160,194802,1,8,0:0:0:0:
224,160,194881,1,0,0:0:0:0:
288,160,194960,1,8,0:0:0:0:
224,160,195118,5,0,0:0:0:0:
224,160,195170,1,0,0:0:0:0:
288,160,195223,1,8,0:0:0:0:
288,160,195276,1,8,0:0:0:0:
288,160,195434,1,8,0:0:0:0:
224,160,195513,1,0,0:0:0:0:
224,160,195592,1,0,0:0:0:0:
288,160,195670,1,8,0:0:0:0:
288,160,195828,1,8,0:0:0:0:
288,160,195907,1,8,0:0:0:0:
224,160,195986,1,0,0:0:0:0:
288,160,196065,1,8,0:0:0:0:
224,160,196144,1,0,0:0:0:0:
288,160,196223,1,8,0:0:0:0:
224,160,196381,5,0,0:0:0:0:
288,160,196434,1,8,0:0:0:0:
288,160,196486,1,8,0:0:0:0:
224,160,196539,1,0,0:0:0:0:
288,160,196697,1,8,0:0:0:0:
288,160,196776,1,8,0:0:0:0:
224,160,196855,1,0,0:0:0:0:
288,160,196934,1,8,0:0:0:0:
288,160,197092,1,8,0:0:0:0:
224,160,197170,1,0,0:0:0:0:
224,160,197249,1,0,0:0:0:0:
288,160,197328,1,8,0:0:0:0:
224,160,197407,1,0,0:0:0:0:
288,160,197486,1,8,0:0:0:0:
288,160,197644,5,8,0:0:0:0:
224,160,197697,1,0,0:0:0:0:
224,160,197749,1,0,0:0:0:0:
224,160,197802,1,0,0:0:0:0:
288,160,198592,5,8,0:0:0:0:
288,160,198644,1,8,0:0:0:0:
288,160,198697,1,8,0:0:0:0:
288,160,198749,1,8,0:0:0:0:
288,160,198802,1,8,0:0:0:0:
288,160,198855,1,8,0:0:0:0:
224,160,198907,5,0,0:0:0:0:
224,160,198960,1,0,0:0:0:0:
224,160,199013,1,0,0:0:0:0:
288,160,199065,1,8,0:0:0:0:
288,160,199223,1,8,0:0:0:0:
288,160,199302,1,8,0:0:0:0:
224,160,199381,1,0,0:0:0:0:
288,160,199460,1,8,0:0:0:0:
224,160,199618,1,0,0:0:0:0:
224,160,199697,1,0,0:0:0:0:
288,160,199855,1,8,0:0:0:0:
224,160,199934,1,0,0:0:0:0:
288,160,200013,1,8,0:0:0:0:
224,160,200170,5,0,0:0:0:0:
224,160,200223,1,0,0:0:0:0:
288,160,200276,1,8,0:0:0:0:
288,160,200328,1,8,0:0:0:0:
288,160,200486,1,8,0:0:0:0:
288,160,200565,1,8,0:0:0:0:
224,160,200644,1,0,0:0:0:0:
288,160,200723,1,8,0:0:0:0:
224,160,200802,1,0,0:0:0:0:
288,160,200881,1,8,0:0:0:0:
224,160,200960,1,0,0:0:0:0:
224,160,201039,1,0,0:0:0:0:
288,160,201118,1,8,0:0:0:0:
288,160,201276,1,8,0:0:0:0:
224,160,201434,5,0,0:0:0:0:
288,160,201486,1,8,0:0:0:0:
288,160,201539,1,8,0:0:0:0:
224,160,201592,1,0,0:0:0:0:
288,160,201749,1,8,0:0:0:0:
288,160,201828,1,8,0:0:0:0:
224,160,201907,1,0,0:0:0:0:
288,160,201986,1,8,0:0:0:0:
288,160,202144,1,8,0:0:0:0:
224,160,202223,1,0,0:0:0:0:
224,160,202302,1,0,0:0:0:0:
288,160,202381,1,8,0:0:0:0:
224,160,202460,1,0,0:0:0:0:
288,160,202539,1,8,0:0:0:0:
224,160,202697,5,0,0:0:0:0:
288,160,202749,1,8,0:0:0:0:
288,160,202802,1,8,0:0:0:0:
288,160,202855,1,8,0:0:0:0:
224,160,203013,5,0,0:0:0:0:
288,160,203092,1,8,0:0:0:0:
224,160,203170,1,0,0:0:0:0:
224,160,203249,1,0,0:0:0:0:
288,160,203328,1,8,0:0:0:0:
288,160,203407,1,8,0:0:0:0:
224,160,203486,1,0,0:0:0:0:
224,160,203565,1,0,0:0:0:0:
288,160,203644,1,8,0:0:0:0:
288,160,203802,1,8,0:0:0:0:
224,160,203960,5,0,0:0:0:0:
224,160,204013,1,0,0:0:0:0:
224,160,204065,1,0,0:0:0:0:
288,160,204118,1,8,0:0:0:0:
288,160,204276,1,8,0:0:0:0:
288,160,204355,1,8,0:0:0:0:
224,160,204434,1,0,0:0:0:0:
288,160,204513,1,8,0:0:0:0:
224,160,204670,1,0,0:0:0:0:
288,160,204749,1,8,0:0:0:0:
224,160,204828,1,0,0:0:0:0:
288,160,204907,1,8,0:0:0:0:
224,160,204986,1,0,0:0:0:0:
288,160,205065,1,8,0:0:0:0:
224,160,205223,5,0,0:0:0:0:
224,160,205276,1,0,0:0:0:0:
288,160,205328,1,8,0:0:0:0:
288,160,205381,1,8,0:0:0:0:
288,160,205539,1,8,0:0:0:0:
288,160,205618,1,8,0:0:0:0:
224,160,205697,1,0,0:0:0:0:
288,160,205776,1,8,0:0:0:0:
224,160,205855,1,0,0:0:0:0:
224,160,205934,1,0,0:0:0:0:
288,160,206013,1,8,0:0:0:0:
288,160,206092,1,8,0:0:0:0:
224,160,206170,1,0,0:0:0:0:
288,160,206249,1,8,0:0:0:0:
288,160,206328,1,8,0:0:0:0:
224,160,206486,5,0,0:0:0:0:
288,160,206539,1,8,0:0:0:0:
288,160,206592,1,8,0:0:0:0:
224,160,206644,1,0,0:0:0:0:
288,160,206802,1,8,0:0:0:0:
288,160,206881,1,8,0:0:0:0:
224,160,206960,1,0,0:0:0:0:
288,160,207039,1,8,0:0:0:0:
224,160,207197,1,0,0:0:0:0:
288,160,207276,1,8,0:0:0:0:
224,160,207355,1,0,0:0:0:0:
288,160,207434,1,8,0:0:0:0:
288,160,207513,1,8,0:0:0:0:
224,160,207592,1,0,0:0:0:0:
224,160,207670,1,0,0:0:0:0:
288,160,207749,5,8,0:0:0:0:
224,160,207802,1,0,0:0:0:0:
224,160,207855,1,0,0:0:0:0:
224,160,207907,1,0,0:0:0:0:
288,160,208065,1,8,0:0:0:0:
224,160,208223,1,0,0:0:0:0:
288,160,208381,1,8,0:0:0:0:
288,160,208697,1,8,0:0:0:0:
288,160,208855,1,8,0:0:0:0:
256,192,209013,8,0,209486,0:0:0:0:
288,160,209644,5,8,0:0:0:0:
224,160,209802,1,0,0:0:0:0:
288,224,209960,1,12,0:0:0:0:
224,160,210276,5,0,0:0:0:0:
288,160,210434,1,8,0:0:0:0:
224,160,210592,1,0,0:0:0:0:
224,160,210670,1,0,0:0:0:0:
288,160,210749,1,8,0:0:0:0:
288,160,210907,1,8,0:0:0:0:
224,160,211065,1,0,0:0:0:0:
288,160,211223,1,8,0:0:0:0:
224,160,211302,1,0,0:0:0:0:
288,160,211381,1,8,0:0:0:0:
224,160,211539,5,0,0:0:0:0:
288,160,211592,1,8,0:0:0:0:
288,160,211644,1,8,0:0:0:0:
224,160,211697,1,0,0:0:0:0:
288,160,211855,1,8,0:0:0:0:
224,160,212013,1,0,0:0:0:0:
224,160,212092,1,0,0:0:0:0:
288,160,212170,1,8,0:0:0:0:
224,160,212328,1,0,0:0:0:0:
288,160,212486,1,8,0:0:0:0:
224,160,212539,1,0,0:0:0:0:
224,160,212592,1,0,0:0:0:0:
288,160,212644,1,8,0:0:0:0:
224,160,212802,5,0,0:0:0:0:
288,160,212960,1,8,0:0:0:0:
288,160,213118,1,8,0:0:0:0:
288,160,213197,1,8,0:0:0:0:
224,160,213276,1,0,0:0:0:0:
288,160,213434,5,8,0:0:0:0:
224,160,213592,1,0,0:0:0:0:
288,160,213670,1,8,0:0:0:0:
224,160,213749,1,0,0:0:0:0:
288,160,213828,1,8,0:0:0:0:
224,160,213907,1,0,0:0:0:0:
288,160,214065,5,8,0:0:0:0:
224,160,214118,1,0,0:0:0:0:
224,160,214170,1,0,0:0:0:0:
288,160,214223,1,8,0:0:0:0:
288,160,214276,1,8,0:0:0:0:
288,160,214328,1,8,0:0:0:0:
224,160,214381,1,0,0:0:0:0:
224,160,214539,1,0,0:0:0:0:
288,160,214697,1,8,0:0:0:0:
288,224,215013,1,12,0:0:0:0:
224,160,215328,5,0,0:0:0:0:
288,160,215486,1,8,0:0:0:0:
224,160,215565,1,0,0:0:0:0:
288,160,215644,1,8,0:0:0:0:
288,160,215723,1,8,0:0:0:0:
224,160,215802,1,0,0:0:0:0:
288,160,215960,1,8,0:0:0:0:
224,160,216118,1,0,0:0:0:0:
288,160,216197,1,8,0:0:0:0:
224,160,216276,1,0,0:0:0:0:
288,160,216434,1,8,0:0:0:0:
224,160,216592,5,0,0:0:0:0:
288,160,216644,1,8,0:0:0:0:
288,160,216697,1,8,0:0:0:0:
224,160,216749,1,0,0:0:0:0:
224,160,216907,1,0,0:0:0:0:
288,160,217065,1,8,0:0:0:0:
288,160,217223,1,8,0:0:0:0:
224,160,217381,1,0,0:0:0:0:
224,160,217460,1,0,0:0:0:0:
288,160,217539,1,8,0:0:0:0:
288,160,217697,1,8,0:0:0:0:
224,160,217855,1,0,0:0:0:0:
224,160,217907,1,0,0:0:0:0:
224,160,217960,1,0,0:0:0:0:
288,160,218013,1,8,0:0:0:0:
224,160,218092,1,0,0:0:0:0:
288,160,218170,5,8,0:0:0:0:
224,160,218276,1,0,0:0:0:0:
288,160,218381,1,8,0:0:0:0:
288,160,218486,1,8,0:0:0:0:
224,160,218605,1,0,0:0:0:0:
224,160,218723,1,0,0:0:0:0:
224,160,218802,1,8,0:0:0:0:
288,160,218960,1,8,0:0:0:0:
224,160,219118,5,0,0:0:0:0:
288,160,219170,1,8,0:0:0:0:
224,160,219258,1,0,0:0:0:0:
288,160,219394,1,8,0:0:0:0:
224,160,219592,1,0,0:0:0:0:
288,160,219749,1,8,0:0:0:0:
288,160,219828,1,8,0:0:0:0:
224,160,219907,1,0,0:0:0:0:
288,224,220065,1,12,0:0:0:0:
224,160,220381,5,0,0:0:0:0:
224,160,220460,1,0,0:0:0:0:
224,160,220539,1,0,0:0:0:0:
288,160,220697,1,8,0:0:0:0:
224,160,220855,1,0,0:0:0:0:
224,160,220934,1,0,0:0:0:0:
288,160,221013,1,8,0:0:0:0:
224,160,221170,1,0,0:0:0:0:
288,160,221328,1,8,0:0:0:0:
224,160,221407,1,0,0:0:0:0:
288,160,221486,1,8,0:0:0:0:
224,160,221644,5,0,0:0:0:0:
224,160,221697,1,0,0:0:0:0:
224,160,221749,1,0,0:0:0:0:
288,160,221802,1,8,0:0:0:0:
224,160,221960,1,0,0:0:0:0:
288,160,222118,1,8,0:0:0:0:
224,160,222276,1,0,0:0:0:0:
224,160,222355,1,0,0:0:0:0:
224,160,222434,1,0,0:0:0:0:
288,160,222592,1,8,0:0:0:0:
224,160,222644,1,0,0:0:0:0:
224,160,222697,1,0,0:0:0:0:
288,160,222749,1,8,0:0:0:0:
224,160,222907,5,0,0:0:0:0:
224,160,223065,1,0,0:0:0:0:
224,160,223144,1,0,0:0:0:0:
288,160,223223,1,8,0:0:0:0:
224,160,223381,1,0,0:0:0:0:
288,160,223460,1,8,0:0:0:0:
224,160,223539,1,0,0:0:0:0:
288,160,223697,1,8,0:0:0:0:
288,160,223776,1,8,0:0:0:0:
224,160,223855,1,0,0:0:0:0:
224,160,223934,1,0,0:0:0:0:
288,160,224013,5,8,0:0:0:0:
224,160,224170,1,0,0:0:0:0:
224,160,224223,1,0,0:0:0:0:
224,160,224276,1,0,0:0:0:0:
224,160,224328,1,0,0:0:0:0:
288,160,224381,1,8,0:0:0:0:
288,160,224434,1,8,0:0:0:0:
224,160,224486,1,0,0:0:0:0:
224,160,224644,1,0,0:0:0:0:
288,160,224802,1,8,0:0:0:0:
288,224,225118,1,12,0:0:0:0:
224,160,225434,5,0,0:0:0:0:
288,160,225592,1,8,0:0:0:0:
224,160,225670,1,0,0:0:0:0:
288,160,225749,1,8,0:0:0:0:
224,160,225907,1,0,0:0:0:0:
288,160,226065,1,8,0:0:0:0:
224,160,226223,1,0,0:0:0:0:
224,160,226302,1,0,0:0:0:0:
288,160,226381,1,8,0:0:0:0:
288,160,226460,1,8,0:0:0:0:
224,160,226539,1,0,0:0:0:0:
224,160,226697,5,0,0:0:0:0:
288,160,226749,1,8,0:0:0:0:
288,160,226802,1,8,0:0:0:0:
224,160,226855,1,0,0:0:0:0:
288,160,227013,1,8,0:0:0:0:
288,160,227092,1,8,0:0:0:0:
224,160,227170,1,0,0:0:0:0:
288,160,227328,1,8,0:0:0:0:
224,160,227486,1,0,0:0:0:0:
224,160,227565,1,0,0:0:0:0:
288,160,227644,1,8,0:0:0:0:
288,160,227802,1,8,0:0:0:0:
224,160,227960,5,0,0:0:0:0:
288,160,228118,1,8,0:0:0:0:
288,160,228170,1,8,0:0:0:0:
288,160,228223,1,8,0:0:0:0:
224,160,228276,1,0,0:0:0:0:
288,160,228434,1,8,0:0:0:0:
224,160,228513,1,0,0:0:0:0:
288,160,228592,1,8,0:0:0:0:
288,160,228749,1,8,0:0:0:0:
288,160,228828,1,8,0:0:0:0:
224,160,228907,1,0,0:0:0:0:
224,160,228960,1,0,0:0:0:0:
224,160,229013,1,0,0:0:0:0:
224,160,229065,1,0,0:0:0:0:
224,160,229118,1,0,0:0:0:0:
224,160,229170,1,0,0:0:0:0:
288,160,229223,5,8,0:0:0:0:
224,160,230170,1,0,0:0:0:0:
288,160,230328,1,8,0:0:0:0:
288,160,230486,1,8,0:0:0:0:
288,160,231117,1,8,0:0:0:0:
288,160,234275,5,8,0:0:0:0:
224,160,235223,1,0,0:0:0:0:
288,160,235380,1,8,0:0:0:0:
288,160,235538,1,8,0:0:0:0:
288,160,236170,1,8,0:0:0:0:
