osu file format v14

[General]
AudioFilename: audio.mp3
AudioLeadIn: 0
PreviewTime: 139758
Countdown: 0
SampleSet: Normal
StackLeniency: 0.7
Mode: 2
LetterboxInBreaks: 0
WidescreenStoryboard: 1

[Editor]
Bookmarks: 17645,26372,43827,61281,78736,82418,96190,113645,131099,139827,174736,202480,225675,234402,244220,282406
DistanceSpacing: 1.1
BeatDivisor: 4
GridSize: 8
TimelineZoom: 2.6

[Metadata]
Title:Kick-ass Kung-fu Carnival
TitleUnicode:Kick-ass Kung-fu Carnival
Artist:t+pazolite
ArtistUnicode:t+pazolite
Creator:Spectator
Version:Overdrive
Source:
Tags:kickass kungfu kung fu electronic Instrumental The Best of tpz 2 the Best​!​!​! HARDCORE SYNDROME 5 TANO*C j-core jcore comiket 80 c80 marathon Synchronica シンクロニカ featured artist mappers' guild mg mpg fa CHS-0028 CHS0028 C.H.S 絢爛喧騒オリエント Beauty-Noizy-Orient Beauty Noizy Orient
BeatmapID:4427154
BeatmapSetID:2109206

[Difficulty]
HPDrainRate:3
CircleSize:3.7
OverallDifficulty:10
ApproachRate:10
SliderMultiplier:2.1
SliderTickRate:2

[Events]
//Background and Video events
0,0,"bg.jpg",0,0
//Break Periods
2,202662,214794
//Storyboard Layer 0 (Background)
//Storyboard Layer 1 (Fail)
//Storyboard Layer 2 (Pass)
//Storyboard Layer 3 (Foreground)
//Storyboard Layer 4 (Overlay)
//Storyboard Sound Samples

[TimingPoints]
8918,272.727272727273,4,1,1,85,1,8
17372,-83.3333333333333,4,1,1,85,0,0
17508,-100,4,1,1,85,0,0
26372,-100,4,1,1,85,0,1
29645,-33.3333333333333,4,1,1,85,0,0
30190,-90.9090909090909,4,1,1,85,0,0
30736,-100,4,1,1,85,0,1
34008,-100,4,1,1,85,0,0
35099,-100,4,1,1,85,0,1
38372,-35.7142857142857,4,1,1,85,0,0
38918,-90.9090909090909,4,1,1,85,0,0
39463,-100,4,1,1,85,0,1
42736,-100,4,1,1,85,0,0
43827,-45.4545454545455,4,1,1,85,0,1
43963,-45.4545454545455,4,1,1,5,0,1
44099,-45.4545454545455,4,1,1,85,0,1
44236,-45.4545454545455,4,1,1,5,0,1
44372,-45.4545454545455,4,1,1,85,0,1
44508,-45.4545454545455,4,1,1,5,0,1
44644,-45.4545454545455,4,1,1,85,0,1
44781,-45.4545454545455,4,1,1,5,0,1
44917,-45.4545454545455,4,1,1,85,0,1
45054,-45.4545454545455,4,1,1,5,0,1
45190,-45.4545454545455,4,1,1,85,0,1
45327,-45.4545454545455,4,1,1,5,0,1
45463,-45.4545454545455,4,1,1,85,0,1
45599,-45.4545454545455,4,1,1,5,0,1
45735,-45.4545454545455,4,1,1,85,0,1
45872,-45.4545454545455,4,1,1,5,0,1
46008,-100,4,1,1,70,0,0
51463,-100,4,1,1,60,0,0
52554,-100,4,1,1,85,0,0
54736,-35.7142857142857,4,1,1,85,0,0
54872,-35.7142857142857,4,1,1,50,0,0
55008,-100,4,1,1,85,0,0
55145,-100,4,1,1,50,0,0
55281,-100,4,1,1,85,0,0
63463,-35.7142857142857,4,1,1,85,0,0
63599,-35.7142857142857,4,1,1,50,0,0
63736,-35.7142857142857,4,1,1,85,0,0
63872,-35.7142857142857,4,1,1,50,0,0
64008,-35.7142857142857,4,1,1,85,0,0
64145,-100,4,1,1,85,0,0
72190,-35.7142857142857,4,1,1,85,0,0
72327,-35.7142857142857,4,1,1,50,0,0
72463,-35.7142857142857,4,1,1,85,0,0
72599,-35.7142857142857,4,1,1,50,0,0
72736,-35.7142857142857,4,1,1,85,0,0
72872,-100,4,1,1,85,0,0
76690,-100,4,1,1,50,0,0
76827,-100,4,1,1,85,0,0
77099,-100,4,1,1,50,0,0
77236,-100,4,1,1,85,0,0
78736,-100,4,1,1,85,0,1
80645,-90.9090909090909,4,1,1,85,0,1
82008,-100,4,1,1,85,0,0
83099,-100,4,1,1,85,0,1
85008,-90.9090909090909,4,1,1,85,0,1
86372,-100,4,1,1,85,0,0
87463,-100,4,1,1,85,0,1
89372,-90.9090909090909,4,1,1,85,0,1
90736,-100,4,1,1,85,0,0
91827,-100,4,1,1,85,0,1
95645,-83.3333333333333,4,1,1,85,0,1
96190,-111.111111111111,4,2,1,65,0,0
109281,-100,4,2,1,65,0,0
110236,-111.111111111111,4,2,1,65,0,0
112418,-200,4,2,1,65,0,0
112554,-200,4,2,1,40,0,0
113508,-200,4,2,1,65,0,0
113645,-100,4,1,1,85,0,0
114736,-100,4,1,1,15,0,0
114872,-100,4,1,1,85,0,0
115963,-100,4,1,1,15,0,0
116099,-100,4,1,1,85,0,0
116645,-100,4,1,1,15,0,0
116781,-100,4,1,1,85,0,0
119372,-100,4,1,1,15,0,0
119508,-100,4,1,1,85,0,0
121281,-100,4,1,1,15,0,0
121417,-100,4,1,1,85,0,0
122372,-86.9565217391304,4,1,2,85,0,0
122508,-86.9565217391304,4,1,2,15,0,0
122645,-86.9565217391304,4,1,2,85,0,0
122781,-86.9565217391304,4,1,2,15,0,0
122918,-100,4,1,2,85,0,0
124554,-86.9565217391304,4,1,2,85,0,0
124690,-86.9565217391304,4,1,2,15,0,0
124827,-86.9565217391304,4,1,2,85,0,0
124963,-86.9565217391304,4,1,2,15,0,0
125236,-83.3333333333333,4,1,2,85,0,0
125372,-83.3333333333333,4,1,2,15,0,0
125508,-83.3333333333333,4,1,2,85,0,0
125645,-100,4,1,2,85,0,0
127418,-100,4,1,2,15,0,0
127554,-100,4,1,2,85,0,0
131099,-35.7142857142857,4,1,1,85,0,0
131645,-100,4,1,1,85,0,0
132190,-35.7142857142857,4,1,1,85,0,0
132463,-100,4,1,1,85,0,0
133281,-35.7142857142857,4,1,1,85,0,0
133827,-100,4,1,1,85,0,0
134372,-35.7142857142857,4,1,1,85,0,0
134918,-100,4,1,1,85,0,0
137645,-90.9090909090909,4,1,1,70,0,0
137713,-90.9090909090909,4,1,1,50,0,0
137781,-90.9090909090909,4,1,1,70,0,0
137849,-90.9090909090909,4,1,1,50,0,0
137918,-90.9090909090909,4,1,1,70,0,0
137986,-90.9090909090909,4,1,1,50,0,0
138054,-90.9090909090909,4,1,1,70,0,0
138122,-90.9090909090909,4,1,1,50,0,0
138190,-90.9090909090909,4,1,1,80,0,0
138258,-90.9090909090909,4,1,1,50,0,0
138327,-90.9090909090909,4,1,1,80,0,0
138395,-90.9090909090909,4,1,1,50,0,0
138463,-90.9090909090909,4,1,1,80,0,0
138531,-90.9090909090909,4,1,1,50,0,0
138599,-90.9090909090909,4,1,1,80,0,0
138667,-90.9090909090909,4,1,1,50,0,0
138736,-100,4,1,1,85,0,0
139281,-45.4545454545455,4,1,1,85,0,0
139622,-90.9090909090909,4,1,1,85,0,0
139827,-90.9090909090909,4,1,1,85,0,1
143099,-90.9090909090909,4,1,2,85,0,1
144190,-90.9090909090909,4,1,1,85,0,1
147463,-90.9090909090909,4,1,2,85,0,1
148554,-90.9090909090909,4,1,1,85,0,1
151827,-90.9090909090909,4,1,2,85,0,1
152918,-90.9090909090909,4,1,1,85,0,1
156190,-90.9090909090909,4,1,2,85,0,1
157281,-90.9090909090909,4,1,1,85,0,1
160554,-90.9090909090909,4,1,2,85,0,1
161645,-90.9090909090909,4,1,1,85,0,1
164918,-90.9090909090909,4,1,2,85,0,1
166008,-90.9090909090909,4,1,1,85,0,1
173645,-90.9090909090909,4,1,2,85,0,1
174736,-100,4,1,3,65,0,0
183463,-111.111111111111,4,2,1,65,0,0
187827,285.714285714286,4,2,1,65,1,0
187827,-95.2380952380952,4,2,1,65,0,0
188398,315.789473684211,4,2,1,65,1,0
188398,-86.2068965517241,4,2,1,65,0,0
189029,352.941176470588,4,2,1,65,1,0
189029,-77.5193798449612,4,2,1,65,0,0
189734,375,4,2,1,65,1,0
189734,-72.463768115942,4,2,1,65,0,0
190109,413.793103448276,4,2,1,65,1,0
190109,-65.7894736842105,4,2,1,65,0,0
190522,436.363636363636,4,2,1,65,1,0
190522,-62.5,4,2,1,65,0,0
190958,461.538461538462,4,2,1,65,1,0
190958,-59.1715976331361,4,2,1,65,0,0
191419,571.428571428571,4,2,1,65,1,0
191419,-47.6190476190476,4,2,1,65,0,0
191706,774.193548387097,4,2,1,65,1,0
191706,-35.2112676056338,4,2,1,65,0,0
192093,571.428571428571,4,2,1,65,1,0
192093,-47.6190476190476,4,2,1,65,0,0
192664,-47.6190476190476,4,1,1,85,0,0
193235,545.454545454546,4,1,1,85,1,0
193235,-50,4,1,1,85,0,0
193780,444.444444444444,4,1,1,85,1,0
193780,-61.3496932515337,4,1,1,85,0,0
194224,413.793103448276,4,1,1,85,1,0
194224,-65.7894736842105,4,1,1,85,0,0
194637,342.857142857143,4,1,1,85,1,0
194637,-79.3650793650794,4,1,1,85,0,0
194979,279.06976744186,4,1,1,85,1,0
194979,-98.0392156862745,4,1,1,85,0,0
195258,400,4,1,1,85,1,0
195258,-68.0272108843538,4,1,1,85,0,0
195458,300,4,1,1,85,1,0
195458,-90.9090909090909,4,1,1,85,0,0
195608,272.727272727273,4,1,1,85,1,0
195608,-100,4,1,1,85,0,0
196153,266.666666666667,4,1,1,85,1,0
196153,-102.040816326531,4,1,1,85,0,0
196686,272.727272727273,4,1,1,85,1,0
196686,-100,4,1,1,85,0,0
196822,400,4,1,1,85,1,0
196822,-68.0272108843538,4,1,1,85,0,0
197028,285.714285714286,4,1,1,85,1,0
197028,-95.2380952380952,4,1,1,85,0,0
197313,333.333333333333,4,1,1,85,1,0
197313,-81.9672131147541,4,1,1,85,0,0
197639,416.666666666667,4,1,1,85,1,0
197639,-65.359477124183,4,1,1,85,0,0
197846,300,4,1,1,85,1,0
197846,-90.9090909090909,4,1,1,85,0,0
197996,324.324324324324,4,1,1,85,1,0
197996,-84.0336134453782,4,1,1,85,0,0
198320,400,4,1,1,85,1,0
198320,-68.0272108843538,4,1,1,85,0,0
198720,558.139534883721,4,1,1,85,1,0
198720,-48.780487804878,4,1,1,85,0,0
199278,1142.85714285714,4,1,1,85,1,0
199278,-23.8663484486873,4,1,1,85,0,0
200420,510.63829787234,4,1,1,85,1,0
200420,-53.475935828877,4,1,1,85,0,0
200547,-53.475935828877,4,2,1,60,0,0
202462,-53.475935828877,4,2,1,5,0,0
202636,500,4,1,1,50,1,0
202636,-54.6448087431694,4,1,1,50,0,0
206136,489.795918367347,4,1,1,50,1,8
206136,-55.5555555555556,4,1,1,50,0,0
206625,461.538461538462,4,1,1,50,1,0
206625,-59.1715976331361,4,1,1,50,0,0
209394,428.571428571429,4,1,1,50,1,8
209394,-63.6942675159236,4,1,1,50,0,0
209822,444.444444444444,4,1,1,50,1,8
209822,-61.3496932515337,4,1,1,50,0,0
210266,444.444444444444,4,1,1,50,1,0
210266,-61.3496932515337,4,1,1,50,0,0
210710,428.571428571429,4,1,1,50,1,8
210710,-63.6942675159236,4,1,1,50,0,0
211567,421.052631578947,4,1,1,50,1,8
211567,-64.9350649350649,4,1,1,50,0,0
211988,413.793103448276,4,1,1,50,1,0
211988,-65.7894736842105,4,1,1,50,0,0
214470,387.096774193548,4,1,1,50,1,8
214470,-70.4225352112676,4,1,1,50,0,0
215244,393.44262295082,4,1,1,50,1,8
215244,-33.3333333333333,4,1,1,50,0,0
215637,375,4,1,3,50,1,8
215637,-72.463768115942,4,1,3,50,0,0
216762,363.636363636364,4,1,3,50,1,0
216762,-75.187969924812,4,1,3,50,0,0
218216,342.857142857143,4,1,3,50,1,0
218216,-79.3650793650794,4,1,3,50,0,0
219244,358.208955223881,4,1,3,50,1,8
219244,-76.3358778625954,4,1,3,50,0,0
219602,324.324324324324,4,1,3,55,1,0
219602,-84.0336134453782,4,1,3,55,0,0
220574,324.324324324324,4,1,3,55,1,8
220574,-84.0336134453782,4,1,3,55,0,0
220898,324.324324324324,4,1,3,60,1,0
220898,-84.0336134453782,4,1,3,60,0,0
221871,315.789473684211,4,1,3,60,1,8
221871,-86.2068965517241,4,1,3,60,0,0
222186,307.692307692308,4,1,3,65,1,0
222186,-88.495575221239,4,1,3,65,0,0
222493,300,4,1,3,65,1,8
222493,-90.9090909090909,4,1,3,65,0,0
223393,292.682926829268,4,1,3,70,1,0
223393,-93.4579439252336,4,1,3,70,0,0
224563,285.714285714286,4,1,3,70,1,0
224563,-95.2380952380952,4,1,3,70,0,0
225134,272.727272727273,4,1,3,75,1,8
225134,-100,4,1,3,75,0,0
225406,-83.3333333333333,4,1,3,75,0,0
225679,272.727272727273,4,1,1,85,1,0
225679,-100,4,1,1,85,0,0
226224,-90.9090909090909,4,1,1,85,0,0
226497,-100,4,1,1,85,0,0
227315,-90.9090909090909,4,1,1,85,0,0
227588,-100,4,1,1,85,0,0
228406,-90.9090909090909,4,1,1,85,0,0
228679,-100,4,1,1,85,0,0
229497,-90.9090909090909,4,1,1,85,0,0
230042,-100,4,1,1,85,0,0
230588,-90.9090909090909,4,1,1,85,0,0
230860,-100,4,1,1,85,0,0
231679,-90.9090909090909,4,1,1,85,0,0
231951,-100,4,1,1,85,0,0
232769,-90.9090909090909,4,1,1,85,0,0
233042,-100,4,1,1,85,0,0
233588,-90.9090909090909,4,1,1,85,0,0
233724,-100,4,1,1,85,0,0
233860,-100,4,1,2,85,0,0
234406,-100,4,1,1,85,0,0
240951,-90.9090909090909,4,1,1,85,0,0
242042,-100,4,1,1,85,0,0
243679,-45.4545454545455,4,1,1,85,0,0
244224,-100,4,1,1,85,0,1
247497,-33.3333333333333,4,1,2,85,0,0
247769,-90.9090909090909,4,1,2,85,0,0
248588,-100,4,1,1,85,0,1
251860,-100,4,1,2,85,0,0
252951,-100,4,1,1,85,0,1
256224,-35.7142857142857,4,1,2,85,0,0
256633,-90.9090909090909,4,1,1,85,0,0
257315,-100,4,1,1,85,0,1
260588,-100,4,1,2,85,0,0
261679,-100,4,1,1,85,0,0
262360,-83.3333333333333,4,1,1,85,0,0
262497,-45.4545454545455,4,1,1,85,0,0
262769,-100,4,1,1,85,0,0
263588,-45.4545454545455,4,1,1,85,0,0
263860,-100,4,1,1,85,0,0
264679,-45.4545454545455,4,1,1,85,0,0
264951,-100,4,1,1,85,0,0
268224,-90.9090909090909,4,1,1,85,0,0
268292,-90.9090909090909,4,1,1,85,0,0
268360,-90.9090909090909,4,1,1,85,0,0
268429,-90.9090909090909,4,1,1,85,0,0
268497,-90.9090909090909,4,1,1,85,0,0
268565,-90.9090909090909,4,1,1,85,0,0
268633,-90.9090909090909,4,1,1,85,0,0
268702,-90.9090909090909,4,1,1,85,0,0
268769,-90.9090909090909,4,1,1,85,0,0
268837,-90.9090909090909,4,1,1,85,0,0
268905,-90.9090909090909,4,1,1,85,0,0
268974,-90.9090909090909,4,1,1,85,0,0
269042,-90.9090909090909,4,1,1,85,0,0
269110,-90.9090909090909,4,1,1,85,0,0
269178,-90.9090909090909,4,1,1,85,0,0
269247,-90.9090909090909,4,1,1,85,0,0
269315,-90.9090909090909,4,1,1,85,0,0
269588,-90.9090909090909,4,1,2,85,0,0
270406,-90.9090909090909,4,1,1,85,0,1
273679,-90.9090909090909,4,1,2,85,0,1
274769,-90.9090909090909,4,1,1,85,0,1
278042,-90.9090909090909,4,1,2,85,0,1
278860,-90.9090909090909,4,1,2,75,0,1
279133,-90.9090909090909,4,1,2,85,0,1
279406,-90.9090909090909,4,1,2,75,0,1
279679,-90.9090909090909,4,1,2,85,0,1
279951,-90.9090909090909,4,1,2,75,0,1
280156,-100,4,1,1,85,0,0
280224,-45.4545454545455,4,1,1,85,0,1
282338,-45.4545454545455,4,1,1,85,0,0
282406,-100,4,1,1,85,0,1
282474,-100,4,1,1,85,0,0

[Colours]
Combo1 : 219,86,57
Combo2 : 243,75,88
Combo3 : 240,128,89

[HitObjects]
205,47,8918,5,4,0:2:0:0:
479,104,9054,2,0,L|344:120,1,105,2|0,0:3|0:0,0:0:0:0:
147,129,9327,1,4,0:3:0:0:
421,186,9463,2,0,L|286:202,1,105,2|0,0:3|0:0,0:0:0:0:
79,215,9736,1,4,0:3:0:0:
353,272,9872,2,0,L|218:288,1,105,2|0,0:3|0:0,0:0:0:0:
23,298,10145,1,4,0:3:0:0:
297,355,10281,2,0,L|162:371,1,105,2|0,0:3|0:0,0:0:0:0:
441,224,10554,2,0,L|446:322,1,52.5,2|0,0:3|0:0,0:0:0:0:
238,199,10690,2,0,L|300:199,1,52.5
121,278,10827,2,0,L|12:281,1,105,2|2,0:3|0:3,0:0:0:0:
307,47,11099,5,4,0:2:0:0:
33,104,11235,2,0,L|168:120,1,105,2|0,0:3|0:0,0:0:0:0:
365,129,11508,1,4,0:3:0:0:
91,186,11644,2,0,L|226:202,1,105,2|0,0:3|0:0,0:0:0:0:
433,215,11917,1,4,0:3:0:0:
159,272,12053,2,0,L|294:288,1,105,2|0,0:3|0:0,0:0:0:0:
489,298,12326,1,4,0:3:0:0:
215,355,12462,2,0,L|350:371,1,105,2|0,0:3|0:0,0:0:0:0:
45,316,12736,2,0,L|37:218,1,52.5,2|0,0:3|0:3,0:3:0:0:
236,214,12872,2,0,L|244:123,1,52.5,0|0,0:3|0:3,0:3:0:0:
39,80,13008,2,0,L|163:77,1,105,2|2,0:3|0:3,0:3:0:0:
481,212,13281,5,4,0:2:0:0:
201,142,13418,2,0,L|326:131,1,105,2|0,0:3|0:3,0:3:0:0:
33,305,13690,1,4,0:3:0:0:
313,235,13827,2,0,L|188:224,1,105,2|0,0:3|0:3,0:3:0:0:
481,212,14099,1,4,0:3:0:0:
201,142,14236,2,0,L|326:131,1,105,2|0,0:3|0:3,0:3:0:0:
33,305,14508,1,4,0:3:0:0:
313,235,14645,2,0,L|188:224,1,105,2|0,0:3|0:3,0:3:0:0:
440,346,14918,2,0,L|445:263,1,52.5,2|0,0:3|0:3,0:3:0:0:
242,334,15054,2,0,L|314:326,1,52.5,0|0,0:3|0:3,0:3:0:0:
133,231,15190,2,0,L|27:218,1,105,2|2,0:3|0:3,0:3:0:0:
481,212,15463,5,4,0:2:0:0:
201,142,15600,2,0,L|326:131,1,105,2|0,0:3|0:3,0:3:0:0:
33,305,15872,1,4,0:3:0:0:
313,235,16009,2,0,L|188:224,1,105,2|0,0:3|0:3,0:3:0:0:
481,212,16281,1,4,0:3:0:0:
201,142,16418,2,0,L|326:131,1,105,2|0,0:3|0:3,0:3:0:0:
33,305,16690,1,4,0:3:0:0:
313,235,16827,2,0,L|188:224,1,105,2|0,0:3|0:3,0:3:0:0:
469,313,17099,1,2,0:3:0:0:
320,357,17168,1,0,0:3:0:0:
173,293,17236,1,0,0:3:0:0:
24,334,17305,1,0,0:3:0:0:
191,153,17372,2,0,L|338:154,1,125.999996154785,2|2,0:3|0:3,0:3:0:0:
28,228,17645,5,4,0:2:0:0:
282,49,17781,2,0,L|287:179,1,105,2|0,0:3|0:3,0:3:0:0:
484,228,18054,1,4,0:3:0:0:
233,49,18190,2,0,L|228:179,1,105,2|0,0:3|0:3,0:3:0:0:
28,228,18463,1,4,0:3:0:0:
282,49,18599,2,0,L|287:179,1,105,2|0,0:3|0:3,0:3:0:0:
484,228,18872,1,4,0:3:0:0:
233,49,19008,2,0,L|228:179,1,105,2|0,0:3|0:3,0:3:0:0:
29,261,19281,2,0,L|127:261,1,52.5,2|0,0:3|0:3,0:3:0:0:
262,313,19418,2,0,L|352:314,1,52.5,0|0,0:3|0:3,0:3:0:0:
132,350,19554,2,0,L|18:351,1,105,2|2,0:3|0:3,0:3:0:0:
484,228,19827,5,4,0:2:0:0:
230,49,19963,2,0,L|225:179,1,105,2|0,0:3|0:3,0:3:0:0:
28,228,20236,1,4,0:3:0:0:
279,49,20372,2,0,L|284:179,1,105,2|0,0:3|0:3,0:3:0:0:
484,228,20645,1,4,0:3:0:0:
230,49,20781,2,0,L|225:179,1,105,2|0,0:3|0:3,0:3:0:0:
28,228,21054,1,4,0:3:0:0:
279,49,21190,2,0,L|284:179,1,105,2|0,0:3|0:3,0:3:0:0:
39,336,21463,2,0,L|100:333,1,52.5,2|0,0:3|0:3,0:3:0:0:
283,239,21599,2,0,L|214:239,1,52.5,0|0,0:3|0:3,0:3:0:0:
29,174,21736,2,0,L|177:171,1,105,2|2,0:3|0:3,0:3:0:0:
474,177,22008,5,4,0:2:0:0:
208,331,22145,2,0,L|337:330,1,105,2|0,0:3|0:3,0:3:0:0:
38,207,22418,1,4,0:3:0:0:
304,53,22555,2,0,L|175:54,1,105,2|0,0:3|0:3,0:3:0:0:
474,177,22827,1,4,0:3:0:0:
208,331,22964,2,0,L|337:330,1,105,2|0,0:3|0:3,0:3:0:0:
38,207,23237,1,4,0:3:0:0:
304,53,23372,2,0,L|175:54,1,105,2|0,0:3|0:3,0:3:0:0:
466,166,23645,2,0,L|354:167,1,105,6|0,0:3|0:3,0:3:0:0:
466,166,23918,1,4,0:3:0:0:
187,288,24054,1,6,0:3:0:0:
458,358,24190,6,0,L|470:244,1,105,4|0,0:3|0:3,0:3:0:0:
281,234,24395,2,0,L|147:232,1,105,4|0,0:3|0:3,0:3:0:0:
378,112,24599,2,0,L|462:112,1,52.5,4|0,0:3|0:3,0:3:0:0:
144,304,24736,2,0,L|132:190,1,105,4|0,0:3|0:3,0:3:0:0:
321,180,24941,2,0,L|455:178,1,105,4|0,0:3|0:3,0:3:0:0:
224,58,25145,2,0,L|140:58,1,52.5,4|0,0:3|0:3,0:3:0:0:
363,291,25281,6,0,L|242:290,1,105,4|4,0:3|0:3,0:3:0:0:
363,291,25554,1,4,0:3:0:0:
30,288,25690,1,4,0:3:0:0:
472,206,25827,1,4,0:3:0:0:
32,96,26099,1,6,0:3:0:0:
470,118,26372,5,4,0:2:0:0:
197,150,26508,2,0,L|344:149,1,105,0|4,0:3|0:3,0:3:0:0:
197,150,26781,1,0,0:3:0:0:
470,208,26918,2,0,L|477:298,1,52.5,4|0,0:3|0:3,0:3:0:0:
274,328,27054,2,0,L|360:330,1,52.5,0|0,0:3|0:3,0:3:0:0:
157,260,27190,2,0,L|30:262,1,105,4|0,0:3|0:3,0:3:0:0:
255,102,27463,5,4,0:3:0:0:
486,94,27599,1,0,0:3:0:0:
255,102,27736,1,4,0:3:0:0:
26,94,27872,1,0,0:3:0:0:
255,202,28008,1,4,0:3:0:0:
84,205,28077,2,0,L|16:205,2,52.5,0|0|0,0:3|0:3|0:3,0:3:0:0:
257,288,28281,1,4,0:3:0:0:
431,281,28349,1,0,0:3:0:0:
257,288,28418,1,0,0:3:0:0:
431,281,28486,1,0,0:3:0:0:
196,357,28554,6,0,L|65:357,1,105,4|0,0:3|0:3,0:3:0:0:
371,161,28827,2,0,L|476:161,1,105,4|0,0:3|0:3,0:3:0:0:
216,87,29099,2,0,L|126:89,1,52.5,4|0,0:3|0:3,0:3:0:0:
331,85,29236,1,0,0:3:0:0:
331,85,29253,1,0,0:3:0:0:
496,84,29304,1,0,0:3:0:0:
496,84,29321,1,0,0:3:0:0:
212,188,29372,2,0,L|99:190,1,105,4|0,0:3|0:3,0:3:0:0:
408,360,29645,6,0,B|92:363|92:363|498:358,1,630.000024032594,6|6,0:3|0:3,0:3:0:0:
91,273,30054,1,2,0:3:0:0:
413,191,30190,2,0,L|500:193,1,57.7500017623902,6|0,0:3|0:3,0:3:0:0:
273,80,30327,2,0,L|358:76,1,57.7500017623902,0|0,0:3|0:3,0:3:0:0:
155,168,30463,2,0,L|32:168,1,115.50000352478,6|0,0:3|0:3,0:3:0:0:
374,269,30736,5,4,0:3:0:0:
91,301,30872,2,0,L|238:300,1,105,0|4,0:3|0:3,0:3:0:0:
91,301,31145,1,0,0:3:0:0:
455,160,31281,2,0,L|462:250,1,52.5,4|0,0:3|0:3,0:3:0:0:
261,286,31417,2,0,L|347:288,1,52.5,0|0,0:3|0:3,0:3:0:0:
134,212,31553,2,0,L|7:214,1,105,4|0,0:3|0:3,0:3:0:0:
257,96,31827,5,4,0:3:0:0:
24,92,31963,1,0,0:3:0:0:
257,96,32099,1,4,0:3:0:0:
490,92,32235,1,0,0:3:0:0:
248,232,32372,2,0,L|169:230,1,52.5,4|0,0:3|0:3,0:3:0:0:
391,141,32508,2,0,L|488:141,1,52.5,0|0,0:3|0:3,0:3:0:0:
249,141,32645,1,4,0:3:0:0:
75,134,32713,1,0,0:3:0:0:
249,141,32782,1,0,0:3:0:0:
75,134,32850,1,0,0:3:0:0:
278,320,32918,6,0,L|416:326,1,105,4|0,0:3|0:3,0:3:0:0:
142,262,33190,2,0,L|37:257,1,105,4|0,0:3|0:3,0:3:0:0:
280,117,33463,2,0,L|358:121,1,52.5,4|0,0:3|0:3,0:3:0:0:
151,178,33599,1,0,0:3:0:0:
151,178,33616,1,0,0:3:0:0:
321,221,33668,1,0,0:3:0:0:
321,221,33685,1,0,0:3:0:0:
487,287,33736,2,0,L|353:292,1,105,4|0,0:3|0:3,0:3:0:0:
150,280,34008,6,0,L|40:281,1,105,2|0,0:3|0:3,0:3:0:0:
274,170,34281,2,0,L|189:167,2,52.5,2|0|2,0:3|0:3|0:3,0:3:0:0:
43,151,34554,1,2,0:3:0:0:
339,78,34690,1,2,0:3:0:0:
174,78,34758,1,2,0:3:0:0:
339,78,34827,1,2,0:3:0:0:
43,151,34963,1,2,0:3:0:0:
363,184,35099,6,0,L|483:186,1,105,4|0,0:3|0:3,0:3:0:0:
195,325,35372,2,0,L|346:325,1,105,4|0,0:3|0:3,0:3:0:0:
42,208,35645,2,0,L|35:298,1,52.5,4|0,0:3|0:3,0:3:0:0:
238,328,35781,2,0,L|152:330,1,52.5,0|0,0:3|0:3,0:3:0:0:
355,260,35917,2,0,L|482:262,1,105,4|0,0:3|0:3,0:3:0:0:
177,175,36190,5,4,0:3:0:0:
467,146,36327,2,0,L|340:145,1,105,0|4,0:3|0:3,0:3:0:0:
467,146,36599,1,0,0:3:0:0:
177,74,36736,2,0,L|257:74,1,52.5,4|0,0:3|0:3,0:3:0:0:
419,253,36872,2,0,L|348:253,1,52.5,0|0,0:3|0:3,0:3:0:0:
174,330,37008,1,4,0:3:0:0:
347,332,37077,1,0,0:3:0:0:
174,330,37145,1,0,0:3:0:0:
347,332,37213,1,0,0:3:0:0:
134,223,37281,6,0,L|10:218,1,105,4|0,0:3|0:3,0:3:0:0:
311,138,37554,2,0,L|187:133,1,105,4|0,0:3|0:3,0:3:0:0:
468,235,37827,2,0,L|393:232,1,52.5,4|0,0:3|0:3,0:3:0:0:
248,320,37963,1,0,0:3:0:0:
248,320,37980,1,0,0:3:0:0:
415,232,38031,1,0,0:3:0:0:
415,232,38048,1,0,0:3:0:0:
145,331,38099,2,0,L|30:330,1,105,4|0,0:3|0:3,0:3:0:0:
331,186,38372,6,0,B|37:184|37:184|394:188,1,587.999982055665,6|6,0:3|0:3,0:3:0:0:
40,92,38781,1,2,0:3:0:0:
288,285,38918,2,0,L|210:288,1,57.7500017623902,6|0,0:3|0:3,0:3:0:0:
463,138,39054,2,0,L|466:218,1,57.7500017623902,0|0,0:3|0:3,0:3:0:0:
223,138,39190,2,0,L|372:130,1,115.50000352478,6|0,0:3|0:3,0:3:0:0:
39,195,39463,5,4,0:3:0:0:
328,249,39599,2,0,L|206:240,1,105,0|4,0:3|0:3,0:3:0:0:
328,249,39872,1,0,0:3:0:0:
41,355,40008,2,0,L|38:279,1,52.5,4|0,0:3|0:3,0:3:0:0:
239,169,40145,2,0,L|141:169,1,52.5,0|0,0:3|0:3,0:3:0:0:
380,277,40281,2,0,L|506:272,1,105,4|0,0:3|0:3,0:3:0:0:
256,81,40554,5,4,0:3:0:0:
26,148,40690,1,0,0:3:0:0:
256,81,40827,1,4,0:3:0:0:
486,148,40963,1,0,0:3:0:0:
255,202,41099,1,4,0:3:0:0:
84,205,41168,2,0,L|15:206,2,52.5,0|0|0,0:3|0:3|0:3,0:3:0:0:
257,288,41372,1,4,0:3:0:0:
431,281,41440,1,0,0:3:0:0:
257,288,41509,1,0,0:3:0:0:
431,281,41577,1,0,0:3:0:0:
208,366,41645,6,0,L|92:364,1,105,4|0,0:3|0:3,0:3:0:0:
384,126,41918,2,0,L|500:124,1,105,4|0,0:3|0:3,0:3:0:0:
214,208,42190,2,0,L|153:206,1,52.5,4|0,0:3|0:3,0:3:0:0:
339,219,42327,1,0,0:3:0:0:
339,219,42344,1,0,0:3:0:0:
494,228,42395,1,0,0:3:0:0:
494,228,42412,1,0,0:3:0:0:
211,321,42463,2,0,L|71:329,1,105,4|0,0:3|0:3,0:3:0:0:
493,140,42736,5,2,0:3:0:0:
257,143,42872,1,0,0:3:0:0:
257,143,43008,1,2,0:3:0:0:
27,139,43145,1,0,0:3:0:0:
438,332,43281,1,2,0:3:0:0:
74,332,43418,1,2,0:3:0:0:
256,297,43486,1,2,0:3:0:0:
438,332,43554,1,2,0:3:0:0:
74,332,43690,1,2,0:3:0:0:
487,66,43827,6,0,B|487:297|487:297|487:297|487:297|256:297|256:297|256:297|256:297|256:66|256:66|256:66|256:66|25:66|25:66|25:66|25:66|25:297|25:297|25:297|25:297|25:297|25:297|256:297|256:297|256:297|256:297|256:66|256:66|256:66|256:66|487:66|487:66|487:66|487:66|487:297|487:297|487:297|487:297|487:297|487:297|256:297|256:297|256:297|256:297|256:297|256:297|256:66|256:66|256:66|256:66|256:66|256:66|25:66|25:66|25:66|25:66|25:66|25:66|25:297|25:297|25:297|25:297|25:297|25:297|256:297|256:297|256:297|256:297|256:297|256:297|256:66|256:66|256:66|256:66|256:66|256:66|487:66,1,3696.00021853639,4|8,0:3|0:1,0:3:0:0:
469,169,46145,1,0,0:0:0:0:
338,66,46281,1,8,0:0:0:0:
320,162,46418,1,0,0:0:0:0:
189,65,46554,1,8,0:0:0:0:
171,154,46690,1,0,0:0:0:0:
25,70,46827,5,8,0:0:0:0:
43,169,46963,1,0,0:0:0:0:
174,65,47099,1,8,0:0:0:0:
192,161,47236,1,0,0:0:0:0:
323,64,47372,1,8,0:0:0:0:
341,153,47508,1,0,0:0:0:0:
37,218,47645,5,8,0:0:0:0:
159,214,47781,1,0,0:0:0:0:
475,218,47918,1,8,0:0:0:0:
353,214,48054,1,8,0:0:0:0:
36,124,48190,5,8,0:0:0:0:
226,113,48258,2,0,L|315:114,2,52.5
36,124,48463,1,8,0:0:0:0:
36,124,48599,1,0,0:0:0:0:
151,294,48736,1,8,0:0:0:0:
151,294,48872,1,0,0:0:0:0:
36,124,49008,1,8,0:0:0:0:
362,150,49145,6,0,L|435:147,1,52.5
194,73,49281,2,0,L|65:73,1,105,8|0,0:0|0:0,0:0:0:0:
316,250,49554,2,0,L|465:249,1,105,8|0,0:0|0:0,0:0:0:0:
194,73,49827,2,0,L|65:73,1,105,8|0,0:0|0:0,0:0:0:0:
316,250,50100,2,0,L|465:249,1,105,8|8,0:0|0:0,0:0:0:0:
32,252,50372,5,8,0:0:0:0:
308,156,50508,2,0,L|176:158,1,105,0|8,0:0|0:0,0:0:0:0:
480,252,50781,1,0,0:0:0:0:
186,317,50918,2,0,L|105:319,1,52.5,8|0,0:0|0:0,0:0:0:0:
326,317,51054,2,0,L|407:319,1,52.5
47,151,51190,1,8,0:0:0:0:
47,151,51207,1,0,0:0:0:0:
186,148,51258,1,0,0:0:0:0:
186,148,51275,1,0,0:0:0:0:
326,151,51327,1,0,0:0:0:0:
326,151,51344,1,0,0:0:0:0:
465,148,51395,1,0,0:0:0:0:
465,148,51412,1,0,0:0:0:0:
243,236,51463,6,0,L|125:235,1,105,4|0,0:3|0:3,0:3:0:0:
280,320,51736,2,0,L|293:186,1,105,4|0,0:3|0:3,0:3:0:0:
25,213,52008,2,0,L|17:109,1,105,6|0,0:3|0:3,0:3:0:0:
305,114,52281,2,0,L|201:114,1,105,6|4,0:3|0:3,0:3:0:0:
473,193,52554,5,4,0:3:0:0:
185,278,52690,1,0,0:0:0:0:
473,193,52827,2,0,L|355:198,1,105,8|0,0:0|0:0,0:0:0:0:
36,190,53099,1,4,0:3:0:0:
324,275,53235,1,0,0:0:0:0:
36,190,53372,2,0,L|154:195,1,105,8|0,0:0|0:0,0:0:0:0:
473,193,53645,5,4,0:3:0:0:
185,278,53781,1,0,0:0:0:0:
473,193,53918,2,0,L|355:198,1,105,8|0,0:0|0:0,0:0:0:0:
34,284,54190,2,0,L|26:134,1,105,4|0,0:3|0:0,0:0:0:0:
392,103,54463,1,8,0:0:0:0:
120,103,54599,1,8,0:0:0:0:
477,223,54736,6,0,B|183:201|183:201|488:189,2,587.999982055665,4|8|4,0:3|0:1|0:3,0:3:0:0:
185,278,55417,1,0,0:0:0:0:
473,193,55554,2,0,L|355:198,1,105,8|0,0:0|0:0,0:0:0:0:
16,158,55827,5,4,0:3:0:0:
257,153,55963,1,4,0:3:0:0:
16,158,56099,2,0,L|137:166,1,105,8|0,0:0|0:0,0:0:0:0:
415,335,56372,1,4,0:3:0:0:
97,335,56508,1,4,0:3:0:0:
256,335,56577,1,4,0:3:0:0:
415,335,56645,1,8,0:1:0:0:
97,335,56781,1,4,0:3:0:0:
465,243,56918,6,0,L|469:160,1,52.5,4|0,0:3|0:0,0:0:0:0:
287,133,57054,2,0,L|216:132,1,52.5
48,224,57190,2,0,L|170:223,1,105,8|0,0:0|0:0,0:0:0:0:
464,328,57463,1,4,0:3:0:0:
206,172,57599,2,0,L|337:174,1,105,0|8,0:0|0:0,0:0:0:0:
98,311,57872,2,0,L|18:312,1,52.5
331,310,58008,6,0,L|468:317,1,105,4|0,0:3|0:0,0:0:0:0:
181,310,58281,2,0,L|44:317,1,105,8|0,0:0|0:0,0:0:0:0:
473,193,58554,1,0,0:3:0:0:
185,278,58690,1,0,0:0:0:0:
473,193,58827,2,0,L|355:198,1,105,8|4,0:0|0:3,0:0:0:0:
34,284,59099,6,0,L|26:134,1,105,4|0,0:3|0:0,0:0:0:0:
392,103,59372,1,8,0:0:0:0:
120,103,59508,1,0,0:0:0:0:
467,312,59645,2,0,L|480:215,1,52.5,4|0,0:3|0:0,0:0:0:0:
280,218,59781,2,0,L|362:217,1,52.5
140,300,59918,2,0,L|18:303,1,105,8|8,0:0|0:0,0:0:0:0:
336,136,60190,5,4,0:3:0:0:
32,216,60327,1,4,0:3:0:0:
372,300,60463,2,0,L|494:303,1,105,8|0,0:0|0:0,0:0:0:0:
97,335,60736,1,4,0:3:0:0:
415,335,60872,1,4,0:3:0:0:
256,335,60941,1,0,0:0:0:0:
97,335,61009,1,8,0:0:0:0:
415,335,61145,1,4,0:3:0:0:
97,248,61281,6,0,P|29:197|113:129,1,210,4|8,0:2|0:0,0:0:0:0:
311,77,61690,2,0,L|211:78,1,52.5
464,143,61827,2,0,L|476:262,1,105,4|0,0:3|0:0,0:0:0:0:
225,324,62099,2,0,L|344:325,1,105,8|0,0:0|0:0,0:0:0:0:
48,143,62372,2,0,L|36:262,1,105,4|0,0:3|0:0,0:0:0:0:
287,324,62644,2,0,L|168:325,1,105,8|0,0:0|0:0,0:0:0:0:
464,143,62918,2,0,L|476:262,1,105,4|0,0:3|0:0,0:0:0:0:
178,226,63190,1,8,0:1:0:0:
465,143,63327,1,8,0:0:0:0:
180,244,63463,6,0,B|474:247|474:247|171:244,2,587.999982055665,4|8|4,0:3|0:0|0:3,0:0:0:0:
472,140,64145,2,0,L|328:139,1,105,0|8,0:0|0:0,0:0:0:0:
472,140,64418,1,0,0:0:0:0:
31,77,64554,1,4,0:3:0:0:
256,69,64690,1,0,0:0:0:0:
478,68,64827,2,0,L|356:68,1,105,8|0,0:0|0:0,0:0:0:0:
97,335,65099,1,4,0:3:0:0:
415,335,65235,1,4,0:3:0:0:
256,335,65304,1,0,0:0:0:0:
97,335,65372,1,8,0:0:0:0:
415,335,65508,1,4,0:3:0:0:
32,228,65645,5,4,0:3:0:0:
200,226,65713,2,0,L|283:226,2,52.5
30,114,65918,2,0,L|149:112,1,105,8|0,0:0|0:0,0:0:0:0:
464,143,66190,2,0,L|476:262,1,105,8|0,0:0|0:0,0:0:0:0:
195,311,66463,1,8,0:0:0:0:
475,247,66599,2,0,L|378:246,1,52.5
170,215,66736,2,0,L|47:214,1,105,4|0,0:3|0:0,0:0:0:0:
342,215,67008,2,0,L|465:214,1,105,8|0,0:0|0:0,0:0:0:0:
48,143,67281,2,0,L|36:262,1,105,4|0,0:3|0:0,0:0:0:0:
334,226,67553,1,8,0:0:0:0:
47,143,67690,1,4,0:3:0:0:
464,143,67827,6,0,L|476:262,1,105,4|0,0:3|0:0,0:0:0:0:
121,370,68099,1,8,0:0:0:0:
391,370,68236,1,0,0:0:0:0:
48,143,68372,2,0,L|36:262,1,105,4|0,0:3|0:0,0:0:0:0:
208,248,68577,1,0,0:0:0:0:
383,249,68645,2,0,L|265:247,1,105,8|8,0:0|0:0,0:0:0:0:
496,162,68918,5,4,0:3:0:0:
256,163,69054,1,4,0:3:0:0:
16,162,69190,1,8,0:1:0:0:
256,163,69326,1,4,0:3:0:0:
496,162,69463,1,4,0:3:0:0:
97,335,69599,1,4,0:3:0:0:
256,335,69667,1,4,0:3:0:0:
415,335,69736,1,8,0:0:0:0:
16,162,69872,1,4,0:3:0:0:
415,248,70008,6,0,P|483:197|399:129,1,210,4|8,0:2|0:0,0:0:0:0:
200,78,70418,2,0,L|300:79,1,52.5
48,143,70555,2,0,L|36:262,1,105,4|0,0:3|0:0,0:0:0:0:
287,324,70827,2,0,L|168:325,1,105,8|0,0:0|0:0,0:0:0:0:
464,143,71100,2,0,L|476:262,1,105,4|0,0:3|0:0,0:0:0:0:
225,324,71372,2,0,L|344:325,1,105,8|0,0:0|0:0,0:0:0:0:
48,143,71646,2,0,L|36:262,1,105,4|0,0:3|0:0,0:0:0:0:
334,226,71918,1,8,0:0:0:0:
47,143,72055,1,4,0:3:0:0:
332,244,72190,6,0,B|38:247|38:247|341:244,2,587.999982055665,4|8|4,0:3|0:0|0:3,0:0:0:0:
40,140,72872,2,0,L|184:139,1,105,0|8,0:0|0:0,0:0:0:0:
40,140,73145,1,0,0:0:0:0:
481,77,73281,1,4,0:3:0:0:
256,69,73417,1,4,0:3:0:0:
34,68,73554,2,0,L|156:68,1,105,8|0,0:0|0:0,0:0:0:0:
415,335,73826,1,4,0:3:0:0:
97,335,73963,1,4,0:3:0:0:
256,335,74032,1,0,0:0:0:0:
415,335,74099,1,8,0:0:0:0:
97,335,74236,1,4,0:3:0:0:
472,144,74372,6,0,L|477:211,1,52.5,4|0,0:3|0:0,0:0:0:0:
291,260,74508,2,0,L|375:263,1,52.5
151,207,74645,2,0,L|38:214,1,105,8|0,0:0|0:0,0:0:0:0:
361,207,74918,2,0,L|474:214,1,105,4|0,0:3|0:0,0:0:0:0:
149,333,75190,1,8,0:0:0:0:
464,301,75327,2,0,L|399:294,1,52.5
151,207,75463,2,0,L|46:213,1,105,4|0,0:3|0:0,0:0:0:0:
361,207,75736,2,0,L|465:213,1,105,8|0,0:0|0:0,0:0:0:0:
201,95,76008,2,0,L|324:90,1,105,4|0,0:3|0:0,0:0:0:0:
88,320,76281,1,8,0:0:0:0:
424,320,76418,1,0,0:0:0:0:
34,215,76554,6,0,B|140:220|140:220|14:214,1,210,4|0,0:3|0:0,0:0:0:0:
377,96,76963,2,0,B|271:101|271:101|397:95,1,210,4|0,0:3|0:0,0:0:0:0:
35,129,77372,1,4,0:3:0:0:
377,96,77508,1,4,0:3:0:0:
139,229,77645,2,0,L|18:216,1,105,4|0,0:3|0:0,0:0:0:0:
248,255,77849,2,0,L|249:374,1,105,4|0,0:3|0:0,0:0:0:0:
34,303,78054,1,4,0:3:0:0:
256,168,78190,1,2,0:3:0:0:
495,72,78327,1,0,0:3:0:0:
256,168,78463,1,2,0:3:0:0:
17,72,78600,1,0,0:3:0:0:
337,93,78736,5,4,0:2:0:0:
485,89,78872,1,4,0:3:0:0:
134,100,79008,1,4,0:3:0:0:
485,89,79144,1,4,0:3:0:0:
337,93,79281,1,4,0:3:0:0:
485,89,79417,1,4,0:3:0:0:
134,100,79553,1,4,0:3:0:0:
485,89,79689,1,4,0:3:0:0:
337,93,79827,1,4,0:3:0:0:
485,89,79963,1,4,0:3:0:0:
134,100,80099,1,4,0:3:0:0:
485,89,80235,1,4,0:3:0:0:
337,93,80372,1,4,0:3:0:0:
485,89,80508,1,4,0:3:0:0:
176,176,80645,6,0,L|96:176,1,57.7500017623902,4|0,0:3|0:3,0:3:0:0:
336,176,80781,2,0,L|416:176,1,57.7500017623902,0|0,0:3|0:3,0:3:0:0:
190,93,80918,1,4,0:3:0:0:
27,89,81054,1,4,0:3:0:0:
190,93,81191,1,4,0:3:0:0:
27,89,81327,1,4,0:3:0:0:
382,254,81463,2,0,L|386:327,1,57.7500017623902,4|0,0:3|0:3,0:3:0:0:
206,316,81599,1,2,0:3:0:0:
25,314,81668,1,0,0:3:0:0:
186,215,81736,2,0,L|264:215,2,57.7500017623902,4|0|2,0:3|0:3|0:3,0:3:0:0:
378,143,81940,1,0,0:3:0:0:
138,136,82008,6,0,L|9:141,1,105,6|0,0:3|0:3,0:3:0:0:
256,168,82281,1,6,0:3:0:0:
495,72,82418,1,6,0:3:0:0:
256,168,82554,1,6,0:3:0:0:
17,72,82691,1,4,0:3:0:0:
256,168,82827,1,6,0:3:0:0:
495,72,82964,1,4,0:3:0:0:
175,93,83099,5,4,0:2:0:0:
27,89,83235,1,4,0:3:0:0:
378,100,83372,1,4,0:3:0:0:
27,89,83507,1,4,0:3:0:0:
175,93,83644,1,4,0:3:0:0:
27,89,83780,1,4,0:3:0:0:
378,100,83918,1,4,0:3:0:0:
27,89,84054,1,4,0:3:0:0:
175,93,84190,1,4,0:3:0:0:
27,89,84326,1,4,0:3:0:0:
378,100,84463,1,4,0:3:0:0:
27,89,84599,1,4,0:3:0:0:
175,93,84736,1,4,0:3:0:0:
27,89,84871,1,4,0:3:0:0:
336,176,85008,6,0,L|416:176,1,57.7500017623902,4|0,0:3|0:3,0:3:0:0:
176,176,85144,2,0,L|96:176,1,57.7500017623902,0|0,0:3|0:3,0:3:0:0:
322,93,85281,1,4,0:3:0:0:
485,89,85417,1,4,0:3:0:0:
322,93,85554,1,4,0:3:0:0:
485,89,85690,1,4,0:3:0:0:
168,289,85827,2,0,L|108:288,1,57.7500017623902,4|0,0:3|0:3,0:3:0:0:
257,216,85963,1,2,0:3:0:0:
403,288,86031,1,0,0:3:0:0:
255,102,86099,2,0,L|161:100,2,57.7500017623902,4|0|2,0:3|0:3|0:3,0:3:0:0:
80,175,86304,1,0,0:3:0:0:
332,325,86372,6,0,L|484:326,1,105,6|0,0:3|0:3,0:3:0:0:
200,192,86645,2,0,L|352:193,1,105,2|2,0:3|0:3,0:3:0:0:
78,87,86918,1,2,0:3:0:0:
377,91,87054,1,2,0:3:0:0:
78,87,87190,2,0,L|79:215,1,105,2|2,0:3|0:3,0:3:0:0:
337,93,87464,5,4,0:2:0:0:
485,89,87600,1,4,0:3:0:0:
134,100,87736,1,4,0:3:0:0:
485,89,87872,1,4,0:3:0:0:
337,93,88009,1,4,0:3:0:0:
485,89,88145,1,4,0:3:0:0:
134,100,88281,1,4,0:3:0:0:
485,89,88417,1,4,0:3:0:0:
337,93,88555,1,4,0:3:0:0:
485,89,88691,1,4,0:3:0:0:
134,100,88827,1,4,0:3:0:0:
485,89,88963,1,4,0:3:0:0:
337,93,89100,1,4,0:3:0:0:
485,89,89236,1,4,0:3:0:0:
174,256,89372,6,0,L|99:257,1,57.7500017623902,4|0,0:3|0:3,0:3:0:0:
338,256,89508,2,0,L|413:257,1,57.7500017623902,0|0,0:3|0:3,0:3:0:0:
190,93,89645,1,4,0:3:0:0:
27,89,89781,1,4,0:3:0:0:
190,93,89917,1,4,0:3:0:0:
27,89,90053,1,4,0:3:0:0:
357,180,90190,2,0,L|426:179,1,57.7500017623902,4|0,0:3|0:3,0:3:0:0:
256,237,90327,1,2,0:3:0:0:
98,180,90395,1,0,0:3:0:0:
256,327,90463,2,0,L|340:326,2,57.7500017623902,4|0|2,0:3|0:3|0:3,0:3:0:0:
434,240,90668,1,0,0:3:0:0:
138,136,90736,6,0,L|9:141,1,105,4|0,0:3|0:3,0:3:0:0:
256,168,91008,1,6,0:3:0:0:
495,72,91145,1,6,0:3:0:0:
256,168,91282,1,6,0:3:0:0:
17,72,91419,1,4,0:3:0:0:
256,168,91555,1,6,0:3:0:0:
495,72,91690,1,4,0:3:0:0:
175,93,91827,5,4,0:2:0:0:
27,89,91963,1,4,0:3:0:0:
378,100,92100,1,4,0:3:0:0:
27,89,92235,1,4,0:3:0:0:
175,93,92372,1,4,0:3:0:0:
27,89,92508,1,4,0:3:0:0:
378,100,92646,1,4,0:3:0:0:
27,89,92782,1,4,0:3:0:0:
175,93,92918,1,4,0:3:0:0:
27,89,93054,1,4,0:3:0:0:
378,100,93191,1,4,0:3:0:0:
27,89,93327,1,4,0:3:0:0:
175,93,93464,1,4,0:3:0:0:
27,89,93599,1,4,0:3:0:0:
486,185,93736,5,4,0:3:0:0:
333,186,93804,1,0,0:3:0:0:
179,184,93872,1,0,0:3:0:0:
27,182,93940,1,0,0:3:0:0:
208,314,94008,2,0,L|354:315,1,105,6|0,0:3|0:3,0:3:0:0:
57,336,94213,2,0,L|47:211,1,105,4|0,0:3|0:3,0:3:0:0:
304,314,94418,2,0,L|158:315,1,105,6|0,0:3|0:3,0:3:0:0:
455,336,94623,2,0,L|465:211,1,105,6|0,0:3|0:3,0:3:0:0:
236,169,94827,1,2,0:3:0:0:
488,173,94963,1,2,0:3:0:0:
105,256,95099,6,0,L|233:247,1,105,4|0,0:3|0:3,0:3:0:0:
404,173,95304,2,0,L|299:165,1,105,2|0,0:3|0:3,0:3:0:0:
94,147,95508,1,2,0:3:0:0:
357,308,95645,2,0,L|482:296,1,125.999996154785,6|0,0:3|0:3,0:3:0:0:
155,308,95918,2,0,L|30:296,1,125.999996154785,6|0,0:3|0:3,0:3:0:0:
360,210,96190,6,0,P|417:197|474:88,1,188.999994232178,2|0,0:0|0:0,0:0:0:0:
335,107,96736,2,0,L|421:46,1,94.499997116089,2|0,0:0|0:0,0:0:0:0:
152,210,97145,6,0,P|95:197|38:88,1,188.999994232178,2|0,0:0|0:0,0:0:0:0:
173,91,97554,2,0,L|178:202,1,94.499997116089,2|0,0:0|0:0,0:0:0:0:
40,296,97827,2,0,L|133:241,1,94.499997116089,2|0,0:0|0:0,0:0:0:0:
40,296,98099,1,2,0:0:0:0:
256,240,98372,6,0,L|426:123,2,188.999994232178,2|0|0,0:0|0:0|0:0,0:0:0:0:
391,304,99054,2,0,L|404:75,1,188.999994232178,2|0,0:0|0:0,0:0:0:0:
192,380,99463,2,0,P|100:347|203:0,1,566.999982696534,2|2,0:0|0:0,0:0:0:0:
329,31,100418,1,0,0:0:0:0:
64,296,100554,6,0,L|56:88,1,188.999994232178,2|0,0:0|0:0,0:0:0:0:
217,205,101099,2,0,L|52:104,1,188.999994232178,2|0,0:0|0:0,0:0:0:0:
274,334,101508,6,0,L|444:217,2,188.999994232178,2|0|0,0:0|0:0|0:0,0:0:0:0:
136,312,102190,2,0,L|130:212,1,94.499997116089,2|0,0:0|0:0,0:0:0:0:
235,231,102463,2,0,L|125:206,1,94.499997116089,2|0,0:0|0:0,0:0:0:0:
389,226,102736,6,0,P|440:194|375:102,1,188.999994232178,2|0,0:0|0:0,0:0:0:0:
222,160,103281,2,0,L|207:375,1,188.999994232178,2|0,0:0|0:0,0:0:0:0:
347,353,103690,2,0,P|431:318|336:33,1,472.499985580445,2|2,0:0|0:0,0:0:0:0:
53,277,104918,6,0,L|45:88,1,188.999994232178,2|0,0:0|0:0,0:0:0:0:
185,107,105464,2,0,L|99:46,1,94.499997116089,2|0,0:0|0:0,0:0:0:0:
354,210,105873,6,0,P|411:197|468:88,1,188.999994232178,2|0,0:0|0:0,0:0:0:0:
333,91,106282,2,0,L|328:202,1,94.499997116089,2|0,0:0|0:0,0:0:0:0:
466,296,106555,2,0,L|373:241,1,94.499997116089,2|0,0:0|0:0,0:0:0:0:
466,296,106827,1,2,0:0:0:0:
240,329,107099,6,0,L|420:235,2,188.999994232178,2|0|0,0:0|0:0|0:0,0:0:0:0:
386,319,107781,2,0,P|440:284|374:197,1,188.999994232178,2|0,0:0|0:0,0:0:0:0:
184,364,108190,2,0,P|63:304|207:-21,1,566.999982696534,2|2,0:0|0:0,0:0:0:0:
320,32,109145,1,0,0:0:0:0:
53,164,109281,6,0,L|278:191,1,210,2|0,0:0|0:0,0:0:0:0:
48,88,109827,2,0,L|36:311,1,210,2|0,0:0|0:0,0:0:0:0:
278,232,110236,6,0,L|452:343,2,188.999994232178,2|0|0,0:0|0:0|0:0,0:0:0:0:
132,181,110918,2,0,L|127:307,1,94.499997116089,2|0,0:0|0:0,0:0:0:0:
234,332,111190,2,0,L|104:325,1,94.499997116089,2|0,0:0|0:0,0:0:0:0:
410,362,111463,6,0,L|418:138,1,188.999994232178,2|0,0:0|0:0,0:0:0:0:
279,94,112008,1,2,0:0:0:0:
409,129,112145,1,0,0:0:0:0:
279,94,112281,1,0,0:0:0:0:
68,363,112418,2,0,L|53:-64,1,420,2|0,0:0|0:0,0:0:0:0:
458,193,113645,5,4,0:2:0:0:
203,99,113781,2,0,L|341:89,1,105,0|2,0:2|0:2,0:2:0:0:
203,99,114054,1,0,0:2:0:0:
458,193,114190,2,0,L|465:339,1,105,2|2,0:2|0:2,0:2:0:0:
351,268,114463,1,0,0:2:0:0:
101,255,114599,6,0,P|50:217|108:101,1,210,2|2,0:2|0:2,0:2:0:0:
370,166,115008,2,0,L|261:152,1,105,2|0,0:2|0:2,0:2:0:0:
415,239,115281,2,0,L|426:366,1,105,2|0,0:2|0:2,0:2:0:0:
162,226,115554,2,0,L|53:212,1,105,2|0,0:2|0:2,0:2:0:0:
273,319,115827,6,0,P|336:295|410:167,1,210,2|2,0:2|0:2,0:2:0:0:
293,136,116236,1,0,0:2:0:0:
54,140,116372,1,2,0:2:0:0:
293,136,116508,2,0,P|363:93|274:35,1,210,2|2,0:2|0:2,0:2:0:0:
48,232,116918,6,0,L|169:225,1,105,2|0,0:2|0:2,0:2:0:0:
292,309,117190,2,0,L|167:308,1,105,2|0,0:2|0:2,0:2:0:0:
48,232,117463,2,0,L|169:225,1,105,2|0,0:2|0:2,0:2:0:0:
415,186,117736,1,2,0:2:0:0:
153,226,117872,1,2,0:2:0:0:
460,372,118008,6,0,L|472:257,1,105,2|0,0:2|0:2,0:2:0:0:
199,81,118281,2,0,L|332:79,1,105,2|0,0:2|0:2,0:2:0:0:
41,173,118554,2,0,L|158:148,1,105,2|0,0:2|0:2,0:2:0:0:
41,173,118827,1,2,0:2:0:0:
310,279,118963,6,0,L|318:154,1,105,2|0,0:2|0:2,0:2:0:0:
38,329,119236,2,0,L|272:359,1,210,2|0,0:2|0:2,0:2:0:0:
463,254,119645,2,0,L|347:239,1,105,2|0,0:2|0:2,0:2:0:0:
488,63,119918,2,0,L|498:177,1,105,2|0,0:2|0:2,0:2:0:0:
200,128,120190,6,0,L|318:142,1,105,2|0,0:2|0:2,0:2:0:0:
157,206,120463,2,0,L|29:186,1,105,2|0,0:2|0:2,0:2:0:0:
297,370,120736,2,0,L|306:244,1,105,2|0,0:2|0:2,0:2:0:0:
53,289,121008,1,2,0:2:0:0:
309,183,121145,6,0,P|372:157|296:76,1,210,2|2,0:2|0:2,0:2:0:0:
170,50,121554,2,0,L|296:60,1,105,0|2,0:2|0:2,0:2:0:0:
55,250,121827,2,0,L|49:128,1,105,2|0,0:2|0:2,0:2:0:0:
310,358,122099,2,0,L|178:363,1,105,2|0,0:2|0:2,0:2:0:0:
479,223,122372,6,0,L|214:207,2,241.500004606247,4|8|8,0:2|0:0|0:0,0:0:0:0:
193,77,123054,2,0,L|297:72,1,105,2|8,0:1|0:1,0:1:0:0:
193,77,123327,1,2,0:1:0:0:
447,338,123463,2,0,L|459:207,1,105,8|2,0:1|0:1,0:1:0:0:
193,191,123736,2,0,L|305:184,1,105,10|0,0:1|0:1,0:1:0:0:
65,338,124008,2,0,L|53:207,1,105,10|0,0:1|0:1,0:1:0:0:
296,296,124281,2,0,L|184:289,1,105,10|0,0:1|0:1,0:1:0:0:
486,223,124554,6,0,L|224:208,2,241.500004606247,10|10|10,0:1|0:1|0:1,0:1:0:0:
274,135,125236,2,0,L|16:116,1,251.999992309571,10|2,0:1|0:1,0:1:0:0:
323,335,125645,2,0,L|444:336,1,105,10|0,0:1|0:1,0:1:0:0:
189,335,125918,2,0,L|68:336,1,105,10|0,0:1|0:1,0:1:0:0:
323,335,126190,2,0,L|444:336,1,105,10|0,0:1|0:1,0:1:0:0:
136,222,126463,1,10,0:1:0:0:
388,160,126599,1,10,0:1:0:0:
44,79,126736,6,0,L|35:195,1,105,10|0,0:1|0:1,0:1:0:0:
373,159,127008,1,10,0:1:0:0:
126,224,127144,1,0,0:1:0:0:
463,257,127281,2,0,P|455:186|341:128,1,210,10|10,0:1|0:1,0:1:0:0:
57,72,127690,2,0,L|43:201,1,105,2|8,0:1|0:1,0:1:0:0:
177,227,127963,2,0,L|59:217,1,105,2|8,0:1|0:1,0:1:0:0:
372,196,128236,1,2,0:1:0:0:
69,322,128372,2,0,L|187:332,1,105,10|0,0:1|0:1,0:1:0:0:
309,279,128645,2,0,L|164:269,1,105,10|0,0:1|0:1,0:1:0:0:
450,338,128918,6,0,L|459:205,1,105,10|0,0:1|0:1,0:1:0:0:
286,188,129122,2,0,L|155:175,1,105,8|0,0:1|0:1,0:1:0:0:
350,100,129327,2,0,L|433:96,1,52.5,8|0,0:1|0:1,0:1:0:0:
62,338,129463,2,0,L|53:205,1,105,10|0,0:1|0:1,0:1:0:0:
226,188,129667,2,0,L|357:175,1,105,8|0,0:1|0:1,0:1:0:0:
162,100,129872,2,0,L|79:96,1,52.5,10|0,0:1|0:1,0:1:0:0:
344,290,130008,6,0,L|464:292,1,105,10|0,0:1|0:1,0:1:0:0:
168,290,130281,2,0,L|48:292,1,105,10|0,0:1|0:1,0:1:0:0:
309,203,130554,2,0,L|219:203,1,52.5,10|0,0:1|0:1,0:1:0:0:
440,146,130690,2,0,L|448:77,1,52.5,0|0,0:1|0:1,0:1:0:0:
219,119,130827,2,0,L|84:119,1,105,10|0,0:1|0:1,0:1:0:0:
481,236,131099,6,0,B|257:46|257:46|257:344|257:344|19:159,1,881.999973083497,4|4,0:3|0:3,0:0:0:0:
311,175,131645,1,8,0:0:0:0:
192,179,131781,2,0,L|188:84,1,52.5
369,82,131917,2,0,L|498:81,1,105,8|0,0:0|0:0,0:0:0:0:
31,236,132190,6,0,B|255:46|255:46|255:344|255:344|493:159,1,881.999973083497,4|4,0:3|0:3,0:0:0:0:
201,175,132736,1,8,0:0:0:0:
328,176,132872,2,0,L|240:176,1,52.5
30,280,133008,1,8,0:0:0:0:
257,284,133145,1,8,0:0:0:0:
481,236,133281,6,0,B|257:46|257:46|257:344|257:344|19:159,1,881.999973083497,4|4,0:3|0:3,0:0:0:0:
339,319,133827,2,0,L|459:317,1,105,8|0,0:0|0:0,0:0:0:0:
173,319,134099,2,0,L|53:317,1,105,8|0,0:0|0:0,0:0:0:0:
481,236,134372,6,0,B|257:46|257:46|257:344|257:344|19:159,1,881.999973083497,4|4,0:3|0:3,0:0:0:0:
256,315,134918,2,0,L|366:315,1,105,8|0,0:0|0:0,0:0:0:0:
83,149,135190,1,8,0:0:0:0:
429,149,135327,1,8,0:0:0:0:
84,250,135463,6,0,L|213:250,1,105,8|0,0:0|0:0,0:0:0:0:
357,169,135668,2,0,L|219:170,1,105,8|0,0:0|0:0,0:0:0:0:
81,111,135872,2,0,L|166:111,1,52.5,8|0,0:0|0:0,0:0:0:0:
428,250,136008,6,0,L|299:250,1,105,8|0,0:0|0:0,0:0:0:0:
139,185,136213,2,0,L|277:186,1,105,8|0,0:0|0:0,0:0:0:0:
431,111,136417,2,0,L|346:111,1,52.5,8|0,0:0|0:0,0:0:0:0:
43,330,136554,6,0,L|172:330,1,105,8|0,0:0|0:0,0:0:0:0:
359,254,136759,2,0,L|221:255,1,105,8|0,0:0|0:0,0:0:0:0:
40,191,136963,2,0,L|125:191,1,52.5,8|0,0:0|0:0,0:0:0:0:
469,330,137099,6,0,L|340:330,1,105,8|0,0:0|0:0,0:0:0:0:
158,251,137304,2,0,L|296:252,1,105,8|0,0:0|0:0,0:0:0:0:
472,191,137508,2,0,L|387:191,1,52.5,8|0,0:0|0:0,0:0:0:0:
186,60,137645,6,0,L|105:60,1,57.7500017623902,4|0,0:3|0:0,0:0:0:0:
326,60,137781,2,0,L|407:60,1,57.7500017623902,4|0,0:3|0:0,0:0:0:0:
167,150,137918,2,0,L|65:150,1,57.7500017623902,4|0,0:3|0:3,0:3:0:0:
342,150,138054,2,0,L|444:150,1,57.7500017623902,4|0,0:3|0:3,0:3:0:0:
144,249,138190,2,0,L|32:249,1,57.7500017623902,4|0,0:3|0:3,0:3:0:0:
361,248,138326,2,0,L|472:249,1,57.7500017623902,4|0,0:3|0:3,0:3:0:0:
119,344,138463,2,0,L|17:344,1,57.7500017623902,4|0,0:3|0:3,0:3:0:0:
389,347,138599,2,0,L|496:349,1,57.7500017623902,4|0,0:3|0:3,0:3:0:0:
245,175,138736,6,0,L|115:170,1,105,2|0,0:3|0:0,0:0:0:0:
264,175,139008,2,0,L|369:170,1,105,2|0,0:3|0:0,0:0:0:0:
26,250,139281,2,0,B|256:262|256:262|13:250,1,462.000014099122,2|2,0:3|0:3,0:0:0:0:
178,198,139622,1,0,0:0:0:0:
329,153,139690,1,2,0:3:0:0:
479,96,139758,1,0,0:0:0:0:
258,81,139827,6,0,L|123:69,1,115.50000352478,4|0,0:2|0:0,0:0:0:0:
458,208,140099,2,0,L|472:365,1,115.50000352478,6|0,0:0|0:0,0:0:0:0:
149,266,140372,1,6,0:0:0:0:
456,209,140508,1,2,0:0:0:0:
343,172,140645,1,4,0:0:0:0:
46,150,140781,6,0,L|311:98,1,231.000007049561,2|2,0:0|0:0,0:0:0:0:
43,281,141190,2,0,L|181:308,1,115.50000352478,6|0,0:0|0:0,0:0:0:0:
440,344,141463,2,0,L|445:259,1,57.7500017623902,6|0,0:0|0:0,0:0:0:0:
270,199,141599,2,0,L|356:192,1,57.7500017623902
145,106,141736,2,0,L|12:120,1,115.50000352478,6|0,0:0|0:0,0:0:0:0:
240,288,142008,5,6,0:0:0:0:
359,252,142043,1,0,0:0:0:0:
480,214,142077,2,0,L|486:158,5,28.8750008811951
265,121,142281,2,0,L|239:120,1,14.4375004405975,6|0,0:0|0:0,0:0:0:0:
98,206,142349,2,0,L|72:205,1,14.4375004405975
265,212,142418,2,0,L|250:213,1,14.4375004405975
96,287,142486,2,0,L|81:288,1,14.4375004405975
309,354,142554,2,0,L|432:353,1,115.50000352478,6|2,0:0|0:0,0:0:0:0:
107,217,142827,1,4,0:0:0:0:
424,220,142963,1,2,0:0:0:0:
221,129,143099,6,0,L|95:129,1,115.50000352478,6|0,0:0|0:0,0:0:0:0:
266,54,143304,1,0,0:0:0:0:
105,129,143372,1,6,0:0:0:0:
423,125,143508,1,2,0:0:0:0:
163,221,143645,2,0,L|18:222,1,115.50000352478,6|0,0:0|0:0,0:0:0:0:
405,206,143918,1,6,0:0:0:0:
100,345,144054,1,2,0:0:0:0:
460,312,144190,6,0,L|344:311,1,115.50000352478,6|0,0:0|0:0,0:0:0:0:
49,137,144463,1,6,0:0:0:0:
345,55,144599,1,0,0:0:0:0:
49,137,144736,2,0,L|164:136,1,115.50000352478,6|0,0:0|0:0,0:0:0:0:
49,137,145008,1,6,0:0:0:0:
296,296,145145,6,0,L|439:297,1,115.50000352478,2|4,0:0|0:0,0:0:0:0:
105,216,145418,1,2,0:0:0:0:
413,184,145554,2,0,L|270:183,1,115.50000352478,4|2,0:0|0:0,0:0:0:0:
45,325,145827,2,0,L|34:183,1,115.50000352478,6|0,0:0|0:0,0:0:0:0:
173,148,146099,2,0,L|42:146,1,115.50000352478,6|2,0:0|0:0,0:0:0:0:
360,144,146372,6,0,L|491:142,1,115.50000352478,6|0,0:0|0:0,0:0:0:0:
38,291,146645,2,0,L|75:291,1,28.8750008811951,4|0,0:0|0:0,0:0:0:0:
176,293,146713,2,0,L|227:293,1,28.8750008811951
305,291,146781,2,0,L|342:291,1,28.8750008811951
443,293,146849,2,0,L|494:293,1,28.8750008811951
329,198,146918,6,0,L|213:199,1,115.50000352478,6|0,0:0|0:0,0:0:0:0:
474,291,147190,2,0,L|437:291,1,28.8750008811951,4|0,0:0|0:0,0:0:0:0:
336,293,147258,2,0,L|285:293,1,28.8750008811951
207,291,147326,2,0,L|170:291,1,28.8750008811951
69,293,147394,2,0,L|18:293,1,28.8750008811951
183,198,147463,6,0,L|299:199,1,115.50000352478,6|0,0:0|0:0,0:0:0:0:
116,127,147668,1,0,0:0:0:0:
296,80,147736,2,0,L|400:80,1,57.7500017623902,6|0,0:0|0:0,0:0:0:0:
177,223,147872,2,0,L|96:224,1,57.7500017623902
311,345,148008,2,0,L|459:346,1,115.50000352478,6|0,0:0|0:0,0:0:0:0:
260,278,148213,1,0,0:0:0:0:
428,204,148281,2,0,L|298:202,1,115.50000352478,6|6,0:0|0:0,0:0:0:0:
38,320,148554,6,0,L|29:173,1,115.50000352478,4|0,0:2|0:0,0:0:0:0:
311,97,148827,2,0,L|169:84,1,115.50000352478,6|0,0:0|0:0,0:0:0:0:
456,61,149099,1,6,0:0:0:0:
195,86,149236,2,0,L|311:97,1,115.50000352478,2|4,0:0|0:0,0:0:0:0:
43,326,149508,6,0,L|305:286,1,231.000007049561,2|2,0:0|0:0,0:0:0:0:
38,320,149918,2,0,L|29:173,1,115.50000352478,6|0,0:0|0:0,0:0:0:0:
373,173,150190,1,6,0:0:0:0:
145,95,150327,1,0,0:0:0:0:
474,320,150463,2,0,L|483:173,1,115.50000352478,6|0,0:0|0:0,0:0:0:0:
146,260,150736,6,0,L|16:256,1,115.50000352478,6|0,0:0|0:0,0:0:0:0:
296,104,151008,2,0,L|322:103,1,14.4375004405975,6|0,0:0|0:0,0:0:0:0:
463,189,151076,2,0,L|489:188,1,14.4375004405975
296,195,151145,2,0,L|311:196,1,14.4375004405975
465,270,151213,2,0,L|480:271,1,14.4375004405975
265,146,151281,6,0,L|173:147,1,57.7500017623902,6|0,0:0|0:0,0:0:0:0:
37,326,151418,2,0,L|55:325,1,14.4375004405975,2|0,0:0|0:0,0:0:0:0:
178,324,151486,2,0,L|196:323,1,14.4375004405975
318,322,151554,2,0,L|336:321,1,14.4375004405975,4|0,0:0|0:0,0:0:0:0:
459,323,151622,2,0,L|477:322,1,14.4375004405975
298,233,151690,2,0,L|194:232,1,57.7500017623902,2|0,0:0|0:0,0:0:0:0:
50,230,151827,5,6,0:0:0:0:
172,139,151963,1,0,0:0:0:0:
23,141,152031,1,0,0:0:0:0:
172,139,152099,1,6,0:0:0:0:
465,136,152236,1,0,0:0:0:0:
173,289,152372,1,6,0:0:0:0:
412,187,152508,1,0,0:0:0:0:
256,188,152577,1,0,0:0:0:0:
100,187,152645,1,6,0:0:0:0:
465,285,152781,1,2,0:0:0:0:
154,348,152918,6,0,L|14:349,1,115.50000352478,6|0,0:0|0:0,0:0:0:0:
403,296,153190,1,6,0:0:0:0:
109,296,153327,1,0,0:0:0:0:
473,348,153463,2,0,L|358:348,1,115.50000352478,6|0,0:0|0:0,0:0:0:0:
45,227,153736,1,6,0:0:0:0:
398,60,153872,6,0,L|411:195,1,115.50000352478,2|4,0:0|0:0,0:0:0:0:
196,261,154145,2,0,L|358:259,1,115.50000352478,2|4,0:0|0:0,0:0:0:0:
67,142,154418,1,2,0:0:0:0:
450,309,154554,2,0,L|329:308,1,115.50000352478,6|0,0:0|0:0,0:0:0:0:
485,224,154827,2,0,L|495:90,1,115.50000352478,6|2,0:0|0:0,0:0:0:0:
152,144,155099,6,0,L|21:142,1,115.50000352478,6|0,0:0|0:0,0:0:0:0:
474,291,155372,2,0,L|437:291,1,28.8750008811951,4|0,0:0|0:0,0:0:0:0:
336,293,155440,2,0,L|285:293,1,28.8750008811951
207,291,155508,2,0,L|170:291,1,28.8750008811951
69,293,155576,2,0,L|18:293,1,28.8750008811951
183,198,155645,6,0,L|299:199,1,115.50000352478,6|2,0:0|0:0,0:0:0:0:
38,291,155917,2,0,L|75:291,1,28.8750008811951,6|0,0:0|0:0,0:0:0:0:
176,293,155985,2,0,L|227:293,1,28.8750008811951
305,291,156053,2,0,L|342:291,1,28.8750008811951
443,293,156121,2,0,L|494:293,1,28.8750008811951
285,131,156190,5,6,0:0:0:0:
129,128,156258,1,0,0:0:0:0:
285,131,156327,1,0,0:0:0:0:
480,200,156463,2,0,L|358:197,1,115.50000352478,6|0,0:0|0:0,0:0:0:0:
62,328,156736,1,6,0:0:0:0:
410,331,156872,1,0,0:0:0:0:
257,329,156940,1,0,0:0:0:0:
102,331,157008,1,6,0:0:0:0:
450,328,157145,1,6,0:0:0:0:
188,172,157281,6,0,L|319:158,1,115.50000352478,6|0,0:2|0:0,0:0:0:0:
45,231,157554,2,0,L|31:358,1,115.50000352478,6|0,0:0|0:0,0:0:0:0:
479,246,157827,1,6,0:0:0:0:
256,246,157963,1,2,0:0:0:0:
33,246,158099,1,4,0:0:0:0:
370,147,158236,6,0,L|140:112,1,231.000007049561,2|2,0:0|0:0,0:0:0:0:
469,340,158645,2,0,L|476:188,1,115.50000352478,6|0,0:0|0:0,0:0:0:0:
175,274,158918,2,0,L|23:286,1,115.50000352478,6|0,0:0|0:0,0:0:0:0:
317,178,159190,1,6,0:0:0:0:
56,112,159327,1,0,0:0:0:0:
252,288,159463,5,6,0:0:0:0:
371,252,159498,1,0,0:0:0:0:
492,214,159532,2,0,L|498:158,5,28.8750008811951
259,104,159736,2,0,L|233:103,1,14.4375004405975,6|0,0:0|0:0,0:0:0:0:
92,189,159804,2,0,L|66:188,1,14.4375004405975
262,201,159873,2,0,L|247:202,1,14.4375004405975
92,282,159941,2,0,L|78:282,1,14.4375004405975
338,253,160008,2,0,L|480:251,1,115.50000352478,6|2,0:0|0:0,0:0:0:0:
97,180,160281,1,4,0:0:0:0:
415,180,160418,1,2,0:0:0:0:
59,251,160554,6,0,L|174:253,1,115.50000352478,6|0,0:0|0:0,0:0:0:0:
340,188,160758,1,0,0:0:0:0:
175,253,160827,2,0,L|37:252,1,115.50000352478,6|2,0:0|0:0,0:0:0:0:
323,353,161099,2,0,L|183:354,1,115.50000352478,6|0,0:0|0:0,0:0:0:0:
489,194,161372,1,6,0:0:0:0:
256,192,161508,1,2,0:0:0:0:
31,193,161645,6,0,L|169:194,1,115.50000352478,6|0,0:0|0:0,0:0:0:0:
408,376,161918,1,6,0:0:0:0:
112,266,162054,1,0,0:0:0:0:
481,193,162190,2,0,L|343:194,1,115.50000352478,6|0,0:0|0:0,0:0:0:0:
481,193,162463,1,6,0:0:0:0:
201,103,162599,6,0,L|326:102,1,115.50000352478,2|4,0:0|0:0,0:0:0:0:
35,148,162872,1,2,0:0:0:0:
309,266,163008,2,0,L|179:266,1,115.50000352478,4|2,0:0|0:0,0:0:0:0:
470,342,163281,2,0,L|478:216,1,115.50000352478,6|0,0:0|0:0,0:0:0:0:
340,189,163554,2,8,L|472:160,1,115.50000352478,6|2,0:0|0:0,0:0:0:0:
138,293,163827,6,0,L|2:292,1,115.50000352478,6|0,0:0|0:0,0:0:0:0:
240,278,164099,1,4,0:0:0:0:
364,275,164133,1,0,0:0:0:0:
494,275,164168,2,0,L|500:234,5,28.8750008811951
314,156,164372,6,0,L|190:157,1,115.50000352478,6|0,0:0|0:0,0:0:0:0:
414,352,164645,2,0,L|414:312,1,28.8750008811951,4|0,0:0|0:0,0:0:0:0:
269,251,164713,2,0,L|223:250,1,28.8750008811951
98,352,164781,2,0,L|98:312,1,28.8750008811951
243,251,164849,2,0,L|289:250,1,28.8750008811951
467,74,164918,6,0,L|349:76,1,115.50000352478,6|0,0:0|0:0,0:0:0:0:
184,144,165122,1,0,0:0:0:0:
358,205,165190,2,0,L|264:205,1,57.7500017623902,6|0,0:0|0:0,0:0:0:0:
96,201,165327,2,0,L|10:202,1,57.7500017623902,2|0,0:0|0:0,0:0:0:0:
310,325,165463,2,0,L|448:325,1,115.50000352478,6|0,0:0|0:0,0:0:0:0:
272,250,165668,1,0,0:0:0:0:
426,325,165736,1,6,0:0:0:0:
303,326,165872,1,6,0:0:0:0:
40,327,166008,6,0,P|52:245|176:169,1,231.000007049561,4|0,0:2|0:0,0:0:0:0:
475,253,166418,2,0,P|447:144|346:95,1,231.000007049561,4|0,0:0|0:0,0:0:0:0:
45,76,166827,2,0,L|45:216,1,115.50000352478,4|0,0:0|0:0,0:0:0:0:
476,254,167099,6,0,L|342:249,1,115.50000352478,4|2,0:2|0:0,0:0:0:0:
476,254,167372,1,2,0:0:0:0:
184,246,167508,2,0,L|184:153,1,57.7500017623902
372,70,167645,2,0,L|495:68,1,115.50000352478,2|0,0:0|0:0,0:0:0:0:
222,180,167918,2,0,L|99:178,1,115.50000352478,6|0,0:0|0:0,0:0:0:0:
377,295,168190,6,0,P|439:277|366:178,1,231.000007049561,4|0,0:2|0:0,0:0:0:0:
45,254,168599,2,0,L|299:196,1,231.000007049561,4|0,0:0|0:0,0:0:0:0:
28,157,169008,1,4,0:0:0:0:
256,104,169145,1,0,0:0:0:0:
485,52,169281,6,0,L|339:33,1,115.50000352478,4|0,0:2|0:0,0:0:0:0:
212,173,169554,2,0,L|326:187,1,115.50000352478,2|0,0:0|0:0,0:0:0:0:
485,52,169827,2,0,L|370:37,1,115.50000352478,2|0,0:0|0:0,0:0:0:0:
128,128,170099,1,6,0:0:0:0:
392,256,170236,1,2,0:0:0:0:
36,184,170372,6,0,L|30:320,1,115.50000352478,4|0,0:2|0:0,0:0:0:0:
415,130,170645,1,6,0:0:0:0:
104,256,170782,1,0,0:0:0:0:
487,195,170918,2,0,L|224:241,1,231.000007049561,6|6,0:0|0:0,0:0:0:0:
394,284,171327,1,2,0:0:0:0:
43,79,171463,6,0,L|32:221,1,115.50000352478,4|2,0:2|0:0,0:0:0:0:
315,147,171736,2,0,L|152:149,1,115.50000352478,4|2,0:0|0:0,0:0:0:0:
485,213,172008,1,6,0:0:0:0:
185,249,172145,2,0,L|318:250,1,115.50000352478,2|6,0:0|0:0,0:0:0:0:
185,249,172418,1,2,0:0:0:0:
460,353,172554,6,0,L|469:207,1,115.50000352478,6|0,0:2|0:0,0:0:0:0:
263,77,172827,2,0,L|228:77,1,28.8750008811951,4|0,0:0|0:0,0:0:0:0:
95,185,172895,2,0,L|46:186,1,28.8750008811951
249,77,172963,2,0,L|284:77,1,28.8750008811951
417,185,173031,2,0,L|466:186,1,28.8750008811951
168,304,173099,6,0,L|39:304,1,115.50000352478,6|2,0:0|0:0,0:0:0:0:
249,77,173372,2,0,L|284:77,1,28.8750008811951,6|0,0:0|0:0,0:0:0:0:
417,185,173440,2,0,L|466:186,1,28.8750008811951
263,77,173508,2,0,L|228:77,1,28.8750008811951
95,185,173576,2,0,L|46:186,1,28.8750008811951
319,302,173645,5,4,0:0:0:0:
478,300,173713,1,0,0:0:0:0:
319,302,173781,1,6,0:0:0:0:
53,300,173918,1,6,0:0:0:0:
319,302,174054,1,0,0:0:0:0:
53,300,174190,1,6,0:0:0:0:
344,192,174327,2,0,L|440:192,1,57.7500017623902
215,131,174463,1,6,0:0:0:0:
66,97,174531,1,0,0:0:0:0:
297,131,174599,1,6,0:0:0:0:
446,97,174667,1,0,0:0:0:0:
184,345,174736,6,0,P|109:334|48:200,1,210,4|0,0:2|0:0,0:0:0:0:
192,152,175281,2,0,L|88:88,1,105,8|0,0:0|0:0,0:0:0:0:
356,301,175690,6,0,P|419:253|338:170,1,210,2|0,0:0|0:0,0:0:0:0:
210,110,176099,2,0,L|203:229,1,105
355,282,176372,2,0,L|102:310,1,210,10|0,0:0|0:0,0:0:0:0:
488,320,176918,6,0,L|497:109,1,210,2|0,0:0|0:0,0:0:0:0:
371,101,177327,1,0,0:0:0:0:
497,110,177463,1,8,0:0:0:0:
260,205,177599,2,0,P|200:165|267:68,1,210,2|0,0:0|0:0,0:0:0:0:
405,200,178008,6,0,L|399:310,1,105,2|0,0:0|0:0,0:0:0:0:
254,95,178281,2,0,L|248:205,1,105
103,184,178554,2,0,L|97:294,1,105,8|0,0:0|0:0,0:0:0:0:
399,350,178827,1,2,0:0:0:0:
267,326,178963,1,0,0:0:0:0:
31,244,179099,6,0,P|48:177|168:104,1,210,2|0,0:0|0:0,0:0:0:0:
61,73,179508,1,0,0:0:0:0:
287,175,179645,2,0,L|398:157,1,105,10|0,0:0|0:0,0:0:0:0:
287,175,179918,1,0,0:0:0:0:
139,264,180054,6,0,P|93:226|152:103,1,210,2|0,0:0|0:0,0:0:0:0:
390,342,180463,2,0,L|253:328,1,105
162,240,180736,2,0,L|284:228,1,105,10|0,0:0|0:0,0:0:0:0:
137,335,181008,2,0,L|129:198,1,105
369,175,181281,6,0,P|434:158|493:29,1,210,2|0,0:0|0:0,0:0:0:0:
284,121,181827,2,0,L|278:238,1,105,10|0,0:0|0:0,0:0:0:0:
382,208,182099,1,0,0:0:0:0:
145,305,182236,6,0,P|97:269|154:149,1,210,2|0,0:0|0:0,0:0:0:0:
291,119,182645,2,0,L|165:102,1,105,2|0,0:0|0:0,0:0:0:0:
43,11,182918,2,0,L|148:25,1,105,10|0,0:0|0:0,0:0:0:0:
291,119,183190,2,0,L|151:102,1,105,2|0,0:0|0:0,0:0:0:0:
471,151,183463,5,4,0:0:0:0:
236,265,184008,2,0,L|344:225,1,94.499997116089,2|0,0:0|0:0,0:0:0:0:
87,320,184418,2,0,P|37:278|99:184,1,188.999994232178,2|0,0:0|0:0,0:0:0:0:
180,211,184827,1,2,0:0:0:0:
339,238,185099,2,0,L|348:142,1,94.499997116089,2|0,0:0|0:0,0:0:0:0:
246,144,185372,2,0,L|238:238,1,94.499997116089,2|0,0:0|0:0,0:0:0:0:
388,333,185645,6,0,P|443:291|375:209,1,188.999994232178,2|0,0:0|0:0,0:0:0:0:
142,129,186190,2,0,L|39:66,1,94.499997116089,2|0,0:0|0:0,0:0:0:0:
254,271,186599,2,0,L|335:320,1,94.499997116089,2|0,0:0|0:0,0:0:0:0:
152,347,187008,2,0,P|110:308|167:199,1,188.999994232178,2|0,0:0|0:0,0:0:0:0:
335,320,187554,2,0,L|254:271,1,94.499997116089,2|0,0:0|0:0,0:0:0:0:
476,237,187827,5,2,0:0:0:0:
482,126,187969,1,0,0:0:0:0:
349,81,188112,1,2,0:0:0:0:
460,76,188254,1,0,0:0:0:0:
192,215,188398,1,2,0:0:0:0:
314,209,188555,1,0,0:0:0:0:
192,215,188713,1,2,0:0:0:0:
352,344,188871,1,2,0:0:0:0:
357,222,189028,5,0,0:0:0:0:
65,112,189205,2,0,L|49:397,1,270.900004133606,2|0,0:0|0:0,0:0:0:0:
217,316,189734,1,2,0:0:0:0:
370,258,189921,1,0,0:0:0:0:
208,216,190109,1,2,0:0:0:0:
40,168,190315,1,0,0:0:0:0:
320,168,190522,5,2,0:0:0:0:
496,128,190740,1,0,0:0:0:0:
320,168,190958,1,2,0:0:0:0:
496,128,191188,1,0,0:0:0:0:
148,212,191419,1,2,0:0:0:0:
382,296,191706,1,2,0:0:0:0:
32,352,192093,1,2,0:0:0:0:
472,176,192664,5,4,0:0:0:0:
40,96,193235,5,4,0:0:0:0:
472,176,193780,5,4,0:0:0:0:
40,96,194224,5,4,0:0:0:0:
472,176,194637,5,4,0:0:0:0:
40,96,194979,5,4,0:0:0:0:
328,260,195258,5,4,0:0:0:0:
40,96,195458,5,0,0:0:0:0:
263,137,195608,6,0,L|335:130,1,52.5,4|0,0:0|0:0,0:0:0:0:
164,231,195744,2,0,L|84:244,1,52.5
285,226,195880,2,0,L|357:219,1,52.5
149,337,196016,2,0,L|69:350,1,52.5
344,331,196153,5,4,0:0:0:0:
470,368,196286,1,4,0:0:0:0:
344,331,196419,1,4,0:0:0:0:
470,368,196553,1,4,0:0:0:0:
195,218,196686,1,4,0:0:0:0:
315,176,196822,1,4,0:0:0:0:
46,93,197028,1,4,0:0:0:0:
472,176,197313,5,4,0:0:0:0:
40,96,197639,5,4,0:0:0:0:
472,176,197996,5,4,0:0:0:0:
40,96,198320,5,4,0:0:0:0:
394,175,198720,5,4,0:0:0:0:
40,96,199278,5,4,0:0:0:0:
479,142,200420,5,4,0:2:0:0:
256,192,200547,12,0,202462,0:0:0:0:
411,311,215244,6,0,L|31:273,1,315.000012016297
385,220,215637,6,0,P|453:191|484:106,1,144.9000002211,8|0,0:0|0:0,0:0:0:0:
407,107,215918,1,0,0:0:0:0:
209,60,216012,2,0,L|204:144,1,72.4500001105499
298,164,216199,2,0,L|201:165,1,72.4500001105499,4|0,0:0|0:0,0:0:0:0:
33,188,216387,2,0,L|27:357,1,144.9000002211,8|0,0:0|0:0,0:0:0:0:
104,325,216668,1,0,0:0:0:0:
326,340,216762,6,0,L|150:340,1,139.649994246598,4|4,0:0|0:0,0:0:0:0:
475,238,217125,2,0,L|299:238,1,139.649994246598,8|0,0:0|0:0,0:0:0:0:
406,248,217398,1,0,0:0:0:0:
251,49,217489,2,0,L|167:47,1,69.8249971232988
261,134,217671,2,0,L|337:136,1,69.8249971232988,4|0,0:0|0:0,0:0:0:0:
130,202,217852,2,0,P|60:235|37:324,1,139.649994246598,8|0,0:0|0:0,0:0:0:0:
114,307,218125,1,0,0:0:0:0:
336,330,218216,6,0,L|485:335,1,132.299995962525,4|4,0:0|0:0,0:0:0:0:
193,234,218558,1,8,0:0:0:0:
470,238,218730,2,0,L|470:147,1,66.1499979812623
281,140,218901,2,0,L|200:137,1,66.1499979812623
405,64,219073,2,0,L|490:62,1,66.1499979812623,4|0,0:0|0:0,0:0:0:0:
282,283,219244,2,0,L|123:280,1,137.550002518616,8|0,0:0|0:0,0:0:0:0:
218,264,219512,1,0,0:0:0:0:
426,313,219602,6,0,L|429:167,1,124.949997521439,8|0,0:0|0:0,0:0:0:0:
357,184,219845,1,0,0:0:0:0:
179,177,219926,2,0,L|81:181,1,62.4749987607193
284,180,220088,2,0,L|287:34,1,124.949997521439,8|0,0:0|0:0,0:0:0:0:
215,45,220331,1,0,0:0:0:0:
433,98,220412,2,0,L|496:95,1,62.4749987607193
284,288,220574,2,0,L|137:296,1,124.949997521439,4|0,0:0|0:0,0:0:0:0:
472,360,220898,6,0,L|320:352,1,124.949997521439,4|4,0:0|0:0,0:0:0:0:
64,227,221222,1,8,0:0:0:0:
343,231,221384,2,0,L|424:227,1,62.4749987607193
218,63,221546,2,0,L|214:153,1,62.4749987607193
299,132,221708,2,0,L|374:126,1,62.4749987607193,4|0,0:0|0:0,0:0:0:0:
169,261,221871,2,0,L|24:256,1,121.800003717041,8|0,0:0|0:0,0:0:0:0:
112,240,222107,1,0,0:0:0:0:
334,333,222186,6,0,L|187:344,1,118.650000362091,4|4,0:0|0:0,0:0:0:0:
471,327,222493,2,0,L|477:181,1,115.50000352478,8|0,0:0|0:0,0:0:0:0:
412,211,222718,1,0,0:0:0:0:
266,113,222793,2,0,L|187:112,1,57.7500017623902
413,64,222943,2,0,L|504:63,1,57.7500017623902,4|0,0:0|0:0,0:0:0:0:
255,223,223093,2,0,L|100:219,1,115.50000352478,8|0,0:0|0:0,0:0:0:0:
204,214,223318,1,0,0:0:0:0:
413,337,223393,6,0,L|248:348,1,112.34999657135,4|4,0:0|0:0,0:0:0:0:
26,205,223685,1,8,0:0:0:0:
289,117,223832,2,0,L|384:115,1,56.1749982856751
181,180,223978,2,0,L|172:270,1,56.1749982856751
345,290,224124,2,0,L|434:288,1,56.1749982856751,4|0,0:0|0:0,0:0:0:0:
238,365,224271,1,8,0:0:0:0:
126,367,224417,1,0,0:0:0:0:
188,363,224490,1,0,0:0:0:0:
405,203,224563,5,8,0:0:0:0:
413,93,224705,1,0,0:0:0:0:
352,90,224777,1,0,0:0:0:0:
163,153,224848,1,8,0:0:0:0:
266,136,224991,1,0,0:0:0:0:
212,121,225063,1,0,0:0:0:0:
29,193,225134,1,8,0:0:0:0:
258,195,225270,1,8,0:0:0:0:
477,195,225406,2,0,L|481:283,1,62.9999980773926,8|0,0:0|0:0,0:0:0:0:
288,312,225543,2,0,L|385:312,1,62.9999980773926,8|0,0:0|0:0,0:0:0:0:
149,228,225679,6,0,L|18:231,1,105,4|0,0:2|0:0,0:0:0:0:
282,94,225951,2,0,L|387:91,1,105,2|0,0:0|0:0,0:0:0:0:
147,335,226224,2,0,L|49:337,3,57.7500017623902,2|0|0|0,0:0|0:0|0:0|0:0,0:0:0:0:
335,187,226497,2,0,L|467:186,1,105,2|0,0:0|0:0,0:0:0:0:
207,276,226769,6,0,L|318:277,1,105,2|0,0:0|0:0,0:0:0:0:
96,191,227042,1,2,0:0:0:0:
416,191,227179,1,0,0:0:0:0:
152,64,227315,2,0,L|54:66,3,57.7500017623902,2|0|0|0,0:0|0:0|0:0|0:0,0:0:0:0:
312,167,227588,2,0,L|450:166,1,105,2|0,0:0|0:0,0:0:0:0:
52,168,227860,6,0,L|42:289,1,105,2|0,0:0|0:0,0:0:0:0:
304,332,228133,2,0,L|184:333,1,105,2|0,0:0|0:0,0:0:0:0:
461,243,228406,2,0,L|364:243,3,57.7500017623902,2|0|0|0,0:0|0:0|0:0|0:0,0:0:0:0:
203,146,228679,2,0,L|55:147,1,105,2|0,0:0|0:0,0:0:0:0:
329,342,228951,6,0,L|444:344,1,105,2|0,0:0|0:0,0:0:0:0:
129,254,229224,1,2,0:0:0:0:
393,201,229360,1,0,0:0:0:0:
98,78,229497,2,0,L|24:80,1,57.7500017623902,2|0,0:0|0:0,0:0:0:0:
249,160,229633,2,0,L|171:160,1,57.7500017623902
367,268,229769,2,0,L|492:270,1,115.50000352478,6|0,0:0|0:0,0:0:0:0:
206,247,230042,6,0,L|195:365,1,105,6|0,0:0|0:0,0:0:0:0:
482,177,230315,2,0,L|344:180,1,105,2|0,0:0|0:0,0:0:0:0:
157,92,230588,2,0,L|64:92,3,57.7500017623902,2|0|0|0,0:0|0:0|0:0|0:0,0:0:0:0:
308,270,230860,2,0,L|438:272,1,105,2|0,0:0|0:0,0:0:0:0:
144,360,231133,6,0,L|127:236,1,105,2|0,0:0|0:0,0:0:0:0:
414,185,231406,1,2,0:0:0:0:
104,185,231543,1,0,0:0:0:0:
374,79,231679,2,0,L|463:81,3,57.7500017623902,2|0|0|0,0:0|0:0|0:0|0:0,0:0:0:0:
212,78,231951,2,0,L|108:76,1,105,2|0,0:0|0:0,0:0:0:0:
403,235,232224,5,6,0:0:0:0:
109,175,232360,2,0,L|240:176,1,105,0|2,0:0|0:0,0:0:0:0:
109,175,232633,1,0,0:0:0:0:
377,338,232769,2,0,L|466:340,3,57.7500017623902,2|0|0|0,0:0|0:0|0:0|0:0,0:0:0:0:
215,337,233042,2,0,L|99:337,1,105,2|0,0:0|0:0,0:0:0:0:
472,169,233315,6,0,L|480:52,1,105,6|0,0:0|0:0,0:0:0:0:
256,96,233588,2,0,L|345:95,2,57.7500017623902,2|0|0,0:0|0:0|0:0,0:0:0:0:
50,177,233860,1,2,0:0:0:0:
405,312,233997,1,2,0:0:0:0:
258,310,234065,1,0,0:0:0:0:
111,308,234133,1,2,0:0:0:0:
462,177,234269,1,2,0:0:0:0:
57,88,234406,6,0,L|48:217,1,105,4|0,0:2|0:0,0:0:0:0:
316,187,234679,2,0,L|186:193,1,105,2|0,0:0|0:0,0:0:0:0:
455,312,234951,2,0,L|465:228,1,52.5,2|0,0:0|0:0,0:0:0:0:
277,335,235088,2,0,L|330:339,1,52.5
139,239,235224,2,0,L|-5:247,1,105,6|0,0:0|0:0,0:0:0:0:
374,140,235497,6,0,L|518:148,1,105,6|0,0:0|0:0,0:0:0:0:
143,139,235769,2,0,L|0:155,1,105,2|0,0:0|0:0,0:0:0:0:
373,39,236042,2,0,L|287:41,1,52.5,2|0,0:0|0:0,0:0:0:0:
144,240,236179,2,0,L|222:238,1,52.5
374,351,236315,1,6,0:0:0:0:
77,353,236451,1,0,0:0:0:0:
374,351,236588,6,0,L|503:352,1,105,6|0,0:0|0:0,0:0:0:0:
213,138,236860,2,0,L|335:136,1,105,2|0,0:0|0:0,0:0:0:0:
57,312,237133,2,0,L|47:228,1,52.5,2|0,0:0|0:0,0:0:0:0:
235,335,237270,2,0,L|182:339,1,52.5
373,239,237406,2,0,L|517:247,1,105,6|0,0:0|0:0,0:0:0:0:
194,206,237679,6,0,L|307:198,1,105,6|0,0:0|0:0,0:0:0:0:
41,87,237951,1,6,0:0:0:0:
256,112,238087,1,0,0:0:0:0:
484,164,238224,2,0,L|406:164,1,52.5,6|0,0:0|0:0,0:0:0:0:
254,282,238360,2,0,L|338:280,1,52.5
126,179,238497,2,0,L|17:176,1,105,6|0,0:0|0:0,0:0:0:0:
381,347,238769,6,0,L|488:338,1,105,6|0,0:0|0:0,0:0:0:0:
316,238,238974,2,0,L|176:221,1,105
387,108,239179,1,8,0:0:0:0:
83,89,239315,2,0,L|73:219,1,105,4|0,0:0|0:0,0:0:0:0:
258,194,239519,1,0,0:0:0:0:
447,194,239588,1,10,0:0:0:0:
111,269,239724,1,2,0:0:0:0:
381,347,239860,6,0,L|488:338,1,105,4|0,0:0|0:0,0:0:0:0:
316,238,240065,2,0,L|176:221,1,105,8|0,0:0|0:0,0:0:0:0:
387,108,240269,2,0,L|516:91,1,105,8|4,0:0|0:0,0:0:0:0:
31,151,240542,1,2,0:0:0:0:
257,193,240679,1,10,0:0:0:0:
481,233,240815,1,2,0:0:0:0:
196,293,240951,6,0,L|74:306,1,115.50000352478,6|0,0:0|0:0,0:0:0:0:
437,123,241224,1,4,0:0:0:0:
81,306,241360,1,2,0:0:0:0:
324,295,241497,2,0,L|443:306,1,115.50000352478,6|0,0:0|0:0,0:0:0:0:
75,123,241770,1,6,0:0:0:0:
439,306,241906,1,2,0:0:0:0:
172,203,242042,6,0,L|55:213,1,105,12|0,0:0|0:0,0:0:0:0:
237,117,242247,2,0,L|375:124,1,105,4|0,0:0|0:0,0:0:0:0:
170,44,242451,2,0,L|100:50,1,52.5,4|0,0:0|0:0,0:0:0:0:
340,196,242588,6,0,L|457:186,1,105,12|0,0:0|0:0,0:0:0:0:
258,282,242793,2,0,L|120:275,1,105,4|0,0:0|0:0,0:0:0:0:
392,357,242997,2,0,L|462:351,1,52.5,4|0,0:0|0:0,0:0:0:0:
256,178,243133,5,4,0:0:0:0:
30,175,243269,1,4,0:0:0:0:
256,178,243406,1,4,0:0:0:0:
482,175,243542,1,4,0:0:0:0:
25,270,243679,2,0,L|534:272,1,462.000014099122,2|2,0:0|0:0,0:0:0:0:
42,118,244224,5,4,0:2:0:0:
315,150,244360,2,0,L|168:149,1,105,0|4,0:0|0:0,0:0:0:0:
315,150,244633,1,0,0:0:0:0:
42,208,244770,2,0,L|35:298,1,52.5,4|0,0:0|0:0,0:0:0:0:
238,328,244906,2,0,L|152:330,1,52.5
355,260,245042,2,0,L|482:262,1,105,4|0,0:0|0:0,0:0:0:0:
257,102,245315,5,4,0:0:0:0:
26,94,245451,1,0,0:0:0:0:
257,102,245588,1,4,0:0:0:0:
486,94,245724,1,0,0:0:0:0:
257,202,245860,1,4,0:0:0:0:
428,205,245929,2,0,L|496:205,2,52.5
255,288,246133,1,4,0:0:0:0:
81,281,246201,1,0,0:0:0:0:
255,288,246270,1,0,0:0:0:0:
81,281,246338,1,0,0:0:0:0:
316,357,246406,6,0,L|447:357,1,105,4|0,0:0|0:0,0:0:0:0:
141,161,246679,2,0,L|36:161,1,105,4|0,0:0|0:0,0:0:0:0:
296,87,246951,2,0,L|386:89,1,52.5,4|0,0:0|0:0,0:0:0:0:
181,85,247088,1,0,0:0:0:0:
181,85,247105,1,0,0:0:0:0:
16,84,247156,1,0,0:0:0:0:
16,84,247173,1,0,0:0:0:0:
300,188,247224,2,0,L|413:190,1,105,4|0,0:0|0:0,0:0:0:0:
104,360,247497,6,0,B|420:363|420:363|14:358,1,630.000024032594,6|6,0:0|0:0,0:0:0:0:
421,273,247906,1,2,0:0:0:0:
99,191,248042,2,0,L|12:193,1,57.7500017623902,6|0,0:0|0:0,0:0:0:0:
239,80,248179,2,0,L|154:76,1,57.7500017623902
357,168,248315,2,0,L|480:168,1,115.50000352478,6|0,0:0|0:0,0:0:0:0:
138,269,248588,5,4,0:0:0:0:
421,301,248724,2,0,L|274:300,1,105,0|4,0:0|0:0,0:0:0:0:
421,301,248997,1,0,0:0:0:0:
57,160,249133,2,0,L|50:250,1,52.5,4|0,0:0|0:0,0:0:0:0:
251,286,249269,2,0,L|165:288,1,52.5
378,212,249405,2,0,L|505:214,1,105,4|0,0:0|0:0,0:0:0:0:
255,96,249679,5,4,0:0:0:0:
488,92,249815,1,0,0:0:0:0:
255,96,249951,1,4,0:0:0:0:
22,92,250087,1,0,0:0:0:0:
264,232,250224,2,0,L|343:230,1,52.5,4|0,0:0|0:0,0:0:0:0:
121,141,250360,2,0,L|24:141,1,52.5
263,141,250497,1,4,0:0:0:0:
437,134,250565,1,0,0:0:0:0:
263,141,250634,1,0,0:0:0:0:
437,134,250702,1,0,0:0:0:0:
234,320,250770,6,0,L|96:326,1,105,4|0,0:0|0:0,0:0:0:0:
370,262,251042,2,0,L|475:257,1,105,4|0,0:0|0:0,0:0:0:0:
232,117,251315,2,0,L|154:121,1,52.5,4|0,0:0|0:0,0:0:0:0:
361,178,251451,1,0,0:0:0:0:
361,178,251468,1,0,0:0:0:0:
191,221,251520,1,0,0:0:0:0:
191,221,251537,1,0,0:0:0:0:
25,287,251588,2,0,L|159:292,1,105,4|0,0:0|0:0,0:0:0:0:
362,280,251860,6,0,L|472:281,1,105
238,170,252133,2,0,L|323:167,2,52.5,2|0|2,0:0|0:0|0:0,0:0:0:0:
469,151,252406,1,2,0:0:0:0:
173,78,252542,1,2,0:0:0:0:
338,78,252610,1,2,0:0:0:0:
173,78,252679,1,2,0:0:0:0:
469,151,252815,1,2,0:0:0:0:
149,184,252951,6,0,L|29:186,1,105,4|0,0:0|0:0,0:0:0:0:
317,325,253224,2,0,L|166:325,1,105,4|0,0:0|0:0,0:0:0:0:
470,208,253497,2,0,L|477:298,1,52.5,4|0,0:0|0:0,0:0:0:0:
274,328,253633,2,0,L|360:330,1,52.5
157,260,253769,2,0,L|30:262,1,105,4|0,0:0|0:0,0:0:0:0:
335,175,254042,5,4,0:0:0:0:
45,146,254179,2,0,L|172:145,1,105,0|4,0:0|0:0,0:0:0:0:
45,146,254451,1,0,0:0:0:0:
335,74,254588,2,0,L|255:74,1,52.5,4|0,0:0|0:0,0:0:0:0:
93,253,254724,2,0,L|164:253,1,52.5
338,330,254860,1,4,0:0:0:0:
165,332,254929,1,0,0:0:0:0:
338,330,254997,1,0,0:0:0:0:
165,332,255065,1,0,0:0:0:0:
378,223,255133,6,0,L|502:218,1,105,4|0,0:0|0:0,0:0:0:0:
201,138,255406,2,0,L|325:133,1,105,4|0,0:0|0:0,0:0:0:0:
44,235,255679,2,0,L|119:232,1,52.5,4|0,0:0|0:0,0:0:0:0:
264,320,255815,1,0,0:0:0:0:
264,320,255832,1,0,0:0:0:0:
97,232,255883,1,0,0:0:0:0:
97,232,255900,1,0,0:0:0:0:
367,331,255951,2,0,L|482:330,1,105,4|0,0:0|0:0,0:0:0:0:
181,186,256224,6,0,B|475:184|475:184|118:188,1,587.999982055665,4|6,0:0|0:0,0:0:0:0:
472,92,256633,1,2,0:0:0:0:
224,285,256770,2,0,L|302:288,1,57.7500017623902,6|0,0:0|0:0,0:0:0:0:
49,138,256906,2,0,L|46:218,1,57.7500017623902
289,138,257042,2,0,L|140:130,1,115.50000352478,6|0,0:0|0:0,0:0:0:0:
473,195,257315,5,4,0:0:0:0:
184,249,257451,2,0,L|306:240,1,105,0|4,0:0|0:0,0:0:0:0:
184,249,257724,1,0,0:0:0:0:
471,355,257860,2,0,L|474:279,1,52.5,4|0,0:0|0:0,0:0:0:0:
273,169,257997,2,0,L|371:169,1,52.5
132,277,258133,2,0,L|6:272,1,105,4|0,0:0|0:0,0:0:0:0:
256,81,258406,5,4,0:0:0:0:
486,148,258542,1,0,0:0:0:0:
256,81,258679,1,4,0:0:0:0:
26,148,258815,1,0,0:0:0:0:
257,202,258951,1,4,0:0:0:0:
428,205,259020,2,0,L|497:206,2,52.5
255,288,259224,1,4,0:0:0:0:
81,281,259292,1,0,0:0:0:0:
255,288,259361,1,0,0:0:0:0:
81,281,259429,1,0,0:0:0:0:
304,366,259497,6,0,L|420:364,1,105,4|0,0:0|0:0,0:0:0:0:
128,126,259770,2,0,L|12:124,1,105,4|0,0:0|0:0,0:0:0:0:
298,208,260042,2,0,L|359:206,1,52.5,4|0,0:0|0:0,0:0:0:0:
173,219,260179,1,0,0:0:0:0:
173,219,260196,1,0,0:0:0:0:
18,228,260247,1,0,0:0:0:0:
18,228,260264,1,0,0:0:0:0:
301,321,260315,2,0,L|441:329,1,105,4|0,0:0|0:0,0:0:0:0:
43,358,260588,6,0,L|36:229,1,105,2|0,0:0|0:0,0:0:0:0:
311,124,260860,2,0,L|195:126,1,105,2|0,0:0|0:0,0:0:0:0:
472,124,261133,1,2,0:0:0:0:
90,240,261269,1,2,0:0:0:0:
256,239,261338,1,2,0:0:0:0:
422,240,261406,1,2,0:0:0:0:
40,124,261542,1,2,0:0:0:0:
460,72,261679,6,0,L|469:188,1,105,4|0,0:2|0:0,0:0:0:0:
202,153,261951,2,0,L|316:166,1,105
32,256,262224,2,0,L|28:325,1,52.5
224,312,262360,2,0,L|312:312,1,62.9999980773926
482,224,262497,2,0,L|2:136,1,462.000014099122,4|4,0:0|0:2,0:0:0:0:
324,99,262906,5,0,0:0:0:0:
28,254,263042,2,0,L|150:252,1,105
427,296,263315,2,0,L|504:296,1,52.5
289,349,263451,2,0,L|212:349,1,52.5
482,160,263588,2,0,L|2:248,1,462.000014099122,4|4,0:1|0:2,0:0:0:0:
309,90,263997,6,0,L|173:91,1,105
459,260,264269,1,0,0:0:0:0:
73,335,264406,2,0,L|-4:338,1,52.5
213,223,264542,2,0,L|290:224,1,52.5
27,243,264679,2,0,L|482:160,1,462.000014099122,4|4,0:0|0:2,0:0:0:0:
197,77,265088,6,0,L|318:77,1,105,0|4,0:0|0:0,0:0:0:0:
29,148,265360,1,0,0:0:0:0:
342,246,265497,2,0,L|417:245,1,52.5,4|0,0:0|0:0,0:0:0:0:
145,340,265633,2,0,L|69:342,1,52.5
394,336,265769,2,0,L|531:340,1,105,4|0,0:0|0:0,0:0:0:0:
45,278,266042,6,0,L|35:155,1,105,4|0,0:2|0:0,0:0:0:0:
309,98,266315,2,0,L|180:98,1,105,4|0,0:0|0:0,0:0:0:0:
465,196,266588,2,0,L|471:268,1,52.5,4|0,0:2|0:0,0:0:0:0:
299,290,266725,2,0,L|394:291,1,52.5
155,349,266861,2,0,L|25:349,1,105,4|0,0:0|0:0,0:0:0:0:
382,117,267133,6,0,L|492:119,1,105,4|0,0:2|0:0,0:0:0:0:
287,221,267338,2,0,L|176:221,1,105,4|0,0:0|0:0,0:0:0:0:
382,316,267542,2,0,L|448:315,1,52.5,4|0,0:0|0:0,0:0:0:0:
130,117,267679,6,0,L|20:119,1,105,4|0,0:2|0:0,0:0:0:0:
225,221,267884,2,0,L|336:221,1,105,4|0,0:0|0:0,0:0:0:0:
100,318,268088,2,0,L|34:317,1,52.5,4|0,0:0|0:0,0:0:0:0:
326,60,268224,6,0,L|407:60,1,57.7500017623902,4|0,0:0|0:0,0:0:0:0:
186,60,268360,2,0,L|105:60,1,57.7500017623902
345,150,268497,2,0,L|447:150,1,57.7500017623902,4|0,0:0|0:0,0:0:0:0:
170,150,268633,2,0,L|68:150,1,57.7500017623902
368,249,268769,2,0,L|480:249,1,57.7500017623902,4|0,0:0|0:0,0:0:0:0:
151,248,268905,2,0,L|40:249,1,57.7500017623902
393,344,269042,2,0,L|495:344,1,57.7500017623902,4|0,0:0|0:0,0:0:0:0:
123,347,269178,2,0,L|16:349,1,57.7500017623902
256,214,269315,6,0,P|317:177|252:60,1,231.000007049561,0|2,0:0|0:0,0:0:0:0:
128,74,269724,1,2,0:0:0:0:
456,192,269860,1,2,0:0:0:0:
181,198,269997,1,2,0:0:0:0:
33,200,270065,1,2,0:0:0:0:
181,198,270133,1,2,0:0:0:0:
456,192,270269,1,2,0:0:0:0:
152,309,270406,6,0,L|22:309,1,115.50000352478,4|0,0:2|0:0,0:0:0:0:
360,309,270679,2,0,L|490:309,1,115.50000352478,4|0,0:0|0:0,0:0:0:0:
46,225,270951,2,0,L|39:156,1,57.7500017623902,4|0,0:0|0:0,0:0:0:0:
221,97,271088,2,0,L|140:97,1,57.7500017623902
354,191,271224,2,0,L|484:192,1,115.50000352478,4|0,0:0|0:0,0:0:0:0:
157,275,271497,5,4,0:0:0:0:
471,278,271633,2,0,L|322:276,1,115.50000352478,0|4,0:0|0:0,0:0:0:0:
471,278,271906,1,0,0:0:0:0:
155,170,272042,1,4,0:0:0:0:
375,174,272110,2,0,L|291:173,2,57.7500017623902
206,260,272315,1,4,0:0:0:0:
30,258,272383,1,0,0:0:0:0:
206,260,272451,1,0,0:0:0:0:
382,263,272519,1,0,0:0:0:0:
155,351,272588,6,0,L|22:352,1,115.50000352478,4|0,0:0|0:0,0:0:0:0:
413,348,272860,1,4,0:0:0:0:
99,36,272997,1,0,0:0:0:0:
395,93,273133,2,0,L|482:93,1,57.7500017623902,4|0,0:0|0:0,0:0:0:0:
280,95,273269,1,0,0:0:0:0:
280,95,273286,1,0,0:0:0:0:
453,93,273338,1,0,0:0:0:0:
453,93,273355,1,0,0:0:0:0:
165,187,273406,2,0,L|35:188,1,115.50000352478,4|0,0:0|0:0,0:0:0:0:
317,305,273679,6,0,L|168:306,1,115.50000352478,6|0,0:0|0:0,0:0:0:0:
476,167,273951,1,6,0:0:0:0:
257,160,274088,1,2,0:0:0:0:
35,161,274224,2,0,L|103:162,1,57.7500017623902,6|0,0:0|0:0,0:0:0:0:
252,61,274360,2,0,L|150:60,1,57.7500017623902
363,199,274497,2,0,L|494:199,1,115.50000352478,6|0,0:0|0:0,0:0:0:0:
99,344,274769,5,4,0:0:0:0:
397,292,274906,2,0,L|268:292,1,115.50000352478,0|4,0:0|0:0,0:0:0:0:
397,292,275179,1,0,0:0:0:0:
46,225,275315,2,0,L|39:156,1,57.7500017623902,4|0,0:0|0:0,0:0:0:0:
221,97,275452,2,0,L|140:97,1,57.7500017623902
354,191,275588,2,0,L|484:192,1,115.50000352478,4|0,0:0|0:0,0:0:0:0:
162,255,275860,5,4,0:0:0:0:
468,312,275997,2,0,L|342:311,1,115.50000352478,0|4,0:0|0:0,0:0:0:0:
468,312,276269,1,0,0:0:0:0:
159,92,276406,2,0,L|156:167,1,57.7500017623902,4|0,0:0|0:0,0:0:0:0:
340,218,276542,2,0,L|420:218,1,57.7500017623902
207,307,276679,1,4,0:0:0:0:
41,309,276747,1,0,0:0:0:0:
207,307,276815,1,0,0:0:0:0:
41,309,276883,1,0,0:0:0:0:
276,114,276951,6,0,L|409:114,1,115.50000352478,4|0,0:0|0:0,0:0:0:0:
136,226,277224,2,0,L|14:226,1,115.50000352478,4|0,0:0|0:0,0:0:0:0:
288,304,277497,2,0,L|218:304,1,57.7500017623902,4|0,0:0|0:0,0:0:0:0:
425,214,277633,1,0,0:0:0:0:
425,214,277650,1,0,0:0:0:0:
256,215,277701,1,0,0:0:0:0:
256,215,277718,1,0,0:0:0:0:
87,214,277769,2,0,L|239:214,1,115.50000352478,4|0,0:0|0:0,0:0:0:0:
472,99,278042,6,0,L|354:100,1,115.50000352478
66,328,278315,1,2,0:0:0:0:
446,328,278451,1,0,0:0:0:0:
45,220,278588,6,0,L|117:220,1,57.7500017623902,4|0,0:0|0:0,0:0:0:0:
259,315,278724,2,0,L|169:313,1,57.7500017623902,2|2,0:0|0:0,0:0:0:0:
25,124,278860,1,6,0:0:0:0:
25,124,278877,1,0,0:0:0:0:
181,126,278929,1,0,0:0:0:0:
181,126,278946,1,0,0:0:0:0:
334,126,278997,1,2,0:0:0:0:
334,126,279014,1,0,0:0:0:0:
489,128,279066,1,0,0:0:0:0:
489,128,279083,1,0,0:0:0:0:
181,230,279133,6,0,L|111:231,1,57.7500017623902,6|0,0:0|0:0,0:0:0:0:
334,232,279269,2,0,L|404:233,1,57.7500017623902,2|2,0:0|0:0,0:0:0:0:
181,34,279406,1,6,0:0:0:0:
181,34,279423,1,0,0:0:0:0:
25,36,279475,1,0,0:0:0:0:
25,36,279492,1,0,0:0:0:0:
181,34,279542,1,2,0:0:0:0:
181,34,279559,1,0,0:0:0:0:
25,36,279611,1,0,0:0:0:0:
25,36,279628,1,0,0:0:0:0:
331,230,279679,6,0,L|401:231,1,57.7500017623902,6|0,0:0|0:0,0:0:0:0:
178,232,279815,2,0,L|108:233,1,57.7500017623902,2|2,0:0|0:0,0:0:0:0:
331,34,279952,1,6,0:0:0:0:
331,34,279969,1,0,0:0:0:0:
487,36,280019,1,0,0:0:0:0:
487,36,280036,1,0,0:0:0:0:
331,34,280088,1,2,0:0:0:0:
331,34,280105,1,0,0:0:0:0:
487,36,280156,1,0,0:0:0:0:
487,36,280174,1,0,0:0:0:0:
255,121,280224,6,0,B|24:121|24:121|24:121|24:121|255:121|255:121|255:121|255:121|255:121|255:121|486:121|486:121|486:121|486:121|255:121|255:121|255:121|255:121|255:121|255:121|24:121|24:121|24:121|24:121|255:121|255:121|255:121|255:121|255:121|255:121|486:121|486:121|486:121|486:121|255:121|255:121|255:121|255:121|255:121|255:121|24:121|24:121|24:121|24:121|255:121|255:121|255:121|255:121|255:121|255:121|486:121|486:121|486:121|486:121|255:121|255:121|255:121|255:121|255:121|255:121|24:121|24:121|24:121|24:121|255:121|255:121|255:121|255:121|255:121|255:121|486:121|486:121|486:121|486:121|255:121,1,3696.00021853638,4|0,0:2|0:0,0:0:0:0:
