osu file format v14

[General]
AudioFilename: Kick-ass Kung-fu Carnival (PLight Remix).mp3
AudioLeadIn: 0
PreviewTime: 137365
Countdown: 0
SampleSet: Soft
StackLeniency: 0.7
Mode: 3
LetterboxInBreaks: 0
SpecialStyle: 0
WidescreenStoryboard: 0

[Editor]
Bookmarks: 27393,49679,71622,93565,115508,131965,159393,181336,203279,225222
DistanceSpacing: 1.2
BeatDivisor: 4
GridSize: 4
TimelineZoom: 1.4

[Metadata]
Title:Kick-ass Kung-fu Carnival (P*Light Remix)
TitleUnicode:Kick-ass Kung-fu Carnival (P*Light Remix)
Artist:t+pazolite
ArtistUnicode:t+pazolite
Creator:Sky_Demon
Version:Kick 400 ass
Source:
Tags:絢爛喧騒オリエント (Kenran Kensou Orient) C.H.S (Cutie & Headshaking Sounds)
BeatmapID:858103
BeatmapSetID:394242

[Difficulty]
HPDrainRate:5
CircleSize:4
OverallDifficulty:5
ApproachRate:5
SliderMultiplier:1.4
SliderTickRate:1

[Events]
//Background and Video events
0,0,"FDSWpQN.jpg",0,0
//Break Periods
//Storyboard Layer 0 (Background)
//Storyboard Layer 1 (Fail)
//Storyboard Layer 2 (Pass)
//Storyboard Layer 3 (Foreground)
//Storyboard Sound Samples

[TimingPoints]
308,342.857142857143,4,2,0,20,1,0
48308,-200,4,2,0,20,0,0
49336,-66.6666666666667,4,2,0,20,0,0
49508,-133.333333333333,4,2,0,20,0,0
49593,-200,4,2,0,20,0,0
49679,-100,4,2,0,20,0,0
92193,-200,4,2,0,20,0,0
93222,-66.6666666666667,4,2,0,20,0,0
93393,-133.333333333333,4,2,0,20,0,0
93479,-200,4,2,0,20,0,0
93565,-100,4,2,0,20,0,0
159222,-200,4,2,0,20,0,0
159393,-66.6666666666667,4,2,0,20,0,0
159565,-200,4,2,0,20,0,0
159736,-66.6666666666667,4,2,0,20,0,0
159908,-200,4,2,0,20,0,0
160079,-66.6666666666667,4,2,0,20,0,0
160250,-200,4,2,0,20,0,0
160422,-66.6666666666667,4,2,0,20,0,0
160593,-200,4,2,0,20,0,0
160765,-66.6666666666667,4,2,0,20,0,0
160936,-200,4,2,0,20,0,0
161108,-66.6666666666667,4,2,0,20,0,0
161279,-200,4,2,0,20,0,0
161450,-66.6666666666667,4,2,0,20,0,0
161622,-200,4,2,0,20,0,0
161793,-66.6666666666667,4,2,0,20,0,0
161965,-200,4,2,0,20,0,0
162136,-66.6666666666667,4,2,0,20,0,0
162308,-200,4,2,0,20,0,0
162479,-66.6666666666667,4,2,0,20,0,0
162650,-200,4,2,0,20,0,0
162822,-66.6666666666667,4,2,0,20,0,0
162993,-200,4,2,0,20,0,0
163165,-66.6666666666667,4,2,0,20,0,0
163336,-200,4,2,0,20,0,0
163508,-66.6666666666667,4,2,0,20,0,0
163679,-200,4,2,0,20,0,0
163850,-66.6666666666667,4,2,0,20,0,0
164022,-200,4,2,0,20,0,0
164193,-66.6666666666667,4,2,0,20,0,0
164365,-200,4,2,0,20,0,0
164536,-66.6666666666667,4,2,0,20,0,0
164708,-200,4,2,0,20,0,0
164879,-66.6666666666667,4,2,0,20,0,0
165050,-200,4,2,0,20,0,0
165222,-66.6666666666667,4,2,0,20,0,0
165393,-200,4,2,0,20,0,0
165565,-66.6666666666667,4,2,0,20,0,0
165736,-200,4,2,0,20,0,0
165908,-66.6666666666667,4,2,0,20,0,0
166079,-200,4,2,0,20,0,0
166250,-66.6666666666667,4,2,0,20,0,0
166422,-200,4,2,0,20,0,0
166593,-66.6666666666667,4,2,0,20,0,0
166765,-200,4,2,0,20,0,0
166936,-66.6666666666667,4,2,0,20,0,0
167108,-200,4,2,0,20,0,0
167279,-66.6666666666667,4,2,0,20,0,0
167450,-200,4,2,0,20,0,0
167622,-66.6666666666667,4,2,0,20,0,0
167793,-200,4,2,0,20,0,0
167965,-66.6666666666667,4,2,0,20,0,0
168136,-200,4,2,0,20,0,0
168308,-66.6666666666667,4,2,0,20,0,0
168479,-200,4,2,0,20,0,0
168650,-66.6666666666667,4,2,0,20,0,0
168822,-200,4,2,0,20,0,0
168993,-66.6666666666667,4,2,0,20,0,0
169165,-200,4,2,0,20,0,0
169336,-66.6666666666667,4,2,0,20,0,0
169508,-200,4,2,0,20,0,0
169679,-66.6666666666667,4,2,0,20,0,0
169850,-200,4,2,0,20,0,0
170022,-100,4,2,0,20,0,0
177222,-66.6666666666667,4,2,0,20,0,0
177308,-200,4,2,0,20,0,0
177393,-66.6666666666667,4,2,0,20,0,0
177479,-200,4,2,0,20,0,0
177565,-66.6666666666667,4,2,0,20,0,0
177650,-200,4,2,0,20,0,0
177736,-66.6666666666667,4,2,0,20,0,0
177822,-200,4,2,0,20,0,0
177908,-66.6666666666667,4,2,0,20,0,0
177993,-200,4,2,0,20,0,0
178079,-66.6666666666667,4,2,0,20,0,0
178165,-200,4,2,0,20,0,0
178250,-66.6666666666667,4,2,0,20,0,0
178336,-200,4,2,0,20,0,0
178422,-66.6666666666667,4,2,0,20,0,0
178508,-200,4,2,0,20,0,0
178593,-100,4,2,0,20,0,0
179965,-200,4,2,0,20,0,0
180993,-66.6666666666667,4,2,0,20,0,0
181165,-133.333333333333,4,2,0,20,0,0
181250,-200,4,2,0,20,0,0
181336,-100,4,2,0,20,0,0

[HitObjects]
64,192,308,5,0,0:0:0:0:
448,192,308,1,0,0:0:0:0:
320,192,308,1,0,0:0:0:0:
192,192,479,128,0,650:0:0:0:0:
448,192,650,1,0,0:0:0:0:
64,192,650,1,0,0:0:0:0:
192,192,822,128,0,993:0:0:0:0:
64,192,993,1,0,0:0:0:0:
192,192,1165,128,0,1336:0:0:0:0:
320,192,1336,1,0,0:0:0:0:
448,192,1336,1,0,0:0:0:0:
192,192,1508,128,0,1679:0:0:0:0:
448,192,1679,1,0,0:0:0:0:
320,192,1850,128,0,2022:0:0:0:0:
64,192,2022,1,0,0:0:0:0:
192,192,2022,1,0,0:0:0:0:
320,192,2193,128,0,2365:0:0:0:0:
448,192,2365,1,0,0:0:0:0:
320,192,2536,128,0,2708:0:0:0:0:
64,192,2708,1,0,0:0:0:0:
192,192,2708,1,0,0:0:0:0:
320,192,2879,128,0,3050:0:0:0:0:
448,192,3050,1,0,0:0:0:0:
64,192,3222,128,0,3393:0:0:0:0:
320,192,3393,1,0,0:0:0:0:
448,192,3393,1,0,0:0:0:0:
64,192,3565,128,0,3736:0:0:0:0:
192,192,3736,1,0,0:0:0:0:
64,192,3908,128,0,4079:0:0:0:0:
320,192,4079,1,0,0:0:0:0:
448,192,4079,1,0,0:0:0:0:
64,192,4250,128,0,4422:0:0:0:0:
448,192,4422,1,0,0:0:0:0:
320,192,4593,128,0,4765:0:0:0:0:
64,192,4765,1,0,0:0:0:0:
448,192,4765,1,0,0:0:0:0:
320,192,4936,128,0,5108:0:0:0:0:
192,192,5108,1,0,0:0:0:0:
320,192,5279,128,0,5450:0:0:0:0:
448,192,5450,1,0,0:0:0:0:
64,192,5450,1,0,0:0:0:0:
320,192,5622,128,0,5793:0:0:0:0:
192,192,5793,1,0,0:0:0:0:
448,192,5965,128,0,6136:0:0:0:0:
64,192,6136,1,0,0:0:0:0:
192,192,6136,1,0,0:0:0:0:
448,192,6308,128,0,6479:0:0:0:0:
192,192,6479,1,0,0:0:0:0:
448,192,6650,128,0,6822:0:0:0:0:
64,192,6822,1,0,0:0:0:0:
320,192,6822,1,0,0:0:0:0:
448,192,6993,128,0,7165:0:0:0:0:
64,192,7165,1,0,0:0:0:0:
192,192,7336,128,0,7508:0:0:0:0:
448,192,7508,1,0,0:0:0:0:
64,192,7508,1,0,0:0:0:0:
192,192,7679,128,0,7850:0:0:0:0:
320,192,7850,1,0,0:0:0:0:
192,192,8022,128,0,8193:0:0:0:0:
320,192,8193,1,0,0:0:0:0:
448,192,8193,1,0,0:0:0:0:
192,192,8365,128,0,8536:0:0:0:0:
64,192,8536,1,0,0:0:0:0:
320,192,8708,128,0,8879:0:0:0:0:
64,192,8879,1,0,0:0:0:0:
192,192,8879,1,0,0:0:0:0:
320,192,9050,128,0,9222:0:0:0:0:
64,192,9222,1,0,0:0:0:0:
320,192,9393,128,0,9565:0:0:0:0:
192,192,9565,1,0,0:0:0:0:
448,192,9565,1,0,0:0:0:0:
320,192,9736,128,0,9908:0:0:0:0:
192,192,9908,1,0,0:0:0:0:
64,192,10079,128,0,10250:0:0:0:0:
320,192,10250,1,0,0:0:0:0:
448,192,10250,1,0,0:0:0:0:
64,192,10422,128,0,10593:0:0:0:0:
448,192,10593,1,0,0:0:0:0:
64,192,10765,128,0,10936:0:0:0:0:
192,192,10936,1,0,0:0:0:0:
320,192,10936,1,0,0:0:0:0:
64,192,11108,128,0,11279:0:0:0:0:
448,192,11279,1,0,0:0:0:0:
320,192,11279,1,0,0:0:0:0:
192,192,11279,1,0,0:0:0:0:
320,192,11622,1,0,0:0:0:0:
192,192,11622,1,0,0:0:0:0:
448,192,11622,1,0,0:0:0:0:
64,192,11965,1,0,0:0:0:0:
192,192,11965,1,0,0:0:0:0:
448,192,11965,1,0,0:0:0:0:
64,192,12308,1,0,0:0:0:0:
192,192,12308,1,0,0:0:0:0:
320,192,12308,1,0,0:0:0:0:
192,192,12650,1,0,0:0:0:0:
64,192,12650,1,0,0:0:0:0:
448,192,12650,1,0,0:0:0:0:
320,192,12993,1,0,0:0:0:0:
192,192,12993,1,0,0:0:0:0:
64,192,12993,1,0,0:0:0:0:
320,192,13336,1,0,0:0:0:0:
448,192,13336,1,0,0:0:0:0:
192,192,13336,1,0,0:0:0:0:
320,192,13679,1,0,0:0:0:0:
448,192,13679,1,0,0:0:0:0:
192,192,13679,1,0,0:0:0:0:
64,192,13850,1,0,0:0:0:0:
192,192,13850,1,0,0:0:0:0:
448,192,13850,1,0,0:0:0:0:
320,192,14022,1,0,0:0:0:0:
64,192,14022,1,0,0:0:0:0:
192,192,14022,1,0,0:0:0:0:
192,192,14365,1,0,0:0:0:0:
320,192,14365,1,0,0:0:0:0:
448,192,14365,1,0,0:0:0:0:
64,192,14708,1,0,0:0:0:0:
192,192,14708,1,0,0:0:0:0:
448,192,14708,1,0,0:0:0:0:
320,192,15050,1,0,0:0:0:0:
448,192,15050,1,0,0:0:0:0:
64,192,15050,1,0,0:0:0:0:
64,192,15393,1,0,0:0:0:0:
192,192,15393,1,0,0:0:0:0:
320,192,15393,1,0,0:0:0:0:
320,192,15736,1,0,0:0:0:0:
448,192,15736,1,0,0:0:0:0:
192,192,15736,1,0,0:0:0:0:
64,192,16079,1,0,0:0:0:0:
448,192,16079,1,0,0:0:0:0:
320,192,16165,1,0,0:0:0:0:
320,192,16336,1,0,0:0:0:0:
448,192,16422,1,0,0:0:0:0:
192,192,16422,1,0,0:0:0:0:
64,192,16593,1,0,0:0:0:0:
192,192,16679,1,0,0:0:0:0:
448,192,16765,1,0,0:0:0:0:
64,192,16765,1,0,0:0:0:0:
320,192,16765,1,0,0:0:0:0:
320,192,16936,1,0,0:0:0:0:
192,192,17108,1,0,0:0:0:0:
448,192,17108,1,0,0:0:0:0:
320,192,17279,1,0,0:0:0:0:
64,192,17450,1,0,0:0:0:0:
192,192,17450,1,0,0:0:0:0:
320,192,17622,1,0,0:0:0:0:
64,192,17793,1,0,0:0:0:0:
448,192,17793,1,0,0:0:0:0:
320,192,17965,1,0,0:0:0:0:
192,192,18050,1,0,0:0:0:0:
64,192,18136,1,0,0:0:0:0:
448,192,18136,1,0,0:0:0:0:
320,192,18136,1,0,0:0:0:0:
192,192,18308,1,0,0:0:0:0:
448,192,18479,1,0,0:0:0:0:
320,192,18479,1,0,0:0:0:0:
192,192,18650,1,0,0:0:0:0:
64,192,18822,1,0,0:0:0:0:
320,192,18822,1,0,0:0:0:0:
448,192,18993,1,0,0:0:0:0:
192,192,19165,1,0,0:0:0:0:
64,192,19165,1,0,0:0:0:0:
320,192,19250,1,0,0:0:0:0:
448,192,19336,1,0,0:0:0:0:
192,192,19422,1,0,0:0:0:0:
64,192,19508,1,0,0:0:0:0:
320,192,19508,1,0,0:0:0:0:
448,192,19593,1,0,0:0:0:0:
320,192,19679,1,0,0:0:0:0:
192,192,19765,1,0,0:0:0:0:
64,192,19850,1,0,0:0:0:0:
448,192,19850,1,0,0:0:0:0:
320,192,19936,1,0,0:0:0:0:
448,192,20022,1,0,0:0:0:0:
320,192,20108,1,0,0:0:0:0:
192,192,20193,1,0,0:0:0:0:
64,192,20193,1,0,0:0:0:0:
448,192,20279,1,0,0:0:0:0:
192,192,20365,1,0,0:0:0:0:
320,192,20450,1,0,0:0:0:0:
64,192,20536,1,0,0:0:0:0:
448,192,20536,1,0,0:0:0:0:
192,192,20622,1,0,0:0:0:0:
320,192,20708,1,0,0:0:0:0:
64,192,20793,1,0,0:0:0:0:
192,192,20879,1,0,0:0:0:0:
448,192,20879,1,0,0:0:0:0:
320,192,20879,128,0,21565:0:0:0:0:
64,192,21222,1,0,0:0:0:0:
448,192,21222,1,0,0:0:0:0:
64,192,21565,1,0,0:0:0:0:
448,192,21565,1,0,0:0:0:0:
192,192,21650,1,0,0:0:0:0:
64,192,21736,1,0,0:0:0:0:
192,192,21822,1,0,0:0:0:0:
320,192,21908,1,0,0:0:0:0:
448,192,21908,1,0,0:0:0:0:
64,192,21993,1,0,0:0:0:0:
192,192,22079,1,0,0:0:0:0:
320,192,22165,1,0,0:0:0:0:
64,192,22250,128,0,26965:0:0:0:0:
448,192,25508,1,0,0:0:0:0:
192,192,25593,1,0,0:0:0:0:
320,192,25679,1,0,0:0:0:0:
192,192,25765,1,0,0:0:0:0:
448,192,25850,1,0,0:0:0:0:
320,192,25936,1,0,0:0:0:0:
192,192,26022,1,0,0:0:0:0:
448,192,26108,1,0,0:0:0:0:
320,192,26193,1,0,0:0:0:0:
448,192,26279,1,0,0:0:0:0:
192,192,26365,1,0,0:0:0:0:
320,192,26450,1,0,0:0:0:0:
192,192,26536,1,0,0:0:0:0:
448,192,26622,1,0,0:0:0:0:
320,192,26708,1,0,0:0:0:0:
448,192,26793,1,0,0:0:0:0:
192,192,26879,1,0,0:0:0:0:
320,192,26965,1,0,0:0:0:0:
320,192,27393,1,0,0:0:0:0:
192,192,27393,1,0,0:0:0:0:
448,192,27393,1,0,0:0:0:0:
64,192,27393,1,0,0:0:0:0:
192,192,27736,1,0,0:0:0:0:
64,192,27736,1,0,0:0:0:0:
448,192,27736,1,0,0:0:0:0:
320,192,27908,1,0,0:0:0:0:
64,192,27908,1,0,0:0:0:0:
320,192,28079,1,0,0:0:0:0:
64,192,28079,1,0,0:0:0:0:
448,192,28250,1,0,0:0:0:0:
192,192,28422,1,0,0:0:0:0:
320,192,28422,1,0,0:0:0:0:
192,192,28593,1,0,0:0:0:0:
320,192,28593,1,0,0:0:0:0:
64,192,28765,1,0,0:0:0:0:
320,192,28936,1,0,0:0:0:0:
192,192,28936,1,0,0:0:0:0:
320,192,29108,1,0,0:0:0:0:
192,192,29108,1,0,0:0:0:0:
448,192,29279,1,0,0:0:0:0:
192,192,29450,1,0,0:0:0:0:
64,192,29450,1,0,0:0:0:0:
192,192,29622,1,0,0:0:0:0:
64,192,29622,1,0,0:0:0:0:
448,192,29793,1,0,0:0:0:0:
192,192,29879,1,0,0:0:0:0:
64,192,29965,1,0,0:0:0:0:
320,192,30050,1,0,0:0:0:0:
448,192,30136,128,0,30308:0:0:0:0:
320,192,30308,128,0,30479:0:0:0:0:
64,192,30479,1,0,0:0:0:0:
192,192,30650,1,0,0:0:0:0:
448,192,30650,1,0,0:0:0:0:
192,192,30822,1,0,0:0:0:0:
448,192,30822,1,0,0:0:0:0:
320,192,30993,1,0,0:0:0:0:
64,192,31165,1,0,0:0:0:0:
192,192,31165,1,0,0:0:0:0:
64,192,31336,1,0,0:0:0:0:
192,192,31336,1,0,0:0:0:0:
448,192,31508,1,0,0:0:0:0:
192,192,31679,1,0,0:0:0:0:
320,192,31679,1,0,0:0:0:0:
192,192,31850,1,0,0:0:0:0:
320,192,31850,1,0,0:0:0:0:
448,192,32022,1,0,0:0:0:0:
64,192,32193,1,0,0:0:0:0:
320,192,32193,1,0,0:0:0:0:
64,192,32365,1,0,0:0:0:0:
320,192,32365,1,0,0:0:0:0:
192,192,32536,1,0,0:0:0:0:
448,192,32622,1,0,0:0:0:0:
192,192,32708,1,0,0:0:0:0:
64,192,32793,1,0,0:0:0:0:
320,192,32879,128,0,33050:0:0:0:0:
448,192,33050,128,0,33222:0:0:0:0:
192,192,33222,1,0,0:0:0:0:
320,192,33393,1,0,0:0:0:0:
64,192,33393,1,0,0:0:0:0:
320,192,33565,1,0,0:0:0:0:
64,192,33565,1,0,0:0:0:0:
192,192,33736,1,0,0:0:0:0:
64,192,33908,1,0,0:0:0:0:
448,192,33908,1,0,0:0:0:0:
64,192,34079,1,0,0:0:0:0:
448,192,34079,1,0,0:0:0:0:
320,192,34250,1,0,0:0:0:0:
192,192,34422,1,0,0:0:0:0:
64,192,34422,1,0,0:0:0:0:
192,192,34593,1,0,0:0:0:0:
64,192,34593,1,0,0:0:0:0:
320,192,34765,1,0,0:0:0:0:
448,192,34936,1,0,0:0:0:0:
192,192,34936,1,0,0:0:0:0:
448,192,35108,1,0,0:0:0:0:
192,192,35108,1,0,0:0:0:0:
64,192,35279,1,0,0:0:0:0:
320,192,35365,1,0,0:0:0:0:
448,192,35450,1,0,0:0:0:0:
192,192,35536,1,0,0:0:0:0:
64,192,35622,128,0,35793:0:0:0:0:
192,192,35793,128,0,35965:0:0:0:0:
320,192,35965,1,0,0:0:0:0:
448,192,36136,1,0,0:0:0:0:
64,192,36136,1,0,0:0:0:0:
448,192,36308,1,0,0:0:0:0:
64,192,36308,1,0,0:0:0:0:
192,192,36479,1,0,0:0:0:0:
64,192,36650,1,0,0:0:0:0:
320,192,36650,1,0,0:0:0:0:
64,192,36822,1,0,0:0:0:0:
320,192,36822,1,0,0:0:0:0:
448,192,36993,1,0,0:0:0:0:
320,192,37165,1,0,0:0:0:0:
64,192,37165,1,0,0:0:0:0:
320,192,37336,1,0,0:0:0:0:
64,192,37336,1,0,0:0:0:0:
192,192,37508,1,0,0:0:0:0:
320,192,37679,1,0,0:0:0:0:
448,192,37679,1,0,0:0:0:0:
320,192,37850,1,0,0:0:0:0:
448,192,37850,1,0,0:0:0:0:
192,192,38022,128,0,38108:0:0:0:0:
64,192,38108,128,0,38193:0:0:0:0:
320,192,38193,128,0,38279:0:0:0:0:
192,192,38279,128,0,38365:0:0:0:0:
320,192,38365,128,0,38536:0:0:0:0:
192,192,38536,128,0,38708:0:0:0:0:
64,192,38708,1,0,0:0:0:0:
448,192,38708,1,0,0:0:0:0:
320,192,38879,1,0,0:0:0:0:
320,192,39050,1,0,0:0:0:0:
448,192,39050,1,0,0:0:0:0:
64,192,39222,1,0,0:0:0:0:
192,192,39393,1,0,0:0:0:0:
448,192,39393,1,0,0:0:0:0:
192,192,39565,1,0,0:0:0:0:
448,192,39736,1,0,0:0:0:0:
64,192,39736,1,0,0:0:0:0:
320,192,39908,1,0,0:0:0:0:
320,192,40079,1,0,0:0:0:0:
448,192,40079,1,0,0:0:0:0:
64,192,40250,1,0,0:0:0:0:
192,192,40422,1,0,0:0:0:0:
320,192,40422,1,0,0:0:0:0:
192,192,40593,1,0,0:0:0:0:
448,192,40765,1,0,0:0:0:0:
64,192,40765,1,0,0:0:0:0:
320,192,40850,1,0,0:0:0:0:
448,192,40936,1,0,0:0:0:0:
320,192,41022,1,0,0:0:0:0:
448,192,41108,1,0,0:0:0:0:
64,192,41108,1,0,0:0:0:0:
192,192,41279,1,0,0:0:0:0:
320,192,41279,1,0,0:0:0:0:
64,192,41450,1,0,0:0:0:0:
448,192,41450,1,0,0:0:0:0:
320,192,41450,1,0,0:0:0:0:
192,192,41622,1,0,0:0:0:0:
192,192,41793,1,0,0:0:0:0:
448,192,41793,1,0,0:0:0:0:
320,192,41965,1,0,0:0:0:0:
64,192,42136,1,0,0:0:0:0:
448,192,42136,1,0,0:0:0:0:
64,192,42308,1,0,0:0:0:0:
192,192,42479,1,0,0:0:0:0:
320,192,42479,1,0,0:0:0:0:
448,192,42650,1,0,0:0:0:0:
448,192,42822,1,0,0:0:0:0:
64,192,42822,1,0,0:0:0:0:
320,192,42993,1,0,0:0:0:0:
192,192,43165,1,0,0:0:0:0:
448,192,43165,1,0,0:0:0:0:
192,192,43336,1,0,0:0:0:0:
448,192,43508,1,0,0:0:0:0:
320,192,43508,1,0,0:0:0:0:
64,192,43593,1,0,0:0:0:0:
192,192,43593,1,0,0:0:0:0:
320,192,43679,1,0,0:0:0:0:
192,192,43765,1,0,0:0:0:0:
448,192,43765,1,0,0:0:0:0:
320,192,43850,1,0,0:0:0:0:
64,192,44022,1,0,0:0:0:0:
192,192,44022,1,0,0:0:0:0:
320,192,44108,1,0,0:0:0:0:
448,192,44108,1,0,0:0:0:0:
448,192,44193,1,0,0:0:0:0:
192,192,44193,1,0,0:0:0:0:
64,192,44193,1,0,0:0:0:0:
320,192,44365,1,0,0:0:0:0:
320,192,44536,1,0,0:0:0:0:
320,192,44708,1,0,0:0:0:0:
448,192,44708,1,0,0:0:0:0:
192,192,44708,1,0,0:0:0:0:
192,192,44879,1,0,0:0:0:0:
192,192,45050,1,0,0:0:0:0:
448,192,45222,1,0,0:0:0:0:
64,192,45222,1,0,0:0:0:0:
320,192,45222,1,0,0:0:0:0:
320,192,45393,1,0,0:0:0:0:
192,192,45479,1,0,0:0:0:0:
320,192,45565,1,0,0:0:0:0:
64,192,45736,1,0,0:0:0:0:
448,192,45736,1,0,0:0:0:0:
192,192,45736,1,0,0:0:0:0:
64,192,45908,1,0,0:0:0:0:
64,192,46079,1,0,0:0:0:0:
448,192,46250,1,0,0:0:0:0:
320,192,46250,1,0,0:0:0:0:
192,192,46250,1,0,0:0:0:0:
192,192,46422,1,0,0:0:0:0:
192,192,46593,1,0,0:0:0:0:
64,192,46593,1,0,0:0:0:0:
448,192,46593,1,0,0:0:0:0:
320,192,46765,1,0,0:0:0:0:
448,192,46936,1,0,0:0:0:0:
64,192,46936,1,0,0:0:0:0:
192,192,46936,1,0,0:0:0:0:
320,192,47022,1,0,0:0:0:0:
192,192,47108,1,0,0:0:0:0:
448,192,47108,1,0,0:0:0:0:
64,192,47193,1,0,0:0:0:0:
192,192,47279,1,0,0:0:0:0:
448,192,47279,1,0,0:0:0:0:
320,192,47365,1,0,0:0:0:0:
448,192,47450,1,0,0:0:0:0:
64,192,47450,1,0,0:0:0:0:
192,192,47536,1,0,0:0:0:0:
320,192,47622,1,0,0:0:0:0:
448,192,47622,1,0,0:0:0:0:
64,192,47708,1,0,0:0:0:0:
192,192,47708,1,0,0:0:0:0:
448,192,47793,1,0,0:0:0:0:
320,192,47793,1,0,0:0:0:0:
64,192,47879,1,0,0:0:0:0:
192,192,47879,1,0,0:0:0:0:
448,192,47965,1,0,0:0:0:0:
320,192,47965,1,0,0:0:0:0:
64,192,48050,1,0,0:0:0:0:
192,192,48050,1,0,0:0:0:0:
320,192,48136,1,0,0:0:0:0:
448,192,48136,1,0,0:0:0:0:
64,192,48222,1,0,0:0:0:0:
192,192,48222,1,0,0:0:0:0:
320,192,48308,1,0,0:0:0:0:
448,192,48308,1,0,0:0:0:0:
192,192,49336,1,0,0:0:0:0:
320,192,49336,1,0,0:0:0:0:
448,192,49679,1,0,0:0:0:0:
64,192,49679,1,0,0:0:0:0:
320,192,49679,1,0,0:0:0:0:
192,192,49850,1,0,0:0:0:0:
320,192,50022,1,0,0:0:0:0:
448,192,50022,1,0,0:0:0:0:
192,192,50193,1,0,0:0:0:0:
64,192,50365,1,0,0:0:0:0:
448,192,50365,1,0,0:0:0:0:
320,192,50450,1,0,0:0:0:0:
448,192,50536,1,0,0:0:0:0:
320,192,50622,1,0,0:0:0:0:
192,192,50708,1,0,0:0:0:0:
64,192,50708,1,0,0:0:0:0:
320,192,50879,1,0,0:0:0:0:
448,192,51050,1,0,0:0:0:0:
192,192,51050,1,0,0:0:0:0:
64,192,51222,1,0,0:0:0:0:
320,192,51393,1,0,0:0:0:0:
192,192,51393,1,0,0:0:0:0:
64,192,51565,1,0,0:0:0:0:
448,192,51736,1,0,0:0:0:0:
320,192,51736,1,0,0:0:0:0:
192,192,51822,1,0,0:0:0:0:
64,192,51908,1,0,0:0:0:0:
192,192,51993,1,0,0:0:0:0:
64,192,52079,1,0,0:0:0:0:
448,192,52079,1,0,0:0:0:0:
320,192,52250,1,0,0:0:0:0:
448,192,52422,1,0,0:0:0:0:
192,192,52422,1,0,0:0:0:0:
64,192,52593,1,0,0:0:0:0:
448,192,52765,1,0,0:0:0:0:
320,192,52765,1,0,0:0:0:0:
192,192,52936,1,0,0:0:0:0:
64,192,53108,1,0,0:0:0:0:
448,192,53108,1,0,0:0:0:0:
320,192,53193,1,0,0:0:0:0:
192,192,53279,1,0,0:0:0:0:
320,192,53365,1,0,0:0:0:0:
192,192,53450,1,0,0:0:0:0:
64,192,53450,1,0,0:0:0:0:
320,192,53622,1,0,0:0:0:0:
448,192,53793,1,0,0:0:0:0:
64,192,53793,1,0,0:0:0:0:
192,192,53965,1,0,0:0:0:0:
320,192,54136,1,0,0:0:0:0:
64,192,54136,1,0,0:0:0:0:
192,192,54308,1,0,0:0:0:0:
448,192,54479,1,0,0:0:0:0:
320,192,54479,1,0,0:0:0:0:
192,192,54565,1,0,0:0:0:0:
64,192,54650,1,0,0:0:0:0:
192,192,54736,1,0,0:0:0:0:
64,192,54822,1,0,0:0:0:0:
448,192,54822,1,0,0:0:0:0:
320,192,54993,1,0,0:0:0:0:
192,192,55165,1,0,0:0:0:0:
64,192,55165,1,0,0:0:0:0:
320,192,55336,1,0,0:0:0:0:
448,192,55508,1,0,0:0:0:0:
64,192,55508,1,0,0:0:0:0:
320,192,55679,1,0,0:0:0:0:
192,192,55850,1,0,0:0:0:0:
448,192,55850,1,0,0:0:0:0:
320,192,55936,1,0,0:0:0:0:
448,192,56022,1,0,0:0:0:0:
320,192,56108,1,0,0:0:0:0:
64,192,56193,1,0,0:0:0:0:
192,192,56193,1,0,0:0:0:0:
448,192,56365,1,0,0:0:0:0:
320,192,56536,1,0,0:0:0:0:
64,192,56536,1,0,0:0:0:0:
192,192,56708,1,0,0:0:0:0:
320,192,56879,1,0,0:0:0:0:
448,192,56879,1,0,0:0:0:0:
192,192,57050,1,0,0:0:0:0:
64,192,57222,1,0,0:0:0:0:
320,192,57222,1,0,0:0:0:0:
192,192,57308,1,0,0:0:0:0:
64,192,57393,1,0,0:0:0:0:
192,192,57479,1,0,0:0:0:0:
448,192,57565,1,0,0:0:0:0:
320,192,57565,1,0,0:0:0:0:
64,192,57736,1,0,0:0:0:0:
192,192,57908,1,0,0:0:0:0:
448,192,57908,1,0,0:0:0:0:
320,192,58079,1,0,0:0:0:0:
64,192,58250,1,0,0:0:0:0:
192,192,58250,1,0,0:0:0:0:
448,192,58422,1,0,0:0:0:0:
320,192,58593,1,0,0:0:0:0:
64,192,58593,1,0,0:0:0:0:
192,192,58679,1,0,0:0:0:0:
320,192,58765,1,0,0:0:0:0:
192,192,58850,1,0,0:0:0:0:
320,192,58936,1,0,0:0:0:0:
448,192,58936,1,0,0:0:0:0:
192,192,59108,1,0,0:0:0:0:
64,192,59279,1,0,0:0:0:0:
448,192,59279,1,0,0:0:0:0:
320,192,59450,1,0,0:0:0:0:
448,192,59622,1,0,0:0:0:0:
192,192,59622,1,0,0:0:0:0:
320,192,59793,1,0,0:0:0:0:
64,192,59965,1,0,0:0:0:0:
320,192,59965,1,0,0:0:0:0:
448,192,60136,1,0,0:0:0:0:
320,192,60193,1,0,0:0:0:0:
192,192,60250,1,0,0:0:0:0:
448,192,60308,1,0,0:0:0:0:
64,192,60308,1,0,0:0:0:0:
320,192,60308,1,0,0:0:0:0:
64,192,60650,1,0,0:0:0:0:
448,192,60650,1,0,0:0:0:0:
192,192,60650,1,0,0:0:0:0:
320,192,60822,1,0,0:0:0:0:
64,192,60993,1,0,0:0:0:0:
192,192,60993,1,0,0:0:0:0:
448,192,60993,1,0,0:0:0:0:
448,192,61165,1,0,0:0:0:0:
320,192,61336,1,0,0:0:0:0:
64,192,61336,1,0,0:0:0:0:
192,192,61422,1,0,0:0:0:0:
64,192,61508,1,0,0:0:0:0:
192,192,61593,1,0,0:0:0:0:
448,192,61679,1,0,0:0:0:0:
64,192,61679,1,0,0:0:0:0:
320,192,61679,1,0,0:0:0:0:
320,192,61850,1,0,0:0:0:0:
64,192,62022,1,0,0:0:0:0:
192,192,62022,1,0,0:0:0:0:
448,192,62193,1,0,0:0:0:0:
320,192,62365,1,0,0:0:0:0:
64,192,62365,1,0,0:0:0:0:
448,192,62365,1,0,0:0:0:0:
192,192,62536,1,0,0:0:0:0:
320,192,62708,1,0,0:0:0:0:
64,192,62708,1,0,0:0:0:0:
192,192,62793,1,0,0:0:0:0:
320,192,62879,1,0,0:0:0:0:
192,192,62965,1,0,0:0:0:0:
448,192,63050,1,0,0:0:0:0:
64,192,63050,1,0,0:0:0:0:
320,192,63050,1,0,0:0:0:0:
320,192,63222,1,0,0:0:0:0:
192,192,63222,1,0,0:0:0:0:
64,192,63393,1,0,0:0:0:0:
320,192,63393,1,0,0:0:0:0:
448,192,63393,1,0,0:0:0:0:
192,192,63565,1,0,0:0:0:0:
64,192,63736,1,0,0:0:0:0:
448,192,63736,1,0,0:0:0:0:
320,192,63736,1,0,0:0:0:0:
320,192,63908,1,0,0:0:0:0:
64,192,64079,1,0,0:0:0:0:
448,192,64079,1,0,0:0:0:0:
192,192,64165,1,0,0:0:0:0:
320,192,64250,1,0,0:0:0:0:
192,192,64336,1,0,0:0:0:0:
320,192,64422,1,0,0:0:0:0:
64,192,64422,1,0,0:0:0:0:
448,192,64422,1,0,0:0:0:0:
320,192,64593,1,0,0:0:0:0:
192,192,64765,1,0,0:0:0:0:
448,192,64765,1,0,0:0:0:0:
64,192,64936,1,0,0:0:0:0:
192,192,65108,1,0,0:0:0:0:
448,192,65108,1,0,0:0:0:0:
320,192,65108,1,0,0:0:0:0:
320,192,65279,1,0,0:0:0:0:
64,192,65450,1,0,0:0:0:0:
192,192,65450,1,0,0:0:0:0:
320,192,65536,1,0,0:0:0:0:
448,192,65536,1,0,0:0:0:0:
192,192,65622,1,0,0:0:0:0:
448,192,65708,1,0,0:0:0:0:
64,192,65708,1,0,0:0:0:0:
192,192,65793,1,0,0:0:0:0:
320,192,65793,1,0,0:0:0:0:
320,192,65965,1,0,0:0:0:0:
192,192,66050,1,0,0:0:0:0:
64,192,66136,1,0,0:0:0:0:
448,192,66136,1,0,0:0:0:0:
320,192,66136,1,0,0:0:0:0:
192,192,66308,1,0,0:0:0:0:
448,192,66479,1,0,0:0:0:0:
64,192,66479,1,0,0:0:0:0:
320,192,66650,1,0,0:0:0:0:
448,192,66822,1,0,0:0:0:0:
64,192,66822,1,0,0:0:0:0:
320,192,66908,1,0,0:0:0:0:
192,192,66993,1,0,0:0:0:0:
320,192,67079,1,0,0:0:0:0:
448,192,67165,1,0,0:0:0:0:
192,192,67165,1,0,0:0:0:0:
64,192,67336,1,0,0:0:0:0:
448,192,67336,1,0,0:0:0:0:
192,192,67422,1,0,0:0:0:0:
320,192,67422,1,0,0:0:0:0:
192,192,67508,1,0,0:0:0:0:
64,192,67508,1,0,0:0:0:0:
448,192,67508,1,0,0:0:0:0:
320,192,67679,1,0,0:0:0:0:
64,192,67850,1,0,0:0:0:0:
192,192,67850,1,0,0:0:0:0:
448,192,68022,1,0,0:0:0:0:
320,192,68193,1,0,0:0:0:0:
64,192,68193,1,0,0:0:0:0:
192,192,68279,1,0,0:0:0:0:
320,192,68365,1,0,0:0:0:0:
192,192,68450,1,0,0:0:0:0:
448,192,68536,1,0,0:0:0:0:
64,192,68536,1,0,0:0:0:0:
192,192,68708,1,0,0:0:0:0:
192,192,68879,1,0,0:0:0:0:
448,192,68879,1,0,0:0:0:0:
320,192,68879,1,0,0:0:0:0:
64,192,68965,1,0,0:0:0:0:
192,192,69050,1,0,0:0:0:0:
320,192,69136,1,0,0:0:0:0:
64,192,69222,1,0,0:0:0:0:
448,192,69222,1,0,0:0:0:0:
320,192,69308,1,0,0:0:0:0:
192,192,69393,1,0,0:0:0:0:
320,192,69479,1,0,0:0:0:0:
64,192,69565,1,0,0:0:0:0:
192,192,69565,1,0,0:0:0:0:
448,192,69565,1,0,0:0:0:0:
320,192,69650,1,0,0:0:0:0:
192,192,69736,1,0,0:0:0:0:
320,192,69822,1,0,0:0:0:0:
64,192,69908,1,0,0:0:0:0:
448,192,69908,1,0,0:0:0:0:
192,192,69993,1,0,0:0:0:0:
64,192,70079,1,0,0:0:0:0:
192,192,70165,1,0,0:0:0:0:
320,192,70250,128,0,70936:0:0:0:0:
448,192,70250,1,0,0:0:0:0:
64,192,70250,1,0,0:0:0:0:
192,192,70936,1,0,0:0:0:0:
64,192,71022,1,0,0:0:0:0:
192,192,71108,1,0,0:0:0:0:
64,192,71193,1,0,0:0:0:0:
192,192,71279,1,0,0:0:0:0:
64,192,71365,1,0,0:0:0:0:
192,192,71450,1,0,0:0:0:0:
64,192,71536,1,0,0:0:0:0:
320,192,71622,1,0,0:0:0:0:
448,192,71622,1,0,0:0:0:0:
192,192,71622,1,0,0:0:0:0:
320,192,71793,1,0,0:0:0:0:
192,192,71965,1,0,0:0:0:0:
448,192,71965,1,0,0:0:0:0:
320,192,72136,1,0,0:0:0:0:
320,192,72308,1,0,0:0:0:0:
192,192,72308,1,0,0:0:0:0:
64,192,72308,128,0,72393:0:0:0:0:
448,192,72479,1,0,0:0:0:0:
320,192,72650,1,0,0:0:0:0:
64,192,72650,1,0,0:0:0:0:
192,192,72822,1,0,0:0:0:0:
320,192,72993,1,0,0:0:0:0:
448,192,72993,1,0,0:0:0:0:
192,192,73165,1,0,0:0:0:0:
64,192,73336,1,0,0:0:0:0:
448,192,73336,1,0,0:0:0:0:
320,192,73508,1,0,0:0:0:0:
192,192,73679,1,0,0:0:0:0:
448,192,73679,1,0,0:0:0:0:
320,192,73850,1,0,0:0:0:0:
192,192,74022,1,0,0:0:0:0:
448,192,74022,128,0,74108:0:0:0:0:
64,192,74022,1,0,0:0:0:0:
320,192,74193,1,0,0:0:0:0:
448,192,74365,1,0,0:0:0:0:
64,192,74365,1,0,0:0:0:0:
192,192,74536,1,0,0:0:0:0:
448,192,74708,1,0,0:0:0:0:
64,192,74708,1,0,0:0:0:0:
320,192,74879,1,0,0:0:0:0:
192,192,75050,1,0,0:0:0:0:
64,192,75050,1,0,0:0:0:0:
320,192,75222,1,0,0:0:0:0:
448,192,75393,1,0,0:0:0:0:
64,192,75393,1,0,0:0:0:0:
192,192,75565,1,0,0:0:0:0:
320,192,75736,1,0,0:0:0:0:
64,192,75736,1,0,0:0:0:0:
192,192,75908,1,0,0:0:0:0:
64,192,76079,1,0,0:0:0:0:
448,192,76079,1,0,0:0:0:0:
320,192,76079,128,0,76250:0:0:0:0:
192,192,76250,1,0,0:0:0:0:
64,192,76422,1,0,0:0:0:0:
448,192,76422,1,0,0:0:0:0:
320,192,76593,128,0,76765:0:0:0:0:
448,192,76679,128,0,76765:0:0:0:0:
64,192,76765,1,0,0:0:0:0:
192,192,76765,1,0,0:0:0:0:
320,192,76936,128,0,77108:0:0:0:0:
192,192,77022,128,0,77108:0:0:0:0:
448,192,77108,1,0,0:0:0:0:
64,192,77108,1,0,0:0:0:0:
192,192,77279,1,0,0:0:0:0:
64,192,77450,1,0,0:0:0:0:
320,192,77450,1,0,0:0:0:0:
448,192,77450,128,0,77536:0:0:0:0:
192,192,77622,1,0,0:0:0:0:
64,192,77793,1,0,0:0:0:0:
448,192,77793,1,0,0:0:0:0:
192,192,77965,1,0,0:0:0:0:
320,192,78136,1,0,0:0:0:0:
448,192,78136,1,0,0:0:0:0:
192,192,78308,1,0,0:0:0:0:
64,192,78479,1,0,0:0:0:0:
320,192,78479,1,0,0:0:0:0:
448,192,78650,1,0,0:0:0:0:
320,192,78822,1,0,0:0:0:0:
64,192,78822,1,0,0:0:0:0:
192,192,78993,1,0,0:0:0:0:
320,192,79165,1,0,0:0:0:0:
448,192,79165,1,0,0:0:0:0:
192,192,79336,1,0,0:0:0:0:
64,192,79508,1,0,0:0:0:0:
320,192,79508,1,0,0:0:0:0:
448,192,79679,1,0,0:0:0:0:
64,192,79679,128,0,79765:0:0:0:0:
320,192,79850,1,0,0:0:0:0:
192,192,79850,1,0,0:0:0:0:
64,192,80022,1,0,0:0:0:0:
448,192,80193,1,0,0:0:0:0:
192,192,80193,1,0,0:0:0:0:
320,192,80365,1,0,0:0:0:0:
64,192,80536,1,0,0:0:0:0:
192,192,80536,1,0,0:0:0:0:
320,192,80708,1,0,0:0:0:0:
64,192,80879,1,0,0:0:0:0:
448,192,80879,128,0,80965:0:0:0:0:
320,192,80879,1,0,0:0:0:0:
448,192,81050,128,0,81136:0:0:0:0:
192,192,81050,1,0,0:0:0:0:
320,192,81222,1,0,0:0:0:0:
64,192,81222,1,0,0:0:0:0:
192,192,81393,1,0,0:0:0:0:
64,192,81565,1,0,0:0:0:0:
320,192,81565,1,0,0:0:0:0:
448,192,81736,1,0,0:0:0:0:
320,192,81908,1,0,0:0:0:0:
64,192,81908,1,0,0:0:0:0:
192,192,82079,128,0,82250:0:0:0:0:
64,192,82165,128,0,82250:0:0:0:0:
320,192,82250,1,0,0:0:0:0:
448,192,82250,1,0,0:0:0:0:
192,192,82422,128,0,82593:0:0:0:0:
64,192,82508,128,0,82593:0:0:0:0:
448,192,82593,1,0,0:0:0:0:
320,192,82593,128,0,92193:0:0:0:0:
64,192,82936,1,0,0:0:0:0:
192,192,82936,1,0,0:0:0:0:
448,192,83279,1,0,0:0:0:0:
64,192,83279,1,0,0:0:0:0:
192,192,83622,1,0,0:0:0:0:
448,192,83622,1,0,0:0:0:0:
192,192,83965,1,0,0:0:0:0:
64,192,83965,1,0,0:0:0:0:
448,192,84308,1,0,0:0:0:0:
192,192,84308,1,0,0:0:0:0:
64,192,84650,1,0,0:0:0:0:
448,192,84650,1,0,0:0:0:0:
192,192,84993,1,0,0:0:0:0:
64,192,84993,1,0,0:0:0:0:
448,192,85336,1,0,0:0:0:0:
64,192,85336,1,0,0:0:0:0:
192,192,85336,1,0,0:0:0:0:
192,192,85679,1,0,0:0:0:0:
448,192,85679,1,0,0:0:0:0:
64,192,86022,1,0,0:0:0:0:
192,192,86022,1,0,0:0:0:0:
448,192,86365,1,0,0:0:0:0:
64,192,86365,1,0,0:0:0:0:
192,192,86708,1,0,0:0:0:0:
448,192,86708,1,0,0:0:0:0:
64,192,87050,1,0,0:0:0:0:
192,192,87050,1,0,0:0:0:0:
192,192,87393,1,0,0:0:0:0:
448,192,87393,1,0,0:0:0:0:
64,192,87479,1,0,0:0:0:0:
192,192,87565,1,0,0:0:0:0:
64,192,87650,1,0,0:0:0:0:
192,192,87736,1,0,0:0:0:0:
448,192,87736,1,0,0:0:0:0:
64,192,87908,1,0,0:0:0:0:
192,192,87993,1,0,0:0:0:0:
64,192,88079,1,0,0:0:0:0:
448,192,88079,1,0,0:0:0:0:
192,192,88250,1,0,0:0:0:0:
64,192,88422,1,0,0:0:0:0:
192,192,88422,1,0,0:0:0:0:
448,192,88593,1,0,0:0:0:0:
192,192,88765,1,0,0:0:0:0:
64,192,88765,1,0,0:0:0:0:
448,192,88936,1,0,0:0:0:0:
192,192,89108,1,0,0:0:0:0:
64,192,89108,1,0,0:0:0:0:
448,192,89279,1,0,0:0:0:0:
64,192,89450,1,0,0:0:0:0:
448,192,89450,1,0,0:0:0:0:
192,192,89450,1,0,0:0:0:0:
192,192,89622,1,0,0:0:0:0:
64,192,89793,1,0,0:0:0:0:
448,192,89793,1,0,0:0:0:0:
192,192,89965,1,0,0:0:0:0:
64,192,90136,1,0,0:0:0:0:
192,192,90136,1,0,0:0:0:0:
448,192,90308,1,0,0:0:0:0:
64,192,90479,1,0,0:0:0:0:
192,192,90565,1,0,0:0:0:0:
448,192,90650,1,0,0:0:0:0:
192,192,90736,1,0,0:0:0:0:
64,192,90822,1,0,0:0:0:0:
192,192,90908,1,0,0:0:0:0:
448,192,90993,1,0,0:0:0:0:
192,192,91079,1,0,0:0:0:0:
64,192,91165,1,0,0:0:0:0:
192,192,91250,1,0,0:0:0:0:
448,192,91336,1,0,0:0:0:0:
192,192,91422,1,0,0:0:0:0:
64,192,91508,1,0,0:0:0:0:
192,192,91593,1,0,0:0:0:0:
64,192,91679,1,0,0:0:0:0:
192,192,91765,1,0,0:0:0:0:
448,192,91850,1,0,0:0:0:0:
192,192,91936,1,0,0:0:0:0:
64,192,92022,1,0,0:0:0:0:
192,192,92108,1,0,0:0:0:0:
64,192,92193,1,0,0:0:0:0:
448,192,92193,128,0,93222:0:0:0:0:
192,192,93222,1,0,0:0:0:0:
320,192,93222,1,0,0:0:0:0:
448,192,93565,128,0,93736:0:0:0:0:
320,192,93565,1,0,0:0:0:0:
64,192,93565,1,0,0:0:0:0:
64,192,93908,128,0,94079:0:0:0:0:
320,192,93908,1,0,0:0:0:0:
448,192,93908,1,0,0:0:0:0:
192,192,94079,128,0,94250:0:0:0:0:
64,192,94250,128,0,94422:0:0:0:0:
448,192,94250,1,0,0:0:0:0:
320,192,94593,128,0,94765:0:0:0:0:
64,192,94593,1,0,0:0:0:0:
448,192,94593,1,0,0:0:0:0:
192,192,94765,128,0,94936:0:0:0:0:
64,192,94936,1,0,0:0:0:0:
448,192,95108,128,0,95279:0:0:0:0:
320,192,95279,128,0,95450:0:0:0:0:
192,192,95279,1,0,0:0:0:0:
64,192,95279,1,0,0:0:0:0:
64,192,95622,128,0,95793:0:0:0:0:
448,192,95622,1,0,0:0:0:0:
448,192,95965,1,0,0:0:0:0:
320,192,95965,128,0,96136:0:0:0:0:
192,192,95965,1,0,0:0:0:0:
448,192,96308,128,0,96479:0:0:0:0:
64,192,96308,1,0,0:0:0:0:
192,192,96650,128,0,96822:0:0:0:0:
64,192,96650,1,0,0:0:0:0:
448,192,96650,1,0,0:0:0:0:
320,192,96822,128,0,96993:0:0:0:0:
192,192,96993,128,0,97165:0:0:0:0:
448,192,96993,1,0,0:0:0:0:
64,192,97336,128,0,97508:0:0:0:0:
320,192,97336,1,0,0:0:0:0:
448,192,97336,1,0,0:0:0:0:
192,192,97508,128,0,97679:0:0:0:0:
64,192,97679,1,0,0:0:0:0:
192,192,97850,128,0,98022:0:0:0:0:
64,192,98022,128,0,98193:0:0:0:0:
320,192,98022,1,0,0:0:0:0:
448,192,98022,1,0,0:0:0:0:
320,192,98365,128,0,98536:0:0:0:0:
192,192,98365,1,0,0:0:0:0:
192,192,98708,128,0,98879:0:0:0:0:
64,192,98708,1,0,0:0:0:0:
448,192,98708,1,0,0:0:0:0:
320,192,98879,128,0,99050:0:0:0:0:
448,192,99050,128,0,99222:0:0:0:0:
64,192,99050,1,0,0:0:0:0:
64,192,99393,128,0,99565:0:0:0:0:
320,192,99393,1,0,0:0:0:0:
448,192,99393,1,0,0:0:0:0:
192,192,99565,128,0,99736:0:0:0:0:
64,192,99736,128,0,99908:0:0:0:0:
448,192,99736,1,0,0:0:0:0:
320,192,100079,128,0,100250:0:0:0:0:
64,192,100079,1,0,0:0:0:0:
448,192,100079,1,0,0:0:0:0:
192,192,100250,128,0,100422:0:0:0:0:
64,192,100422,1,0,0:0:0:0:
192,192,100593,128,0,100765:0:0:0:0:
320,192,100765,128,0,100936:0:0:0:0:
64,192,100765,1,0,0:0:0:0:
448,192,100765,1,0,0:0:0:0:
64,192,101108,128,0,101279:0:0:0:0:
448,192,101108,1,0,0:0:0:0:
448,192,101450,128,0,101622:0:0:0:0:
320,192,101450,1,0,0:0:0:0:
192,192,101450,1,0,0:0:0:0:
192,192,101793,128,0,101965:0:0:0:0:
64,192,101793,1,0,0:0:0:0:
320,192,102136,128,0,102308:0:0:0:0:
64,192,102136,1,0,0:0:0:0:
448,192,102136,1,0,0:0:0:0:
192,192,102308,128,0,102479:0:0:0:0:
320,192,102479,128,0,102650:0:0:0:0:
448,192,102479,1,0,0:0:0:0:
192,192,102822,128,0,102993:0:0:0:0:
320,192,102822,1,0,0:0:0:0:
448,192,102822,1,0,0:0:0:0:
64,192,102993,128,0,103165:0:0:0:0:
320,192,103165,1,0,0:0:0:0:
64,192,103336,128,0,103508:0:0:0:0:
192,192,103508,128,0,103679:0:0:0:0:
320,192,103508,1,0,0:0:0:0:
448,192,103508,1,0,0:0:0:0:
320,192,103679,128,0,103850:0:0:0:0:
448,192,103850,128,0,104022:0:0:0:0:
64,192,103850,1,0,0:0:0:0:
320,192,104193,128,0,104536:0:0:0:0:
192,192,104193,1,0,0:0:0:0:
64,192,104193,1,0,0:0:0:0:
192,192,104536,128,0,104708:0:0:0:0:
64,192,104536,1,0,0:0:0:0:
448,192,104536,1,0,0:0:0:0:
320,192,104879,128,0,105050:0:0:0:0:
64,192,104879,1,0,0:0:0:0:
448,192,104879,1,0,0:0:0:0:
192,192,105050,128,0,105222:0:0:0:0:
320,192,105222,128,0,105393:0:0:0:0:
64,192,105222,1,0,0:0:0:0:
192,192,105565,128,0,105736:0:0:0:0:
320,192,105565,1,0,0:0:0:0:
448,192,105565,1,0,0:0:0:0:
64,192,105736,128,0,105908:0:0:0:0:
320,192,105908,1,0,0:0:0:0:
448,192,106079,128,0,106250:0:0:0:0:
320,192,106250,128,0,106422:0:0:0:0:
192,192,106250,1,0,0:0:0:0:
64,192,106250,1,0,0:0:0:0:
64,192,106593,128,0,106765:0:0:0:0:
192,192,106593,1,0,0:0:0:0:
192,192,106936,128,0,107108:0:0:0:0:
320,192,106936,1,0,0:0:0:0:
448,192,106936,1,0,0:0:0:0:
448,192,107279,128,0,107450:0:0:0:0:
64,192,107279,1,0,0:0:0:0:
320,192,107622,128,0,107793:0:0:0:0:
64,192,107622,1,0,0:0:0:0:
448,192,107622,1,0,0:0:0:0:
192,192,107793,128,0,107965:0:0:0:0:
320,192,107965,128,0,108136:0:0:0:0:
448,192,107965,1,0,0:0:0:0:
192,192,108308,128,0,108479:0:0:0:0:
64,192,108308,1,0,0:0:0:0:
448,192,108308,1,0,0:0:0:0:
320,192,108479,128,0,108650:0:0:0:0:
64,192,108650,1,0,0:0:0:0:
448,192,108822,128,0,108993:0:0:0:0:
320,192,108993,128,0,109165:0:0:0:0:
64,192,108993,1,0,0:0:0:0:
192,192,108993,1,0,0:0:0:0:
64,192,109336,128,0,109508:0:0:0:0:
448,192,109336,1,0,0:0:0:0:
320,192,109679,128,0,109850:0:0:0:0:
448,192,109679,1,0,0:0:0:0:
64,192,109679,1,0,0:0:0:0:
192,192,109850,128,0,110022:0:0:0:0:
320,192,110022,128,0,110193:0:0:0:0:
64,192,110022,1,0,0:0:0:0:
64,192,110365,128,0,110536:0:0:0:0:
320,192,110365,1,0,0:0:0:0:
448,192,110365,1,0,0:0:0:0:
192,192,110536,128,0,110708:0:0:0:0:
64,192,110708,128,0,110879:0:0:0:0:
448,192,110708,1,0,0:0:0:0:
320,192,111050,128,0,111222:0:0:0:0:
64,192,111050,1,0,0:0:0:0:
448,192,111050,1,0,0:0:0:0:
192,192,111222,128,0,111393:0:0:0:0:
64,192,111393,1,0,0:0:0:0:
320,192,111565,128,0,111736:0:0:0:0:
448,192,111736,128,0,111908:0:0:0:0:
64,192,111736,1,0,0:0:0:0:
192,192,111736,1,0,0:0:0:0:
192,192,112079,128,0,112250:0:0:0:0:
64,192,112079,1,0,0:0:0:0:
192,192,112422,128,0,112593:0:0:0:0:
320,192,112422,1,0,0:0:0:0:
448,192,112422,1,0,0:0:0:0:
448,192,112765,128,0,112936:0:0:0:0:
64,192,112765,1,0,0:0:0:0:
320,192,112765,1,0,0:0:0:0:
192,192,112936,1,0,0:0:0:0:
320,192,113108,1,0,0:0:0:0:
64,192,113108,1,0,0:0:0:0:
448,192,113279,128,0,113450:0:0:0:0:
192,192,113279,1,0,0:0:0:0:
64,192,113450,1,0,0:0:0:0:
192,192,113450,1,0,0:0:0:0:
320,192,113622,1,0,0:0:0:0:
448,192,113793,128,0,113965:0:0:0:0:
64,192,113793,1,0,0:0:0:0:
192,192,113793,1,0,0:0:0:0:
320,192,113965,1,0,0:0:0:0:
64,192,114136,1,0,0:0:0:0:
192,192,114136,1,0,0:0:0:0:
448,192,114136,1,0,0:0:0:0:
320,192,114308,128,0,114479:0:0:0:0:
192,192,114650,128,0,114822:0:0:0:0:
448,192,114650,1,0,0:0:0:0:
320,192,114822,128,0,114993:0:0:0:0:
64,192,114822,1,0,0:0:0:0:
192,192,114993,128,0,115165:0:0:0:0:
448,192,114993,1,0,0:0:0:0:
64,192,115165,128,0,115250:0:0:0:0:
448,192,115165,1,0,0:0:0:0:
64,192,115336,128,0,115508:0:0:0:0:
448,192,115336,1,0,0:0:0:0:
320,192,115508,128,0,115679:0:0:0:0:
192,192,115508,1,0,0:0:0:0:
448,192,115508,1,0,0:0:0:0:
192,192,115850,128,0,116022:0:0:0:0:
448,192,115850,1,0,0:0:0:0:
320,192,115850,1,0,0:0:0:0:
64,192,116022,128,0,116193:0:0:0:0:
192,192,116193,128,0,116365:0:0:0:0:
448,192,116193,1,0,0:0:0:0:
320,192,116193,128,0,116279:0:0:0:0:
320,192,116536,128,0,116708:0:0:0:0:
64,192,116536,1,0,0:0:0:0:
448,192,116536,1,0,0:0:0:0:
192,192,116708,128,0,116879:0:0:0:0:
64,192,116879,1,0,0:0:0:0:
448,192,117050,128,0,117222:0:0:0:0:
320,192,117222,128,0,117393:0:0:0:0:
192,192,117222,1,0,0:0:0:0:
64,192,117222,1,0,0:0:0:0:
448,192,117565,1,0,0:0:0:0:
192,192,117565,128,0,117736:0:0:0:0:
320,192,117908,128,0,118079:0:0:0:0:
192,192,117908,1,0,0:0:0:0:
448,192,117908,1,0,0:0:0:0:
64,192,117908,128,0,117993:0:0:0:0:
192,192,118250,128,0,118422:0:0:0:0:
64,192,118250,1,0,0:0:0:0:
448,192,118593,128,0,118765:0:0:0:0:
320,192,118593,1,0,0:0:0:0:
64,192,118593,1,0,0:0:0:0:
320,192,118765,128,0,118936:0:0:0:0:
448,192,118936,128,0,119108:0:0:0:0:
192,192,118936,1,0,0:0:0:0:
192,192,119279,128,0,119450:0:0:0:0:
320,192,119279,1,0,0:0:0:0:
448,192,119279,1,0,0:0:0:0:
64,192,119450,128,0,119622:0:0:0:0:
320,192,119622,1,0,0:0:0:0:
64,192,119793,128,0,119965:0:0:0:0:
448,192,119965,128,0,120050:0:0:0:0:
192,192,119965,128,0,120136:0:0:0:0:
320,192,119965,1,0,0:0:0:0:
64,192,120308,1,0,0:0:0:0:
320,192,120308,128,0,120479:0:0:0:0:
192,192,120650,128,0,120822:0:0:0:0:
64,192,120650,1,0,0:0:0:0:
448,192,120650,1,0,0:0:0:0:
320,192,120822,128,0,120993:0:0:0:0:
192,192,120993,128,0,121165:0:0:0:0:
448,192,120993,1,0,0:0:0:0:
64,192,121336,128,0,121508:0:0:0:0:
320,192,121336,1,0,0:0:0:0:
448,192,121336,128,0,121422:0:0:0:0:
192,192,121336,1,0,0:0:0:0:
192,192,121508,128,0,121679:0:0:0:0:
64,192,121679,128,0,121850:0:0:0:0:
448,192,121679,1,0,0:0:0:0:
320,192,122022,128,0,122193:0:0:0:0:
64,192,122022,1,0,0:0:0:0:
448,192,122022,1,0,0:0:0:0:
192,192,122193,128,0,122365:0:0:0:0:
64,192,122365,1,0,0:0:0:0:
320,192,122536,128,0,122708:0:0:0:0:
448,192,122708,128,0,122879:0:0:0:0:
192,192,122708,1,0,0:0:0:0:
64,192,122708,1,0,0:0:0:0:
64,192,123050,128,0,123222:0:0:0:0:
320,192,123050,1,0,0:0:0:0:
192,192,123393,128,0,123565:0:0:0:0:
448,192,123393,1,0,0:0:0:0:
320,192,123393,1,0,0:0:0:0:
64,192,123565,128,0,123650:0:0:0:0:
320,192,123736,128,0,123908:0:0:0:0:
192,192,123736,1,0,0:0:0:0:
64,192,124079,128,0,124250:0:0:0:0:
448,192,124079,1,0,0:0:0:0:
320,192,124079,1,0,0:0:0:0:
192,192,124250,128,0,124422:0:0:0:0:
64,192,124422,128,0,124593:0:0:0:0:
320,192,124422,1,0,0:0:0:0:
64,192,124765,1,0,0:0:0:0:
192,192,124765,128,0,124850:0:0:0:0:
448,192,124765,128,0,124936:0:0:0:0:
320,192,124765,1,0,0:0:0:0:
320,192,124936,128,0,125108:0:0:0:0:
192,192,124936,128,0,125022:0:0:0:0:
448,192,125108,1,0,0:0:0:0:
192,192,125279,128,0,125450:0:0:0:0:
320,192,125450,128,0,125622:0:0:0:0:
64,192,125450,1,0,0:0:0:0:
448,192,125450,1,0,0:0:0:0:
192,192,125622,128,0,125793:0:0:0:0:
64,192,125793,128,0,125965:0:0:0:0:
448,192,125793,128,0,125965:0:0:0:0:
320,192,125793,1,0,0:0:0:0:
192,192,126136,128,0,126479:0:0:0:0:
320,192,126136,128,0,126479:0:0:0:0:
64,192,126136,1,0,0:0:0:0:
448,192,126136,1,0,0:0:0:0:
64,192,126479,128,0,126650:0:0:0:0:
448,192,126479,1,0,0:0:0:0:
192,192,126650,1,0,0:0:0:0:
320,192,126822,128,0,126993:0:0:0:0:
448,192,126822,1,0,0:0:0:0:
64,192,126822,1,0,0:0:0:0:
192,192,126993,128,0,127165:0:0:0:0:
64,192,126993,1,0,0:0:0:0:
320,192,127165,128,0,127336:0:0:0:0:
448,192,127165,1,0,0:0:0:0:
64,192,127165,128,0,127250:0:0:0:0:
448,192,127336,1,0,0:0:0:0:
64,192,127508,128,0,127679:0:0:0:0:
448,192,127508,1,0,0:0:0:0:
192,192,127508,1,0,0:0:0:0:
192,192,127679,128,0,127850:0:0:0:0:
320,192,127679,1,0,0:0:0:0:
64,192,127850,1,0,0:0:0:0:
448,192,127850,1,0,0:0:0:0:
448,192,128022,128,0,128193:0:0:0:0:
192,192,128022,1,0,0:0:0:0:
320,192,128193,128,0,128365:0:0:0:0:
192,192,128193,1,0,0:0:0:0:
64,192,128193,1,0,0:0:0:0:
64,192,128365,1,0,0:0:0:0:
320,192,128536,1,0,0:0:0:0:
448,192,128536,1,0,0:0:0:0:
192,192,128536,128,0,128708:0:0:0:0:
64,192,128708,1,0,0:0:0:0:
192,192,128879,128,0,129050:0:0:0:0:
448,192,128879,1,0,0:0:0:0:
64,192,128879,1,0,0:0:0:0:
320,192,128879,128,0,128965:0:0:0:0:
64,192,129050,1,0,0:0:0:0:
448,192,129222,128,0,129393:0:0:0:0:
64,192,129222,1,0,0:0:0:0:
192,192,129222,1,0,0:0:0:0:
320,192,129222,1,0,0:0:0:0:
320,192,129393,1,0,0:0:0:0:
320,192,129565,128,0,129736:0:0:0:0:
64,192,129565,1,0,0:0:0:0:
192,192,129565,1,0,0:0:0:0:
192,192,129736,128,0,129908:0:0:0:0:
448,192,129736,1,0,0:0:0:0:
320,192,129908,128,0,130079:0:0:0:0:
448,192,129908,1,0,0:0:0:0:
64,192,129908,1,0,0:0:0:0:
64,192,130079,1,0,0:0:0:0:
64,192,130250,128,0,130422:0:0:0:0:
320,192,130250,1,0,0:0:0:0:
448,192,130250,1,0,0:0:0:0:
192,192,130422,128,0,130593:0:0:0:0:
320,192,130422,1,0,0:0:0:0:
448,192,130593,1,0,0:0:0:0:
64,192,130593,1,0,0:0:0:0:
320,192,130765,128,0,130936:0:0:0:0:
192,192,130765,1,0,0:0:0:0:
64,192,130936,1,0,0:0:0:0:
448,192,130936,128,0,131108:0:0:0:0:
192,192,130936,128,0,131022:0:0:0:0:
64,192,131108,1,0,0:0:0:0:
192,192,131279,1,0,0:0:0:0:
64,192,131279,128,0,131450:0:0:0:0:
448,192,131279,1,0,0:0:0:0:
320,192,131365,1,0,0:0:0:0:
448,192,131450,1,0,0:0:0:0:
320,192,131536,1,0,0:0:0:0:
64,192,131622,1,0,0:0:0:0:
448,192,131622,1,0,0:0:0:0:
192,192,131622,128,0,131793:0:0:0:0:
320,192,131793,128,0,131965:0:0:0:0:
64,192,131879,1,0,0:0:0:0:
448,192,131965,1,0,0:0:0:0:
192,192,131965,1,0,0:0:0:0:
64,192,132136,1,0,0:0:0:0:
192,192,132308,1,0,0:0:0:0:
448,192,132308,1,0,0:0:0:0:
320,192,132308,1,0,0:0:0:0:
64,192,132479,1,0,0:0:0:0:
320,192,132650,1,0,0:0:0:0:
448,192,132650,1,0,0:0:0:0:
192,192,132822,1,0,0:0:0:0:
64,192,132993,1,0,0:0:0:0:
448,192,132993,1,0,0:0:0:0:
320,192,132993,1,0,0:0:0:0:
192,192,133165,1,0,0:0:0:0:
64,192,133336,1,0,0:0:0:0:
192,192,133336,1,0,0:0:0:0:
320,192,133336,1,0,0:0:0:0:
448,192,133336,1,0,0:0:0:0:
448,192,133508,1,0,0:0:0:0:
320,192,133679,1,0,0:0:0:0:
64,192,133679,1,0,0:0:0:0:
192,192,133679,1,0,0:0:0:0:
192,192,133850,1,0,0:0:0:0:
320,192,134022,1,0,0:0:0:0:
448,192,134022,1,0,0:0:0:0:
192,192,134193,1,0,0:0:0:0:
448,192,134365,1,0,0:0:0:0:
64,192,134365,1,0,0:0:0:0:
320,192,134365,1,0,0:0:0:0:
192,192,134450,1,0,0:0:0:0:
320,192,134536,1,0,0:0:0:0:
64,192,134622,1,0,0:0:0:0:
192,192,134708,1,0,0:0:0:0:
320,192,134708,1,0,0:0:0:0:
448,192,134708,1,0,0:0:0:0:
64,192,134793,1,0,0:0:0:0:
192,192,134879,1,0,0:0:0:0:
64,192,134965,1,0,0:0:0:0:
320,192,135050,1,0,0:0:0:0:
448,192,135050,1,0,0:0:0:0:
192,192,135136,1,0,0:0:0:0:
64,192,135222,1,0,0:0:0:0:
320,192,135308,1,0,0:0:0:0:
192,192,135393,1,0,0:0:0:0:
64,192,135393,1,0,0:0:0:0:
448,192,135393,1,0,0:0:0:0:
320,192,135479,1,0,0:0:0:0:
64,192,135565,1,0,0:0:0:0:
320,192,135650,1,0,0:0:0:0:
192,192,135736,1,0,0:0:0:0:
448,192,135736,1,0,0:0:0:0:
320,192,135822,1,0,0:0:0:0:
448,192,135908,1,0,0:0:0:0:
320,192,135993,1,0,0:0:0:0:
64,192,136079,1,0,0:0:0:0:
448,192,136079,1,0,0:0:0:0:
192,192,136079,1,0,0:0:0:0:
320,192,136165,1,0,0:0:0:0:
192,192,136250,1,0,0:0:0:0:
64,192,136336,1,0,0:0:0:0:
192,192,136422,1,0,0:0:0:0:
320,192,136508,1,0,0:0:0:0:
448,192,136593,1,0,0:0:0:0:
320,192,136679,1,0,0:0:0:0:
192,192,136765,1,0,0:0:0:0:
320,192,136850,1,0,0:0:0:0:
192,192,136936,1,0,0:0:0:0:
320,192,137022,1,0,0:0:0:0:
192,192,137108,1,0,0:0:0:0:
320,192,137193,1,0,0:0:0:0:
192,192,137279,1,0,0:0:0:0:
320,192,137365,1,0,0:0:0:0:
64,192,137450,1,0,0:0:0:0:
192,192,137450,1,0,0:0:0:0:
448,192,137450,1,0,0:0:0:0:
192,192,137793,1,0,0:0:0:0:
320,192,138136,1,0,0:0:0:0:
192,192,138308,1,0,0:0:0:0:
192,192,138650,1,0,0:0:0:0:
64,192,138993,1,0,0:0:0:0:
448,192,139165,1,0,0:0:0:0:
448,192,139508,1,0,0:0:0:0:
64,192,139850,1,0,0:0:0:0:
448,192,140193,1,0,0:0:0:0:
192,192,140193,1,0,0:0:0:0:
192,192,140536,1,0,0:0:0:0:
448,192,140879,1,0,0:0:0:0:
320,192,141050,1,0,0:0:0:0:
320,192,141393,1,0,0:0:0:0:
448,192,141565,1,0,0:0:0:0:
64,192,141565,1,0,0:0:0:0:
320,192,142593,1,0,0:0:0:0:
448,192,142765,1,0,0:0:0:0:
320,192,142936,1,0,0:0:0:0:
64,192,142936,1,0,0:0:0:0:
448,192,143279,1,0,0:0:0:0:
64,192,143622,1,0,0:0:0:0:
64,192,143965,1,0,0:0:0:0:
448,192,144136,1,0,0:0:0:0:
320,192,144479,1,0,0:0:0:0:
192,192,144822,1,0,0:0:0:0:
448,192,144993,1,0,0:0:0:0:
64,192,145165,1,0,0:0:0:0:
192,192,145336,1,0,0:0:0:0:
64,192,145508,1,0,0:0:0:0:
192,192,145679,1,0,0:0:0:0:
448,192,145679,1,0,0:0:0:0:
320,192,146022,1,0,0:0:0:0:
192,192,146365,1,0,0:0:0:0:
192,192,146708,1,0,0:0:0:0:
64,192,146879,1,0,0:0:0:0:
64,192,147736,1,0,0:0:0:0:
448,192,148422,1,0,0:0:0:0:
192,192,148422,1,0,0:0:0:0:
320,192,148765,1,0,0:0:0:0:
448,192,149108,1,0,0:0:0:0:
320,192,149279,1,0,0:0:0:0:
448,192,149622,1,0,0:0:0:0:
448,192,149965,1,0,0:0:0:0:
192,192,150136,1,0,0:0:0:0:
320,192,150479,1,0,0:0:0:0:
448,192,150822,1,0,0:0:0:0:
320,192,151165,1,0,0:0:0:0:
192,192,151165,1,0,0:0:0:0:
64,192,151508,1,0,0:0:0:0:
64,192,151850,1,0,0:0:0:0:
448,192,152022,1,0,0:0:0:0:
448,192,152365,1,0,0:0:0:0:
192,192,152536,1,0,0:0:0:0:
448,192,153565,1,0,0:0:0:0:
64,192,153736,1,0,0:0:0:0:
192,192,153908,1,0,0:0:0:0:
448,192,153908,1,0,0:0:0:0:
192,192,154250,1,0,0:0:0:0:
64,192,154593,1,0,0:0:0:0:
192,192,154936,1,0,0:0:0:0:
64,192,155108,1,0,0:0:0:0:
192,192,155450,1,0,0:0:0:0:
64,192,155793,1,0,0:0:0:0:
448,192,155965,1,0,0:0:0:0:
64,192,156136,1,0,0:0:0:0:
448,192,156308,1,0,0:0:0:0:
192,192,156479,1,0,0:0:0:0:
448,192,156650,1,0,0:0:0:0:
64,192,156650,1,0,0:0:0:0:
192,192,156993,1,0,0:0:0:0:
448,192,157336,1,0,0:0:0:0:
320,192,157508,1,0,0:0:0:0:
448,192,157679,1,0,0:0:0:0:
320,192,157850,1,0,0:0:0:0:
64,192,158022,1,0,0:0:0:0:
448,192,158022,1,0,0:0:0:0:
192,192,158108,1,0,0:0:0:0:
320,192,158193,1,0,0:0:0:0:
448,192,158279,1,0,0:0:0:0:
320,192,158365,1,0,0:0:0:0:
192,192,158450,1,0,0:0:0:0:
64,192,158536,1,0,0:0:0:0:
192,192,158622,1,0,0:0:0:0:
320,192,158708,1,0,0:0:0:0:
192,192,158793,1,0,0:0:0:0:
64,192,158879,1,0,0:0:0:0:
192,192,158965,1,0,0:0:0:0:
448,192,159050,1,0,0:0:0:0:
320,192,159050,1,0,0:0:0:0:
64,192,159050,1,0,0:0:0:0:
64,192,159393,1,0,0:0:0:0:
192,192,159393,1,0,0:0:0:0:
64,192,159736,1,0,0:0:0:0:
192,192,159736,1,0,0:0:0:0:
64,192,160079,1,0,0:0:0:0:
192,192,160079,1,0,0:0:0:0:
64,192,160422,1,0,0:0:0:0:
192,192,160422,1,0,0:0:0:0:
64,192,160765,1,0,0:0:0:0:
192,192,160765,1,0,0:0:0:0:
64,192,161108,1,0,0:0:0:0:
192,192,161108,1,0,0:0:0:0:
64,192,161450,1,0,0:0:0:0:
192,192,161450,1,0,0:0:0:0:
64,192,161793,1,0,0:0:0:0:
192,192,161793,1,0,0:0:0:0:
64,192,162136,1,0,0:0:0:0:
192,192,162136,1,0,0:0:0:0:
64,192,162479,1,0,0:0:0:0:
192,192,162479,1,0,0:0:0:0:
64,192,162822,1,0,0:0:0:0:
192,192,162822,1,0,0:0:0:0:
192,192,163165,1,0,0:0:0:0:
64,192,163165,1,0,0:0:0:0:
192,192,163508,128,0,163679:0:0:0:0:
320,192,163508,128,0,163679:0:0:0:0:
192,192,163850,128,0,164022:0:0:0:0:
320,192,163850,128,0,164022:0:0:0:0:
192,192,164193,128,0,164365:0:0:0:0:
320,192,164193,128,0,164365:0:0:0:0:
192,192,164536,1,0,0:0:0:0:
320,192,164536,1,0,0:0:0:0:
320,192,164879,1,0,0:0:0:0:
448,192,164879,1,0,0:0:0:0:
320,192,165222,1,0,0:0:0:0:
448,192,165222,1,0,0:0:0:0:
320,192,165565,1,0,0:0:0:0:
448,192,165565,1,0,0:0:0:0:
320,192,165908,1,0,0:0:0:0:
448,192,165908,1,0,0:0:0:0:
320,192,166250,1,0,0:0:0:0:
448,192,166250,1,0,0:0:0:0:
320,192,166593,1,0,0:0:0:0:
448,192,166593,1,0,0:0:0:0:
320,192,166936,1,0,0:0:0:0:
448,192,166936,1,0,0:0:0:0:
320,192,167279,1,0,0:0:0:0:
448,192,167279,1,0,0:0:0:0:
320,192,167622,1,0,0:0:0:0:
448,192,167622,1,0,0:0:0:0:
320,192,167965,1,0,0:0:0:0:
448,192,167965,1,0,0:0:0:0:
320,192,168308,1,0,0:0:0:0:
448,192,168308,1,0,0:0:0:0:
320,192,168650,1,0,0:0:0:0:
448,192,168650,1,0,0:0:0:0:
192,192,168993,128,0,169165:0:0:0:0:
320,192,168993,128,0,169165:0:0:0:0:
192,192,169336,128,0,169508:0:0:0:0:
320,192,169336,128,0,169508:0:0:0:0:
192,192,169679,128,0,169850:0:0:0:0:
320,192,169679,128,0,169850:0:0:0:0:
64,192,170022,1,0,0:0:0:0:
192,192,170108,1,0,0:0:0:0:
64,192,170193,1,0,0:0:0:0:
192,192,170279,1,0,0:0:0:0:
64,192,170365,1,0,0:0:0:0:
448,192,170365,1,0,0:0:0:0:
320,192,170365,1,0,0:0:0:0:
192,192,170708,1,0,0:0:0:0:
448,192,170708,1,0,0:0:0:0:
320,192,171050,1,0,0:0:0:0:
64,192,171050,1,0,0:0:0:0:
192,192,171222,1,0,0:0:0:0:
448,192,171222,1,0,0:0:0:0:
320,192,171565,1,0,0:0:0:0:
64,192,171565,1,0,0:0:0:0:
192,192,171908,1,0,0:0:0:0:
448,192,171908,1,0,0:0:0:0:
320,192,172079,1,0,0:0:0:0:
64,192,172079,1,0,0:0:0:0:
192,192,172422,1,0,0:0:0:0:
448,192,172422,1,0,0:0:0:0:
64,192,172765,1,0,0:0:0:0:
448,192,172765,1,0,0:0:0:0:
192,192,173108,1,0,0:0:0:0:
64,192,173108,1,0,0:0:0:0:
448,192,173108,1,0,0:0:0:0:
320,192,173193,1,0,0:0:0:0:
192,192,173279,1,0,0:0:0:0:
320,192,173365,1,0,0:0:0:0:
448,192,173450,1,0,0:0:0:0:
192,192,173450,1,0,0:0:0:0:
64,192,173536,1,0,0:0:0:0:
192,192,173622,1,0,0:0:0:0:
320,192,173708,1,0,0:0:0:0:
64,192,173793,1,0,0:0:0:0:
448,192,173793,1,0,0:0:0:0:
320,192,173879,1,0,0:0:0:0:
192,192,173965,1,0,0:0:0:0:
448,192,173965,1,0,0:0:0:0:
64,192,174050,1,0,0:0:0:0:
192,192,174136,1,0,0:0:0:0:
320,192,174222,1,0,0:0:0:0:
64,192,174308,1,0,0:0:0:0:
192,192,174308,1,0,0:0:0:0:
448,192,174393,1,0,0:0:0:0:
320,192,174479,1,0,0:0:0:0:
192,192,174565,1,0,0:0:0:0:
64,192,174650,1,0,0:0:0:0:
448,192,174650,1,0,0:0:0:0:
320,192,174736,1,0,0:0:0:0:
192,192,174822,1,0,0:0:0:0:
448,192,174822,1,0,0:0:0:0:
64,192,174908,1,0,0:0:0:0:
192,192,174993,1,0,0:0:0:0:
64,192,175079,1,0,0:0:0:0:
448,192,175165,1,0,0:0:0:0:
192,192,175165,1,0,0:0:0:0:
320,192,175250,1,0,0:0:0:0:
192,192,175336,1,0,0:0:0:0:
448,192,175422,1,0,0:0:0:0:
320,192,175508,1,0,0:0:0:0:
64,192,175508,1,0,0:0:0:0:
192,192,175593,1,0,0:0:0:0:
64,192,175679,1,0,0:0:0:0:
192,192,175765,1,0,0:0:0:0:
448,192,175850,1,0,0:0:0:0:
320,192,175850,1,0,0:0:0:0:
64,192,175850,1,0,0:0:0:0:
192,192,175936,1,0,0:0:0:0:
320,192,176022,1,0,0:0:0:0:
192,192,176108,1,0,0:0:0:0:
320,192,176193,1,0,0:0:0:0:
64,192,176193,1,0,0:0:0:0:
192,192,176279,1,0,0:0:0:0:
320,192,176365,1,0,0:0:0:0:
192,192,176450,1,0,0:0:0:0:
64,192,176536,1,0,0:0:0:0:
320,192,176536,1,0,0:0:0:0:
448,192,176622,1,0,0:0:0:0:
320,192,176708,1,0,0:0:0:0:
192,192,176793,1,0,0:0:0:0:
448,192,176879,1,0,0:0:0:0:
320,192,176879,1,0,0:0:0:0:
64,192,176965,1,0,0:0:0:0:
192,192,177050,1,0,0:0:0:0:
64,192,177136,1,0,0:0:0:0:
448,192,177222,1,0,0:0:0:0:
192,192,177222,1,0,0:0:0:0:
320,192,177222,1,0,0:0:0:0:
320,192,177393,1,0,0:0:0:0:
64,192,177393,1,0,0:0:0:0:
192,192,177565,1,0,0:0:0:0:
448,192,177565,1,0,0:0:0:0:
320,192,177736,1,0,0:0:0:0:
64,192,177736,1,0,0:0:0:0:
192,192,177908,1,0,0:0:0:0:
448,192,177908,1,0,0:0:0:0:
320,192,178079,1,0,0:0:0:0:
64,192,178079,1,0,0:0:0:0:
192,192,178250,1,0,0:0:0:0:
448,192,178250,1,0,0:0:0:0:
320,192,178422,1,0,0:0:0:0:
64,192,178422,1,0,0:0:0:0:
192,192,178593,1,0,0:0:0:0:
448,192,178593,1,0,0:0:0:0:
64,192,178593,1,0,0:0:0:0:
320,192,178679,1,0,0:0:0:0:
192,192,178765,1,0,0:0:0:0:
320,192,178850,1,0,0:0:0:0:
192,192,178936,1,0,0:0:0:0:
64,192,179022,1,0,0:0:0:0:
320,192,179108,1,0,0:0:0:0:
192,192,179193,1,0,0:0:0:0:
320,192,179279,1,0,0:0:0:0:
64,192,179279,1,0,0:0:0:0:
448,192,179279,1,0,0:0:0:0:
192,192,179365,1,0,0:0:0:0:
448,192,179450,1,0,0:0:0:0:
64,192,179536,1,0,0:0:0:0:
320,192,179622,1,0,0:0:0:0:
192,192,179708,1,0,0:0:0:0:
448,192,179793,1,0,0:0:0:0:
64,192,179879,1,0,0:0:0:0:
320,192,179965,1,0,0:0:0:0:
192,192,179965,1,0,0:0:0:0:
448,192,179965,1,0,0:0:0:0:
192,192,180993,1,0,0:0:0:0:
320,192,180993,1,0,0:0:0:0:
448,192,180993,1,0,0:0:0:0:
64,192,180993,1,0,0:0:0:0:
192,192,181336,1,0,0:0:0:0:
320,192,181336,1,0,0:0:0:0:
448,192,181336,1,0,0:0:0:0:
64,192,181679,1,0,0:0:0:0:
448,192,181679,1,0,0:0:0:0:
320,192,181679,1,0,0:0:0:0:
192,192,182022,1,0,0:0:0:0:
448,192,182022,1,0,0:0:0:0:
64,192,182193,1,0,0:0:0:0:
448,192,182193,1,0,0:0:0:0:
320,192,182536,1,0,0:0:0:0:
192,192,182536,1,0,0:0:0:0:
64,192,182879,1,0,0:0:0:0:
448,192,182879,1,0,0:0:0:0:
320,192,183050,1,0,0:0:0:0:
64,192,183050,1,0,0:0:0:0:
192,192,183050,1,0,0:0:0:0:
192,192,183393,1,0,0:0:0:0:
448,192,183393,1,0,0:0:0:0:
320,192,183736,1,0,0:0:0:0:
64,192,183736,1,0,0:0:0:0:
192,192,183736,1,0,0:0:0:0:
192,192,184079,1,0,0:0:0:0:
448,192,184079,1,0,0:0:0:0:
320,192,184422,1,0,0:0:0:0:
64,192,184422,1,0,0:0:0:0:
448,192,184422,1,0,0:0:0:0:
192,192,184765,1,0,0:0:0:0:
448,192,184765,1,0,0:0:0:0:
320,192,184936,1,0,0:0:0:0:
64,192,184936,1,0,0:0:0:0:
448,192,185279,1,0,0:0:0:0:
64,192,185279,1,0,0:0:0:0:
320,192,185450,128,0,185622:0:0:0:0:
192,192,185450,128,0,185708:0:0:0:0:
192,192,185793,128,0,186050:0:0:0:0:
320,192,185793,128,0,185965:0:0:0:0:
64,192,185793,1,0,0:0:0:0:
448,192,185793,1,0,0:0:0:0:
192,192,186136,128,0,186393:0:0:0:0:
320,192,186136,128,0,186308:0:0:0:0:
64,192,186479,1,0,0:0:0:0:
448,192,186479,1,0,0:0:0:0:
320,192,186479,1,0,0:0:0:0:
320,192,186650,1,0,0:0:0:0:
192,192,186650,1,0,0:0:0:0:
64,192,186822,1,0,0:0:0:0:
448,192,186822,1,0,0:0:0:0:
320,192,187165,1,0,0:0:0:0:
64,192,187165,1,0,0:0:0:0:
192,192,187165,1,0,0:0:0:0:
192,192,187508,1,0,0:0:0:0:
448,192,187508,1,0,0:0:0:0:
192,192,187850,1,0,0:0:0:0:
448,192,187850,1,0,0:0:0:0:
64,192,187850,1,0,0:0:0:0:
320,192,188022,1,0,0:0:0:0:
192,192,188022,1,0,0:0:0:0:
64,192,188365,1,0,0:0:0:0:
320,192,188365,1,0,0:0:0:0:
192,192,188708,1,0,0:0:0:0:
448,192,188708,1,0,0:0:0:0:
320,192,188879,1,0,0:0:0:0:
64,192,188879,1,0,0:0:0:0:
64,192,189050,1,0,0:0:0:0:
448,192,189050,1,0,0:0:0:0:
320,192,189222,1,0,0:0:0:0:
192,192,189222,1,0,0:0:0:0:
448,192,189222,1,0,0:0:0:0:
64,192,189393,1,0,0:0:0:0:
320,192,189393,1,0,0:0:0:0:
192,192,189565,1,0,0:0:0:0:
448,192,189565,1,0,0:0:0:0:
320,192,189908,1,0,0:0:0:0:
192,192,189908,1,0,0:0:0:0:
448,192,189908,1,0,0:0:0:0:
64,192,190250,1,0,0:0:0:0:
448,192,190250,1,0,0:0:0:0:
192,192,190593,1,0,0:0:0:0:
448,192,190593,1,0,0:0:0:0:
320,192,190593,1,0,0:0:0:0:
448,192,190765,1,0,0:0:0:0:
64,192,190765,1,0,0:0:0:0:
320,192,190936,128,0,191193:0:0:0:0:
192,192,190936,128,0,191108:0:0:0:0:
320,192,191279,128,0,191536:0:0:0:0:
192,192,191279,128,0,191450:0:0:0:0:
64,192,191279,1,0,0:0:0:0:
448,192,191279,1,0,0:0:0:0:
192,192,191622,128,0,191879:0:0:0:0:
320,192,191622,128,0,191793:0:0:0:0:
192,192,191965,128,0,192222:0:0:0:0:
320,192,191965,128,0,192136:0:0:0:0:
64,192,191965,1,0,0:0:0:0:
448,192,191965,1,0,0:0:0:0:
64,192,192308,1,0,0:0:0:0:
448,192,192308,1,0,0:0:0:0:
320,192,192308,1,0,0:0:0:0:
320,192,192650,1,0,0:0:0:0:
192,192,192650,1,0,0:0:0:0:
448,192,192650,1,0,0:0:0:0:
64,192,192993,1,0,0:0:0:0:
320,192,192993,1,0,0:0:0:0:
192,192,193165,1,0,0:0:0:0:
448,192,193165,1,0,0:0:0:0:
320,192,193508,1,0,0:0:0:0:
64,192,193508,1,0,0:0:0:0:
192,192,193850,1,0,0:0:0:0:
448,192,193850,1,0,0:0:0:0:
320,192,194022,1,0,0:0:0:0:
64,192,194022,1,0,0:0:0:0:
448,192,194022,1,0,0:0:0:0:
192,192,194365,1,0,0:0:0:0:
320,192,194365,1,0,0:0:0:0:
448,192,194708,1,0,0:0:0:0:
192,192,194708,1,0,0:0:0:0:
64,192,194708,1,0,0:0:0:0:
320,192,195050,1,0,0:0:0:0:
64,192,195050,1,0,0:0:0:0:
192,192,195393,1,0,0:0:0:0:
448,192,195393,1,0,0:0:0:0:
320,192,195393,1,0,0:0:0:0:
320,192,195736,1,0,0:0:0:0:
64,192,195736,1,0,0:0:0:0:
192,192,195908,1,0,0:0:0:0:
448,192,195908,1,0,0:0:0:0:
448,192,196250,1,0,0:0:0:0:
320,192,196250,1,0,0:0:0:0:
64,192,196422,128,0,196679:0:0:0:0:
192,192,196422,128,0,196593:0:0:0:0:
64,192,196765,128,0,197022:0:0:0:0:
192,192,196765,128,0,196936:0:0:0:0:
320,192,196765,1,0,0:0:0:0:
448,192,196765,1,0,0:0:0:0:
64,192,197108,128,0,197365:0:0:0:0:
192,192,197108,128,0,197279:0:0:0:0:
448,192,197450,1,0,0:0:0:0:
320,192,197450,1,0,0:0:0:0:
192,192,197450,1,0,0:0:0:0:
64,192,197622,1,0,0:0:0:0:
320,192,197622,1,0,0:0:0:0:
192,192,197793,128,0,197965:0:0:0:0:
448,192,197793,1,0,0:0:0:0:
320,192,198136,128,0,198308:0:0:0:0:
64,192,198136,1,0,0:0:0:0:
192,192,198136,1,0,0:0:0:0:
64,192,198479,128,0,198650:0:0:0:0:
448,192,198479,1,0,0:0:0:0:
448,192,198822,128,0,198993:0:0:0:0:
64,192,198822,1,0,0:0:0:0:
320,192,198822,1,0,0:0:0:0:
320,192,198993,128,0,199165:0:0:0:0:
448,192,199165,1,0,0:0:0:0:
64,192,199336,128,0,199508:0:0:0:0:
320,192,199508,1,0,0:0:0:0:
448,192,199508,1,0,0:0:0:0:
192,192,199679,128,0,199850:0:0:0:0:
320,192,199850,128,0,200022:0:0:0:0:
448,192,199850,1,0,0:0:0:0:
192,192,200022,128,0,200193:0:0:0:0:
320,192,200193,128,0,200365:0:0:0:0:
64,192,200193,1,0,0:0:0:0:
448,192,200193,1,0,0:0:0:0:
192,192,200365,128,0,200536:0:0:0:0:
448,192,200536,128,0,202936:0:0:0:0:
64,192,200536,128,0,200708:0:0:0:0:
320,192,200536,1,0,0:0:0:0:
320,192,200879,128,0,201050:0:0:0:0:
192,192,200879,1,0,0:0:0:0:
192,192,201222,128,0,201393:0:0:0:0:
64,192,201393,128,0,201565:0:0:0:0:
192,192,201565,128,0,201736:0:0:0:0:
320,192,201565,1,0,0:0:0:0:
320,192,201736,128,0,201908:0:0:0:0:
64,192,201908,128,0,202165:0:0:0:0:
192,192,201908,128,0,202079:0:0:0:0:
64,192,202250,128,0,202508:0:0:0:0:
192,192,202250,128,0,202422:0:0:0:0:
64,192,202593,128,0,202850:0:0:0:0:
192,192,202593,128,0,202765:0:0:0:0:
64,192,202936,128,0,203193:0:0:0:0:
320,192,202936,1,0,0:0:0:0:
192,192,202936,128,0,203108:0:0:0:0:
448,192,203279,1,0,0:0:0:0:
320,192,203279,1,0,0:0:0:0:
192,192,203279,1,0,0:0:0:0:
192,192,203450,1,0,0:0:0:0:
64,192,203622,1,0,0:0:0:0:
448,192,203622,1,0,0:0:0:0:
320,192,203622,1,0,0:0:0:0:
64,192,203793,1,0,0:0:0:0:
192,192,203965,1,0,0:0:0:0:
448,192,203965,1,0,0:0:0:0:
320,192,204136,1,0,0:0:0:0:
64,192,204136,1,0,0:0:0:0:
192,192,204308,1,0,0:0:0:0:
320,192,204308,1,0,0:0:0:0:
448,192,204308,1,0,0:0:0:0:
192,192,204479,1,0,0:0:0:0:
448,192,204479,1,0,0:0:0:0:
320,192,204650,1,0,0:0:0:0:
320,192,204822,1,0,0:0:0:0:
64,192,204822,1,0,0:0:0:0:
192,192,204993,1,0,0:0:0:0:
448,192,204993,1,0,0:0:0:0:
320,192,204993,1,0,0:0:0:0:
64,192,205165,1,0,0:0:0:0:
320,192,205336,1,0,0:0:0:0:
64,192,205336,1,0,0:0:0:0:
192,192,205508,1,0,0:0:0:0:
192,192,205679,1,0,0:0:0:0:
448,192,205679,1,0,0:0:0:0:
64,192,205679,1,0,0:0:0:0:
320,192,205850,1,0,0:0:0:0:
320,192,206022,1,0,0:0:0:0:
64,192,206022,1,0,0:0:0:0:
192,192,206193,1,0,0:0:0:0:
192,192,206365,1,0,0:0:0:0:
448,192,206365,1,0,0:0:0:0:
320,192,206365,1,0,0:0:0:0:
64,192,206536,1,0,0:0:0:0:
448,192,206708,1,0,0:0:0:0:
192,192,206708,1,0,0:0:0:0:
64,192,206879,1,0,0:0:0:0:
320,192,206879,1,0,0:0:0:0:
192,192,207050,1,0,0:0:0:0:
320,192,207050,1,0,0:0:0:0:
448,192,207050,1,0,0:0:0:0:
64,192,207222,1,0,0:0:0:0:
448,192,207222,1,0,0:0:0:0:
320,192,207393,128,0,207650:0:0:0:0:
192,192,207393,128,0,207565:0:0:0:0:
64,192,207393,1,0,0:0:0:0:
320,192,207736,128,0,207993:0:0:0:0:
192,192,207736,128,0,207908:0:0:0:0:
64,192,207736,1,0,0:0:0:0:
448,192,207736,1,0,0:0:0:0:
320,192,208079,128,0,208336:0:0:0:0:
192,192,208079,128,0,208250:0:0:0:0:
64,192,208079,1,0,0:0:0:0:
64,192,208422,1,0,0:0:0:0:
192,192,208422,1,0,0:0:0:0:
448,192,208422,1,0,0:0:0:0:
320,192,208593,1,0,0:0:0:0:
448,192,208593,1,0,0:0:0:0:
64,192,208765,1,0,0:0:0:0:
320,192,208765,1,0,0:0:0:0:
448,192,208936,1,0,0:0:0:0:
320,192,209108,1,0,0:0:0:0:
64,192,209108,1,0,0:0:0:0:
192,192,209108,1,0,0:0:0:0:
320,192,209279,1,0,0:0:0:0:
192,192,209450,1,0,0:0:0:0:
448,192,209450,1,0,0:0:0:0:
64,192,209622,1,0,0:0:0:0:
320,192,209793,1,0,0:0:0:0:
64,192,209793,1,0,0:0:0:0:
192,192,209793,1,0,0:0:0:0:
192,192,209965,1,0,0:0:0:0:
448,192,209965,1,0,0:0:0:0:
320,192,210136,1,0,0:0:0:0:
64,192,210308,1,0,0:0:0:0:
192,192,210308,1,0,0:0:0:0:
448,192,210479,1,0,0:0:0:0:
320,192,210479,1,0,0:0:0:0:
192,192,210479,1,0,0:0:0:0:
448,192,210650,1,0,0:0:0:0:
320,192,210650,1,0,0:0:0:0:
64,192,210822,1,0,0:0:0:0:
192,192,210822,1,0,0:0:0:0:
448,192,210993,1,0,0:0:0:0:
320,192,210993,1,0,0:0:0:0:
320,192,211165,1,0,0:0:0:0:
192,192,211165,1,0,0:0:0:0:
64,192,211165,1,0,0:0:0:0:
448,192,211336,1,0,0:0:0:0:
64,192,211336,1,0,0:0:0:0:
448,192,211508,1,0,0:0:0:0:
192,192,211508,1,0,0:0:0:0:
320,192,211679,1,0,0:0:0:0:
192,192,211850,1,0,0:0:0:0:
448,192,211850,1,0,0:0:0:0:
64,192,211850,1,0,0:0:0:0:
192,192,212022,1,0,0:0:0:0:
320,192,212193,1,0,0:0:0:0:
64,192,212193,1,0,0:0:0:0:
320,192,212365,1,0,0:0:0:0:
448,192,212536,1,0,0:0:0:0:
192,192,212536,1,0,0:0:0:0:
64,192,212536,1,0,0:0:0:0:
320,192,212708,1,0,0:0:0:0:
448,192,212708,1,0,0:0:0:0:
64,192,212879,128,0,213136:0:0:0:0:
192,192,212879,128,0,213050:0:0:0:0:
320,192,212879,1,0,0:0:0:0:
64,192,213222,128,0,213479:0:0:0:0:
192,192,213222,128,0,213393:0:0:0:0:
448,192,213222,1,0,0:0:0:0:
320,192,213222,1,0,0:0:0:0:
320,192,213565,128,0,213822:0:0:0:0:
192,192,213565,128,0,213736:0:0:0:0:
448,192,213565,1,0,0:0:0:0:
320,192,213908,128,0,214165:0:0:0:0:
192,192,213908,128,0,214079:0:0:0:0:
64,192,213908,1,0,0:0:0:0:
448,192,213908,1,0,0:0:0:0:
64,192,214250,1,0,0:0:0:0:
192,192,214250,1,0,0:0:0:0:
448,192,214250,1,0,0:0:0:0:
320,192,214422,1,0,0:0:0:0:
320,192,214593,1,0,0:0:0:0:
192,192,214593,1,0,0:0:0:0:
64,192,214765,1,0,0:0:0:0:
64,192,214936,1,0,0:0:0:0:
448,192,214936,1,0,0:0:0:0:
448,192,215108,1,0,0:0:0:0:
192,192,215108,1,0,0:0:0:0:
320,192,215279,1,0,0:0:0:0:
64,192,215450,1,0,0:0:0:0:
320,192,215450,1,0,0:0:0:0:
192,192,215622,1,0,0:0:0:0:
192,192,215793,1,0,0:0:0:0:
448,192,215793,1,0,0:0:0:0:
448,192,215965,1,0,0:0:0:0:
64,192,215965,1,0,0:0:0:0:
320,192,216136,1,0,0:0:0:0:
192,192,216308,1,0,0:0:0:0:
448,192,216308,1,0,0:0:0:0:
64,192,216479,1,0,0:0:0:0:
320,192,216650,1,0,0:0:0:0:
64,192,216650,1,0,0:0:0:0:
192,192,216822,1,0,0:0:0:0:
192,192,216993,1,0,0:0:0:0:
448,192,216993,1,0,0:0:0:0:
320,192,217165,1,0,0:0:0:0:
320,192,217336,1,0,0:0:0:0:
64,192,217336,1,0,0:0:0:0:
192,192,217508,1,0,0:0:0:0:
320,192,217679,1,0,0:0:0:0:
448,192,217679,1,0,0:0:0:0:
64,192,217850,1,0,0:0:0:0:
320,192,217850,1,0,0:0:0:0:
192,192,218022,1,0,0:0:0:0:
448,192,218193,1,0,0:0:0:0:
64,192,218193,1,0,0:0:0:0:
192,192,218365,128,0,218622:0:0:0:0:
320,192,218365,128,0,218536:0:0:0:0:
448,192,218365,1,0,0:0:0:0:
192,192,218708,128,0,218965:0:0:0:0:
320,192,218708,128,0,218879:0:0:0:0:
64,192,218708,1,0,0:0:0:0:
448,192,218708,1,0,0:0:0:0:
448,192,219050,1,0,0:0:0:0:
320,192,219136,1,0,0:0:0:0:
192,192,219222,1,0,0:0:0:0:
64,192,219308,1,0,0:0:0:0:
192,192,219393,1,0,0:0:0:0:
448,192,219393,1,0,0:0:0:0:
192,192,219565,1,0,0:0:0:0:
320,192,219650,1,0,0:0:0:0:
192,192,219736,1,0,0:0:0:0:
64,192,219736,1,0,0:0:0:0:
448,192,219736,1,0,0:0:0:0:
320,192,219908,1,0,0:0:0:0:
192,192,219908,1,0,0:0:0:0:
64,192,220079,1,0,0:0:0:0:
448,192,220079,1,0,0:0:0:0:
320,192,220250,1,0,0:0:0:0:
192,192,220250,1,0,0:0:0:0:
64,192,220422,1,0,0:0:0:0:
448,192,220422,1,0,0:0:0:0:
320,192,220593,1,0,0:0:0:0:
192,192,220593,1,0,0:0:0:0:
64,192,220765,1,0,0:0:0:0:
448,192,220765,1,0,0:0:0:0:
320,192,220936,1,0,0:0:0:0:
192,192,220936,1,0,0:0:0:0:
64,192,221108,1,0,0:0:0:0:
192,192,221108,1,0,0:0:0:0:
448,192,221108,1,0,0:0:0:0:
320,192,221279,1,0,0:0:0:0:
64,192,221450,1,0,0:0:0:0:
448,192,221450,1,0,0:0:0:0:
192,192,221622,1,0,0:0:0:0:
320,192,221793,1,0,0:0:0:0:
64,192,221793,1,0,0:0:0:0:
192,192,221965,1,0,0:0:0:0:
320,192,222136,1,0,0:0:0:0:
64,192,222136,1,0,0:0:0:0:
448,192,222222,1,0,0:0:0:0:
320,192,222308,1,0,0:0:0:0:
448,192,222393,1,0,0:0:0:0:
64,192,222479,1,0,0:0:0:0:
192,192,222479,1,0,0:0:0:0:
320,192,222479,1,0,0:0:0:0:
448,192,222565,1,0,0:0:0:0:
320,192,222650,1,0,0:0:0:0:
192,192,222736,1,0,0:0:0:0:
320,192,222822,1,0,0:0:0:0:
64,192,222822,1,0,0:0:0:0:
448,192,222908,1,0,0:0:0:0:
320,192,222993,1,0,0:0:0:0:
192,192,223079,1,0,0:0:0:0:
448,192,223165,1,0,0:0:0:0:
320,192,223165,1,0,0:0:0:0:
64,192,223165,1,0,0:0:0:0:
192,192,223250,1,0,0:0:0:0:
320,192,223336,1,0,0:0:0:0:
192,192,223422,1,0,0:0:0:0:
320,192,223508,1,0,0:0:0:0:
448,192,223508,1,0,0:0:0:0:
192,192,223593,1,0,0:0:0:0:
64,192,223679,1,0,0:0:0:0:
192,192,223765,1,0,0:0:0:0:
448,192,223850,1,0,0:0:0:0:
320,192,223850,1,0,0:0:0:0:
64,192,223850,1,0,0:0:0:0:
192,192,223936,1,0,0:0:0:0:
64,192,224022,1,0,0:0:0:0:
192,192,224108,1,0,0:0:0:0:
320,192,224193,1,0,0:0:0:0:
448,192,224193,1,0,0:0:0:0:
192,192,224279,1,0,0:0:0:0:
64,192,224365,1,0,0:0:0:0:
192,192,224450,1,0,0:0:0:0:
320,192,224536,1,0,0:0:0:0:
64,192,224536,1,0,0:0:0:0:
448,192,224622,1,0,0:0:0:0:
320,192,224708,1,0,0:0:0:0:
192,192,224793,1,0,0:0:0:0:
320,192,224879,1,0,0:0:0:0:
64,192,224879,1,0,0:0:0:0:
448,192,224879,1,0,0:0:0:0:
64,192,225222,1,0,0:0:0:0:
448,192,225222,1,0,0:0:0:0:
320,192,225222,1,0,0:0:0:0:
192,192,225222,1,0,0:0:0:0:
