osu file format v14

[General]
AudioFilename: audio.mp3
AudioLeadIn: 0
PreviewTime: 41970
Countdown: 0
SampleSet: Drum
StackLeniency: 0.7
Mode: 2
LetterboxInBreaks: 0
WidescreenStoryboard: 1

[Editor]
DistanceSpacing: 1
BeatDivisor: 8
GridSize: 8
TimelineZoom: 2.599999

[Metadata]
Title:Intro - Dockaaaahhhnnn!!
TitleUnicode:Intro - Dockaaaahhhnnn!!
Artist:t+pazolite
ArtistUnicode:t+pazolite
Creator:Stardust Prism
Version:Secre's Deluge
Source:
Tags:secre chickenbible instrumental electronic Orient Kenran Kensou r-34 kfc nugget Natsuko Mniam -Ken -Hex- C.H.S cutie headshaking sounds 絢爛喧騒オリエント tpaz tpz featured artist fa mappers' guild mg mpg
BeatmapID:4459457
BeatmapSetID:2108381

[Difficulty]
HPDrainRate:6
CircleSize:4.5
OverallDifficulty:9.5
ApproachRate:9.5
SliderMultiplier:2.04
SliderTickRate:2

[Events]
//Background and Video events
0,0,"bg.jpg",0,0
//Break Periods
//Storyboard Layer 0 (Background)
//Storyboard Layer 1 (Fail)
//Storyboard Layer 2 (Pass)
//Storyboard Layer 3 (Foreground)
//Storyboard Layer 4 (Overlay)
//Storyboard Sound Samples

[TimingPoints]
11304,333.333333333333,4,3,0,50,1,0
11970,-100,4,3,0,50,0,0
12637,-100,4,3,0,50,0,0
32637,-100,4,3,0,50,0,0
43303,-100,4,3,0,50,0,1
53637,-100,4,3,0,50,0,1
53970,-100,4,3,0,50,0,1
64303,-100,4,3,0,30,0,1
64637,-100,4,3,0,50,0,0

[Colours]
Combo1 : 218,174,92
Combo2 : 255,0,0
Combo3 : 139,116,116
Combo4 : 185,61,0

[HitObjects]
348,96,11345,6,0,P|271:95|181:265,1,280.5,4|0,3:3|0:0,0:0:0:0:
336,259,11970,2,0,L|345:153,1,102,0|0,0:0|0:0,0:0:0:0:
184,110,12304,2,0,L|71:108,1,102,0|0,0:0|0:0,0:0:0:0:
340,29,12637,6,0,P|395:34|329:199,1,306,0|0,1:0|0:0,0:0:0:0:
178,146,13304,2,0,P|248:147|324:348,1,306,8|0,0:0|0:0,0:0:0:0:
157,248,13970,6,0,P|209:239|134:83,1,306,0|0,1:0|0:0,0:0:0:0:
299,110,14637,2,0,L|175:107,1,102,8|0,0:0|0:0,0:0:0:0:
337,35,14970,1,0,0:0:0:0:
196,33,15137,1,0,0:0:0:0:
471,93,15304,6,0,L|466:213,1,102,0|0,0:0|0:0,0:0:0:0:
315,262,15637,2,0,L|431:256,1,102,0|0,0:0|0:0,0:0:0:0:
259,178,15970,2,0,P|183:175|147:294,1,204,8|0,0:0|0:0,0:0:0:0:
288,323,16470,1,0,0:0:0:0:
40,206,16637,6,0,L|41:-11,1,204,0|0,0:0|0:0,0:0:0:0:
191,48,17137,1,0,0:0:0:0:
46,81,17304,2,0,P|96:79|158:208,1,204,8|0,0:0|0:0,0:0:0:0:
18,202,17804,1,0,0:0:0:0:
311,183,17970,6,0,P|370:186|429:316,1,204,0|0,1:0|0:0,0:0:0:0:
147,254,18637,2,0,L|368:237,1,204,8|0,0:0|0:0,0:0:0:0:
201,166,19137,1,0,0:0:0:0:
351,117,19304,6,0,P|288:112|261:231,1,204,0|0,1:0|0:0,0:0:0:0:
408,257,19803,1,0,0:0:0:0:
255,169,19970,2,0,L|252:59,1,102,8|0,0:0|0:0,0:0:0:0:
400,34,20303,1,0,0:0:0:0:
114,136,20637,6,0,L|341:139,1,204,0|0,0:0|0:0,0:0:0:0:
178,64,21137,1,0,0:0:0:0:
323,53,21303,2,0,L|439:52,1,102,8|0,0:0|0:0,0:0:0:0:
269,141,21637,2,0,L|395:137,1,102,0|0,0:0|0:0,0:0:0:0:
93,235,21970,6,0,P|58:221|117:114,1,204,0|0,0:0|0:0,0:0:0:0:
264,120,22470,1,0,0:0:0:0:
79,132,22637,2,0,L|72:338,1,204,8|0,0:0|0:0,0:0:0:0:
224,340,23137,2,0,L|156:338,1,51,0|0,0:0|0:0,0:0:0:0:
365,263,23303,6,0,P|421:243|363:149,1,204,0|0,1:0|0:0,0:0:0:0:
225,144,23803,1,0,0:0:0:0:
369,141,23970,2,0,L|376:352,1,204,8|0,0:0|0:0,0:0:0:0:
86,283,24637,6,0,L|308:267,1,204,0|0,1:0|0:0,0:0:0:0:
289,268,25137,1,0,0:0:0:0:
140,173,25303,2,0,L|361:164,1,204,8|0,0:0|1:0,0:0:0:0:
343,164,25803,1,0,0:0:0:0:
66,121,25970,6,0,L|42:69,2,51,0|0|0,0:0|0:0|0:0,0:0:0:0:
217,89,26303,2,0,L|162:83,2,51,0|0|0,0:0|0:0|0:0,0:0:0:0:
485,87,26637,2,0,L|416:83,2,51,8|0|0,0:0|0:0|0:0,0:0:0:0:
331,93,26970,2,0,L|402:96,2,51,0|0|0,0:0|0:0|0:0,0:0:0:0:
172,171,27303,6,0,P|223:168|297:299,1,204,0|0,0:0|0:0,0:0:0:0:
166,290,27803,1,0,0:0:0:0:
309,224,27970,2,0,L|317:111,1,102,8|0,0:0|0:0,0:0:0:0:
171,77,28303,1,0,0:0:0:0:
316,122,28470,1,0,0:0:0:0:
38,146,28637,5,0,1:0:0:0:
93,140,28720,1,0,0:0:0:0:
142,164,28803,1,0,0:0:0:0:
171,212,28886,1,0,0:0:0:0:
170,267,28970,1,0,0:0:0:0:
38,146,29137,1,0,0:0:0:0:
315,141,29303,1,8,0:0:0:0:
260,135,29386,1,0,0:0:0:0:
211,159,29469,1,0,0:0:0:0:
182,207,29552,1,0,0:0:0:0:
183,262,29636,1,0,0:0:0:0:
315,141,29803,1,0,0:0:0:0:
31,103,29970,5,0,1:0:0:0:
81,99,30053,1,0,0:0:0:0:
132,95,30136,1,0,0:0:0:0:
183,91,30219,1,0,0:0:0:0:
234,87,30303,1,0,0:0:0:0:
88,158,30470,1,0,0:0:0:0:
481,103,30637,1,8,0:0:0:0:
430,99,30720,1,0,0:0:0:0:
379,95,30803,1,0,0:0:0:0:
328,91,30886,1,0,0:0:0:0:
277,87,30970,1,0,1:0:0:0:
424,158,31137,1,0,0:0:0:0:
137,128,31303,6,0,L|202:115,2,51,0|0|0,0:0|0:0|0:0,0:0:0:0:
415,120,31637,2,0,L|350:107,2,51,0|0|0,0:0|0:0|0:0,0:0:0:0:
92,66,31970,1,8,0:0:0:0:
164,60,32053,1,0,0:0:0:0:
92,66,32137,1,0,0:0:0:0:
420,66,32303,1,0,0:0:0:0:
348,60,32386,1,0,0:0:0:0:
420,66,32470,1,0,0:0:0:0:
49,119,32637,6,0,P|112:114|212:309,1,306,4|0,0:1|0:0,0:0:0:0:
367,320,33303,2,0,L|371:201,1,102,0|0,0:0|0:0,0:0:0:0:
225,179,33637,1,0,0:0:0:0:
367,167,33803,2,0,L|299:163,1,51,0|0,0:0|0:0,0:0:0:0:
139,107,33970,6,0,L|251:103,1,102,0|0,0:0|0:0,0:0:0:0:
94,55,34303,2,0,L|91:171,1,102,0|0,0:0|0:0,0:0:0:0:
361,171,34637,2,0,P|402:183|363:300,1,204,0|0,0:0|0:0,0:0:0:0:
85,307,35303,6,0,L|191:301,2,102,0|0|0,0:0|0:0|0:0,0:0:0:0:
345,173,35970,2,0,L|126:157,1,204,0|0,0:0|0:0,0:0:0:0:
406,103,36637,5,0,0:0:0:0:
265,124,36803,2,0,L|265:239,1,102,0|0,0:0|0:0,0:0:0:0:
406,103,37137,1,0,0:0:0:0:
121,129,37303,2,0,P|179:125|223:252,1,204,0|0,0:0|0:0,0:0:0:0:
77,235,37803,1,0,0:0:0:0:
353,137,37970,6,0,L|298:131,1,51,0|0,1:0|0:0,0:0:0:0:
376,80,38137,2,0,L|309:69,1,51,0|0,0:0|0:0,0:0:0:0:
177,137,38303,2,0,L|298:142,1,102,8|0,0:0|0:0,0:0:0:0:
119,150,38637,2,0,L|174:144,1,51,0|0,1:0|0:0,0:0:0:0:
96,93,38804,2,0,L|163:82,1,51,0|0,0:0|0:0,0:0:0:0:
296,150,38970,2,0,L|175:155,1,102,8|0,0:0|0:0,0:0:0:0:
469,97,39303,6,0,L|351:71,1,102,0|0,1:0|0:0,0:0:0:0:
449,156,39553,1,0,0:0:0:0:
269,97,39637,2,0,L|387:71,1,102,8|0,0:0|0:0,0:0:0:0:
289,156,39887,1,0,0:0:0:0:
119,92,39970,6,0,L|46:78,3,51,0|0|0|0,1:0|0:0|0:0|0:0,0:0:0:0:
240,124,40303,2,0,L|246:247,1,102,8|0,0:0|0:0,0:0:0:0:
312,273,40553,1,0,0:0:0:0:
127,161,40637,6,0,L|57:147,1,51,0|0,1:0|0:0,0:0:0:0:
159,110,40803,2,0,L|220:100,1,51,0|0,0:0|0:0,0:0:0:0:
40,111,40970,2,0,L|38:48,1,51,8|0,0:0|0:0,0:0:0:0:
206,51,41136,2,0,L|145:41,1,51,0|0,0:0|0:0,0:0:0:0:
317,67,41303,6,0,L|443:57,1,102,0|0,1:0|0:0,0:0:0:0:
338,116,41553,1,0,0:0:0:0:
502,79,41637,2,0,L|431:67,2,51,8|0|0,0:0|0:0|0:0,0:0:0:0:
143,122,41970,6,0,L|143:289,1,153,2|0,0:1|0:0,0:0:0:0:
322,315,42303,2,0,L|321:161,1,153,2|0,0:1|0:0,0:0:0:0:
491,136,42637,6,0,L|336:96,1,153,2|0,0:1|0:0,0:0:0:0:
176,100,42970,2,0,L|340:77,1,153,2|0,0:1|0:0,0:0:0:0:
100,152,43303,6,0,L|103:274,1,102,6|0,0:0|0:0,0:0:0:0:
263,311,43553,1,0,0:0:0:0:
102,253,43637,2,0,L|225:256,1,102,8|0,0:0|0:0,0:0:0:0:
483,159,43970,6,0,L|359:154,1,102,2|0,0:0|0:0,0:0:0:0:
225,115,44220,1,0,0:0:0:0:
381,154,44303,2,0,L|264:150,1,102,8|0,0:0|0:0,0:0:0:0:
28,116,44637,5,2,0:0:0:0:
156,69,44803,2,0,L|88:68,1,51,0|0,0:0|0:0,0:0:0:0:
272,157,44970,1,8,0:0:0:0:
272,157,45137,2,0,L|207:157,1,51,0|0,0:0|0:0,0:0:0:0:
398,91,45303,1,2,0:0:0:0:
311,34,45470,2,0,L|373:35,1,51,0|0,0:0|0:0,0:0:0:0:
209,114,45637,1,8,0:0:0:0:
335,117,45803,1,0,0:0:0:0:
27,78,45970,6,0,L|149:74,1,102,2|0,0:0|0:0,0:0:0:0:
288,73,46220,1,0,0:0:0:0:
128,74,46303,2,0,L|129:200,1,102,8|0,0:0|0:0,0:0:0:0:
485,78,46637,6,0,L|363:74,1,102,2|0,0:0|0:0,0:0:0:0:
224,73,46887,1,0,0:0:0:0:
383,74,46970,2,0,L|383:200,1,102,8|0,0:0|0:0,0:0:0:0:
67,204,47303,5,2,0:0:0:0:
223,152,47470,1,0,0:0:0:0:
290,138,47553,1,0,0:0:0:0:
130,86,47637,1,8,0:0:0:0:
270,164,47803,1,0,0:0:0:0:
203,150,47886,1,0,0:0:0:0:
363,98,47970,5,0,0:0:0:0:
103,88,48137,1,0,0:0:0:0:
390,39,48303,1,8,0:0:0:0:
241,33,48470,2,0,L|238:102,1,51,0|0,0:0|0:0,0:0:0:0:
37,203,48637,6,0,L|155:190,1,102,2|2,0:0|0:3,0:0:0:0:
293,135,48887,1,0,0:0:0:0:
138,191,48970,2,0,L|130:132,1,51,8|0,0:0|0:0,0:0:0:0:
46,119,49137,2,0,L|34:60,1,51,2|0,0:3|0:0,0:0:0:0:
291,186,49303,6,0,L|173:173,1,102,2|2,0:0|0:3,0:0:0:0:
35,118,49553,1,0,0:0:0:0:
189,174,49636,2,0,L|197:114,1,51,8|0,0:0|0:0,0:0:0:0:
282,102,49803,2,0,L|294:43,1,51,2|0,0:3|0:0,0:0:0:0:
46,100,49970,6,0,L|164:73,1,102,2|2,0:0|0:3,0:0:0:0:
300,56,50220,1,0,0:0:0:0:
146,77,50303,2,0,L|201:67,1,51,8|0,0:0|0:0,0:0:0:0:
295,121,50470,2,0,L|295:191,1,51,2|0,0:3|0:0,0:0:0:0:
451,258,50637,5,0,0:0:0:0:
302,206,50803,2,0,L|296:143,1,51,0|0,0:0|0:0,0:0:0:0:
129,127,50970,2,0,L|16:122,1,102,8|2,0:0|0:3,0:0:0:0:
326,118,51303,6,0,L|207:108,1,102,2|2,0:0|0:3,0:0:0:0:
381,53,51553,1,0,0:0:0:0:
225,109,51637,2,0,L|222:181,1,51,8|0,0:0|0:0,0:0:0:0:
126,213,51803,2,0,L|194:206,1,51,2|0,0:3|0:0,0:0:0:0:
356,130,51970,6,0,L|231:128,1,102,2|2,0:0|0:3,0:0:0:0:
96,117,52220,1,0,0:0:0:0:
255,128,52303,2,0,L|192:129,1,51,8|0,0:0|0:0,0:0:0:0:
305,66,52470,2,0,L|308:14,1,51,2|0,0:3|0:0,0:0:0:0:
477,47,52637,5,2,0:0:0:0:
327,175,52803,2,0,L|398:171,1,51,2|0,0:3|0:0,0:0:0:0:
201,151,52970,1,8,0:0:0:0:
201,151,53137,2,0,L|265:151,1,51,2|0,0:3|0:0,0:0:0:0:
76,123,53303,5,2,0:0:0:0:
201,151,53470,2,0,L|201:86,1,51,0|0,0:0|0:0,0:0:0:0:
36,65,53637,1,0,0:0:0:0:
478,156,53970,6,0,L|407:153,3,51,6|0|0|0,0:0|0:0|0:0|0:0,0:0:0:0:
262,107,54303,2,0,L|371:106,1,102,8|2,0:0|0:3,0:0:0:0:
210,167,54553,1,0,0:0:0:0:
364,106,54637,6,0,L|293:103,3,51,2|0|0|0,0:0|0:0|0:0|0:0,0:0:0:0:
165,87,54970,1,0,0:0:0:0:
303,41,55137,2,0,L|251:41,1,51,2|0,0:3|0:0,0:0:0:0:
56,121,55303,6,0,L|180:121,1,102,2|2,0:0|0:3,0:0:0:0:
315,119,55553,1,0,0:0:0:0:
158,121,55637,2,0,L|221:120,2,51,8|0|2,0:0|0:0|0:3,0:0:0:0:
315,119,55887,1,0,0:0:0:0:
158,121,55970,6,0,L|157:183,1,51,2|0,0:0|0:0,0:0:0:0:
68,213,56137,2,0,L|65:272,1,51,2|0,0:3|0:0,0:0:0:0:
249,298,56303,1,0,0:0:0:0:
110,230,56470,1,2,0:3:0:0:
51,230,56553,1,0,0:0:0:0:
280,139,56637,6,0,L|343:135,3,51,2|0|0|0,0:0|0:0|0:0|0:0,0:0:0:0:
171,119,56970,2,0,L|168:64,1,51,8|0,0:0|0:0,0:0:0:0:
338,45,57137,2,0,L|267:38,1,51,2|0,0:3|0:0,0:0:0:0:
445,63,57303,6,0,L|512:64,2,51,2|0|0,0:0|0:0|0:0,0:0:0:0:
277,66,57553,1,0,0:0:0:0:
445,63,57637,2,0,L|446:132,1,51,0|0,0:0|0:0,0:0:0:0:
281,158,57803,2,0,L|339:161,1,51,2|0,0:3|0:0,0:0:0:0:
163,111,57970,6,0,L|53:108,1,102,2|2,0:0|0:3,0:0:0:0:
223,75,58220,1,0,0:0:0:0:
61,108,58303,2,0,L|171:105,1,102,8|0,0:0|0:0,0:0:0:0:
1,72,58553,1,0,0:0:0:0:
162,105,58637,6,0,L|167:158,1,51,0|0,0:0|0:0,0:0:0:0:
320,227,58803,2,0,L|261:222,1,51,0|0,0:0|0:0,0:0:0:0:
416,188,58970,2,0,L|419:128,1,51,0|0,0:0|0:0,0:0:0:0:
502,129,59137,2,0,L|506:75,1,51,2|0,0:3|0:0,0:0:0:0:
283,109,59303,6,0,L|165:94,1,102,2|0,0:0|0:0,0:0:0:0:
22,82,59553,1,0,0:0:0:0:
181,96,59637,2,0,L|114:84,1,51,8|0,0:0|0:0,0:0:0:0:
216,35,59803,2,0,L|164:24,1,51,2|0,0:3|0:0,0:0:0:0:
333,122,59970,6,0,L|443:117,1,102,2|0,0:0|0:0,0:0:0:0:
265,72,60220,2,0,L|331:71,2,51,0|0|0,0:0|0:0|0:0,0:0:0:0:
440,42,60470,2,0,L|371:33,1,51,2|0,0:3|0:0,0:0:0:0:
209,180,60637,6,0,L|328:179,1,102,2|2,0:0|0:3,0:0:0:0:
153,110,60887,1,0,0:0:0:0:
303,180,60970,6,0,L|184:179,1,102,8|2,0:0|0:3,0:0:0:0:
359,110,61220,1,0,0:0:0:0:
203,98,61303,5,2,0:0:0:0:
347,77,61387,2,0,L|289:76,1,51,0|2,0:0|0:3,0:0:0:0:
439,165,61553,1,0,0:0:0:0:
296,76,61637,2,0,L|241:76,1,51,0|0,0:0|0:0,0:0:0:0:
416,76,61803,2,0,L|471:76,1,51,2|0,0:3|0:0,0:0:0:0:
309,150,61970,6,0,L|308:224,1,51,2|0,0:0|0:0,0:0:0:0:
211,251,62137,2,0,L|161:252,1,51,2|0,0:3|0:0,0:0:0:0:
315,205,62303,2,0,L|316:150,1,51,8|0,0:0|0:0,0:0:0:0:
413,118,62470,2,0,L|471:112,1,51,2|0,0:3|0:0,0:0:0:0:
304,63,62637,5,2,0:0:0:0:
463,112,62720,2,0,L|464:51,1,51,0|2,0:0|0:3,0:0:0:0:
304,63,62887,1,0,0:0:0:0:
463,61,62970,2,0,L|464:4,1,51,8|0,0:0|0:0,0:0:0:0:
304,63,63137,2,0,L|304:136,1,51,2|0,0:3|0:0,0:0:0:0:
120,186,63303,6,0,L|55:185,1,51,2|0,0:0|0:0,0:0:0:0:
227,128,63470,1,2,0:3:0:0:
69,185,63553,1,0,0:0:0:0:
225,183,63637,2,0,L|290:182,1,51,8|0,0:0|0:0,0:0:0:0:
118,125,63804,1,2,0:3:0:0:
275,182,63887,1,0,0:0:0:0:
118,125,63970,5,2,0:0:0:0:
67,96,64053,1,0,0:0:0:0:
224,90,64137,1,2,0:3:0:0:
173,66,64220,1,0,0:0:0:0:
328,125,64303,1,8,0:0:0:0:
487,175,64387,1,0,0:0:0:0:
328,125,64470,1,2,0:3:0:0:
487,175,64553,1,0,0:0:0:0:
328,125,64637,5,4,0:2:0:0:
256,192,64720,12,0,70387,0:0:0:0:
