osu file format v14

[General]
AudioFilename: audio.mp3
AudioLeadIn: 0
PreviewTime: 41970
Countdown: 0
SampleSet: Drum
StackLeniency: 0.7
Mode: 2
LetterboxInBreaks: 0
WidescreenStoryboard: 0

[Editor]
Bookmarks: 37970
DistanceSpacing: 1
BeatDivisor: 4
GridSize: 32
TimelineZoom: 1

[Metadata]
Title:Intro - Dockaaaahhhnnn!!
TitleUnicode:Intro - Dockaaaahhhnnn!!
Artist:t+pazolite
ArtistUnicode:t+pazolite
Creator:Stardust Prism
Version:Salad
Source:
Tags:secre chickenbible instrumental electronic Orient Kenran Kensou r-34 kfc nugget Natsuko Mniam -Ken -Hex- C.H.S cutie headshaking sounds 絢爛喧騒オリエント tpaz tpz featured artist fa mappers' guild mg mpg
BeatmapID:4424987
BeatmapSetID:2108381

[Difficulty]
HPDrainRate:3
CircleSize:3
OverallDifficulty:7
ApproachRate:7
SliderMultiplier:1.3
SliderTickRate:1

[Events]
//Background and Video events
0,0,"bg.jpg",0,0
//Break Periods
//Storyboard Layer 0 (Background)
//Storyboard Layer 1 (Fail)
//Storyboard Layer 2 (Pass)
//Storyboard Layer 3 (Foreground)
//Storyboard Layer 4 (Overlay)
//Storyboard Sound Samples

[TimingPoints]
11304,333.333333333333,4,3,0,50,1,0
11970,-100,4,3,0,50,0,0
12637,-100,4,3,0,50,0,0
32637,-100,4,3,0,50,0,0
43303,-100,4,3,0,50,0,1
64303,-100,4,3,0,30,0,1
64637,-100,4,3,0,50,0,0

[Colours]
Combo1 : 218,174,92
Combo2 : 255,0,0
Combo3 : 139,116,116
Combo4 : 185,61,0

[HitObjects]
385,259,11970,5,0,0:0:0:0:
332,276,12304,1,0,0:0:0:0:
98,290,12637,6,0,P|94:211|257:134,1,260,0|8,1:0|0:0,0:0:0:0:
423,312,13970,6,0,P|409:222|240:170,1,260,0|8,1:0|0:0,0:0:0:0:
135,295,15304,5,0,0:0:0:0:
166,191,15637,1,0,0:0:0:0:
299,132,15970,1,8,0:0:0:0:
202,111,16304,1,0,0:0:0:0:
71,133,16637,5,0,0:0:0:0:
213,220,17304,1,8,0:0:0:0:
233,150,17637,1,0,0:0:0:0:
459,282,17970,6,0,P|457:227|291:138,1,260,0|8,1:0|0:0,0:0:0:0:
102,278,19304,6,0,L|366:212,1,260,0|8,1:0|0:0,0:0:0:0:
166,337,20637,5,0,0:0:0:0:
91,247,20970,1,0,0:0:0:0:
183,176,21303,1,8,0:0:0:0:
309,142,21637,1,0,0:0:0:0:
179,193,21970,1,0,0:0:0:0:
365,235,22637,1,8,0:0:0:0:
380,139,22970,1,0,0:0:0:0:
151,305,23303,6,0,P|106:275|194:132,1,260,0|8,1:0|0:0,0:0:0:0:
299,127,24303,1,0,0:0:0:0:
437,132,24637,5,0,1:0:0:0:
216,244,25303,1,8,0:0:0:0:
407,285,25970,5,0,0:0:0:0:
418,155,26303,1,0,0:0:0:0:
279,259,26637,1,8,0:0:0:0:
279,136,26970,1,0,0:0:0:0:
424,120,27303,5,0,0:0:0:0:
248,231,27970,1,8,0:0:0:0:
132,205,28303,1,0,0:0:0:0:
366,270,28637,6,0,P|427:259|366:129,1,260,0|8,1:0|0:0,0:0:0:0:
162,317,29970,2,0,P|94:296|169:175,1,260,0|8,1:0|0:0,0:0:0:0:
365,131,31303,5,0,0:0:0:0:
235,123,31636,1,0,0:0:0:0:
105,115,31969,1,8,0:0:0:0:
224,119,32303,1,0,0:0:0:0:
472,226,32637,5,4,0:1:0:0:
256,192,32970,12,0,37303,0:0:0:0:
401,362,37970,5,0,1:0:0:0:
435,241,38303,1,8,0:0:0:0:
365,136,38636,1,0,1:0:0:0:
240,123,38970,1,8,0:0:0:0:
384,282,39303,6,0,L|394:141,1,130,0|8,1:0|0:0,0:0:0:0:
263,123,39970,1,0,1:0:0:0:
131,226,40303,1,8,0:0:0:0:
263,291,40637,5,0,1:0:0:0:
289,167,40970,1,8,0:0:0:0:
214,66,41303,1,0,1:0:0:0:
88,55,41637,1,8,0:0:0:0:
336,217,41970,6,0,L|475:213,1,130,2|2,0:1|0:1,0:0:0:0:
311,262,42637,2,0,L|165:254,1,130,2|2,0:1|0:1,0:0:0:0:
441,221,43303,6,0,P|472:197|426:131,1,130,6|8,0:0|0:0,0:0:0:0:
369,121,43803,1,0,0:0:0:0:
302,113,43970,1,2,0:0:0:0:
432,121,44303,1,8,0:0:0:0:
185,257,44637,6,0,L|115:258,2,65,2|0|8,0:0|0:0|0:0,0:0:0:0:
314,209,45303,2,0,L|447:209,1,130,2|8,0:0|0:0,0:0:0:0:
196,185,45970,5,2,0:0:0:0:
66,193,46303,2,0,L|66:119,1,65,8|0,0:0|0:0,0:0:0:0:
132,115,46637,1,2,0:0:0:0:
263,107,46970,1,8,0:0:0:0:
16,266,47303,6,0,L|88:265,1,65,2|0,0:0|0:0,0:0:0:0:
146,267,47637,1,8,0:0:0:0:
266,186,47970,2,0,L|110:177,1,130,0|8,0:0|0:0,0:0:0:0:
384,269,48637,6,0,P|395:197|332:176,1,130,2|8,0:0|0:0,0:0:0:0:
288,167,49137,1,2,0:3:0:0:
222,171,49303,1,2,0:0:0:0:
91,188,49637,1,8,0:0:0:0:
338,238,49970,6,0,L|419:238,2,65,2|2|8,0:0|0:3|0:0,0:0:0:0:
206,273,50637,2,0,P|176:201|220:170,1,130,0|8,0:0|0:0,0:0:0:0:
453,152,51303,5,2,0:0:0:0:
323,228,51637,2,0,L|245:228,2,65,8|2|2,0:0|0:3|0:0,0:0:0:0:
453,213,52303,1,8,0:0:0:0:
205,191,52637,5,2,0:0:0:0:
140,188,52803,1,2,0:3:0:0:
75,185,52970,1,8,0:0:0:0:
205,281,53303,2,0,L|207:185,1,65,2|0,0:0|0:0,0:0:0:0:
141,208,53637,1,0,0:0:0:0:
401,230,53970,6,0,P|435:172|391:139,1,130,6|8,0:0|0:0,0:0:0:0:
329,132,54470,1,2,0:3:0:0:
264,96,54637,2,0,L|408:91,1,130,2|0,0:0|0:0,0:0:0:0:
147,230,55303,6,0,L|53:224,2,65,2|2|8,0:0|0:3|0:0,0:0:0:0:
280,200,55970,1,2,0:0:0:0:
284,136,56136,1,2,0:3:0:0:
247,84,56303,1,0,0:0:0:0:
185,67,56469,1,2,0:3:0:0:
345,229,56637,6,0,L|494:222,1,130,2|8,0:0|0:0,0:0:0:0:
410,182,57137,1,2,0:3:0:0:
342,163,57303,1,2,0:0:0:0:
472,134,57637,1,0,0:0:0:0:
226,253,57970,5,2,0:0:0:0:
196,190,58136,1,2,0:3:0:0:
226,253,58303,1,8,0:0:0:0:
356,214,58637,1,0,0:0:0:0:
363,150,58803,1,0,0:0:0:0:
325,99,58970,1,0,0:0:0:0:
263,86,59136,1,2,0:3:0:0:
110,280,59303,6,0,P|82:202|116:191,1,130,2|8,0:0|0:0,0:0:0:0:
171,178,59803,1,2,0:3:0:0:
246,153,59970,2,0,L|383:147,1,130,2|0,0:0|0:0,0:0:0:0:
130,304,60637,6,0,L|26:303,2,65,2|2|8,0:0|0:3|0:0,0:0:0:0:
260,231,61303,2,0,L|267:136,1,65,2|2,0:0|0:3,0:0:0:0:
190,152,61637,2,0,L|177:56,1,65,0|2,0:0|0:3,0:0:0:0:
347,172,61970,5,2,0:0:0:0:
411,165,62136,1,2,0:3:0:0:
476,159,62303,1,8,0:0:0:0:
336,256,62637,1,2,0:0:0:0:
271,252,62803,1,2,0:3:0:0:
206,249,62970,1,8,0:0:0:0:
453,211,63303,5,2,0:0:0:0:
461,150,63469,1,2,0:3:0:0:
409,119,63636,1,8,0:0:0:0:
344,111,63803,1,2,0:3:0:0:
190,202,63970,1,2,0:0:0:0:
190,202,64136,1,2,0:3:0:0:
255,210,64303,1,8,0:0:0:0:
23,229,64637,5,4,0:2:0:0:
256,192,64970,12,0,70387,0:0:0:0:
