osu file format v14

[General]
AudioFilename: audio.mp3
AudioLeadIn: 0
PreviewTime: 41970
Countdown: 0
SampleSet: Drum
StackLeniency: 0.7
Mode: 2
LetterboxInBreaks: 0
WidescreenStoryboard: 1

[Editor]
Bookmarks: 11970,37970,53970
DistanceSpacing: 1
BeatDivisor: 8
GridSize: 32
TimelineZoom: 2.3

[Metadata]
Title:Intro - Dockaaaahhhnnn!!
TitleUnicode:Intro - Dockaaaahhhnnn!!
Artist:t+pazolite
ArtistUnicode:t+pazolite
Creator:Stardust Prism
Version:Overdose
Source:
Tags:secre chickenbible instrumental electronic Orient Kenran Kensou r-34 kfc nugget Natsuko Mniam -Ken -Hex- C.H.S cutie headshaking sounds 絢爛喧騒オリエント tpaz tpz featured artist fa mappers' guild mg mpg
BeatmapID:4424986
BeatmapSetID:2108381

[Difficulty]
HPDrainRate:6
CircleSize:4.2
OverallDifficulty:9.1
ApproachRate:9.1
SliderMultiplier:1.84
SliderTickRate:2

[Events]
//Background and Video events
0,0,"bg.jpg",0,0
//Break Periods
//Storyboard Layer 0 (Background)
//Storyboard Layer 1 (Fail)
//Storyboard Layer 2 (Pass)
//Storyboard Layer 3 (Foreground)
//Storyboard Layer 4 (Overlay)
//Storyboard Sound Samples

[TimingPoints]
11304,333.333333333333,4,3,0,50,1,0
11970,-100,4,3,0,50,0,0
12637,-100,4,3,0,50,0,0
32637,-100,4,3,0,50,0,0
43303,-100,4,3,0,50,0,1
64303,-100,4,3,0,30,0,1
64637,-100,4,3,0,50,0,0

[Colours]
Combo1 : 218,174,92
Combo2 : 255,0,0
Combo3 : 139,116,116
Combo4 : 185,61,0

[HitObjects]
354,340,11345,6,0,P|404:325|328:124,1,345,4|0,3:3|0:0,0:0:0:0:
117,225,12304,1,0,0:0:0:0:
373,334,12637,6,0,P|393:230|184:118,1,368,0|8,1:0|0:0,0:0:0:0:
31,281,13637,1,0,0:0:0:0:
140,268,13804,1,0,0:0:0:0:
283,265,13970,6,0,L|291:53,1,184,0|0,1:0|0:0,0:0:0:0:
89,223,14637,1,8,0:0:0:0:
306,203,14970,1,0,0:0:0:0:
69,248,15304,6,0,P|68:181|186:131,1,184,0|0,0:0|0:0,0:0:0:0:
330,240,15970,2,0,P|387:230|441:109,1,184,8|0,0:0|0:0,0:0:0:0:
221,320,16637,6,0,P|177:293|248:202,1,184,0|0,0:0|0:0,0:0:0:0:
321,201,17137,1,0,0:0:0:0:
473,188,17304,2,0,L|497:2,1,184,8|0,0:0|0:0,0:0:0:0:
390,142,17804,1,0,0:0:0:0:
240,336,17970,6,0,P|186:319|279:113,1,368,0|8,1:0|0:0,0:0:0:0:
431,137,18970,1,0,0:0:0:0:
328,193,19137,1,0,0:0:0:0:
192,304,19304,6,0,L|184:96,1,184,0|0,1:0|0:0,0:0:0:0:
413,106,19970,1,8,0:0:0:0:
208,152,20303,1,0,0:0:0:0:
412,260,20637,6,0,P|420:196|311:132,1,184,0|0,0:0|0:0,0:0:0:0:
135,285,21303,2,0,P|52:257|36:143,1,184,8|0,0:0|0:0,0:0:0:0:
262,168,21970,1,0,0:0:0:0:
348,153,22137,1,0,0:0:0:0:
434,110,22303,1,0,0:0:0:0:
342,107,22469,1,0,0:0:0:0:
165,322,22637,2,0,P|146:269|268:215,1,184,8|0,0:0|0:0,0:0:0:0:
346,191,23137,1,0,0:0:0:0:
479,222,23303,6,0,P|495:165|263:43,1,368,0|8,1:0|0:0,0:0:0:0:
106,259,24303,1,0,0:0:0:0:
202,228,24470,1,0,0:0:0:0:
338,205,24637,5,0,1:0:0:0:
491,178,24970,1,0,0:0:0:0:
309,319,25303,2,0,L|300:119,1,184,8|0,0:0|1:0,0:0:0:0:
118,259,25970,5,0,0:0:0:0:
161,89,26303,1,0,0:0:0:0:
331,45,26636,1,8,0:0:0:0:
158,215,26970,1,0,0:0:0:0:
372,257,27303,6,0,P|382:189|269:142,1,184,0|0,0:0|0:0,0:0:0:0:
196,151,27803,1,0,0:0:0:0:
31,259,27970,1,8,0:0:0:0:
31,259,28303,1,0,0:0:0:0:
145,283,28470,1,0,0:0:0:0:
271,352,28637,6,0,P|346:340|252:161,1,368,0|8,1:0|0:0,0:0:0:0:
95,199,29637,1,0,0:0:0:0:
205,222,29803,1,0,0:0:0:0:
335,279,29970,6,0,L|339:83,1,184,0|0,1:0|0:0,0:0:0:0:
139,235,30637,1,8,0:0:0:0:
326,191,30970,1,0,1:0:0:0:
90,328,31303,6,0,L|75:129,1,184,0|0,0:0|0:0,0:0:0:0:
287,114,31970,2,0,L|90:87,1,184,8|0,0:0|0:0,0:0:0:0:
496,250,32637,5,4,0:1:0:0:
256,192,32803,12,0,37803,0:0:0:0:
357,203,37970,6,0,L|159:188,1,184,0|8,1:0|0:0,0:0:0:0:
274,156,38470,1,0,0:0:0:0:
127,256,38637,2,0,L|19:222,2,92,0|0|8,1:0|0:0|0:0,0:0:0:0:
226,263,39137,1,0,0:0:0:0:
391,237,39303,6,0,P|386:161|264:135,1,184,0|8,1:0|0:0,0:0:0:0:
200,181,39803,1,0,0:0:0:0:
87,280,39970,1,0,1:0:0:0:
209,262,40136,1,0,0:0:0:0:
93,280,40303,1,8,0:0:0:0:
311,290,40637,6,0,L|338:98,1,184,0|8,1:0|0:0,0:0:0:0:
153,230,41303,2,0,L|257:224,1,92,0|0,1:0|0:0,0:0:0:0:
401,205,41637,2,0,L|519:199,1,92,8|0,0:0|0:0,0:0:0:0:
234,268,41970,6,0,P|229:198|304:176,1,138,2|0,0:1|0:0,0:0:0:0:
449,157,42303,2,0,P|444:108|341:64,1,138,2|0,0:1|0:0,0:0:0:0:
202,197,42637,2,0,L|56:187,1,138,2|0,0:1|0:0,0:0:0:0:
249,154,42970,2,0,L|423:148,1,138,2|0,0:1|0:0,0:0:0:0:
156,285,43303,5,6,0:0:0:0:
64,234,43470,2,0,L|142:235,1,46,0|0,0:0|0:0,0:0:0:0:
274,194,43637,2,0,L|408:186,1,92,8|0,0:0|0:0,0:0:0:0:
141,333,43970,1,2,0:0:0:0:
254,278,44137,1,0,0:0:0:0:
318,263,44220,1,0,0:0:0:0:
254,278,44303,1,8,0:0:0:0:
105,287,44470,1,0,0:0:0:0:
345,215,44637,6,0,L|476:209,1,92,2|0,0:0|0:0,0:0:0:0:
379,166,44887,1,0,0:0:0:0:
211,240,44970,2,0,P|199:192|238:171,1,92,8|0,0:0|0:0,0:0:0:0:
309,156,45220,1,0,0:0:0:0:
473,115,45303,1,2,0:0:0:0:
381,112,45469,1,0,0:0:0:0:
146,291,45637,1,8,0:0:0:0:
259,268,45803,1,0,0:0:0:0:
22,301,45970,5,2,0:0:0:0:
119,241,46137,2,0,L|186:239,1,46,0|0,0:0|0:0,0:0:0:0:
321,187,46303,2,0,L|451:187,1,92,8|0,0:0|0:0,0:0:0:0:
176,263,46637,2,0,P|156:215|202:191,1,92,2|0,0:0|0:0,0:0:0:0:
272,176,46887,1,0,0:0:0:0:
366,177,46970,1,8,0:0:0:0:
204,147,47137,1,0,0:0:0:0:
439,182,47303,5,2,0:0:0:0:
336,247,47470,2,0,L|336:170,1,46,0|0,0:0|0:0,0:0:0:0:
489,208,47637,1,8,0:0:0:0:
366,279,47803,2,0,L|305:277,1,46,0|0,0:0|0:0,0:0:0:0:
489,208,47970,1,0,0:0:0:0:
376,203,48137,1,0,0:0:0:0:
152,228,48303,1,8,0:0:0:0:
376,203,48470,1,0,0:0:0:0:
138,169,48637,6,0,L|244:161,1,92,2|2,0:0|0:3,0:0:0:0:
296,154,48887,1,0,0:0:0:0:
133,253,48970,1,8,0:0:0:0:
133,253,49137,1,2,0:3:0:0:
360,208,49303,1,2,0:0:0:0:
461,146,49470,2,0,L|406:145,1,46,2|0,0:3|0:0,0:0:0:0:
253,264,49637,2,0,P|232:212|264:200,1,92,8|2,0:0|0:3,0:0:0:0:
489,145,49970,5,2,0:0:0:0:
348,222,50137,1,2,0:3:0:0:
429,220,50220,1,0,0:0:0:0:
511,222,50303,1,8,0:0:0:0:
429,220,50470,1,2,0:3:0:0:
348,222,50553,1,0,0:0:0:0:
178,221,50637,5,0,0:0:0:0:
271,220,50803,1,0,0:0:0:0:
39,277,50970,2,0,L|31:159,1,92,8|2,0:0|0:3,0:0:0:0:
272,129,51303,5,2,0:0:0:0:
357,154,51470,2,0,L|293:154,1,46,2|0,0:3|0:0,0:0:0:0:
160,282,51637,2,0,P|138:238|178:200,1,92,8|2,0:0|0:3,0:0:0:0:
393,168,51970,1,2,0:0:0:0:
270,306,52137,1,2,0:3:0:0:
204,283,52220,1,0,0:0:0:0:
270,306,52303,1,8,0:0:0:0:
429,272,52470,1,2,0:3:0:0:
196,230,52637,5,2,0:0:0:0:
342,161,52803,1,2,0:3:0:0:
296,162,52886,1,0,0:0:0:0:
142,175,52969,1,8,0:0:0:0:
271,220,53137,2,0,L|355:220,1,46,2|0,0:3|0:0,0:0:0:0:
485,173,53303,5,2,0:0:0:0:
378,233,53470,1,0,0:0:0:0:
485,173,53637,1,0,0:0:0:0:
79,263,53970,6,0,P|62:211|106:187,1,92,6|0,0:0|0:0,0:0:0:0:
174,176,54220,1,0,0:0:0:0:
323,134,54303,1,8,0:0:0:0:
216,116,54470,1,2,0:3:0:0:
456,259,54637,1,2,0:0:0:0:
355,249,54803,1,0,0:0:0:0:
303,244,54887,1,0,0:0:0:0:
146,172,54970,1,0,0:0:0:0:
237,168,55136,1,2,0:3:0:0:
495,174,55303,5,2,0:0:0:0:
381,222,55470,2,0,L|455:222,1,46,2|0,0:3|0:0,0:0:0:0:
262,269,55637,1,8,0:0:0:0:
386,250,55803,2,0,L|386:177,1,46,2|0,0:3|0:0,0:0:0:0:
233,209,55970,5,2,0:0:0:0:
358,195,56137,1,2,0:3:0:0:
126,301,56303,1,0,0:0:0:0:
34,290,56470,1,2,0:3:0:0:
286,194,56637,5,2,0:0:0:0:
386,127,56803,1,0,0:0:0:0:
312,119,56887,1,0,0:0:0:0:
167,214,56970,1,8,0:0:0:0:
43,217,57136,1,2,0:3:0:0:
279,254,57303,1,2,0:0:0:0:
181,202,57470,2,0,L|255:203,1,46,0|0,0:0|0:0,0:0:0:0:
388,177,57637,1,0,0:0:0:0:
501,177,57803,1,2,0:3:0:0:
252,197,57970,6,0,L|133:192,1,92,2|2,0:0|0:3,0:0:0:0:
252,142,58220,1,0,0:0:0:0:
160,193,58303,1,8,0:0:0:0:
298,198,58470,2,0,L|230:198,1,46,0|0,0:0|0:0,0:0:0:0:
411,162,58637,1,0,0:0:0:0:
278,246,58803,1,0,0:0:0:0:
504,225,58970,1,0,0:0:0:0:
263,244,59137,1,2,0:3:0:0:
32,265,59303,6,0,L|151:252,1,92,2|0,0:0|0:0,0:0:0:0:
206,248,59553,1,0,0:0:0:0:
359,186,59637,1,8,0:0:0:0:
231,176,59803,1,2,0:3:0:0:
456,149,59970,1,2,0:0:0:0:
340,223,60137,2,0,L|407:223,1,46,0|0,0:0|0:0,0:0:0:0:
495,218,60303,1,0,0:0:0:0:
381,232,60470,1,2,0:3:0:0:
138,266,60637,5,2,0:0:0:0:
261,219,60803,2,0,L|269:144,1,46,2|0,0:3|0:0,0:0:0:0:
426,125,60970,1,8,0:0:0:0:
306,206,61137,1,2,0:3:0:0:
294,148,61220,1,0,0:0:0:0:
130,151,61303,1,2,0:0:0:0:
265,116,61470,1,2,0:3:0:0:
187,122,61553,1,0,0:0:0:0:
41,249,61637,1,0,0:0:0:0:
167,240,61803,1,2,0:3:0:0:
397,184,61970,5,2,0:0:0:0:
278,207,62137,1,2,0:3:0:0:
324,198,62220,1,0,0:0:0:0:
173,298,62303,2,0,L|67:287,1,92,8|2,0:0|0:3,0:0:0:0:
309,215,62637,1,2,0:0:0:0:
187,164,62803,2,0,L|272:161,1,46,2|0,0:3|0:0,0:0:0:0:
443,129,62970,1,8,0:0:0:0:
316,156,63137,1,2,0:3:0:0:
64,224,63303,6,0,L|121:225,1,46,2|0,0:0|0:0,0:0:0:0:
270,160,63470,1,2,0:3:0:0:
315,158,63553,1,0,0:0:0:0:
149,278,63637,2,0,L|140:203,1,46,8|0,0:0|0:0,0:0:0:0:
323,173,63803,1,2,0:3:0:0:
277,170,63886,1,0,0:0:0:0:
78,188,63970,6,0,L|131:185,1,46,2|0,0:0|0:0,0:0:0:0:
310,145,64137,2,0,L|360:145,1,46,2|0,0:3|0:0,0:0:0:0:
159,253,64303,1,8,0:0:0:0:
136,250,64344,1,0,0:0:0:0:
118,236,64386,1,0,0:0:0:0:
111,215,64427,1,0,0:0:0:0:
116,193,64469,1,2,0:3:0:0:
133,177,64511,1,0,0:0:0:0:
155,173,64552,1,0,0:0:0:0:
403,167,64637,5,4,0:2:0:0:
256,192,64720,12,0,70387,0:0:0:0:
