osu file format v14

[General]
AudioFilename: audio.mp3
AudioLeadIn: 0
PreviewTime: 41970
Countdown: 0
SampleSet: Drum
StackLeniency: 0.7
Mode: 2
LetterboxInBreaks: 0
WidescreenStoryboard: 1

[Editor]
DistanceSpacing: 1
BeatDivisor: 8
GridSize: 8
TimelineZoom: 2.599999

[Metadata]
Title:Intro - Dockaaaahhhnnn!!
TitleUnicode:Intro - Dockaaaahhhnnn!!
Artist:t+pazolite
ArtistUnicode:t+pazolite
Creator:Stardust Prism
Version:Natsuko's Overdose
Source:
Tags:secre chickenbible instrumental electronic Orient Kenran Kensou r-34 kfc nugget Natsuko Mniam -Ken -Hex- C.H.S cutie headshaking sounds 絢爛喧騒オリエント tpaz tpz featured artist fa mappers' guild mg mpg
BeatmapID:4545628
BeatmapSetID:2108381

[Difficulty]
HPDrainRate:6
CircleSize:4.2
OverallDifficulty:9.2
ApproachRate:9.2
SliderMultiplier:2.24
SliderTickRate:2

[Events]
//Background and Video events
0,0,"bg.jpg",0,0
//Break Periods
2,32837,37400
//Storyboard Layer 0 (Background)
//Storyboard Layer 1 (Fail)
//Storyboard Layer 2 (Pass)
//Storyboard Layer 3 (Foreground)
//Storyboard Layer 4 (Overlay)
//Storyboard Sound Samples

[TimingPoints]
11304,333.333333333333,4,3,0,50,1,0
11970,-100,4,3,0,50,0,0
12637,-100,4,3,0,50,0,0
32637,-100,4,3,0,50,0,0
43303,-100,4,3,0,50,0,1
53637,-25,4,3,0,50,0,1
53970,-100,4,3,0,50,0,1
64303,-100,4,3,0,30,0,1
64637,-100,4,3,0,50,0,0

[Colours]
Combo1 : 218,174,92
Combo2 : 255,0,0
Combo3 : 139,116,116
Combo4 : 185,61,0

[HitObjects]
256,192,11345,12,0,11970,0:0:0:0:
424,192,12304,5,0,0:0:0:0:
200,304,12637,6,0,P|57:191|201:31,1,448,0|8,1:0|0:0,0:0:0:0:
424,192,13637,2,0,L|312:192,1,112,0|0,0:0|0:0,0:0:0:0:
176,248,13970,6,0,L|400:248,1,224,0|0,1:0|0:0,0:0:0:0:
200,192,14637,2,0,P|128:152|200:64,1,224,8|0,0:0|0:0,0:0:0:0:
424,304,15304,6,0,L|200:304,1,224,0|0,0:0|0:0,0:0:0:0:
424,192,15970,2,0,P|496:152|424:64,1,224,8|0,0:0|0:0,0:0:0:0:
200,192,16637,6,0,P|128:152|200:64,1,224,0|0,0:0|0:0,0:0:0:0:
312,248,17137,1,0,0:0:0:0:
200,192,17304,2,0,L|424:192,1,224,8|0,0:0|0:0,0:0:0:0:
312,248,17804,1,0,0:0:0:0:
200,304,17970,6,0,P|57:191|201:31,1,448,0|8,1:0|0:0,0:0:0:0:
424,192,18970,2,0,L|424:304,1,112,0|0,0:0|0:0,0:0:0:0:
312,248,19304,6,0,L|88:248,1,224,0|0,1:0|0:0,0:0:0:0:
312,192,19970,2,0,P|384:152|312:64,1,224,8|0,0:0|0:0,0:0:0:0:
88,304,20637,6,0,L|312:304,1,224,0|0,0:0|0:0,0:0:0:0:
88,192,21303,2,0,P|16:152|88:64,1,224,8|0,0:0|0:0,0:0:0:0:
312,192,21970,6,0,L|432:192,1,112,0|0,0:0|0:0,0:0:0:0:
312,248,22303,2,0,L|200:248,1,112,0|0,0:0|0:0,0:0:0:0:
312,192,22637,2,0,P|384:152|312:64,1,224,8|0,0:0|0:0,0:0:0:0:
200,136,23137,1,0,0:0:0:0:
312,304,23303,6,0,P|455:191|311:31,1,448,0|8,1:0|0:0,0:0:0:0:
88,192,24303,2,0,L|208:192,1,112,0|0,0:0|0:0,0:0:0:0:
312,248,24637,5,0,1:0:0:0:
88,304,24970,1,0,0:0:0:0:
312,192,25303,2,0,P|384:152|312:64,1,224,8|0,0:0|1:0,0:0:0:0:
88,136,25970,6,0,L|312:136,1,224,0|0,0:0|0:0,0:0:0:0:
88,192,26637,2,0,P|16:152|88:64,1,224,8|0,0:0|0:0,0:0:0:0:
312,248,27303,6,0,L|88:248,1,224,0|0,0:0|0:0,0:0:0:0:
200,192,27803,1,0,0:0:0:0:
312,248,27970,1,8,0:0:0:0:
88,192,28303,2,0,L|88:80,1,112,0|0,0:0|0:0,0:0:0:0:
200,304,28637,6,0,P|343:191|199:31,1,448,0|8,1:0|0:0,0:0:0:0:
424,192,29637,2,0,L|424:304,1,112,0|0,0:0|0:0,0:0:0:0:
312,192,29970,6,0,L|88:192,1,224,0|0,1:0|0:0,0:0:0:0:
312,192,30637,2,0,P|384:152|312:64,1,224,8|0,0:0|1:0,0:0:0:0:
88,192,31303,6,0,P|16:152|88:64,1,224,0|0,0:0|0:0,0:0:0:0:
312,248,31970,2,0,L|88:248,1,224,8|0,0:0|0:0,0:0:0:0:
480,304,32637,5,4,0:1:0:0:
200,192,37970,5,0,1:0:0:0:
312,136,38137,2,0,L|256:136,1,56.0000000000001,0|0,0:0|0:0,0:0:0:0:
88,80,38303,1,8,0:0:0:0:
88,136,38470,2,0,L|144:136,1,56,0|0,0:0|0:0,0:0:0:0:
312,192,38637,1,0,1:0:0:0:
200,248,38803,2,0,L|256:248,1,56,0|0,0:0|0:0,0:0:0:0:
424,304,38970,1,8,0:0:0:0:
424,248,39137,2,0,L|368:248,1,56,0|0,0:0|0:0,0:0:0:0:
200,192,39303,5,0,1:0:0:0:
88,136,39470,2,0,L|144:136,1,56,0|0,0:0|0:0,0:0:0:0:
312,80,39637,1,8,0:0:0:0:
312,136,39803,2,0,L|256:136,1,56,0|0,0:0|0:0,0:0:0:0:
88,192,39970,1,0,1:0:0:0:
200,248,40137,2,0,L|256:248,1,56,0|0,0:0|0:0,0:0:0:0:
424,304,40303,1,8,0:0:0:0:
424,248,40470,2,0,L|368:248,1,56,0|0,0:0|0:0,0:0:0:0:
200,248,40637,6,0,L|88:248,1,112,0|0,1:0|0:0,0:0:0:0:
200,192,40970,2,0,L|312:192,1,112,8|0,0:0|0:0,0:0:0:0:
88,192,41303,2,0,L|88:80,1,112,0|0,1:0|0:0,0:0:0:0:
200,192,41637,2,0,L|88:192,1,112,8|0,0:0|0:0,0:0:0:0:
368,192,41970,6,0,P|424:160|368:104,1,168,2|0,0:1|0:0,0:0:0:0:
199,191,42303,2,0,P|144:248|200:288,1,168,2|0,0:1|0:0,0:0:0:0:
368,192,42637,2,0,P|424:160|368:104,1,168,2|0,0:1|0:0,0:0:0:0:
199,191,42970,2,0,P|144:248|200:288,1,168,2|0,0:1|0:0,0:0:0:0:
424,192,43303,6,0,L|424:304,1,112,6|0,0:0|0:0,0:0:0:0:
368,304,43553,1,0,0:0:0:0:
200,136,43637,2,0,L|88:136,1,112,8|0,0:0|0:0,0:0:0:0:
312,192,43970,2,0,L|312:304,1,112,2|0,0:0|0:0,0:0:0:0:
256,304,44220,1,0,0:0:0:0:
88,192,44303,2,0,L|88:80,1,112,8|0,0:0|0:0,0:0:0:0:
312,136,44637,6,0,L|424:136,1,112,2|0,0:0|0:0,0:0:0:0:
368,136,44887,1,0,0:0:0:0:
200,192,44970,2,0,L|88:192,1,112,8|0,0:0|0:0,0:0:0:0:
144,192,45220,1,0,0:0:0:0:
312,248,45303,2,0,L|424:248,1,112,2|0,0:0|0:0,0:0:0:0:
200,304,45637,2,0,L|80:304,1,112,8|0,0:0|0:0,0:0:0:0:
312,248,45970,6,0,L|312:136,1,112,2|0,0:0|0:0,0:0:0:0:
256,136,46220,1,0,0:0:0:0:
88,192,46303,2,0,L|88:304,1,112,8|0,0:0|0:0,0:0:0:0:
312,136,46637,2,0,L|424:136,1,112,2|0,0:0|0:0,0:0:0:0:
368,136,46887,1,0,0:0:0:0:
200,80,46970,2,0,L|88:80,1,112,8|0,0:0|0:0,0:0:0:0:
312,136,47303,5,2,0:0:0:0:
312,192,47470,2,0,L|256:192,1,56,0|0,0:0|0:0,0:0:0:0:
88,192,47637,1,8,0:0:0:0:
88,248,47803,2,0,L|144:248,1,56,0|0,0:0|0:0,0:0:0:0:
312,304,47970,2,0,L|424:304,1,112,0|0,0:0|0:0,0:0:0:0:
200,248,48303,1,8,0:0:0:0:
424,192,48470,1,0,0:0:0:0:
200,136,48637,6,0,L|88:136,1,112,2|2,0:0|0:3,0:0:0:0:
144,136,48887,1,0,0:0:0:0:
312,80,48970,2,0,L|424:80,1,112,8|2,0:0|0:3,0:0:0:0:
200,136,49303,2,0,L|200:248,1,112,2|2,0:0|0:3,0:0:0:0:
256,248,49553,1,0,0:0:0:0:
424,192,49637,2,0,L|424:304,1,112,8|2,0:0|0:3,0:0:0:0:
200,136,49970,6,0,L|88:136,1,112,2|2,0:0|0:3,0:0:0:0:
144,136,50220,1,0,0:0:0:0:
312,80,50303,2,0,L|424:80,1,112,8|2,0:0|0:3,0:0:0:0:
368,80,50553,1,0,0:0:0:0:
200,136,50637,2,0,L|88:136,1,112,0|0,0:0|0:0,0:0:0:0:
312,192,50970,2,0,L|424:192,1,112,8|2,0:0|0:3,0:0:0:0:
200,192,51303,6,0,L|200:304,1,112,2|2,0:0|0:3,0:0:0:0:
256,304,51553,1,0,0:0:0:0:
424,192,51637,2,0,L|424:80,1,112,8|2,0:0|0:3,0:0:0:0:
200,248,51970,2,0,L|88:248,1,112,2|2,0:0|0:3,0:0:0:0:
144,248,52220,1,0,0:0:0:0:
312,304,52303,2,0,L|424:304,1,112,8|2,0:0|0:3,0:0:0:0:
200,248,52637,5,2,0:0:0:0:
88,192,52803,2,0,L|144:192,1,56,2|0,0:3|0:0,0:0:0:0:
312,136,52970,1,8,0:0:0:0:
424,80,53137,2,0,L|368:80,1,56,2|0,0:3|0:0,0:0:0:0:
200,136,53303,2,0,L|88:136,1,112,2|0,0:0|0:0,0:0:0:0:
312,192,53637,2,0,L|424:192,1,112,0|0,0:0|0:0,0:0:0:0:
200,248,53970,6,0,L|88:248,1,112,6|0,0:0|0:0,0:0:0:0:
256,304,54220,1,0,0:0:0:0:
424,248,54303,2,0,L|424:136,1,112,8|2,0:0|0:3,0:0:0:0:
200,192,54637,2,0,L|200:80,1,112,2|0,0:0|0:0,0:0:0:0:
368,136,54887,1,0,0:0:0:0:
200,192,54970,2,0,L|88:192,1,112,0|2,0:0|0:3,0:0:0:0:
312,248,55303,6,0,L|424:248,1,112,2|2,0:0|0:3,0:0:0:0:
256,304,55553,1,0,0:0:0:0:
88,248,55637,2,0,L|88:136,1,112,8|2,0:0|0:3,0:0:0:0:
256,192,55887,1,0,0:0:0:0:
424,192,55970,2,0,L|424:80,1,112,2|2,0:0|0:3,0:0:0:0:
200,136,56303,2,0,L|88:136,1,112,0|2,0:0|0:3,0:0:0:0:
312,192,56637,6,0,L|312:304,1,112,2|0,0:0|0:0,0:0:0:0:
144,304,56887,1,0,0:0:0:0:
312,248,56970,2,0,L|424:248,1,112,8|2,0:0|0:3,0:0:0:0:
200,192,57303,2,0,L|200:80,1,112,2|0,0:0|0:0,0:0:0:0:
368,136,57553,1,0,0:0:0:0:
200,192,57637,2,0,L|88:192,1,112,0|2,0:0|0:3,0:0:0:0:
312,248,57970,6,0,L|424:248,1,112,2|2,0:0|0:3,0:0:0:0:
256,304,58220,1,0,0:0:0:0:
88,192,58303,2,0,L|88:80,1,112,8|0,0:0|0:0,0:0:0:0:
256,248,58553,1,0,0:0:0:0:
424,192,58637,2,0,L|424:80,1,112,0|0,0:0|0:0,0:0:0:0:
200,136,58970,1,0,0:0:0:0:
424,192,59137,1,2,0:3:0:0:
200,80,59303,6,0,L|88:80,1,112,2|0,0:0|0:0,0:0:0:0:
256,136,59553,1,0,0:0:0:0:
424,136,59637,2,0,L|424:248,1,112,8|2,0:0|0:3,0:0:0:0:
200,192,59970,2,0,L|200:304,1,112,2|0,0:0|0:0,0:0:0:0:
368,248,60220,1,0,0:0:0:0:
200,192,60303,2,0,L|88:192,1,112,0|2,0:0|0:3,0:0:0:0:
312,192,60637,6,0,L|312:80,1,112,2|2,0:0|0:3,0:0:0:0:
144,136,60887,1,0,0:0:0:0:
312,192,60970,2,0,L|440:192,1,112,8|2,0:0|0:3,0:0:0:0:
256,248,61220,1,0,0:0:0:0:
88,192,61303,2,0,L|88:304,1,112,2|2,0:0|0:3,0:0:0:0:
312,304,61637,2,0,L|424:304,1,112,0|2,0:0|0:3,0:0:0:0:
200,192,61970,6,0,L|144:192,1,56,2|0,0:0|0:0,0:0:0:0:
312,248,62137,2,0,L|368:248,1,56,2|0,0:3|0:0,0:0:0:0:
200,304,62303,2,0,L|144:304,1,56,8|0,0:0|0:0,0:0:0:0:
144,304,62470,2,0,L|200:304,1,56,2|0,0:3|0:0,0:0:0:0:
368,248,62637,2,0,L|424:248,1,56,2|0,0:0|0:0,0:0:0:0:
256,192,62803,2,0,L|200:192,1,56,2|0,0:3|0:0,0:0:0:0:
368,136,62970,2,0,L|424:136,1,56,8|0,0:0|0:0,0:0:0:0:
424,136,63137,2,0,L|368:136,1,56,2|0,0:3|0:0,0:0:0:0:
200,80,63303,6,0,L|144:80,1,56,2|0,0:0|0:0,0:0:0:0:
312,136,63470,2,0,L|344:136,2,28,2|0|0,0:3|0:0|0:0,0:0:0:0:
144,192,63637,2,0,L|88:192,1,56,8|0,0:0|0:0,0:0:0:0:
256,248,63803,1,2,0:3:0:0:
284,248,63844,1,0,0:0:0:0:
312,248,63886,1,0,0:0:0:0:
144,304,63970,2,0,L|80:304,1,56,2|0,0:0|0:0,0:0:0:0:
256,248,64137,2,0,L|312:248,1,56,2|0,0:3|0:0,0:0:0:0:
144,192,64303,2,0,L|112:192,2,28,8|0|0,0:0|0:0|0:0,0:0:0:0:
312,136,64470,2,0,L|344:136,2,28,2|0|0,0:3|0:0|0:0,0:0:0:0:
88,80,64637,5,4,0:2:0:0:
256,192,64803,12,0,70387,0:0:0:0:
