osu file format v14

[General]
AudioFilename: audio.mp3
AudioLeadIn: 0
PreviewTime: 41970
Countdown: 0
SampleSet: Drum
StackLeniency: 0.7
Mode: 2
LetterboxInBreaks: 0
WidescreenStoryboard: 1

[Editor]
Bookmarks: 37970,53970
DistanceSpacing: 1
BeatDivisor: 8
GridSize: 16
TimelineZoom: 2.1

[Metadata]
Title:Intro - Dockaaaahhhnnn!!
TitleUnicode:Intro - Dockaaaahhhnnn!!
Artist:t+pazolite
ArtistUnicode:t+pazolite
Creator:Stardust Prism
Version:Mniam's Rain
Source:
Tags:secre chickenbible instrumental electronic Orient Kenran Kensou r-34 kfc nugget Natsuko Mniam -Ken -Hex- C.H.S cutie headshaking sounds 絢爛喧騒オリエント tpaz tpz featured artist fa mappers' guild mg mpg
BeatmapID:4428021
BeatmapSetID:2108381

[Difficulty]
HPDrainRate:5
CircleSize:3.9
OverallDifficulty:8.9
ApproachRate:8.9
SliderMultiplier:1.64
SliderTickRate:2

[Events]
//Background and Video events
0,0,"bg.jpg",0,0
//Break Periods
//Storyboard Layer 0 (Background)
//Storyboard Layer 1 (Fail)
//Storyboard Layer 2 (Pass)
//Storyboard Layer 3 (Foreground)
//Storyboard Layer 4 (Overlay)
//Storyboard Sound Samples

[TimingPoints]
11304,333.333333333333,4,3,0,50,1,0
11970,-100,4,3,0,50,0,0
12637,-100,4,3,0,50,0,0
32637,-100,4,3,0,50,0,0
43303,-100,4,3,0,50,0,1
44637,-75.187969924812,4,3,0,50,0,1
45970,-100,4,3,0,50,0,1
49970,-75.187969924812,4,3,0,50,0,1
51303,-100,4,3,0,50,0,1
53303,-75.187969924812,4,3,0,50,0,1
53970,-100,4,3,0,50,0,1
63303,-75.187969924812,4,3,0,50,0,1
64303,-75.187969924812,4,3,0,30,0,1
64637,-100,4,3,0,50,0,0

[Colours]
Combo1 : 218,174,92
Combo2 : 255,0,0
Combo3 : 139,116,116
Combo4 : 185,61,0

[HitObjects]
174,268,11345,6,0,P|78:202|191:89,1,307.5,4|0,2:3|0:0,0:0:0:0:
437,101,12304,1,0,0:0:0:0:
159,98,12637,6,0,L|493:88,2,328,0|8|0,1:0|0:0|1:0,0:0:0:0:
273,243,14304,1,0,0:0:0:0:
437,252,14637,1,8,0:0:0:0:
437,252,14970,1,0,0:0:0:0:
160,311,15304,6,0,L|332:311,1,164,0|0,0:0|0:0,0:0:0:0:
160,311,15970,2,0,P|117:283|163:200,1,164,8|0,0:0|0:0,0:0:0:0:
324,200,16637,1,0,0:0:0:0:
160,143,16970,1,0,0:0:0:0:
242,138,17137,1,0,0:0:0:0:
160,143,17304,2,0,B|83:142|83:142|79:52,1,164,8|0,0:0|0:0,0:0:0:0:
356,98,17970,6,0,L|22:88,2,328,0|8|0,1:0|0:0|1:0,0:0:0:0:
356,98,19637,1,0,0:0:0:0:
243,180,19970,1,8,0:0:0:0:
79,183,20303,1,0,0:0:0:0:
356,294,20637,6,0,L|184:294,1,164,0|0,0:0|0:0,0:0:0:0:
356,294,21303,2,0,P|399:266|353:183,1,164,8|0,0:0|0:0,0:0:0:0:
191,187,21970,1,0,0:0:0:0:
191,187,22303,1,0,0:0:0:0:
273,187,22470,1,0,0:0:0:0:
355,183,22637,2,0,P|398:155|352:72,1,164,8|0,0:0|0:0,0:0:0:0:
78,308,23303,6,0,P|34:268|165:98,1,328,0|8,1:0|0:0,0:0:0:0:
318,97,24303,1,0,0:0:0:0:
483,309,24637,2,0,P|366:288|304:76,1,328,0|8,1:0|0:0,0:0:0:0:
457,73,25637,1,0,1:0:0:0:
180,301,25970,6,0,L|16:301,4,164,0|0|8|0|0,0:0|0:0|0:0|0:0|0:0,0:0:0:0:
345,297,27637,1,0,0:0:0:0:
427,295,27803,1,0,0:0:0:0:
345,297,27970,2,0,P|364:233|447:189,1,164,8|0,0:0|0:0,0:0:0:0:
168,90,28637,6,0,L|495:80,2,328,0|8|0,1:0|0:0|1:0,0:0:0:0:
168,90,30304,1,0,0:0:0:0:
332,156,30637,1,8,0:0:0:0:
332,156,30970,1,0,1:0:0:0:
55,250,31304,6,0,L|227:250,1,164,0|0,0:0|0:0,0:0:0:0:
55,250,31970,2,0,P|12:222|58:139,1,164,8|0,0:0|0:0,0:0:0:0:
450,134,32637,5,4,0:1:0:0:
256,192,32970,12,0,37637,0:0:0:0:
384,192,37970,6,0,L|468:192,1,82,0|0,1:0|0:0,0:0:0:0:
302,192,38303,2,0,L|218:192,1,82,8|0,0:0|0:0,0:0:0:0:
302,192,38637,2,0,L|302:98,1,82,0|0,1:0|0:0,0:0:0:0:
138,74,38970,2,0,L|222:74,1,82,8|0,0:0|0:0,0:0:0:0:
384,192,39303,6,0,L|384:98,1,82,0|0,1:0|0:0,0:0:0:0:
219,192,39637,2,0,L|301:192,1,82,8|0,0:0|0:0,0:0:0:0:
137,192,39970,2,0,L|137:98,1,82,0|0,1:0|0:0,0:0:0:0:
301,192,40303,2,0,L|383:192,1,82,8|0,0:0|0:0,0:0:0:0:
218,192,40637,6,0,L|45:192,1,164,0|8,1:0|0:0,0:0:0:0:
331,192,41303,2,0,L|495:192,1,164,0|8,1:0|0:0,0:0:0:0:
16,192,41970,6,0,L|16:109,1,82,2|0,0:1|0:0,0:0:0:0:
256,192,42303,2,0,L|256:109,1,82,2|0,0:1|0:0,0:0:0:0:
496,192,42637,2,0,L|496:109,1,82,2|0,0:1|0:0,0:0:0:0:
256,192,42970,2,0,L|256:109,1,82,2|0,0:1|0:0,0:0:0:0:
15,192,43303,6,0,P|52:143|108:118,1,123,6|0,0:0|0:0,0:0:0:0:
214,107,43637,2,0,L|310:107,1,82,8|0,0:0|0:0,0:0:0:0:
56,251,43970,2,0,P|121:228|120:152,1,123,2|0,0:0|0:0,0:0:0:0:
29,156,44303,2,0,L|29:68,1,82,8|0,0:0|0:0,0:0:0:0:
269,272,44637,6,0,L|387:272,1,109.059995506867,2|0,0:0|0:0,0:0:0:0:
378,272,44887,1,0,0:0:0:0:
226,192,44970,2,0,L|108:192,1,109.059995506867,8|0,0:0|0:0,0:0:0:0:
117,192,45220,1,0,0:0:0:0:
269,112,45303,2,0,L|387:112,1,109.059995506867,2|0,0:0|0:0,0:0:0:0:
378,112,45553,1,0,0:0:0:0:
226,192,45637,2,0,L|108:192,1,109.059995506867,8|0,0:0|0:0,0:0:0:0:
361,185,45970,6,0,P|324:136|268:111,1,123,2|0,0:0|0:0,0:0:0:0:
162,100,46304,2,0,L|66:100,1,82,8|0,0:0|0:0,0:0:0:0:
320,268,46637,2,0,P|255:245|256:169,1,123,2|0,0:0|0:0,0:0:0:0:
348,175,46970,2,0,L|438:175,1,82,8|0,0:0|0:0,0:0:0:0:
190,332,47303,6,0,L|190:249,1,82,2|0,0:0|0:0,0:0:0:0:
245,241,47553,1,0,0:0:0:0:
398,264,47637,2,0,L|398:181,1,82,8|0,0:0|0:0,0:0:0:0:
343,173,47887,1,0,0:0:0:0:
192,136,47970,2,0,L|282:136,1,82,0|0,0:0|0:0,0:0:0:0:
274,136,48220,1,0,0:0:0:0:
123,81,48303,2,0,L|33:81,1,82,8|0,0:0|0:0,0:0:0:0:
282,299,48637,6,0,L|372:299,1,82,2|2,0:0|0:3,0:0:0:0:
364,299,48887,1,0,0:0:0:0:
261,297,48970,2,0,L|171:297,1,82,8|2,0:0|0:3,0:0:0:0:
418,225,49303,2,0,L|328:225,1,82,2|2,0:0|0:3,0:0:0:0:
336,225,49553,1,0,0:0:0:0:
440,224,49636,2,0,P|451:178|440:145,1,82,8|2,0:0|0:3,0:0:0:0:
180,272,49970,6,0,L|62:272,1,109.059995506867,2|2,0:0|0:3,0:0:0:0:
71,272,50220,1,0,0:0:0:0:
223,192,50303,2,0,L|341:192,1,109.059995506867,8|2,0:0|0:3,0:0:0:0:
332,192,50553,1,0,0:0:0:0:
180,112,50636,2,0,L|62:112,1,109.059995506867,0|0,0:0|0:0,0:0:0:0:
71,112,50886,1,0,0:0:0:0:
223,192,50970,2,0,L|341:192,1,109.059995506867,8|2,0:0|0:3,0:0:0:0:
92,300,51303,6,0,L|92:208,1,82,2|2,0:0|0:3,0:0:0:0:
147,209,51553,1,0,0:0:0:0:
251,208,51636,2,0,L|167:208,1,82,8|2,0:0|0:3,0:0:0:0:
410,208,51970,2,0,L|492:208,1,82,2|2,0:0|0:3,0:0:0:0:
437,194,52220,1,0,0:0:0:0:
333,192,52303,2,0,L|415:192,1,82,8|2,0:0|0:3,0:0:0:0:
174,335,52637,6,0,L|174:252,1,82,2|2,0:0|0:3,0:0:0:0:
229,244,52887,1,0,0:0:0:0:
382,267,52971,2,0,L|382:184,1,82,8|2,0:0|0:3,0:0:0:0:
327,176,53221,1,0,0:0:0:0:
176,139,53304,2,0,L|55:139,1,109.059995506867,2|0,0:0|0:0,0:0:0:0:
25,140,53553,1,0,0:0:0:0:
66,139,53637,1,0,0:0:0:0:
464,145,53970,6,0,L|464:248,1,82,6|0,0:0|0:0,0:0:0:0:
382,231,54220,1,0,0:0:0:0:
300,142,54303,2,0,L|300:245,1,82,8|2,0:0|0:3,0:0:0:0:
59,302,54637,2,0,L|151:302,1,82,2|0,0:0|0:0,0:0:0:0:
93,303,54887,1,0,0:0:0:0:
142,303,54970,1,0,0:0:0:0:
382,305,55137,6,0,P|439:263|373:218,1,164,2|2,0:3|0:3,0:0:0:0:
289,219,55553,1,0,0:0:0:0:
385,214,55637,2,0,L|470:214,1,82,8|2,0:0|0:3,0:0:0:0:
227,156,55970,2,0,L|142:156,1,82,2|2,0:0|0:3,0:0:0:0:
298,99,56220,2,0,L|298:55,1,41,0|0,0:0|0:0,0:0:0:0:
142,58,56470,1,2,0:3:0:0:
382,153,56637,6,0,L|382:256,1,82,2|0,0:0|0:0,0:0:0:0:
300,239,56887,1,0,0:0:0:0:
218,150,56970,2,0,L|218:253,1,82,8|2,0:0|0:3,0:0:0:0:
458,302,57303,2,0,L|366:302,1,82,2|0,0:0|0:0,0:0:0:0:
425,302,57553,1,0,0:0:0:0:
375,303,57636,1,0,0:0:0:0:
135,305,57803,6,0,P|78:263|144:218,1,164,2|2,0:3|0:3,0:0:0:0:
228,219,58219,1,0,0:0:0:0:
132,214,58303,2,0,L|47:214,1,82,8|0,0:0|0:0,0:0:0:0:
291,147,58637,2,0,L|376:147,1,82,0|0,0:0|0:0,0:0:0:0:
220,99,58887,2,0,L|220:55,1,41,0|0,0:0|0:0,0:0:0:0:
376,58,59137,1,2,0:3:0:0:
137,192,59303,6,0,L|52:192,1,82,2|0,0:0|0:0,0:0:0:0:
296,192,59637,2,0,L|381:192,1,82,8|2,0:0|0:3,0:0:0:0:
137,192,59970,2,0,L|52:192,1,82,2|0,0:0|0:0,0:0:0:0:
255,192,60220,2,0,L|308:192,1,41,0|0,0:0|0:0,0:0:0:0:
55,192,60470,6,0,L|228:192,1,164,2|2,0:3|0:3,0:0:0:0:
459,193,60970,2,0,L|459:105,1,82,8|2,0:0|0:3,0:0:0:0:
219,260,61303,2,0,L|134:260,1,82,2|2,0:0|0:3,0:0:0:0:
336,259,61553,2,0,L|389:259,1,41,0|0,0:0|0:0,0:0:0:0:
137,200,61803,1,2,0:3:0:0:
377,193,61970,6,0,L|468:193,1,82,2|2,0:0|0:3,0:0:0:0:
219,91,62303,2,0,L|310:91,1,82,8|2,0:0|0:3,0:0:0:0:
60,201,62637,2,0,L|151:201,1,82,2|2,0:0|0:3,0:0:0:0:
335,259,62887,2,0,L|388:259,1,41,0|8,0:0|0:0,0:0:0:0:
135,261,63137,1,2,0:3:0:0:
376,259,63303,6,0,L|399:205,1,54.5299977534333,2|0,0:0|0:0,0:0:0:0:
376,259,63470,2,0,L|310:259,1,54.5299977534333,2|0,0:3|0:0,0:0:0:0:
156,255,63637,2,0,L|133:201,1,54.5299977534333,8|0,0:0|0:0,0:0:0:0:
156,255,63804,2,0,L|222:255,1,54.5299977534333,2|0,0:3|0:0,0:0:0:0:
376,259,63970,2,0,L|316:259,1,54.5299977534333,2|0,0:0|0:0,0:0:0:0:
156,255,64137,2,0,L|219:255,1,54.5299977534333,2|0,0:3|0:0,0:0:0:0:
376,259,64303,1,8,0:0:0:0:
407,258,64344,1,0,0:0:0:0:
427,245,64387,1,0,0:0:0:0:
435,219,64428,1,0,0:0:0:0:
428,195,64469,1,2,0:3:0:0:
408,179,64511,1,0,0:0:0:0:
376,259,64552,1,0,0:0:0:0:
156,255,64637,5,4,0:2:0:0:
256,192,64803,12,0,70387,0:0:0:0:
