osu file format v14

[General]
AudioFilename: audio.mp3
AudioLeadIn: 0
PreviewTime: 41970
Countdown: 0
SampleSet: Drum
StackLeniency: 0.7
Mode: 2
LetterboxInBreaks: 0
WidescreenStoryboard: 1

[Editor]
Bookmarks: 37970,53970
DistanceSpacing: 1
BeatDivisor: 8
GridSize: 32
TimelineZoom: 1.7

[Metadata]
Title:Intro - Dockaaaahhhnnn!!
TitleUnicode:Intro - Dockaaaahhhnnn!!
Artist:t+pazolite
ArtistUnicode:t+pazolite
Creator:Stardust Prism
Version:Ken's Platter
Source:
Tags:secre chickenbible instrumental electronic Orient Kenran Kensou r-34 kfc nugget Natsuko Mniam -Ken -Hex- C.H.S cutie headshaking sounds 絢爛喧騒オリエント tpaz tpz featured artist fa mappers' guild mg mpg
BeatmapID:4424985
BeatmapSetID:2108381

[Difficulty]
HPDrainRate:4
CircleSize:3.5
OverallDifficulty:8
ApproachRate:8
SliderMultiplier:1.6
SliderTickRate:1

[Events]
//Background and Video events
0,0,"bg.jpg",0,0
//Break Periods
//Storyboard Layer 0 (Background)
//Storyboard Layer 1 (Fail)
//Storyboard Layer 2 (Pass)
//Storyboard Layer 3 (Foreground)
//Storyboard Layer 4 (Overlay)
//Storyboard Sound Samples

[TimingPoints]
11304,333.333333333333,4,3,0,50,1,0
11970,-133.333333333333,4,3,0,50,0,0
12637,-133.333333333333,4,3,0,50,0,0
32637,-100,4,3,0,50,0,0
43303,-100,4,3,0,50,0,1
64303,-100,4,3,0,30,0,1
64637,-100,4,3,0,50,0,0

[Colours]
Combo1 : 218,174,92
Combo2 : 255,0,0
Combo3 : 139,116,116
Combo4 : 185,61,0

[HitObjects]
126,244,11345,5,4,0:0:0:0:
406,308,11970,2,0,L|406:181,1,120.000004577637,0|0,0:0|0:0,0:0:0:0:
137,245,12637,6,0,P|110:179|160:155,1,120.000004577637,0|0,1:0|0:0,0:0:0:0:
307,195,13304,2,0,P|338:138|295:112,1,120.000004577637,8|0,0:0|0:0,0:0:0:0:
135,296,13970,6,0,L|262:291,2,120.000004577637,0|0|8,1:0|0:0|0:0,0:0:0:0:
466,311,15304,2,0,L|470:177,1,120.000004577637,0|0,0:0|0:0,0:0:0:0:
297,267,15970,2,0,L|171:206,1,120.000004577637,8|0,0:0|0:0,0:0:0:0:
445,163,16637,1,0,0:0:0:0:
111,289,17304,6,0,L|111:157,1,120.000004577637,8|0,0:0|0:0,0:0:0:0:
378,257,17970,2,0,L|479:172,1,120.000004577637,0|0,1:0|0:0,0:0:0:0:
298,229,18637,2,0,L|195:137,1,120.000004577637,8|0,0:0|0:0,0:0:0:0:
380,145,19304,2,0,L|252:145,2,120.000004577637,0|0|8,1:0|0:0|0:0,0:0:0:0:
98,323,20637,5,0,0:0:0:0:
253,304,20970,1,0,0:0:0:0:
253,304,21304,1,8,0:0:0:0:
98,323,21637,1,0,0:0:0:0:
374,228,21970,1,0,0:0:0:0:
177,330,22637,6,0,L|309:330,1,120.000004577637,8|0,0:0|0:0,0:0:0:0:
26,253,23303,2,0,L|25:121,1,120.000004577637,0|0,1:0|0:0,0:0:0:0:
204,329,23970,6,0,L|343:328,1,120.000004577637,8|0,0:0|0:0,0:0:0:0:
36,251,24636,2,0,L|37:116,1,120.000004577637,0|0,1:0|0:0,0:0:0:0:
241,136,25303,1,8,0:0:0:0:
451,268,25970,5,0,0:0:0:0:
289,269,26303,1,0,0:0:0:0:
130,268,26637,1,8,0:0:0:0:
252,264,26970,1,0,0:0:0:0:
491,208,27303,2,0,L|490:65,1,120.000004577637
314,221,27970,6,0,L|174:222,1,120.000004577637,8|0,0:0|0:0,0:0:0:0:
471,216,28637,2,0,P|477:176|421:106,1,120.000004577637,0|0,1:0|0:0,0:0:0:0:
274,176,29303,2,0,L|409:159,1,120.000004577637,8|0,0:0|0:0,0:0:0:0:
234,231,29970,2,0,P|210:170|253:119,1,120.000004577637,0|0,1:0|0:0,0:0:0:0:
419,90,30637,1,8,0:0:0:0:
146,296,31303,5,0,0:0:0:0:
39,238,31637,1,0,0:0:0:0:
192,196,31970,1,8,0:0:0:0:
46,160,32303,1,0,0:0:0:0:
472,161,32637,5,4,0:1:0:0:
256,192,32970,12,0,37637,0:0:0:0:
103,189,37970,6,0,L|97:303,1,80,0|0,1:0|0:0,0:0:0:0:
269,273,38303,2,0,L|387:271,1,80,8|0,0:0|0:0,0:0:0:0:
244,218,38637,5,0,1:0:0:0:
243,141,38803,1,0,0:0:0:0:
412,100,38970,2,0,L|319:101,1,80,8|0,0:0|0:0,0:0:0:0:
232,240,39303,5,0,1:0:0:0:
232,322,39470,1,0,0:0:0:0:
61,310,39637,2,0,L|153:311,1,80,8|0,0:0|0:0,0:0:0:0:
241,311,39970,5,0,1:0:0:0:
243,225,40137,1,0,0:0:0:0:
70,221,40303,1,8,0:0:0:0:
70,221,40637,5,0,1:0:0:0:
70,221,40803,1,0,0:0:0:0:
238,222,40970,2,0,L|238:127,1,80,8|0,0:0|0:0,0:0:0:0:
332,123,41303,5,0,1:0:0:0:
332,123,41470,1,0,0:0:0:0:
497,114,41636,1,8,0:0:0:0:
240,263,41970,5,2,0:1:0:0:
427,262,42303,1,2,0:1:0:0:
240,263,42637,1,2,0:1:0:0:
427,262,42970,1,2,0:1:0:0:
29,288,43303,6,0,L|29:120,1,160,6|8,0:0|0:0,0:0:0:0:
124,133,43803,1,0,0:0:0:0:
295,281,43970,2,0,L|106:281,1,160,2|8,0:0|0:0,0:0:0:0:
235,283,44470,1,0,0:0:0:0:
486,273,44637,5,2,0:0:0:0:
486,273,44803,1,0,0:0:0:0:
390,272,44970,1,8,0:0:0:0:
295,273,45137,5,0,0:0:0:0:
277,274,45221,1,0,0:0:0:0:
295,273,45304,1,2,0:0:0:0:
390,272,45470,1,0,0:0:0:0:
240,163,45637,2,0,L|174:109,1,80,8|0,0:0|0:0,0:0:0:0:
429,284,45970,6,0,P|466:238|405:150,1,160,2|8,0:0|0:0,0:0:0:0:
330,148,46470,1,0,0:0:0:0:
162,265,46637,2,0,L|31:166,1,160,2|8,0:0|0:0,0:0:0:0:
131,167,47137,1,0,0:0:0:0:
382,215,47303,5,2,0:0:0:0:
478,170,47470,1,0,0:0:0:0:
382,215,47637,1,8,0:0:0:0:
299,83,47803,5,0,0:0:0:0:
257,82,47886,1,0,0:0:0:0:
299,83,47970,1,0,0:0:0:0:
401,79,48136,1,0,0:0:0:0:
253,159,48303,1,8,0:0:0:0:
253,159,48470,1,0,0:0:0:0:
490,299,48637,6,0,P|489:236|403:196,1,160,2|8,0:0|0:2,0:0:0:0:
320,194,49137,1,2,0:3:0:0:
153,227,49303,2,0,P|109:173|173:112,1,160,2|8,0:0|0:0,0:0:0:0:
254,112,49803,1,2,0:3:0:0:
486,110,49970,5,2,0:0:0:0:
487,54,50137,1,2,0:3:0:0:
387,55,50303,1,8,0:0:0:0:
286,55,50470,5,2,0:3:0:0:
302,96,50553,1,0,0:0:0:0:
318,132,50637,1,0,0:0:0:0:
421,128,50803,1,0,0:0:0:0:
273,174,50970,2,0,L|273:276,1,80,8|2,0:0|0:3,0:0:0:0:
31,328,51303,6,0,L|31:142,1,160,2|8,0:0|0:0,0:0:0:0:
128,168,51803,1,2,0:3:0:0:
300,187,51970,2,0,L|485:185,1,160,2|8,0:0|0:0,0:0:0:0:
363,162,52470,1,2,0:3:0:0:
112,297,52637,5,2,0:0:0:0:
21,269,52803,1,2,0:3:0:0:
29,261,52970,1,8,0:0:0:0:
125,263,53137,5,2,0:3:0:0:
170,253,53220,1,0,0:0:0:0:
216,242,53303,1,2,0:0:0:0:
65,222,53470,1,0,0:0:0:0:
46,223,53637,1,0,0:0:0:0:
440,284,53970,6,0,L|453:185,1,80,6|0,0:0|0:0,0:0:0:0:
372,191,54220,1,0,0:0:0:0:
294,189,54303,2,0,L|295:296,1,80,8|2,0:0|0:3,0:0:0:0:
440,335,54637,1,2,0:0:0:0:
308,342,54887,1,0,0:0:0:0:
437,303,55137,1,2,0:3:0:0:
131,269,55470,5,2,0:3:0:0:
173,228,55553,1,0,0:0:0:0:
216,198,55637,1,8,0:0:0:0:
304,194,55803,1,2,0:3:0:0:
145,144,55970,1,2,0:0:0:0:
59,134,56220,1,0,0:0:0:0:
90,58,56470,1,2,0:3:0:0:
346,332,56637,6,0,L|346:234,1,80,2|0,0:0|0:0,0:0:0:0:
292,248,56887,1,0,0:0:0:0:
237,240,56970,2,0,L|236:132,1,80,8|2,0:0|0:3,0:0:0:0:
377,128,57303,1,2,0:0:0:0:
245,99,57553,1,0,0:0:0:0:
377,128,57803,1,2,0:3:0:0:
68,320,58137,5,2,0:3:0:0:
58,319,58220,1,0,0:0:0:0:
68,320,58304,1,8,0:0:0:0:
165,322,58470,1,0,0:0:0:0:
341,317,58637,1,0,0:0:0:0:
410,300,58887,1,0,0:0:0:0:
375,255,59137,1,2,0:3:0:0:
104,335,59303,6,0,L|102:236,1,80,2|0,0:0|0:0,0:0:0:0:
186,237,59553,1,0,0:0:0:0:
269,256,59637,2,0,L|269:373,1,80,8|2,0:0|0:3,0:0:0:0:
122,157,59970,1,2,0:0:0:0:
253,156,60220,1,0,0:0:0:0:
122,157,60470,1,2,0:3:0:0:
423,315,60803,5,2,0:3:0:0:
433,315,60887,1,0,0:0:0:0:
423,315,60970,1,8,0:0:0:0:
335,290,61137,1,2,0:3:0:0:
160,282,61303,1,2,0:0:0:0:
148,228,61553,1,0,0:0:0:0:
248,173,61803,1,2,0:3:0:0:
487,329,61970,6,0,L|487:213,1,80,2|2,0:0|0:3,0:0:0:0:
407,241,62220,1,0,0:0:0:0:
328,224,62303,1,8,0:0:0:0:
416,166,62470,1,2,0:3:0:0:
172,266,62637,6,0,L|172:150,1,80,2|2,0:0|0:3,0:0:0:0:
253,173,62887,1,0,0:0:0:0:
332,157,62970,1,8,0:0:0:0:
251,110,63137,1,2,0:3:0:0:
88,282,63303,5,2,0:0:0:0:
43,251,63387,1,0,0:0:0:0:
43,251,63470,1,2,0:3:0:0:
88,282,63553,1,0,0:0:0:0:
184,295,63637,5,8,0:0:0:0:
229,309,63720,1,0,0:0:0:0:
229,309,63803,1,2,0:3:0:0:
184,295,63887,1,0,0:0:0:0:
95,216,63970,5,2,0:0:0:0:
45,219,64053,1,0,0:0:0:0:
16,214,64137,1,2,0:3:0:0:
45,219,64220,1,0,0:0:0:0:
95,216,64303,1,8,0:0:0:0:
496,246,64637,5,4,0:2:0:0:
256,192,64970,12,0,70387,0:0:0:0:
