osu file format v14

[General]
AudioFilename: audio.mp3
AudioLeadIn: 0
PreviewTime: 43303
Countdown: 0
SampleSet: Normal
StackLeniency: 0.7
Mode: 0
LetterboxInBreaks: 0
WidescreenStoryboard: 1

[Editor]
DistanceSpacing: 1
BeatDivisor: 4
GridSize: 4
TimelineZoom: 1.6

[Metadata]
Title:Intro - Dockaaaahhhnnn!!
TitleUnicode:Intro - Dockaaaahhhnnn!!
Artist:t+pazolite
ArtistUnicode:t+pazolite
Creator:Mr kamfret
Version:expert
Source:
Tags:Kenran Kensou Orient C.H.S 絢爛喧騒オリエント tpaz tpz
BeatmapID:1288837
BeatmapSetID:610399

[Difficulty]
HPDrainRate:4
CircleSize:3.5
OverallDifficulty:8
ApproachRate:9
SliderMultiplier:1.5
SliderTickRate:1

[Events]
//Background and Video events
0,0,"chinese.jpg",0,0
//Break Periods
2,32837,37370
//Storyboard Layer 0 (Background)
//Storyboard Layer 1 (Fail)
//Storyboard Layer 2 (Pass)
//Storyboard Layer 3 (Foreground)
//Storyboard Sound Samples

[TimingPoints]
11304,333.333333333333,4,1,1,25,1,0
16637,-200,4,1,1,25,0,0
17304,-100,4,1,1,25,0,0
17970,-200,4,1,1,25,0,0
20637,-100,4,1,1,25,0,0
29303,-200,4,1,1,25,0,0
32637,-100,4,1,1,75,0,0
37970,-133.333333333333,4,1,1,10,0,0
41970,-50,4,1,1,10,0,0
42637,-33.3333333333333,4,1,1,5,0,0
43303,-66.6666666666667,4,1,1,50,0,1
59303,-57.1428571428571,4,1,1,50,0,1
63637,-50,4,1,1,50,0,1
64637,-100,4,1,1,100,0,0
68637,-100,4,1,1,5,0,0

[Colours]
Combo1 : 255,87,6
Combo2 : 255,0,0

[HitObjects]
212,184,11304,5,12,0:0:0:0:
424,100,11970,2,8,L|424:252,1,150
256,320,12637,2,8,L|96:320,1,150
60,100,13304,1,8,0:0:0:0:
264,320,13970,1,8,0:0:0:0:
408,56,14637,1,8,0:0:0:0:
184,120,15304,6,8,L|344:120,1,150
260,240,15970,2,8,L|104:240,1,150
248,64,16637,2,8,L|408:64,1,150
440,188,17637,5,8,0:0:0:0:
304,312,17970,2,8,P|244:312|288:264,1,150,12|8,0:0|0:0,0:0:0:0:
348,168,19304,2,8,P|388:152|328:124,1,150
204,264,20637,5,8,0:0:0:0:
260,36,20970,1,8,0:0:0:0:
344,324,21303,1,8,0:0:0:0:
140,152,21637,2,8,P|108:128|172:80,1,150
360,216,22637,5,8,0:0:0:0:
88,312,22970,1,8,0:0:0:0:
132,72,23303,1,8,0:0:0:0:
132,72,23970,5,8,0:0:0:0:
88,312,24303,1,8,0:0:0:0:
384,260,24636,1,8,0:0:0:0:
260,192,25303,5,8,0:0:0:0:
232,272,25970,6,8,P|284:288|368:224,1,150
240,80,26637,2,8,P|188:72|108:148,1,150
384,152,27303,1,8,0:0:0:0:
136,312,27970,5,8,0:0:0:0:
256,36,28303,1,8,0:0:0:0:
392,332,28637,1,12,0:0:0:0:
168,208,29303,6,8,P|136:180|168:88,1,150
312,24,30637,2,8,P|344:56|332:156,1,150
192,292,31637,1,8,0:0:0:0:
272,64,31970,1,8,0:0:0:0:
400,272,32303,1,8,0:0:0:0:
124,184,32637,1,12,0:0:0:0:
80,64,37970,6,2,P|124:64|144:84,1,56.2500021457673
208,144,38303,1,8,0:0:0:0:
208,144,38387,1,8,0:0:0:0:
208,144,38470,1,8,0:0:0:0:
220,264,38637,2,2,P|252:280|280:276,1,56.2500021457673
420,264,38970,2,2,P|432:220|420:200,1,56.2500021457673
420,84,39303,5,0,0:0:0:0:
288,116,39470,1,0,0:0:0:0:
372,228,39637,1,8,0:0:0:0:
372,228,39720,1,8,0:0:0:0:
372,228,39803,1,8,0:0:0:0:
280,344,39970,2,2,P|248:336|240:312,1,56.2500021457673
148,196,40303,2,2,P|120:176|136:148,1,56.2500021457673
232,56,40637,5,0,0:0:0:0:
340,176,40803,1,0,0:0:0:0:
156,204,40970,1,8,0:0:0:0:
156,204,41053,1,8,0:0:0:0:
156,204,41137,1,8,0:0:0:0:
312,112,41303,6,2,P|352:104|392:116,1,56.2500021457673
264,264,41637,2,2,P|224:288|204:284,1,56.2500021457673
128,60,41970,6,0,P|80:60|144:136,1,225
208,140,42303,2,0,P|148:192|236:264,1,225
284,246,42637,2,0,L|284:328|368:328|368:240|284:240,1,337.500012874604
328,288,42970,1,0,0:0:0:0:
344,128,43303,6,0,P|288:108|216:132,1,112.500004291535,4|0,0:0|0:0,0:0:0:0:
120,204,43637,1,0,0:0:0:0:
288,204,43803,1,0,0:0:0:0:
180,80,43970,2,0,L|180:200,1,112.500004291535
336,304,44303,2,0,B|364:272|364:272|364:184,1,112.500004291535
256,72,44637,1,2,0:0:0:0:
400,160,44803,1,0,0:0:0:0:
232,136,44970,1,2,0:0:0:0:
396,88,45137,1,0,0:0:0:0:
264,192,45303,1,2,0:0:0:0:
340,40,45470,1,0,0:0:0:0:
324,208,45637,1,2,0:0:0:0:
264,52,45803,1,0,0:0:0:0:
384,172,45970,6,0,P|436:224|440:280,1,112.500004291535,4|0,0:0|0:0,0:0:0:0:
288,324,46303,2,0,P|320:272|380:248,1,112.500004291535
504,156,46637,1,0,0:0:0:0:
376,48,46803,1,0,0:0:0:0:
208,44,46970,2,0,P|168:88|168:160,1,112.500004291535
260,276,47303,1,2,0:0:0:0:
252,108,47470,1,0,0:0:0:0:
336,252,47637,1,2,0:0:0:0:
196,156,47803,1,0,0:0:0:0:
364,184,47970,1,2,0:0:0:0:
204,236,48137,1,0,0:0:0:0:
320,116,48303,1,2,0:0:0:0:
264,276,48470,1,0,0:0:0:0:
248,108,48637,6,0,P|208:56|136:48,1,112.500004291535,4|8,0:0|0:0,0:0:0:0:
104,200,48970,2,0,P|132:256|184:260,1,112.500004291535,8|8,0:0|0:0,0:0:0:0:
340,308,49303,1,8,0:0:0:0:
448,176,49470,2,0,B|428:104|428:104|376:72,1,112.500004291535,8|8,0:0|0:0,0:0:0:0:
232,40,49803,1,8,0:0:0:0:
184,204,49970,1,10,0:0:0:0:
348,168,50137,1,8,0:0:0:0:
216,64,50303,1,10,0:0:0:0:
232,232,50470,1,8,0:0:0:0:
356,120,50637,1,10,0:0:0:0:
188,100,50803,1,8,0:0:0:0:
284,240,50970,1,10,0:0:0:0:
324,76,51137,1,8,0:0:0:0:
200,188,51303,6,0,P|164:264|192:328,1,112.500004291535,12|8,0:0|0:0,0:0:0:0:
336,304,51637,2,0,P|296:260|232:252,1,112.500004291535,8|8,0:0|0:0,0:0:0:0:
80,276,51970,2,0,L|120:140,1,112.500004291535,8|8,0:0|0:0,0:0:0:0:
256,80,52303,2,0,P|284:140|228:208,1,112.500004291535,8|8,0:0|0:0,0:0:0:0:
124,92,52637,1,10,0:0:0:0:
284,144,52803,1,8,0:0:0:0:
124,92,52970,1,10,0:0:0:0:
284,148,53137,1,8,0:0:0:0:
124,200,53303,1,10,0:0:0:0:
124,200,53387,1,8,0:0:0:0:
124,200,53470,1,8,0:0:0:0:
216,288,53637,1,10,0:0:0:0:
388,248,53970,6,0,P|340:200|260:192,1,112.500004291535,8|0,0:0|0:0,0:0:0:0:
264,296,54303,1,8,0:0:0:0:
360,348,54470,2,0,P|440:344|460:304,1,112.500004291535
464,156,54803,1,0,0:0:0:0:
324,248,54970,1,8,0:0:0:0:
492,276,55137,1,0,0:0:0:0:
368,160,55303,1,10,0:0:0:0:
368,160,55387,2,8,L|300:100,1,56.2500021457673
184,32,55637,1,10,0:0:0:0:
184,32,55720,2,8,L|120:92,1,56.2500021457673
108,236,55970,1,10,0:0:0:0:
108,236,56053,2,8,L|200:236,1,56.2500021457673
332,240,56303,2,0,L|452:240,1,112.500004291535,10|0,0:0|0:0,0:0:0:0:
312,132,56637,6,0,P|248:168|236:220,1,112.500004291535,12|0,0:0|0:0,0:0:0:0:
400,168,56970,2,0,P|408:100|364:48,1,112.500004291535,8|0,0:0|0:0,0:0:0:0:
316,220,57303,2,0,P|380:288|432:292,1,112.500004291535,8|0,0:0|0:0,0:0:0:0:
392,120,57637,1,8,0:0:0:0:
224,136,57803,1,0,0:0:0:0:
316,276,57970,1,10,0:0:0:0:
316,276,58053,2,8,L|224:276,1,56.2500021457673
128,172,58303,1,10,0:0:0:0:
128,172,58387,2,8,L|232:172,1,56.2500021457673
336,96,58637,1,10,0:0:0:0:
336,96,58720,2,8,L|264:96,1,56.2500021457673
116,52,58970,1,10,0:0:0:0:
116,52,59053,1,8,0:0:0:0:
116,52,59137,1,8,0:0:0:0:
60,240,59303,6,0,P|124:280|184:268,1,131.250001251698,12|0,0:0|0:0,0:0:0:0:
276,100,59637,2,0,P|188:136|160:192,1,131.250001251698,8|0,0:0|0:0,0:0:0:0:
312,300,59970,2,0,P|308:232|264:184,1,131.250001251698,8|0,0:0|0:0,0:0:0:0:
112,308,60303,1,8,0:0:0:0:
308,336,60470,1,0,0:0:0:0:
176,188,60637,1,10,0:0:0:0:
176,188,60720,2,8,L|248:136,1,65.6250006258488
428,160,60970,1,10,0:0:0:0:
428,160,61053,2,8,L|344:120,1,65.6250006258488
180,80,61303,1,10,0:0:0:0:
180,80,61387,2,8,L|260:68,1,65.6250006258488
440,56,61637,1,10,0:0:0:0:
440,56,61720,2,8,L|348:40,1,65.6250006258488
180,28,61970,6,0,B|88:32|88:32|32:84,1,131.250001251698,12|0,0:0|0:0,0:0:0:0:
148,236,62303,2,0,P|208:200|192:124,1,131.250001251698,8|0,0:0|0:0,0:0:0:0:
52,264,62637,2,0,L|160:356,1,131.250001251698,8|0,0:0|0:0,0:0:0:0:
340,292,62970,2,0,L|200:292,1,131.250001251698,8|0,0:0|0:0,0:0:0:0:
328,136,63303,2,0,P|384:208|348:280,1,131.250001251698,8|0,0:0|0:0,0:0:0:0:
160,300,63637,1,8,0:0:0:0:
140,280,63720,1,8,0:0:0:0:
128,252,63803,1,8,0:0:0:0:
140,224,63887,1,8,0:0:0:0:
160,204,63970,1,8,0:0:0:0:
188,200,64053,1,8,0:0:0:0:
216,212,64137,5,8,0:0:0:0:
240,232,64220,1,8,0:0:0:0:
268,244,64303,1,8,0:0:0:0:
300,244,64387,1,8,0:0:0:0:
328,232,64470,1,8,0:0:0:0:
348,208,64553,1,8,0:0:0:0:
352,192,64637,1,12,0:0:0:0:
256,192,64720,12,0,68637,0:0:0:0:
