osu file format v14

[General]
AudioFilename: audio.mp3
AudioLeadIn: 0
PreviewTime: 43303
Countdown: 0
SampleSet: Normal
StackLeniency: 0.7
Mode: 0
LetterboxInBreaks: 0
WidescreenStoryboard: 1

[Editor]
DistanceSpacing: 2
BeatDivisor: 2
GridSize: 4
TimelineZoom: 1

[Metadata]
Title:Intro - Dockaaaahhhnnn!!
TitleUnicode:Intro - Dockaaaahhhnnn!!
Artist:t+pazolite
ArtistUnicode:t+pazolite
Creator:Mr kamfret
Version:Normal
Source:
Tags:Kenran Kensou Orient C.H.S 絢爛喧騒オリエント tpaz tpz
BeatmapID:1288841
BeatmapSetID:610399

[Difficulty]
HPDrainRate:3
CircleSize:3
OverallDifficulty:5
ApproachRate:6
SliderMultiplier:1
SliderTickRate:1

[Events]
//Background and Video events
0,0,"chinese.jpg",0,0
//Break Periods
2,33503,36920
2,64837,67587
//Storyboard Layer 0 (Background)
//Storyboard Layer 1 (Fail)
//Storyboard Layer 2 (Pass)
//Storyboard Layer 3 (Foreground)
//Storyboard Sound Samples

[TimingPoints]
11304,333.333333333333,4,1,1,25,1,0
41970,-133.333333333333,4,1,1,10,0,0
43303,-100,4,1,1,50,0,1
63637,-200,4,1,1,50,0,1
64637,-100,4,1,1,100,0,0
68637,-100,4,1,1,100,0,0
68970,-100,4,1,1,90,0,0
69303,-100,4,1,1,100,0,0
69636,-100,4,1,1,80,0,0
69970,-100,4,1,1,100,0,0
70303,-100,4,1,1,70,0,0
70637,-100,4,1,1,100,0,0
70970,-100,4,1,1,60,0,0
71303,-100,4,1,1,100,0,0
71636,-100,4,1,1,50,0,0
71970,-100,4,1,1,100,0,0
72303,-100,4,1,1,55,0,0
72637,-100,4,1,1,100,0,0
72970,-100,4,1,1,50,0,0
73303,-100,4,1,1,100,0,0
73636,-100,4,1,1,45,0,0
73970,-100,4,1,1,100,0,0
74303,-100,4,1,1,40,0,0
74637,-100,4,1,1,100,0,0
74970,-100,4,1,1,35,0,0
75303,-100,4,1,1,100,0,0
75636,-100,4,1,1,30,0,0
75970,-100,4,1,1,100,0,0
76303,-100,4,1,1,20,0,0
76637,-100,4,1,1,10,0,0

[Colours]
Combo1 : 255,87,6
Combo2 : 255,0,0

[HitObjects]
136,108,11304,5,4,0:0:0:0:
336,116,11970,2,0,B|336:160|336:160|280:204,1,100
220,264,12637,1,0,0:0:0:0:
216,64,13304,1,0,0:0:0:0:
416,60,13970,2,0,B|472:88|472:88|472:160,1,100,0|0,0:0|0:0,0:0:0:0:
480,224,14637,1,0,0:0:0:0:
312,332,15304,6,0,L|200:332,1,100
148,256,15970,1,0,0:0:0:0:
96,168,16304,1,0,0:0:0:0:
160,92,16637,1,0,0:0:0:0:
352,40,17304,6,0,L|352:140,1,100
420,212,17970,1,4,0:0:0:0:
240,300,18637,2,0,L|112:300,1,100
84,220,19304,1,0,0:0:0:0:
188,52,19970,2,0,P|236:120|240:252,1,200,0|0,0:0|0:0,0:0:0:0:
320,300,20970,1,0,0:0:0:0:
404,244,21303,1,0,0:0:0:0:
400,144,21637,1,0,0:0:0:0:
340,64,21970,2,0,P|288:56|216:80,1,100
168,132,22637,6,0,P|136:204|148:248,1,100
220,280,23303,1,0,0:0:0:0:
416,324,23970,6,0,P|440:256|416:216,1,100
336,268,24637,1,0,0:0:0:0:
152,344,25303,2,0,P|104:300|168:176,1,200
200,112,26303,2,0,L|396:172,1,200
444,236,27303,2,0,L|356:292,1,100,0|0,0:0|0:0,0:0:0:0:
260,304,27970,6,0,B|224:280|224:280|224:220,1,100
240,124,28637,2,0,P|308:152|320:208,1,100,4|0,0:0|0:0,0:0:0:0:
360,264,29303,1,0,0:0:0:0:
160,284,29970,1,0,0:0:0:0:
136,84,30637,2,0,P|112:160|64:192,1,100,0|0,0:0|0:0,0:0:0:0:
64,264,31303,5,0,0:0:0:0:
148,320,31637,1,0,0:0:0:0:
212,244,31970,1,0,0:0:0:0:
300,288,32303,1,8,0:0:0:0:
368,216,32637,2,0,P|400:144|320:184,1,200,4|0,0:0|0:0,0:0:0:0:
256,192,37970,12,0,41970,0:0:0:0:
384,148,43303,6,0,B|384:204|384:204|336:256,1,100,4|0,0:0|0:0,0:0:0:0:
264,280,43970,1,0,0:0:0:0:
164,280,44303,1,0,0:0:0:0:
64,280,44637,2,0,P|68:220|100:192,1,100
96,96,45303,2,0,P|168:104|192:140,1,100
284,108,45970,5,4,0:0:0:0:
280,208,46303,1,0,0:0:0:0:
196,152,46637,2,0,L|124:76,1,100
60,152,47303,1,0,0:0:0:0:
60,252,47637,1,0,0:0:0:0:
140,308,47970,2,0,B|184:328|184:328|252:328,1,100
336,316,48637,6,8,B|332:260|332:260|340:260|340:260|340:208,1,100,12|8,0:0|0:0,0:0:0:0:
324,124,49303,2,8,P|264:124|264:168,1,100
220,244,49970,1,8,0:0:0:0:
120,248,50303,1,8,0:0:0:0:
104,144,50637,2,8,L|176:60,1,100
267,57,51303,6,8,P|319:89|319:137,1,100
400,160,51970,1,8,0:0:0:0:
472,220,52303,1,8,0:0:0:0:
380,272,52637,5,8,0:0:0:0:
280,272,52970,1,8,0:0:0:0:
284,172,53303,5,8,0:0:0:0:
384,172,53637,1,8,0:0:0:0:
376,64,53970,6,0,L|256:64,1,100,4|0,0:0|0:0,0:0:0:0:
176,60,54637,1,8,0:0:0:0:
80,68,54970,2,8,P|80:132|124:156,1,100
204,152,55637,1,8,0:0:0:0:
304,152,55970,1,8,0:0:0:0:
404,152,56303,1,8,0:0:0:0:
408,252,56637,6,0,B|384:288|384:288|316:288,1,100,4|8,0:0|0:0,0:0:0:0:
228,292,57303,2,0,P|184:292|168:232,1,100
172,148,57970,1,8,0:0:0:0:
240,72,58303,1,8,0:0:0:0:
300,152,58637,1,8,0:0:0:0:
400,152,58970,1,8,0:0:0:0:
376,248,59303,6,0,L|252:248,1,100,4|0,0:0|0:0,0:0:0:0:
284,148,59970,2,0,L|172:148,1,100
84,144,60637,1,8,0:0:0:0:
84,244,60970,1,8,0:0:0:0:
172,292,61303,2,8,L|280:292,1,100
368,260,61970,5,4,0:0:0:0:
424,180,62303,1,8,0:0:0:0:
324,168,62637,1,8,0:0:0:0:
272,84,62970,1,8,0:0:0:0:
372,88,63303,1,8,0:0:0:0:
464,48,63637,2,0,B|480:96|480:96|480:212,1,150,0|4,0:0|0:0,0:0:0:0:
256,192,68637,12,0,76637,0:0:0:0:
