osu file format v14

[General]
AudioFilename: audio.mp3
AudioLeadIn: 0
PreviewTime: 43303
Countdown: 0
SampleSet: Normal
StackLeniency: 0.7
Mode: 0
LetterboxInBreaks: 0
WidescreenStoryboard: 1

[Editor]
DistanceSpacing: 1.5
BeatDivisor: 4
GridSize: 4
TimelineZoom: 1.6

[Metadata]
Title:Intro - Dockaaaahhhnnn!!
TitleUnicode:Intro - Dockaaaahhhnnn!!
Artist:t+pazolite
ArtistUnicode:t+pazolite
Creator:Mr kamfret
Version:Insane
Source:
Tags:Kenran Kensou Orient C.H.S 絢爛喧騒オリエント tpaz tpz
BeatmapID:1288840
BeatmapSetID:610399

[Difficulty]
HPDrainRate:4
CircleSize:3.5
OverallDifficulty:8
ApproachRate:9
SliderMultiplier:1.5
SliderTickRate:1

[Events]
//Background and Video events
0,0,"chinese.jpg",0,0
//Break Periods
2,32837,37220
//Storyboard Layer 0 (Background)
//Storyboard Layer 1 (Fail)
//Storyboard Layer 2 (Pass)
//Storyboard Layer 3 (Foreground)
//Storyboard Sound Samples

[TimingPoints]
11304,333.333333333333,4,1,1,25,1,0
32637,-100,4,1,1,75,0,0
37970,-133.333333333333,4,1,1,10,0,0
43303,-66.6666666666667,4,1,1,50,0,1
63637,-50,4,1,1,50,0,1
64637,-100,4,1,1,100,0,0
68637,-100,4,1,1,5,0,0

[Colours]
Combo1 : 255,87,6
Combo2 : 255,0,0

[HitObjects]
260,192,11304,5,4,0:0:0:0:
356,124,11970,1,8,0:0:0:0:
304,44,12304,1,8,0:0:0:0:
216,100,12637,1,8,0:0:0:0:
88,160,13304,6,8,B|88:240|88:240|156:296,1,150
256,304,13970,2,8,P|292:280|220:256,1,150
228,144,14637,2,8,P|196:112|276:80,1,150
400,144,15304,6,8,P|452:156|408:220,1,150
344,300,15970,2,8,B|320:224|320:224|232:188,1,150
200,136,16637,2,8,P|172:172|224:264,1,150,12|8,0:0|0:0,0:0:0:0:
292,304,17304,5,8,0:0:0:0:
292,304,17637,1,8,0:0:0:0:
416,296,17970,2,8,B|456:232|456:232|408:152,1,150
448,76,18637,2,8,P|388:76|340:168,1,150
292,244,19304,2,8,B|216:272|216:272|132:212,1,150
200,88,19970,2,8,P|240:120|200:200,1,150
80,248,20637,5,8,0:0:0:0:
208,328,20970,1,8,0:0:0:0:
288,200,21303,1,8,0:0:0:0:
152,128,21637,1,8,0:0:0:0:
264,72,21970,2,8,B|340:72|340:72|392:132,1,150,12|8,0:0|0:0,0:0:0:0:
480,164,22637,6,8,P|480:224|384:264,1,150
272,236,23303,2,8,P|264:176|336:192,1,150
312,336,23970,2,8,L|168:280,1,150
155,168,24637,2,8,P|203:216|151:288,1,150
44,124,25303,1,8,0:0:0:0:
184,48,25970,6,8,L|352:48,1,150
332,136,26637,2,8,P|320:184|248:136,1,150
384,104,27303,2,8,L|440:280,1,150,12|8,0:0|0:0,0:0:0:0:
352,312,27970,1,8,0:0:0:0:
228,240,28303,1,8,0:0:0:0:
124,324,28637,1,8,0:0:0:0:
112,160,29303,2,8,P|132:120|220:160,1,150
284,232,29970,2,8,L|128:280,1,150
40,220,30637,2,8,P|96:276|44:320,1,150
196,336,31303,5,8,0:0:0:0:
380,288,31637,1,8,0:0:0:0:
216,228,31970,1,8,0:0:0:0:
392,148,32303,1,8,0:0:0:0:
228,100,32637,1,12,0:0:0:0:
384,64,37970,6,2,B|412:84|412:84|416:128,1,56.2500021457673
368,200,38303,1,8,0:0:0:0:
368,200,38387,1,8,0:0:0:0:
368,200,38470,1,8,0:0:0:0:
328,304,38637,2,2,P|296:292|272:264,1,56.2500021457673
156,256,38970,2,2,P|144:224|152:200,1,56.2500021457673
148,96,39303,5,0,0:0:0:0:
232,28,39470,1,0,0:0:0:0:
320,112,39637,1,8,0:0:0:0:
320,112,39720,1,8,0:0:0:0:
320,112,39803,1,8,0:0:0:0:
372,216,39970,2,2,P|332:248|308:256,1,56.2500021457673
216,296,40303,2,2,P|240:324|264:324,1,56.2500021457673
360,328,40637,5,8,0:0:0:0:
360,328,40720,1,8,0:0:0:0:
360,328,40803,1,8,0:0:0:0:
452,296,40970,2,2,P|448:260|428:232,1,56.2500021457673
376,160,41303,2,2,P|344:180|328:200,1,56.2500021457673
256,288,41637,1,0,0:0:0:0:
80,184,41970,6,2,P|120:172|148:184,1,56.2500021457673
256,40,42304,6,2,P|272:72|264:100,1,56.2500021457673
432,192,42637,6,2,P|396:212|364:200,1,56.2500021457673
256,336,42970,6,2,P|236:296|248:276,1,56.2500021457673
264,152,43303,5,4,0:0:0:0:
376,112,43470,1,0,0:0:0:0:
376,112,43553,1,0,0:0:0:0:
376,112,43637,1,0,0:0:0:0:
444,220,43803,2,0,P|408:264|348:264,1,112.500004291535
232,312,44137,1,0,0:0:0:0:
144,248,44303,2,0,P|108:200|120:144,1,112.500004291535
200,68,44637,1,8,0:0:0:0:
200,68,44720,2,8,L|272:28,1,56.2500021457673
224,164,44970,1,8,0:0:0:0:
224,164,45053,2,8,L|304:164,1,56.2500021457673
224,276,45303,1,8,0:0:0:0:
224,276,45387,2,8,L|312:304,1,56.2500021457673
132,332,45637,1,8,0:0:0:0:
132,332,45720,2,8,L|168:384,1,56.2500021457673
64,232,45970,6,0,B|64:164|64:164|112:128,1,112.500004291535,4|0,0:0|0:0,0:0:0:0:
224,64,46303,1,0,0:0:0:0:
340,192,46470,1,0,0:0:0:0:
192,188,46637,2,0,P|232:144|300:116,1,112.500004291535
456,152,46970,2,0,P|456:216|416:248,1,112.500004291535
292,296,47303,1,8,0:0:0:0:
292,296,47387,2,8,L|232:328,1,56.2500021457673
176,232,47637,1,8,0:0:0:0:
180,236,47720,2,8,L|92:248,1,56.2500021457673
120,136,47970,1,8,0:0:0:0:
120,136,48053,2,8,L|44:100,1,56.2500021457673
224,80,48303,1,8,0:0:0:0:
224,80,48387,2,8,L|160:32,1,56.2500021457673
360,92,48637,6,0,P|392:144|376:212,1,112.500004291535,12|0,0:0|0:0,0:0:0:0:
108,312,48970,1,8,0:0:0:0:
299,203,49137,1,0,0:0:0:0:
299,203,49303,2,0,P|334:246|331:300,1,112.500004291535,8|0,0:0|0:0,0:0:0:0:
28,352,49637,2,0,P|20:288|52:244,1,112.500004291535,8|0,0:0|0:0,0:0:0:0:
128,136,49970,1,8,0:0:0:0:
128,136,50053,2,8,L|152:76,1,56.2500021457673
292,52,50303,1,8,0:0:0:0:
292,52,50387,2,8,L|268:112,1,56.2500021457673
328,212,50637,1,8,0:0:0:0:
328,212,50720,2,8,L|392:176,1,56.2500021457673
488,284,50970,1,8,0:0:0:0:
488,284,51053,2,8,L|400:296,1,56.2500021457673
284,352,51303,6,0,B|220:352|220:352|176:316,1,112.500004291535,12|0,0:0|0:0,0:0:0:0:
168,220,51637,2,0,P|196:276|168:336,1,112.500004291535,8|0,0:0|0:0,0:0:0:0:
88,276,51970,2,0,L|60:164,1,112.500004291535,8|0,0:0|0:0,0:0:0:0:
192,72,52303,1,8,0:0:0:0:
336,124,52470,1,0,0:0:0:0:
396,264,52637,6,8,L|344:292,2,56.2500021457673
264,220,52970,2,8,L|208:200,2,56.2500021457673
144,296,53303,2,8,L|84:312,2,56.2500021457673
52,200,53637,1,8,0:0:0:0:
128,72,53970,5,12,0:0:0:0:
304,136,54137,1,0,0:0:0:0:
164,184,54303,1,8,0:0:0:0:
240,80,54470,2,0,P|292:52|348:60,1,112.500004291535,0|8,0:0|0:0,0:0:0:0:
448,140,54803,1,0,0:0:0:0:
368,264,54970,1,8,0:0:0:0:
244,300,55137,2,0,P|212:252|236:192,1,112.500004291535
240,192,55387,1,8,0:0:0:0:
268,176,55470,1,8,0:0:0:0:
152,116,55637,1,8,0:0:0:0:
152,116,55720,2,8,L|96:60,1,56.2500021457673
280,72,55970,1,8,0:0:0:0:
288,72,56053,2,8,L|360:44,1,56.2500021457673
444,136,56303,2,8,L|448:208,2,56.2500021457673
352,272,56637,6,0,B|304:308|304:308|220:308,1,112.500004291535,12|0,0:0|0:0,0:0:0:0:
76,276,56970,1,8,0:0:0:0:
180,348,57137,1,0,0:0:0:0:
180,348,57303,2,0,L|144:232,1,112.500004291535,8|0,0:0|0:0,0:0:0:0:
120,144,57637,1,8,0:0:0:0:
256,76,57803,1,0,0:0:0:0:
372,176,57970,1,8,0:0:0:0:
372,176,58053,2,8,L|432:216,1,56.2500021457673
280,280,58303,1,8,0:0:0:0:
280,280,58387,2,8,L|220:300,1,56.2500021457673
160,176,58637,1,8,0:0:0:0:
164,168,58720,2,8,L|240:184,1,56.2500021457673
80,284,58970,1,8,0:0:0:0:
72,288,59053,2,8,L|28:228,1,56.2500021457673
68,96,59303,6,0,P|136:80|244:120,1,168.750006437302,12|0,0:0|0:0,0:0:0:0:
286,247,59637,2,0,P|246:219|242:82,1,168.750006437302,8|0,0:0|0:0,0:0:0:0:
311,111,59970,2,0,L|395:267,1,168.750006437302,8|0,0:0|0:0,0:0:0:0:
217,321,60303,2,0,P|205:253|293:257,1,168.750006437302,8|0,0:0|0:0,0:0:0:0:
412,296,60637,1,8,0:0:0:0:
432,296,60720,2,8,L|496:268,1,56.2500021457673
328,180,60970,1,8,0:0:0:0:
320,176,61053,2,8,L|232:124,1,56.2500021457673
432,92,61303,1,8,0:0:0:0:
440,84,61387,2,8,L|492:56,1,56.2500021457673
288,36,61637,1,8,0:0:0:0:
264,32,61720,1,8,0:0:0:0:
244,32,61803,1,8,0:0:0:0:
224,36,61887,1,8,0:0:0:0:
188,52,61970,6,0,P|168:124|180:192,1,112.500004291535,8|0,0:0|0:0,0:0:0:0:
220,352,62303,1,8,0:0:0:0:
360,220,62470,1,0,0:0:0:0:
176,240,62637,2,0,L|284:284,1,112.500004291535,8|0,0:0|0:0,0:0:0:0:
400,300,62970,1,8,0:0:0:0:
476,192,63137,1,0,0:0:0:0:
364,108,63303,1,8,0:0:0:0:
352,100,63387,1,8,0:0:0:0:
336,88,63470,1,8,0:0:0:0:
316,72,63553,1,8,0:0:0:0:
284,56,63637,1,8,0:0:0:0:
251,45,63720,1,8,0:0:0:0:
215,45,63803,1,8,0:0:0:0:
182,60,63887,1,8,0:0:0:0:
159,87,63970,1,8,0:0:0:0:
148,121,64053,1,8,0:0:0:0:
151,156,64137,1,8,0:0:0:0:
169,187,64220,1,8,0:0:0:0:
198,208,64303,1,8,0:0:0:0:
233,216,64387,1,8,0:0:0:0:
268,209,64470,1,8,0:0:0:0:
297,188,64553,1,8,0:0:0:0:
315,157,64637,1,12,0:0:0:0:
256,192,64720,12,0,68637,0:0:0:0:
