osu file format v14

[General]
AudioFilename: audio.mp3
AudioLeadIn: 0
PreviewTime: 43303
Countdown: 0
SampleSet: Normal
StackLeniency: 0.7
Mode: 0
LetterboxInBreaks: 0
WidescreenStoryboard: 1

[Editor]
DistanceSpacing: 1.5
BeatDivisor: 4
GridSize: 4
TimelineZoom: 1.6

[Metadata]
Title:Intro - Dockaaaahhhnnn!!
TitleUnicode:Intro - Dockaaaahhhnnn!!
Artist:t+pazolite
ArtistUnicode:t+pazolite
Creator:Mr kamfret
Version:Hard
Source:
Tags:Kenran Kensou Orient C.H.S 絢爛喧騒オリエント tpaz tpz
BeatmapID:1288839
BeatmapSetID:610399

[Difficulty]
HPDrainRate:4
CircleSize:3.5
OverallDifficulty:8
ApproachRate:8
SliderMultiplier:1
SliderTickRate:1

[Events]
//Background and Video events
0,0,"chinese.jpg",0,0
//Break Periods
2,32837,37220
//Storyboard Layer 0 (Background)
//Storyboard Layer 1 (Fail)
//Storyboard Layer 2 (Pass)
//Storyboard Layer 3 (Foreground)
//Storyboard Sound Samples

[TimingPoints]
11304,333.333333333333,4,1,1,25,1,0
32637,-100,4,1,1,75,0,0
37970,-66.6666666666667,4,1,1,10,0,0
43303,-66.6666666666667,4,1,1,50,0,1
63637,-50,4,1,1,50,0,1
64637,-100,4,1,1,100,0,0
68637,-100,4,1,1,5,0,0

[Colours]
Combo1 : 255,87,6
Combo2 : 255,0,0

[HitObjects]
252,196,11304,5,4,0:0:0:0:
348,100,11970,1,0,0:0:0:0:
444,156,12304,1,0,0:0:0:0:
360,240,12637,2,0,P|328:292|284:296,1,100
184,256,13304,2,0,P|228:216|280:228,1,100
428,312,13970,1,0,0:0:0:0:
440,76,14637,1,0,0:0:0:0:
312,48,15304,6,0,P|296:84|320:144,1,100
268,216,15970,2,0,P|280:264|268:320,1,100
336,360,16637,1,0,0:0:0:0:
136,236,17304,5,0,0:0:0:0:
64,160,17637,1,0,0:0:0:0:
172,100,17970,2,0,P|228:80|292:100,1,100,4|0,0:0|0:0,0:0:0:0:
440,120,18637,2,0,P|384:144|332:128,1,100
308,16,19304,1,0,0:0:0:0:
300,356,19970,1,0,0:0:0:0:
212,336,20637,6,0,L|224:216,1,100
100,248,21303,2,0,L|112:368,1,100
336,284,21970,1,4,0:0:0:0:
476,208,22637,6,0,P|404:184|356:216,1,100
232,108,23303,2,0,P|268:152|324:152,1,100
440,84,23970,2,0,P|360:48|312:48,1,100
232,108,24637,2,0,L|160:200,1,100
196,292,25303,1,0,0:0:0:0:
348,312,25970,5,0,0:0:0:0:
400,212,26303,1,0,0:0:0:0:
288,236,26637,1,0,0:0:0:0:
344,140,26970,1,0,0:0:0:0:
344,140,27303,2,0,P|276:96|240:100,1,100
120,116,27970,6,0,L|148:232,1,100
240,316,28637,2,0,P|276:256|244:212,1,100,4|0,0:0|0:0,0:0:0:0:
248,96,29303,2,0,L|360:88,1,100
448,188,29970,2,0,P|380:232|328:208,1,100
244,164,30637,2,0,P|208:144|156:168,1,100
92,292,31303,6,0,L|208:292,1,100
316,228,31970,2,0,L|432:228,1,100
448,92,32637,1,4,0:0:0:0:
256,192,37970,12,0,41637,0:0:0:0:
192,136,41970,6,8,P|156:116|116:132,1,75.0000028610231
220,260,42303,6,8,P|200:296|216:336,1,75.0000028610231
340,236,42637,6,8,P|376:256|416:240,1,75.0000028610231
312,112,42970,6,8,P|332:76|316:36,1,75.0000028610231
204,72,43303,6,0,P|160:72|120:100,1,75.0000028610231,4|0,0:0|0:0,0:0:0:0:
64,172,43637,2,0,L|20:208,2,37.5000014305115
160,224,43970,2,0,P|180:264|180:328,1,75.0000028610231
288,240,44303,2,0,P|352:260|384:252,1,75.0000028610231
396,152,44637,2,8,L|444:152,2,37.5000014305115
320,88,44970,2,8,L|348:44,2,37.5000014305115
208,92,45303,2,8,L|208:48,2,37.5000014305115
88,120,45637,1,8,0:0:0:0:
80,220,45970,6,0,B|124:244|124:244|172:244,1,75.0000028610231,4|0,0:0|0:0,0:0:0:0:
248,304,46303,1,0,0:0:0:0:
356,304,46470,1,0,0:0:0:0:
440,236,46637,2,0,P|432:192|404:168,1,75.0000028610231
412,72,46970,2,0,P|360:84|328:112,1,75.0000028610231
252,160,47303,2,8,L|208:184,2,37.5000014305115
112,128,47637,2,8,L|60:152,2,37.5000014305115
84,256,47970,2,8,L|24:296,2,37.5000014305115
152,336,48303,1,8,0:0:0:0:
416,336,48637,6,0,P|424:312|400:252,1,75.0000028610231,4|0,0:0|0:0,0:0:0:0:
328,292,48970,1,8,0:0:0:0:
328,184,49137,1,0,0:0:0:0:
408,128,49303,2,0,P|368:104|312:104,1,75.0000028610231,8|0,0:0|0:0,0:0:0:0:
264,36,49637,2,0,P|224:72|216:104,1,75.0000028610231
188,200,49970,2,8,L|136:224,2,37.5000014305115
240,296,50303,2,8,L|240:344,2,37.5000014305115,8|8|8,0:0|0:0|0:0,0:0:0:0:
336,296,50637,2,8,L|336:348,2,37.5000014305115,8|8|8,0:0|0:0|0:0,0:0:0:0:
440,268,50970,1,8,0:0:0:0:
432,140,51303,6,0,P|396:124|360:128,1,75.0000028610231,12|0,0:0|0:0,0:0:0:0:
268,176,51637,1,8,0:0:0:0:
268,72,51803,1,0,0:0:0:0:
168,128,51970,2,0,P|132:168|132:220,1,75.0000028610231,8|0,0:0|0:0,0:0:0:0:
124,288,52303,2,0,L|216:288,1,75.0000028610231,8|0,0:0|0:0,0:0:0:0:
312,280,52637,2,8,L|364:280,2,37.5000014305115,8|8|8,0:0|0:0|0:0,0:0:0:0:
280,188,52970,2,8,L|316:156,2,37.5000014305115,8|8|8,0:0|0:0|0:0,0:0:0:0:
192,148,53303,2,8,L|192:104,2,37.5000014305115,8|8|8,0:0|0:0|0:0,0:0:0:0:
64,152,53637,1,8,0:0:0:0:
64,152,53970,6,0,L|64:64,1,75.0000028610231,4|0,0:0|0:0,0:0:0:0:
176,68,54303,1,0,0:0:0:0:
172,176,54470,1,0,0:0:0:0:
280,176,54637,2,0,L|280:96,1,75.0000028610231
396,100,54970,1,0,0:0:0:0:
396,204,55137,1,0,0:0:0:0:
392,324,55303,2,8,L|328:324,2,37.5000014305115
272,252,55637,2,8,L|224:252,2,37.5000014305115
144,328,55970,2,8,L|96:328,2,37.5000014305115
48,236,56303,1,8,0:0:0:0:
128,132,56637,6,0,L|228:132,1,75.0000028610231,4|0,0:0|0:0,0:0:0:0:
296,64,56970,2,0,L|400:64,1,75.0000028610231
444,140,57303,1,0,0:0:0:0:
444,256,57470,1,0,0:0:0:0:
360,324,57637,2,0,L|272:324,1,75.0000028610231
172,268,57970,2,8,L|116:268,2,37.5000014305115
252,196,58303,2,8,L|296:172,2,37.5000014305115
144,144,58637,2,8,L|128:100,2,37.5000014305115
268,72,58970,2,8,L|268:28,2,37.5000014305115
388,100,59303,6,0,L|388:176,1,75.0000028610231,4|0,0:0|0:0,0:0:0:0:
448,264,59637,1,0,0:0:0:0:
332,264,59803,1,0,0:0:0:0:
256,164,59970,2,0,L|256:244,1,75.0000028610231
256,336,60303,1,0,0:0:0:0:
152,336,60470,1,0,0:0:0:0:
152,240,60637,2,8,L|152:200,2,37.5000014305115
64,204,60970,2,8,L|64:156,2,37.5000014305115
152,168,61303,2,8,L|152:112,2,37.5000014305115
64,132,61637,2,8,L|64:68,2,37.5000014305115
152,56,61970,6,0,L|240:56,1,75.0000028610231,4|0,0:0|0:0,0:0:0:0:
348,56,62303,2,0,L|440:56,1,75.0000028610231
424,156,62637,1,0,0:0:0:0:
424,264,62803,1,0,0:0:0:0:
344,324,62970,6,0,L|248:324,1,75.0000028610231
228,344,63303,2,8,L|176:372,3,37.5000014305115
192,312,63637,2,8,L|108:312,3,50
160,268,63970,6,8,L|108:244,3,50
152,224,64303,6,8,L|124:160,3,50
188,196,64637,5,4,0:0:0:0:
256,192,64720,12,0,68637,0:0:0:0:
