osu file format v14

[General]
AudioFilename: audio.mp3
AudioLeadIn: 0
PreviewTime: 217113
Countdown: 0
SampleSet: Normal
StackLeniency: 0.7
Mode: 1
LetterboxInBreaks: 0
WidescreenStoryboard: 0

[Editor]
Bookmarks: 70,8417,16765,25113,33461,41809,50156,58504,66852,83548,91896,100243,108591,116939,125287,133635,141983,150330,165983,167026,183722,192069,200417,208765,218156,226504,234852,251548,259896,268243,276591,284939
DistanceSpacing: 1.1
BeatDivisor: 4
GridSize: 32
TimelineZoom: 1.9

[Metadata]
Title:Howling Down
TitleUnicode:Howling Down
Artist:t+pazolite
ArtistUnicode:t+pazolite
Creator:eiri-
Version:Oni
Source:
Tags:Ayyri Instrumental Electronic songs for X Girlz Comiket 81 C81 C.H.S CHS tpz
BeatmapID:2314205
BeatmapSetID:1107264

[Difficulty]
HPDrainRate:6
CircleSize:2
OverallDifficulty:6
ApproachRate:10
SliderMultiplier:1.4
SliderTickRate:1

[Events]
//Background and Video events
0,0,"Howling Down.jpg",0,50
//Break Periods
//Storyboard Layer 0 (Background)
//Storyboard Layer 1 (Fail)
//Storyboard Layer 2 (Pass)
//Storyboard Layer 3 (Foreground)
//Storyboard Layer 4 (Overlay)
//Storyboard Sound Samples

[TimingPoints]
70,260.869565217391,4,1,0,75,1,0
66852,-100,4,1,0,75,0,1
83548,-100,4,1,0,75,0,0
150330,-100,4,1,0,75,0,1
165983,-100,4,1,0,75,0,0
167026,-100,4,1,0,75,0,1
183722,-100,4,1,0,75,0,0
234852,-100,4,1,0,75,0,1
251548,-100,4,1,0,75,0,0
259896,-100,4,1,0,75,0,1
268243,-100,4,1,0,75,0,0

[HitObjects]
256,192,70,5,8,0:0:0:0:
256,192,330,1,8,0:0:0:0:
256,192,591,1,0,0:0:0:0:
256,192,852,1,8,0:0:0:0:
256,192,983,1,0,0:0:0:0:
256,192,1243,1,0,0:0:0:0:
256,192,1374,1,8,0:0:0:0:
256,192,1635,1,8,0:0:0:0:
256,192,1896,1,0,0:0:0:0:
256,192,2156,1,8,0:0:0:0:
256,192,2417,1,8,0:0:0:0:
256,192,2678,1,0,0:0:0:0:
256,192,2939,1,8,0:0:0:0:
256,192,3069,1,0,0:0:0:0:
256,192,3330,1,0,0:0:0:0:
256,192,3461,1,8,0:0:0:0:
256,192,3722,1,0,0:0:0:0:
256,192,3983,1,0,0:0:0:0:
256,192,4243,1,8,0:0:0:0:
256,192,4504,1,8,0:0:0:0:
256,192,4765,1,0,0:0:0:0:
256,192,5026,1,8,0:0:0:0:
256,192,5156,1,0,0:0:0:0:
256,192,5417,1,0,0:0:0:0:
256,192,5548,1,8,0:0:0:0:
256,192,5809,1,8,0:0:0:0:
256,192,6069,1,0,0:0:0:0:
256,192,6330,1,8,0:0:0:0:
256,192,6591,1,8,0:0:0:0:
256,192,6852,1,0,0:0:0:0:
256,192,7113,1,0,0:0:0:0:
256,192,7243,1,8,0:0:0:0:
256,192,7504,1,8,0:0:0:0:
256,192,7635,1,0,0:0:0:0:
256,192,7896,1,8,0:0:0:0:
256,192,8156,1,0,0:0:0:0:
256,192,8417,1,12,0:0:0:0:
256,192,8678,1,8,0:0:0:0:
256,192,8939,1,0,0:0:0:0:
256,192,9200,1,8,0:0:0:0:
256,192,9330,1,0,0:0:0:0:
256,192,9591,1,0,0:0:0:0:
256,192,9722,1,8,0:0:0:0:
256,192,9983,1,8,0:0:0:0:
256,192,10243,1,0,0:0:0:0:
256,192,10504,1,8,0:0:0:0:
256,192,10765,1,8,0:0:0:0:
256,192,11026,1,0,0:0:0:0:
256,192,11287,1,8,0:0:0:0:
256,192,11417,1,0,0:0:0:0:
256,192,11678,1,0,0:0:0:0:
256,192,11809,1,8,0:0:0:0:
256,192,12069,1,0,0:0:0:0:
256,192,12330,1,0,0:0:0:0:
256,192,12591,1,8,0:0:0:0:
256,192,12852,1,8,0:0:0:0:
256,192,13113,1,0,0:0:0:0:
256,192,13374,1,8,0:0:0:0:
256,192,13504,1,0,0:0:0:0:
256,192,13765,1,0,0:0:0:0:
256,192,13896,1,8,0:0:0:0:
256,192,14156,1,8,0:0:0:0:
256,192,14417,1,0,0:0:0:0:
256,192,14678,1,8,0:0:0:0:
256,192,14939,1,8,0:0:0:0:
256,192,15200,1,0,0:0:0:0:
256,192,15461,1,0,0:0:0:0:
256,192,15591,1,8,0:0:0:0:
256,192,16765,1,12,0:0:0:0:
256,192,16896,1,0,0:0:0:0:
256,192,17026,1,8,0:0:0:0:
256,192,17287,1,0,0:0:0:0:
256,192,17548,1,8,0:0:0:0:
256,192,17678,1,0,0:0:0:0:
256,192,17939,1,8,0:0:0:0:
256,192,18200,1,0,0:0:0:0:
256,192,18330,1,8,0:0:0:0:
256,192,18591,1,0,0:0:0:0:
256,192,18852,1,8,0:0:0:0:
256,192,18983,1,0,0:0:0:0:
256,192,19113,1,8,0:0:0:0:
256,192,19374,1,0,0:0:0:0:
256,192,19635,1,8,0:0:0:0:
256,192,19765,1,0,0:0:0:0:
256,192,20026,1,8,0:0:0:0:
256,192,20287,1,0,0:0:0:0:
256,192,20417,1,8,0:0:0:0:
256,192,20678,1,0,0:0:0:0:
256,192,20809,1,0,0:0:0:0:
256,192,20939,1,8,0:0:0:0:
256,192,21069,1,0,0:0:0:0:
256,192,21200,1,8,0:0:0:0:
256,192,21461,1,0,0:0:0:0:
256,192,21722,1,8,0:0:0:0:
256,192,21852,1,0,0:0:0:0:
256,192,22113,1,8,0:0:0:0:
256,192,22374,1,0,0:0:0:0:
256,192,22504,1,8,0:0:0:0:
256,192,22765,1,0,0:0:0:0:
256,192,23026,1,8,0:0:0:0:
256,192,23156,1,0,0:0:0:0:
256,192,23287,1,8,0:0:0:0:
256,192,23548,1,0,0:0:0:0:
256,192,23809,1,0,0:0:0:0:
256,192,23939,1,8,0:0:0:0:
256,192,24200,1,8,0:0:0:0:
256,192,24330,1,0,0:0:0:0:
256,192,24461,1,0,0:0:0:0:
256,192,24591,1,8,0:0:0:0:
256,192,24852,1,0,0:0:0:0:
256,192,25113,1,12,0:0:0:0:
256,192,25243,1,0,0:0:0:0:
256,192,25374,1,8,0:0:0:0:
256,192,25635,1,0,0:0:0:0:
256,192,25765,1,0,0:0:0:0:
256,192,25896,1,8,0:0:0:0:
256,192,26026,1,0,0:0:0:0:
256,192,26287,1,8,0:0:0:0:
256,192,26417,1,0,0:0:0:0:
256,192,26548,1,0,0:0:0:0:
256,192,26678,1,8,0:0:0:0:
256,192,26939,1,0,0:0:0:0:
256,192,27200,1,8,0:0:0:0:
256,192,27330,1,0,0:0:0:0:
256,192,27461,1,8,0:0:0:0:
256,192,27722,1,0,0:0:0:0:
256,192,27852,1,0,0:0:0:0:
256,192,27983,1,8,0:0:0:0:
256,192,28113,1,0,0:0:0:0:
256,192,28374,1,8,0:0:0:0:
256,192,28504,1,0,0:0:0:0:
256,192,28635,1,0,0:0:0:0:
256,192,28765,1,8,0:0:0:0:
256,192,29026,1,0,0:0:0:0:
256,192,29156,1,0,0:0:0:0:
256,192,29287,1,8,0:0:0:0:
256,192,29417,1,0,0:0:0:0:
256,192,29548,1,8,0:0:0:0:
256,192,29809,1,0,0:0:0:0:
256,192,29939,1,0,0:0:0:0:
256,192,30069,1,8,0:0:0:0:
256,192,30200,1,0,0:0:0:0:
256,192,30461,1,8,0:0:0:0:
256,192,30591,1,0,0:0:0:0:
256,192,30722,1,0,0:0:0:0:
256,192,30852,1,8,0:0:0:0:
256,192,31113,1,0,0:0:0:0:
256,192,31374,1,8,0:0:0:0:
256,192,31504,1,0,0:0:0:0:
256,192,31635,1,8,0:0:0:0:
256,192,31896,1,0,0:0:0:0:
256,192,32026,1,0,0:0:0:0:
256,192,32156,1,8,0:0:0:0:
256,192,32287,1,0,0:0:0:0:
256,192,32417,1,8,0:0:0:0:
256,192,32678,1,0,0:0:0:0:
256,192,32939,1,8,0:0:0:0:
256,192,33200,1,0,0:0:0:0:
256,192,33461,1,12,0:0:0:0:
256,192,33722,1,0,0:0:0:0:
256,192,33983,1,0,0:0:0:0:
256,192,34113,1,8,0:0:0:0:
256,192,34243,1,8,0:0:0:0:
256,192,34374,1,8,0:0:0:0:
256,192,34635,1,0,0:0:0:0:
256,192,34896,1,8,0:0:0:0:
256,192,35026,1,0,0:0:0:0:
256,192,35287,1,8,0:0:0:0:
256,192,35548,1,0,0:0:0:0:
256,192,35809,1,0,0:0:0:0:
256,192,36069,1,0,0:0:0:0:
256,192,36200,1,8,0:0:0:0:
256,192,36330,1,8,0:0:0:0:
256,192,36461,1,8,0:0:0:0:
256,192,36722,1,0,0:0:0:0:
256,192,36983,1,8,0:0:0:0:
256,192,37113,1,0,0:0:0:0:
256,192,37374,1,8,0:0:0:0:
256,192,37439,1,0,0:0:0:0:
256,192,37504,1,8,0:0:0:0:
256,192,37569,1,0,0:0:0:0:
256,192,37635,1,8,0:0:0:0:
256,192,37896,1,0,0:0:0:0:
256,192,38026,1,8,0:0:0:0:
256,192,38287,1,0,0:0:0:0:
256,192,38417,1,0,0:0:0:0:
256,192,38548,1,8,0:0:0:0:
256,192,38678,1,0,0:0:0:0:
256,192,38809,1,8,0:0:0:0:
256,192,39069,1,0,0:0:0:0:
256,192,39200,1,8,0:0:0:0:
256,192,39330,1,0,0:0:0:0:
256,192,39396,1,0,0:0:0:0:
256,192,39461,1,0,0:0:0:0:
256,192,39591,1,8,0:0:0:0:
256,192,39722,1,0,0:0:0:0:
256,192,39983,1,0,0:0:0:0:
256,192,40113,1,8,0:0:0:0:
256,192,40178,1,8,0:0:0:0:
256,192,40243,1,0,0:0:0:0:
256,192,40374,1,8,0:0:0:0:
256,192,40635,1,8,0:0:0:0:
256,192,40765,1,0,0:0:0:0:
256,192,40896,1,8,0:0:0:0:
256,192,41026,1,0,0:0:0:0:
256,192,41156,1,0,0:0:0:0:
256,192,41287,1,8,0:0:0:0:
256,192,41548,1,0,0:0:0:0:
256,192,41809,1,12,0:0:0:0:
256,192,42069,1,0,0:0:0:0:
256,192,42330,1,0,0:0:0:0:
256,192,42461,1,8,0:0:0:0:
256,192,42591,1,8,0:0:0:0:
256,192,42722,1,8,0:0:0:0:
256,192,42852,1,0,0:0:0:0:
256,192,42983,1,8,0:0:0:0:
256,192,43243,1,8,0:0:0:0:
256,192,43374,1,0,0:0:0:0:
256,192,43635,1,8,0:0:0:0:
256,192,43700,1,8,0:0:0:0:
256,192,43765,1,8,0:0:0:0:
256,192,43896,1,0,0:0:0:0:
256,192,44156,1,0,0:0:0:0:
256,192,44417,1,0,0:0:0:0:
256,192,44548,1,8,0:0:0:0:
256,192,44678,1,8,0:0:0:0:
256,192,44809,1,8,0:0:0:0:
256,192,44939,1,0,0:0:0:0:
256,192,45069,1,8,0:0:0:0:
256,192,45330,1,8,0:0:0:0:
256,192,45461,1,0,0:0:0:0:
256,192,45591,1,0,0:0:0:0:
256,192,45722,1,8,0:0:0:0:
256,192,45787,1,0,0:0:0:0:
256,192,45852,1,8,0:0:0:0:
256,192,45917,1,0,0:0:0:0:
256,192,45983,1,8,0:0:0:0:
256,192,46243,1,0,0:0:0:0:
256,192,46374,1,8,0:0:0:0:
256,192,46439,1,8,0:0:0:0:
256,192,46504,1,8,0:0:0:0:
256,192,46635,1,0,0:0:0:0:
256,192,46765,1,0,0:0:0:0:
256,192,46896,1,8,0:0:0:0:
256,192,47026,1,0,0:0:0:0:
256,192,47156,1,8,0:0:0:0:
256,192,47222,1,8,0:0:0:0:
256,192,47287,1,8,0:0:0:0:
256,192,47417,1,0,0:0:0:0:
256,192,47548,1,8,0:0:0:0:
256,192,47613,1,8,0:0:0:0:
256,192,47678,1,0,0:0:0:0:
256,192,47743,1,0,0:0:0:0:
256,192,47809,1,8,0:0:0:0:
256,192,47939,1,0,0:0:0:0:
256,192,48069,1,8,0:0:0:0:
256,192,48330,1,0,0:0:0:0:
256,192,48461,1,8,0:0:0:0:
256,192,48526,1,8,0:0:0:0:
256,192,48591,1,0,0:0:0:0:
256,192,48722,1,8,0:0:0:0:
256,192,48983,1,8,0:0:0:0:
256,192,49113,1,0,0:0:0:0:
256,192,49374,1,0,0:0:0:0:
256,192,49504,1,0,0:0:0:0:
256,192,49635,1,8,0:0:0:0:
256,192,49896,1,0,0:0:0:0:
256,192,50156,1,12,0:0:0:0:
256,192,50548,1,0,0:0:0:0:
256,192,50939,1,8,0:0:0:0:
256,192,51330,1,0,0:0:0:0:
256,192,51722,1,8,0:0:0:0:
256,192,51983,1,8,0:0:0:0:
256,192,52243,1,0,0:0:0:0:
256,192,52635,1,0,0:0:0:0:
256,192,53026,1,8,0:0:0:0:
256,192,53417,1,0,0:0:0:0:
256,192,53809,1,8,0:0:0:0:
256,192,54330,1,0,0:0:0:0:
256,192,54722,1,0,0:0:0:0:
256,192,55113,1,8,0:0:0:0:
256,192,55504,1,0,0:0:0:0:
256,192,55896,1,8,0:0:0:0:
256,192,56156,1,8,0:0:0:0:
256,192,56417,1,0,0:0:0:0:
256,192,56809,1,0,0:0:0:0:
256,192,57200,1,8,0:0:0:0:
256,192,57591,1,0,0:0:0:0:
256,192,57983,1,8,0:0:0:0:
256,192,58504,1,4,0:0:0:0:
256,192,58896,1,4,0:0:0:0:
256,192,59287,1,4,0:0:0:0:
256,192,59678,1,4,0:0:0:0:
256,192,60069,1,4,0:0:0:0:
256,192,60330,1,12,0:0:0:0:
256,192,60591,1,4,0:0:0:0:
256,192,60983,1,4,0:0:0:0:
256,192,61374,1,4,0:0:0:0:
256,192,61765,1,12,0:0:0:0:
256,192,62156,1,4,0:0:0:0:
256,192,62417,1,12,0:0:0:0:
256,192,62678,1,4,0:0:0:0:
256,192,63069,1,12,0:0:0:0:
256,192,63461,1,4,0:0:0:0:
256,192,63852,1,12,0:0:0:0:
256,192,64243,1,4,0:0:0:0:
256,192,64504,1,12,0:0:0:0:
256,192,64765,1,4,0:0:0:0:
256,192,65026,1,8,0:0:0:0:
256,192,65287,1,8,0:0:0:0:
256,192,65548,1,0,0:0:0:0:
256,192,65678,1,8,0:0:0:0:
256,192,65939,1,8,0:0:0:0:
256,192,66069,1,0,0:0:0:0:
256,192,66330,1,0,0:0:0:0:
256,192,66591,1,8,0:0:0:0:
256,192,66852,1,12,0:0:0:0:
256,192,66983,1,0,0:0:0:0:
256,192,67113,1,0,0:0:0:0:
256,192,67243,1,8,0:0:0:0:
256,192,67374,1,0,0:0:0:0:
256,192,67504,1,0,0:0:0:0:
256,192,67635,1,8,0:0:0:0:
256,192,67765,1,0,0:0:0:0:
256,192,67896,1,0,0:0:0:0:
256,192,68026,1,8,0:0:0:0:
256,192,68156,1,0,0:0:0:0:
256,192,68287,1,0,0:0:0:0:
256,192,68417,1,8,0:0:0:0:
256,192,68678,1,8,0:0:0:0:
256,192,68939,1,8,0:0:0:0:
256,192,69069,1,0,0:0:0:0:
256,192,69200,1,0,0:0:0:0:
256,192,69330,1,8,0:0:0:0:
256,192,69461,1,0,0:0:0:0:
256,192,69591,1,0,0:0:0:0:
256,192,69722,1,8,0:0:0:0:
256,192,69852,1,0,0:0:0:0:
256,192,69983,1,0,0:0:0:0:
256,192,70113,1,8,0:0:0:0:
256,192,70243,1,8,0:0:0:0:
256,192,70504,1,8,0:0:0:0:
256,192,70765,1,8,0:0:0:0:
256,192,70896,1,8,0:0:0:0:
256,192,71026,1,8,0:0:0:0:
256,192,71156,1,0,0:0:0:0:
256,192,71287,1,0,0:0:0:0:
256,192,71417,1,8,0:0:0:0:
256,192,71548,1,0,0:0:0:0:
256,192,71678,1,0,0:0:0:0:
256,192,71809,1,8,0:0:0:0:
256,192,71939,1,0,0:0:0:0:
256,192,72069,1,0,0:0:0:0:
256,192,72200,1,8,0:0:0:0:
256,192,72330,1,0,0:0:0:0:
256,192,72461,1,0,0:0:0:0:
256,192,72591,1,8,0:0:0:0:
256,192,72852,1,8,0:0:0:0:
256,192,73113,1,8,0:0:0:0:
256,192,73243,1,0,0:0:0:0:
256,192,73374,1,0,0:0:0:0:
256,192,73504,1,8,0:0:0:0:
256,192,73635,1,0,0:0:0:0:
256,192,73765,1,0,0:0:0:0:
256,192,73896,1,8,0:0:0:0:
256,192,74026,1,0,0:0:0:0:
256,192,74156,1,0,0:0:0:0:
256,192,74222,1,0,0:0:0:0:
256,192,74287,1,0,0:0:0:0:
256,192,74417,1,8,0:0:0:0:
256,192,74678,1,0,0:0:0:0:
256,192,74939,1,0,0:0:0:0:
256,192,75200,1,12,0:0:0:0:
256,192,75330,1,0,0:0:0:0:
256,192,75461,1,0,0:0:0:0:
256,192,75591,1,8,0:0:0:0:
256,192,75722,1,0,0:0:0:0:
256,192,75852,1,0,0:0:0:0:
256,192,75983,1,8,0:0:0:0:
256,192,76113,1,0,0:0:0:0:
256,192,76243,1,0,0:0:0:0:
256,192,76374,1,8,0:0:0:0:
256,192,76504,1,0,0:0:0:0:
256,192,76635,1,0,0:0:0:0:
256,192,76765,1,8,0:0:0:0:
256,192,77026,1,8,0:0:0:0:
256,192,77287,1,8,0:0:0:0:
256,192,77417,1,0,0:0:0:0:
256,192,77548,1,0,0:0:0:0:
256,192,77678,1,8,0:0:0:0:
256,192,77809,1,0,0:0:0:0:
256,192,77939,1,0,0:0:0:0:
256,192,78069,1,8,0:0:0:0:
256,192,78200,1,0,0:0:0:0:
256,192,78330,1,0,0:0:0:0:
256,192,78461,1,8,0:0:0:0:
256,192,78591,1,8,0:0:0:0:
256,192,78852,1,8,0:0:0:0:
256,192,79113,1,8,0:0:0:0:
256,192,79243,1,8,0:0:0:0:
256,192,79374,1,8,0:0:0:0:
256,192,79635,1,0,0:0:0:0:
256,192,79765,1,8,0:0:0:0:
256,192,79896,1,0,0:0:0:0:
256,192,80156,1,8,0:0:0:0:
256,192,80417,1,0,0:0:0:0:
256,192,80548,1,8,0:0:0:0:
256,192,80678,1,0,0:0:0:0:
256,192,80809,1,0,0:0:0:0:
256,192,80939,1,8,0:0:0:0:
256,192,81200,1,8,0:0:0:0:
256,192,81461,1,8,0:0:0:0:
256,192,81722,1,0,0:0:0:0:
256,192,81852,1,8,0:0:0:0:
256,192,82113,1,0,0:0:0:0:
256,192,82243,1,8,0:0:0:0:
256,192,82309,1,8,0:0:0:0:
256,192,82374,1,0,0:0:0:0:
256,192,82504,1,0,0:0:0:0:
256,192,82635,1,8,0:0:0:0:
256,192,82700,1,8,0:0:0:0:
256,192,82765,1,8,0:0:0:0:
256,192,82896,1,0,0:0:0:0:
256,192,83026,1,8,0:0:0:0:
256,192,83091,1,8,0:0:0:0:
256,192,83156,1,0,0:0:0:0:
256,192,83287,1,8,0:0:0:0:
256,192,83548,1,4,0:0:0:0:
256,192,83809,1,4,0:0:0:0:
256,192,84069,1,8,0:0:0:0:
256,192,84330,1,4,0:0:0:0:
256,192,84722,1,4,0:0:0:0:
256,192,85113,1,8,0:0:0:0:
256,192,85374,1,4,0:0:0:0:
256,192,85635,1,4,0:0:0:0:
256,192,85896,1,4,0:0:0:0:
256,192,86156,1,8,0:0:0:0:
256,192,86417,1,4,0:0:0:0:
256,192,86809,1,4,0:0:0:0:
256,192,87200,1,8,0:0:0:0:
256,192,87461,1,4,0:0:0:0:
256,192,87722,1,4,0:0:0:0:
256,192,87983,1,4,0:0:0:0:
256,192,88243,1,8,0:0:0:0:
256,192,88504,1,4,0:0:0:0:
256,192,88896,1,4,0:0:0:0:
256,192,89287,1,8,0:0:0:0:
256,192,89548,1,4,0:0:0:0:
256,192,89809,1,4,0:0:0:0:
256,192,90069,1,4,0:0:0:0:
256,192,90330,1,8,0:0:0:0:
256,192,90591,1,4,0:0:0:0:
256,192,90983,1,4,0:0:0:0:
256,192,91374,1,8,0:0:0:0:
256,192,91635,1,4,0:0:0:0:
256,192,91896,1,8,0:0:0:0:
256,192,92026,8,0,100113,0:0:0:0:
256,192,100243,5,0,0:0:0:0:
256,192,100504,1,0,0:0:0:0:
256,192,100765,1,8,0:0:0:0:
256,192,101287,1,0,0:0:0:0:
256,192,101548,1,0,0:0:0:0:
256,192,101809,1,8,0:0:0:0:
256,192,102330,1,8,0:0:0:0:
256,192,102591,1,0,0:0:0:0:
256,192,102852,1,8,0:0:0:0:
256,192,103374,1,0,0:0:0:0:
256,192,103635,1,0,0:0:0:0:
256,192,103896,1,8,0:0:0:0:
256,192,104417,1,0,0:0:0:0:
256,192,104678,1,0,0:0:0:0:
256,192,104939,1,8,0:0:0:0:
256,192,105461,1,0,0:0:0:0:
256,192,105722,1,0,0:0:0:0:
256,192,105983,1,8,0:0:0:0:
256,192,106504,1,0,0:0:0:0:
256,192,106765,1,0,0:0:0:0:
256,192,107026,1,8,0:0:0:0:
256,192,107548,1,8,0:0:0:0:
256,192,107809,1,0,0:0:0:0:
256,192,108069,1,8,0:0:0:0:
256,192,108591,1,0,0:0:0:0:
256,192,108852,1,0,0:0:0:0:
256,192,109113,1,8,0:0:0:0:
256,192,109374,1,0,0:0:0:0:
256,192,109635,1,0,0:0:0:0:
256,192,109896,1,0,0:0:0:0:
256,192,110156,1,8,0:0:0:0:
256,192,110417,1,0,0:0:0:0:
256,192,110678,1,0,0:0:0:0:
256,192,110939,1,0,0:0:0:0:
256,192,111200,1,8,0:0:0:0:
256,192,111461,1,0,0:0:0:0:
256,192,111722,1,0,0:0:0:0:
256,192,111983,1,0,0:0:0:0:
256,192,112243,1,8,0:0:0:0:
256,192,112504,1,0,0:0:0:0:
256,192,112765,1,0,0:0:0:0:
256,192,113026,1,0,0:0:0:0:
256,192,113287,1,8,0:0:0:0:
256,192,113548,1,0,0:0:0:0:
256,192,113809,1,0,0:0:0:0:
256,192,114069,1,0,0:0:0:0:
256,192,114330,1,8,0:0:0:0:
256,192,114591,1,0,0:0:0:0:
256,192,114852,1,0,0:0:0:0:
256,192,115113,1,0,0:0:0:0:
256,192,115374,1,8,0:0:0:0:
256,192,115635,1,0,0:0:0:0:
256,192,115896,1,0,0:0:0:0:
256,192,116156,1,0,0:0:0:0:
256,192,116417,1,8,0:0:0:0:
256,192,116678,1,0,0:0:0:0:
256,192,116939,1,0,0:0:0:0:
256,192,117983,1,8,0:0:0:0:
256,192,119026,1,0,0:0:0:0:
256,192,119548,1,8,0:0:0:0:
256,192,120069,1,0,0:0:0:0:
256,192,120591,1,0,0:0:0:0:
256,192,121113,1,8,0:0:0:0:
256,192,122156,1,8,0:0:0:0:
256,192,123200,1,0,0:0:0:0:
256,192,123722,1,8,0:0:0:0:
256,192,124243,1,0,0:0:0:0:
256,192,124765,1,8,0:0:0:0:
256,192,125287,1,0,0:0:0:0:
256,192,126330,1,8,0:0:0:0:
256,192,127374,1,0,0:0:0:0:
256,192,127896,1,8,0:0:0:0:
256,192,128417,1,0,0:0:0:0:
256,192,128939,1,0,0:0:0:0:
256,192,129461,1,8,0:0:0:0:
256,192,130504,1,8,0:0:0:0:
256,192,131548,1,0,0:0:0:0:
256,192,132069,1,8,0:0:0:0:
256,192,132591,1,0,0:0:0:0:
256,192,133113,1,8,0:0:0:0:
256,192,133635,1,4,0:0:0:0:
256,192,135722,1,8,0:0:0:0:
256,192,136243,1,8,0:0:0:0:
256,192,136504,1,8,0:0:0:0:
256,192,136635,1,8,0:0:0:0:
256,192,136896,1,8,0:0:0:0:
256,192,137156,1,8,0:0:0:0:
256,192,137287,1,8,0:0:0:0:
256,192,137548,1,8,0:0:0:0:
256,192,137809,1,4,0:0:0:0:
256,192,138069,1,8,0:0:0:0:
256,192,138330,1,8,0:0:0:0:
256,192,138591,1,8,0:0:0:0:
256,192,138722,1,8,0:0:0:0:
256,192,138983,1,8,0:0:0:0:
256,192,139243,1,8,0:0:0:0:
256,192,139374,1,8,0:0:0:0:
256,192,139635,1,8,0:0:0:0:
256,192,139896,1,8,0:0:0:0:
256,192,140156,1,8,0:0:0:0:
256,192,140287,1,8,0:0:0:0:
256,192,140417,1,8,0:0:0:0:
256,192,140678,1,8,0:0:0:0:
256,192,140809,1,8,0:0:0:0:
256,192,141069,1,8,0:0:0:0:
256,192,141330,1,8,0:0:0:0:
256,192,141461,1,8,0:0:0:0:
256,192,141722,1,8,0:0:0:0:
256,192,141983,1,4,0:0:0:0:
256,192,142243,1,8,0:0:0:0:
256,192,142504,1,0,0:0:0:0:
256,192,142765,1,0,0:0:0:0:
256,192,142896,1,8,0:0:0:0:
256,192,143156,1,8,0:0:0:0:
256,192,143417,1,8,0:0:0:0:
256,192,143548,1,0,0:0:0:0:
256,192,143809,1,8,0:0:0:0:
256,192,144069,1,4,0:0:0:0:
256,192,144330,1,8,0:0:0:0:
256,192,144591,1,0,0:0:0:0:
256,192,144852,1,0,0:0:0:0:
256,192,144983,1,8,0:0:0:0:
256,192,145243,1,8,0:0:0:0:
256,192,145504,1,8,0:0:0:0:
256,192,145635,1,0,0:0:0:0:
256,192,145765,1,0,0:0:0:0:
256,192,145896,1,8,0:0:0:0:
256,192,146156,1,4,0:0:0:0:
256,192,146417,1,8,0:0:0:0:
256,192,146678,1,4,0:0:0:0:
256,192,146939,1,0,0:0:0:0:
256,192,147069,1,8,0:0:0:0:
256,192,147200,1,4,0:0:0:0:
256,192,147330,1,8,0:0:0:0:
256,192,147591,1,8,0:0:0:0:
256,192,147722,1,4,0:0:0:0:
256,192,147983,1,8,0:0:0:0:
256,192,148243,1,4,0:0:0:0:
256,192,149287,1,0,0:0:0:0:
256,192,149417,1,8,0:0:0:0:
256,192,149548,1,0,0:0:0:0:
256,192,149678,1,0,0:0:0:0:
256,192,149809,1,8,0:0:0:0:
256,192,149939,1,8,0:0:0:0:
256,192,150069,1,0,0:0:0:0:
256,192,150135,1,0,0:0:0:0:
256,192,150200,1,0,0:0:0:0:
256,192,150330,1,12,0:0:0:0:
256,192,150591,1,0,0:0:0:0:
256,192,150656,1,0,0:0:0:0:
256,192,150722,1,0,0:0:0:0:
256,192,150852,1,8,0:0:0:0:
256,192,151113,1,0,0:0:0:0:
256,192,151243,1,8,0:0:0:0:
256,192,151504,1,8,0:0:0:0:
256,192,151765,1,8,0:0:0:0:
256,192,151896,1,0,0:0:0:0:
256,192,152026,1,0,0:0:0:0:
256,192,152156,1,8,0:0:0:0:
256,192,152417,1,0,0:0:0:0:
256,192,152678,1,8,0:0:0:0:
256,192,152809,1,0,0:0:0:0:
256,192,152939,1,8,0:0:0:0:
256,192,153200,1,8,0:0:0:0:
256,192,153330,1,0,0:0:0:0:
256,192,153591,1,8,0:0:0:0:
256,192,153852,1,8,0:0:0:0:
256,192,153983,1,0,0:0:0:0:
256,192,154113,1,0,0:0:0:0:
256,192,154243,1,8,0:0:0:0:
256,192,154374,1,8,0:0:0:0:
256,192,154504,1,8,0:0:0:0:
256,192,154765,1,0,0:0:0:0:
256,192,154830,1,0,0:0:0:0:
256,192,154896,1,0,0:0:0:0:
256,192,155026,1,8,0:0:0:0:
256,192,155287,1,0,0:0:0:0:
256,192,155417,1,8,0:0:0:0:
256,192,155678,1,8,0:0:0:0:
256,192,155939,1,8,0:0:0:0:
256,192,156069,1,0,0:0:0:0:
256,192,156200,1,0,0:0:0:0:
256,192,156330,1,8,0:0:0:0:
256,192,156591,1,0,0:0:0:0:
256,192,156852,1,8,0:0:0:0:
256,192,156983,1,0,0:0:0:0:
256,192,157113,1,8,0:0:0:0:
256,192,157374,1,0,0:0:0:0:
256,192,157504,1,8,0:0:0:0:
256,192,157635,1,0,0:0:0:0:
256,192,157765,1,8,0:0:0:0:
256,192,157830,1,8,0:0:0:0:
256,192,157896,1,8,0:0:0:0:
256,192,158026,1,8,0:0:0:0:
256,192,158156,1,0,0:0:0:0:
256,192,158417,1,8,0:0:0:0:
256,192,158548,1,0,0:0:0:0:
256,192,158678,1,12,0:0:0:0:
256,192,158939,1,0,0:0:0:0:
256,192,159004,1,0,0:0:0:0:
256,192,159069,1,0,0:0:0:0:
256,192,159200,1,8,0:0:0:0:
256,192,159330,1,0,0:0:0:0:
256,192,159461,1,8,0:0:0:0:
256,192,159591,1,8,0:0:0:0:
256,192,159722,1,0,0:0:0:0:
256,192,159852,1,8,0:0:0:0:
256,192,160113,1,8,0:0:0:0:
256,192,160243,1,0,0:0:0:0:
256,192,160309,1,0,0:0:0:0:
256,192,160374,1,0,0:0:0:0:
256,192,160504,1,8,0:0:0:0:
256,192,160635,1,0,0:0:0:0:
256,192,160765,1,0,0:0:0:0:
256,192,161026,1,8,0:0:0:0:
256,192,161156,1,0,0:0:0:0:
256,192,161287,1,8,0:0:0:0:
256,192,161548,1,8,0:0:0:0:
256,192,161678,1,8,0:0:0:0:
256,192,161809,1,0,0:0:0:0:
256,192,161939,1,8,0:0:0:0:
256,192,162069,1,0,0:0:0:0:
256,192,162200,1,8,0:0:0:0:
256,192,162330,1,0,0:0:0:0:
256,192,162396,1,0,0:0:0:0:
256,192,162461,1,0,0:0:0:0:
256,192,162591,1,8,0:0:0:0:
256,192,162722,1,8,0:0:0:0:
256,192,162852,1,8,0:0:0:0:
256,192,163113,1,0,0:0:0:0:
256,192,163178,1,0,0:0:0:0:
256,192,163243,1,0,0:0:0:0:
256,192,163374,1,8,0:0:0:0:
256,192,163504,1,0,0:0:0:0:
256,192,163635,1,8,0:0:0:0:
256,192,163765,1,8,0:0:0:0:
256,192,163896,1,0,0:0:0:0:
256,192,164026,1,8,0:0:0:0:
256,192,164287,1,8,0:0:0:0:
256,192,164417,1,0,0:0:0:0:
256,192,164483,1,0,0:0:0:0:
256,192,164548,1,0,0:0:0:0:
256,192,164678,1,8,0:0:0:0:
256,192,164809,1,0,0:0:0:0:
256,192,164939,1,12,0:0:0:0:
256,192,165200,1,8,0:0:0:0:
256,192,165330,1,0,0:0:0:0:
256,192,165461,1,8,0:0:0:0:
256,192,165526,1,8,0:0:0:0:
256,192,165591,1,8,0:0:0:0:
256,192,165722,1,0,0:0:0:0:
256,192,165852,1,8,0:0:0:0:
256,192,165983,1,0,0:0:0:0:
256,192,166113,1,8,0:0:0:0:
256,192,166178,1,8,0:0:0:0:
256,192,166243,1,8,0:0:0:0:
256,192,166374,1,8,0:0:0:0:
256,192,166504,1,0,0:0:0:0:
256,192,166765,1,8,0:0:0:0:
256,192,166896,1,0,0:0:0:0:
256,192,167026,1,12,0:0:0:0:
256,192,167287,1,0,0:0:0:0:
256,192,167352,1,0,0:0:0:0:
256,192,167417,1,0,0:0:0:0:
256,192,167548,1,8,0:0:0:0:
256,192,167678,1,0,0:0:0:0:
256,192,167809,1,8,0:0:0:0:
256,192,167939,1,8,0:0:0:0:
256,192,168069,1,0,0:0:0:0:
256,192,168200,1,8,0:0:0:0:
256,192,168330,1,0,0:0:0:0:
256,192,168461,1,8,0:0:0:0:
256,192,168591,1,0,0:0:0:0:
256,192,168656,1,0,0:0:0:0:
256,192,168722,1,0,0:0:0:0:
256,192,168852,1,8,0:0:0:0:
256,192,168983,1,0,0:0:0:0:
256,192,169113,1,0,0:0:0:0:
256,192,169374,1,8,0:0:0:0:
256,192,169504,1,0,0:0:0:0:
256,192,169635,1,8,0:0:0:0:
256,192,169765,1,0,0:0:0:0:
256,192,169896,1,8,0:0:0:0:
256,192,170026,1,8,0:0:0:0:
256,192,170156,1,0,0:0:0:0:
256,192,170287,1,8,0:0:0:0:
256,192,170352,1,8,0:0:0:0:
256,192,170417,1,8,0:0:0:0:
256,192,170548,1,0,0:0:0:0:
256,192,170678,1,8,0:0:0:0:
256,192,170809,1,0,0:0:0:0:
256,192,170939,1,8,0:0:0:0:
256,192,171069,1,8,0:0:0:0:
256,192,171200,1,8,0:0:0:0:
256,192,171461,1,0,0:0:0:0:
256,192,171526,1,0,0:0:0:0:
256,192,171591,1,0,0:0:0:0:
256,192,171722,1,8,0:0:0:0:
256,192,171852,1,0,0:0:0:0:
256,192,171983,1,8,0:0:0:0:
256,192,172113,1,8,0:0:0:0:
256,192,172243,1,0,0:0:0:0:
256,192,172374,1,8,0:0:0:0:
256,192,172504,1,0,0:0:0:0:
256,192,172635,1,8,0:0:0:0:
256,192,172765,1,0,0:0:0:0:
256,192,172830,1,0,0:0:0:0:
256,192,172896,1,0,0:0:0:0:
256,192,173026,1,8,0:0:0:0:
256,192,173156,1,0,0:0:0:0:
256,192,173287,1,0,0:0:0:0:
256,192,173548,1,8,0:0:0:0:
256,192,173678,1,0,0:0:0:0:
256,192,173809,1,8,0:0:0:0:
256,192,173939,1,0,0:0:0:0:
256,192,174069,1,8,0:0:0:0:
256,192,174200,1,8,0:0:0:0:
256,192,174330,1,0,0:0:0:0:
256,192,174461,1,8,0:0:0:0:
256,192,174526,1,8,0:0:0:0:
256,192,174591,1,8,0:0:0:0:
256,192,174722,1,8,0:0:0:0:
256,192,174852,1,0,0:0:0:0:
256,192,175113,1,8,0:0:0:0:
256,192,175243,1,0,0:0:0:0:
256,192,175374,1,12,0:0:0:0:
256,192,175765,1,4,0:0:0:0:
256,192,176156,1,4,0:0:0:0:
256,192,176548,1,4,0:0:0:0:
256,192,176939,1,4,0:0:0:0:
256,192,177200,1,8,0:0:0:0:
256,192,177330,1,0,0:0:0:0:
256,192,177461,1,12,0:0:0:0:
256,192,177852,1,4,0:0:0:0:
256,192,178243,1,4,0:0:0:0:
256,192,178635,1,4,0:0:0:0:
256,192,179026,1,4,0:0:0:0:
256,192,179287,1,8,0:0:0:0:
256,192,179417,1,0,0:0:0:0:
256,192,179548,1,12,0:0:0:0:
256,192,179678,1,0,0:0:0:0:
256,192,179743,1,0,0:0:0:0:
256,192,179809,1,0,0:0:0:0:
256,192,179939,1,8,0:0:0:0:
256,192,180069,1,0,0:0:0:0:
256,192,180200,1,0,0:0:0:0:
256,192,180330,1,0,0:0:0:0:
256,192,180461,1,12,0:0:0:0:
256,192,180722,1,8,0:0:0:0:
256,192,180852,1,8,0:0:0:0:
256,192,180983,1,0,0:0:0:0:
256,192,181113,1,0,0:0:0:0:
256,192,181243,1,0,0:0:0:0:
256,192,181374,1,8,0:0:0:0:
256,192,181635,1,12,0:0:0:0:
256,192,181765,1,0,0:0:0:0:
256,192,181830,1,0,0:0:0:0:
256,192,181896,1,0,0:0:0:0:
256,192,182026,1,0,0:0:0:0:
256,192,182156,1,12,0:0:0:0:
256,192,182287,1,0,0:0:0:0:
256,192,182417,1,0,0:0:0:0:
256,192,182548,1,0,0:0:0:0:
256,192,182613,1,0,0:0:0:0:
256,192,182678,1,12,0:0:0:0:
256,192,182809,1,0,0:0:0:0:
256,192,183069,1,8,0:0:0:0:
256,192,183200,1,8,0:0:0:0:
256,192,183330,1,0,0:0:0:0:
256,192,183461,1,8,0:0:0:0:
256,192,183591,1,0,0:0:0:0:
256,192,183722,1,12,0:0:0:0:
256,192,183983,1,8,0:0:0:0:
256,192,184048,1,8,0:0:0:0:
256,192,184113,1,0,0:0:0:0:
256,192,184243,1,8,0:0:0:0:
256,192,184635,1,8,0:0:0:0:
256,192,184765,1,0,0:0:0:0:
256,192,184896,1,8,0:0:0:0:
256,192,185026,1,8,0:0:0:0:
256,192,185156,1,0,0:0:0:0:
256,192,185287,1,8,0:0:0:0:
256,192,185417,1,0,0:0:0:0:
256,192,185548,1,8,0:0:0:0:
256,192,185613,1,0,0:0:0:0:
256,192,185678,1,8,0:0:0:0:
256,192,185743,1,0,0:0:0:0:
256,192,185809,1,8,0:0:0:0:
256,192,185939,1,0,0:0:0:0:
256,192,186069,1,8,0:0:0:0:
256,192,186330,1,8,0:0:0:0:
256,192,186461,1,0,0:0:0:0:
256,192,186722,1,0,0:0:0:0:
256,192,186983,1,8,0:0:0:0:
256,192,187113,1,8,0:0:0:0:
256,192,187243,1,0,0:0:0:0:
256,192,187374,1,8,0:0:0:0:
256,192,187504,1,0,0:0:0:0:
256,192,187635,1,8,0:0:0:0:
256,192,187700,1,8,0:0:0:0:
256,192,187765,1,8,0:0:0:0:
256,192,187830,1,8,0:0:0:0:
256,192,187896,1,0,0:0:0:0:
256,192,188156,1,8,0:0:0:0:
256,192,188222,1,8,0:0:0:0:
256,192,188287,1,0,0:0:0:0:
256,192,188352,1,0,0:0:0:0:
256,192,188417,1,8,0:0:0:0:
256,192,188548,1,0,0:0:0:0:
256,192,188678,1,8,0:0:0:0:
256,192,188809,1,0,0:0:0:0:
256,192,189069,1,8,0:0:0:0:
256,192,189200,1,0,0:0:0:0:
256,192,189330,1,8,0:0:0:0:
256,192,189396,1,0,0:0:0:0:
256,192,189461,1,8,0:0:0:0:
256,192,189591,1,0,0:0:0:0:
256,192,189722,1,8,0:0:0:0:
256,192,189787,1,8,0:0:0:0:
256,192,189852,1,0,0:0:0:0:
256,192,189917,1,0,0:0:0:0:
256,192,189983,1,8,0:0:0:0:
256,192,190243,1,8,0:0:0:0:
256,192,190374,1,0,0:0:0:0:
256,192,190439,1,0,0:0:0:0:
256,192,190504,1,8,0:0:0:0:
256,192,190635,1,8,0:0:0:0:
256,192,190896,1,0,0:0:0:0:
256,192,191156,1,8,0:0:0:0:
256,192,191287,1,8,0:0:0:0:
256,192,191417,1,0,0:0:0:0:
256,192,191548,1,8,0:0:0:0:
256,192,191678,1,0,0:0:0:0:
256,192,191809,1,8,0:0:0:0:
256,192,191874,1,8,0:0:0:0:
256,192,191939,1,8,0:0:0:0:
256,192,192004,1,8,0:0:0:0:
256,192,192069,1,0,0:0:0:0:
256,192,192330,1,8,0:0:0:0:
256,192,192396,1,8,0:0:0:0:
256,192,192461,1,0,0:0:0:0:
256,192,192591,1,8,0:0:0:0:
256,192,192852,1,0,0:0:0:0:
256,192,192917,1,0,0:0:0:0:
256,192,192983,1,8,0:0:0:0:
256,192,193113,1,0,0:0:0:0:
256,192,193243,1,8,0:0:0:0:
256,192,193374,1,8,0:0:0:0:
256,192,193504,1,0,0:0:0:0:
256,192,193635,1,8,0:0:0:0:
256,192,193765,1,0,0:0:0:0:
256,192,193896,1,8,0:0:0:0:
256,192,193961,1,0,0:0:0:0:
256,192,194026,1,8,0:0:0:0:
256,192,194091,1,0,0:0:0:0:
256,192,194156,1,8,0:0:0:0:
256,192,194287,1,0,0:0:0:0:
256,192,194417,1,8,0:0:0:0:
256,192,194678,1,8,0:0:0:0:
256,192,194809,1,0,0:0:0:0:
256,192,195069,1,0,0:0:0:0:
256,192,195330,1,8,0:0:0:0:
256,192,195461,1,8,0:0:0:0:
256,192,195591,1,0,0:0:0:0:
256,192,195722,1,8,0:0:0:0:
256,192,195852,1,0,0:0:0:0:
256,192,195983,1,8,0:0:0:0:
256,192,196048,1,8,0:0:0:0:
256,192,196113,1,8,0:0:0:0:
256,192,196178,1,8,0:0:0:0:
256,192,196243,1,0,0:0:0:0:
256,192,196504,1,8,0:0:0:0:
256,192,196569,1,8,0:0:0:0:
256,192,196635,1,0,0:0:0:0:
256,192,196700,1,0,0:0:0:0:
256,192,196765,1,8,0:0:0:0:
256,192,196896,1,0,0:0:0:0:
256,192,197026,1,8,0:0:0:0:
256,192,197156,1,0,0:0:0:0:
256,192,197417,1,8,0:0:0:0:
256,192,197548,1,0,0:0:0:0:
256,192,197678,1,8,0:0:0:0:
256,192,197743,1,0,0:0:0:0:
256,192,197809,1,8,0:0:0:0:
256,192,197939,1,0,0:0:0:0:
256,192,198069,1,8,0:0:0:0:
256,192,198135,1,8,0:0:0:0:
256,192,198200,1,0,0:0:0:0:
256,192,198265,1,0,0:0:0:0:
256,192,198330,1,8,0:0:0:0:
256,192,198461,1,0,0:0:0:0:
256,192,198591,1,8,0:0:0:0:
256,192,198722,1,0,0:0:0:0:
256,192,198787,1,0,0:0:0:0:
256,192,198852,1,8,0:0:0:0:
256,192,198983,1,8,0:0:0:0:
256,192,199243,1,0,0:0:0:0:
256,192,199504,1,8,0:0:0:0:
256,192,199635,1,8,0:0:0:0:
256,192,199765,1,0,0:0:0:0:
256,192,199896,1,8,0:0:0:0:
256,192,200026,1,0,0:0:0:0:
256,192,200156,1,8,0:0:0:0:
256,192,200222,1,8,0:0:0:0:
256,192,200287,1,8,0:0:0:0:
256,192,200352,1,8,0:0:0:0:
256,192,200417,1,0,0:0:0:0:
256,192,200678,1,8,0:0:0:0:
256,192,200939,1,0,0:0:0:0:
256,192,201200,1,8,0:0:0:0:
256,192,201330,1,8,0:0:0:0:
256,192,201591,1,8,0:0:0:0:
256,192,201852,1,8,0:0:0:0:
256,192,201983,1,8,0:0:0:0:
256,192,202243,1,8,0:0:0:0:
256,192,202504,1,0,0:0:0:0:
256,192,202765,1,8,0:0:0:0:
256,192,203026,1,0,0:0:0:0:
256,192,203287,1,0,0:0:0:0:
256,192,203417,1,0,0:0:0:0:
256,192,203678,1,0,0:0:0:0:
256,192,203939,1,0,0:0:0:0:
256,192,204069,1,0,0:0:0:0:
256,192,204330,1,0,0:0:0:0:
256,192,204591,1,0,0:0:0:0:
256,192,204852,1,8,0:0:0:0:
256,192,205113,1,0,0:0:0:0:
256,192,205374,1,8,0:0:0:0:
256,192,205504,1,8,0:0:0:0:
256,192,205765,1,8,0:0:0:0:
256,192,206026,1,8,0:0:0:0:
256,192,206156,1,8,0:0:0:0:
256,192,206417,1,8,0:0:0:0:
256,192,206678,1,0,0:0:0:0:
256,192,206939,1,8,0:0:0:0:
256,192,207200,1,0,0:0:0:0:
256,192,207461,1,0,0:0:0:0:
256,192,207591,1,8,0:0:0:0:
256,192,207852,1,8,0:0:0:0:
256,192,208113,1,8,0:0:0:0:
256,192,208243,1,0,0:0:0:0:
256,192,208504,1,8,0:0:0:0:
256,192,208765,1,4,0:0:0:0:
256,192,209026,1,8,0:0:0:0:
256,192,209287,1,8,0:0:0:0:
256,192,209548,1,8,0:0:0:0:
256,192,209809,1,8,0:0:0:0:
256,192,210069,1,8,0:0:0:0:
256,192,210330,1,8,0:0:0:0:
256,192,210591,1,8,0:0:0:0:
256,192,210852,1,8,0:0:0:0:
256,192,211113,1,8,0:0:0:0:
256,192,211374,1,8,0:0:0:0:
256,192,211635,1,8,0:0:0:0:
256,192,211896,1,8,0:0:0:0:
256,192,212156,1,8,0:0:0:0:
256,192,212417,1,8,0:0:0:0:
256,192,212678,1,8,0:0:0:0:
256,192,212939,1,0,0:0:0:0:
256,192,213200,1,8,0:0:0:0:
256,192,213461,1,8,0:0:0:0:
256,192,213722,1,8,0:0:0:0:
256,192,213983,1,0,0:0:0:0:
256,192,214243,1,8,0:0:0:0:
256,192,214504,1,8,0:0:0:0:
256,192,214765,1,8,0:0:0:0:
256,192,215026,1,0,0:0:0:0:
256,192,215287,1,8,0:0:0:0:
256,192,215548,1,8,0:0:0:0:
256,192,215809,1,8,0:0:0:0:
256,192,216069,1,0,0:0:0:0:
256,192,216200,1,0,0:0:0:0:
256,192,216265,1,0,0:0:0:0:
256,192,216330,1,0,0:0:0:0:
256,192,216461,1,8,0:0:0:0:
256,192,216591,1,0,0:0:0:0:
256,192,216722,1,8,0:0:0:0:
256,192,216852,1,0,0:0:0:0:
256,192,216983,1,8,0:0:0:0:
256,192,217048,1,8,0:0:0:0:
256,192,217113,1,0,0:0:0:0:
256,192,217243,1,8,0:0:0:0:
256,192,217374,1,0,0:0:0:0:
256,192,217635,1,0,0:0:0:0:
256,192,217765,1,8,0:0:0:0:
256,192,217896,1,0,0:0:0:0:
256,192,217961,1,0,0:0:0:0:
256,192,218026,1,0,0:0:0:0:
256,192,218156,1,12,0:0:0:0:
256,192,218417,1,0,0:0:0:0:
256,192,218678,1,8,0:0:0:0:
256,192,218939,1,0,0:0:0:0:
256,192,219069,1,8,0:0:0:0:
256,192,219330,1,8,0:0:0:0:
256,192,219591,1,8,0:0:0:0:
256,192,219722,1,0,0:0:0:0:
256,192,219983,1,8,0:0:0:0:
256,192,220504,1,0,0:0:0:0:
256,192,220765,1,8,0:0:0:0:
256,192,221026,1,0,0:0:0:0:
256,192,221156,1,8,0:0:0:0:
256,192,221417,1,0,0:0:0:0:
256,192,221678,1,8,0:0:0:0:
256,192,221809,1,0,0:0:0:0:
256,192,222069,1,8,0:0:0:0:
256,192,222330,1,8,0:0:0:0:
256,192,222591,1,0,0:0:0:0:
256,192,222852,1,8,0:0:0:0:
256,192,223113,1,0,0:0:0:0:
256,192,223243,1,8,0:0:0:0:
256,192,223504,1,8,0:0:0:0:
256,192,223765,1,8,0:0:0:0:
256,192,223896,1,0,0:0:0:0:
256,192,224156,1,8,0:0:0:0:
256,192,224678,1,0,0:0:0:0:
256,192,224939,1,8,0:0:0:0:
256,192,225200,1,0,0:0:0:0:
256,192,225330,1,8,0:0:0:0:
256,192,225591,1,8,0:0:0:0:
256,192,225852,1,8,0:0:0:0:
256,192,225983,1,8,0:0:0:0:
256,192,226243,1,8,0:0:0:0:
256,192,226504,1,4,0:0:0:0:
256,192,226896,1,4,0:0:0:0:
256,192,227287,1,4,0:0:0:0:
256,192,227678,1,4,0:0:0:0:
256,192,228069,1,4,0:0:0:0:
256,192,228330,1,12,0:0:0:0:
256,192,228591,1,4,0:0:0:0:
256,192,228983,1,4,0:0:0:0:
256,192,229374,1,4,0:0:0:0:
256,192,229765,1,4,0:0:0:0:
256,192,230156,1,4,0:0:0:0:
256,192,230287,1,8,0:0:0:0:
256,192,230417,1,4,0:0:0:0:
256,192,230548,1,8,0:0:0:0:
256,192,230678,1,4,0:0:0:0:
256,192,230939,1,8,0:0:0:0:
256,192,231069,1,4,0:0:0:0:
256,192,231461,1,4,0:0:0:0:
256,192,231722,1,8,0:0:0:0:
256,192,231852,1,4,0:0:0:0:
256,192,232113,1,8,0:0:0:0:
256,192,232243,1,4,0:0:0:0:
256,192,232504,1,8,0:0:0:0:
256,192,232765,1,4,0:0:0:0:
256,192,233809,1,0,0:0:0:0:
256,192,233939,1,8,0:0:0:0:
256,192,234069,1,0,0:0:0:0:
256,192,234200,1,0,0:0:0:0:
256,192,234330,1,8,0:0:0:0:
256,192,234461,1,8,0:0:0:0:
256,192,234591,1,0,0:0:0:0:
256,192,234656,1,0,0:0:0:0:
256,192,234722,1,0,0:0:0:0:
256,192,234852,1,12,0:0:0:0:
256,192,235113,1,0,0:0:0:0:
256,192,235178,1,0,0:0:0:0:
256,192,235243,1,0,0:0:0:0:
256,192,235374,1,8,0:0:0:0:
256,192,235504,1,0,0:0:0:0:
256,192,235635,1,8,0:0:0:0:
256,192,235765,1,8,0:0:0:0:
256,192,235896,1,0,0:0:0:0:
256,192,236026,1,8,0:0:0:0:
256,192,236156,1,0,0:0:0:0:
256,192,236287,1,8,0:0:0:0:
256,192,236417,1,0,0:0:0:0:
256,192,236483,1,0,0:0:0:0:
256,192,236548,1,0,0:0:0:0:
256,192,236678,1,8,0:0:0:0:
256,192,236809,1,0,0:0:0:0:
256,192,236939,1,0,0:0:0:0:
256,192,237200,1,8,0:0:0:0:
256,192,237330,1,0,0:0:0:0:
256,192,237461,1,8,0:0:0:0:
256,192,237526,1,8,0:0:0:0:
256,192,237591,1,8,0:0:0:0:
256,192,237722,1,8,0:0:0:0:
256,192,237852,1,8,0:0:0:0:
256,192,237983,1,0,0:0:0:0:
256,192,238113,1,8,0:0:0:0:
256,192,238243,1,0,0:0:0:0:
256,192,238374,1,8,0:0:0:0:
256,192,238504,1,0,0:0:0:0:
256,192,238569,1,0,0:0:0:0:
256,192,238635,1,0,0:0:0:0:
256,192,238765,1,8,0:0:0:0:
256,192,238896,1,8,0:0:0:0:
256,192,239026,1,8,0:0:0:0:
256,192,239287,1,0,0:0:0:0:
256,192,239352,1,0,0:0:0:0:
256,192,239417,1,0,0:0:0:0:
256,192,239548,1,8,0:0:0:0:
256,192,239678,1,0,0:0:0:0:
256,192,239809,1,8,0:0:0:0:
256,192,239939,1,8,0:0:0:0:
256,192,240069,1,0,0:0:0:0:
256,192,240200,1,8,0:0:0:0:
256,192,240330,1,0,0:0:0:0:
256,192,240461,1,8,0:0:0:0:
256,192,240591,1,0,0:0:0:0:
256,192,240656,1,0,0:0:0:0:
256,192,240722,1,0,0:0:0:0:
256,192,240852,1,8,0:0:0:0:
256,192,240983,1,0,0:0:0:0:
256,192,241113,1,0,0:0:0:0:
256,192,241374,1,8,0:0:0:0:
256,192,241504,1,0,0:0:0:0:
256,192,241635,1,8,0:0:0:0:
256,192,241765,1,0,0:0:0:0:
256,192,241896,1,8,0:0:0:0:
256,192,242026,1,8,0:0:0:0:
256,192,242156,1,0,0:0:0:0:
256,192,242287,1,8,0:0:0:0:
256,192,242352,1,8,0:0:0:0:
256,192,242417,1,8,0:0:0:0:
256,192,242548,1,8,0:0:0:0:
256,192,242678,1,0,0:0:0:0:
256,192,242939,1,8,0:0:0:0:
256,192,243069,1,0,0:0:0:0:
256,192,243200,1,12,0:0:0:0:
256,192,243461,1,0,0:0:0:0:
256,192,243526,1,0,0:0:0:0:
256,192,243591,1,0,0:0:0:0:
256,192,243722,1,8,0:0:0:0:
256,192,243852,1,0,0:0:0:0:
256,192,243983,1,8,0:0:0:0:
256,192,244113,1,8,0:0:0:0:
256,192,244243,1,0,0:0:0:0:
256,192,244374,1,8,0:0:0:0:
256,192,244504,1,0,0:0:0:0:
256,192,244635,1,8,0:0:0:0:
256,192,244765,1,0,0:0:0:0:
256,192,244830,1,0,0:0:0:0:
256,192,244896,1,0,0:0:0:0:
256,192,245026,1,8,0:0:0:0:
256,192,245156,1,0,0:0:0:0:
256,192,245287,1,12,0:0:0:0:
256,192,245548,1,8,0:0:0:0:
256,192,245678,1,0,0:0:0:0:
256,192,245809,1,8,0:0:0:0:
256,192,245939,1,0,0:0:0:0:
256,192,246069,1,8,0:0:0:0:
256,192,246200,1,8,0:0:0:0:
256,192,246330,1,0,0:0:0:0:
256,192,246461,1,8,0:0:0:0:
256,192,246526,1,8,0:0:0:0:
256,192,246591,1,8,0:0:0:0:
256,192,246722,1,8,0:0:0:0:
256,192,246852,1,0,0:0:0:0:
256,192,246917,1,0,0:0:0:0:
256,192,246983,1,0,0:0:0:0:
256,192,247113,1,8,0:0:0:0:
256,192,247243,1,8,0:0:0:0:
256,192,247374,1,12,0:0:0:0:
256,192,247635,1,0,0:0:0:0:
256,192,247700,1,0,0:0:0:0:
256,192,247765,1,0,0:0:0:0:
256,192,247896,1,8,0:0:0:0:
256,192,248026,1,0,0:0:0:0:
256,192,248156,1,0,0:0:0:0:
256,192,248287,1,12,0:0:0:0:
256,192,248417,1,0,0:0:0:0:
256,192,248548,1,8,0:0:0:0:
256,192,248678,1,0,0:0:0:0:
256,192,248809,1,8,0:0:0:0:
256,192,248939,1,0,0:0:0:0:
256,192,249004,1,0,0:0:0:0:
256,192,249069,1,0,0:0:0:0:
256,192,249200,1,8,0:0:0:0:
256,192,249330,1,0,0:0:0:0:
256,192,249461,1,12,0:0:0:0:
256,192,249722,1,0,0:0:0:0:
256,192,249983,1,12,0:0:0:0:
256,192,250243,1,8,0:0:0:0:
256,192,250374,1,0,0:0:0:0:
256,192,250504,1,12,0:0:0:0:
256,192,250635,1,8,0:0:0:0:
256,192,250700,1,8,0:0:0:0:
256,192,250765,1,8,0:0:0:0:
256,192,250896,1,8,0:0:0:0:
256,192,251026,1,0,0:0:0:0:
256,192,251287,1,8,0:0:0:0:
256,192,251417,1,0,0:0:0:0:
256,192,251548,1,12,0:0:0:0:
256,192,252069,1,8,0:0:0:0:
256,192,252461,1,0,0:0:0:0:
256,192,253113,1,8,0:0:0:0:
256,192,253635,1,0,0:0:0:0:
256,192,254156,1,8,0:0:0:0:
256,192,254548,1,0,0:0:0:0:
256,192,255200,1,8,0:0:0:0:
256,192,255722,1,0,0:0:0:0:
256,192,256243,1,8,0:0:0:0:
256,192,256635,1,0,0:0:0:0:
256,192,257287,1,8,0:0:0:0:
256,192,257809,1,0,0:0:0:0:
256,192,258330,1,8,0:0:0:0:
256,192,258722,1,0,0:0:0:0:
256,192,259374,1,8,0:0:0:0:
256,192,259635,1,0,0:0:0:0:
256,192,259700,1,0,0:0:0:0:
256,192,259765,1,0,0:0:0:0:
256,192,259896,1,12,0:0:0:0:
256,192,260287,1,4,0:0:0:0:
256,192,260678,1,4,0:0:0:0:
256,192,261069,1,4,0:0:0:0:
256,192,261461,1,4,0:0:0:0:
256,192,261722,1,8,0:0:0:0:
256,192,261852,1,0,0:0:0:0:
256,192,261983,1,12,0:0:0:0:
256,192,262374,1,4,0:0:0:0:
256,192,262765,1,4,0:0:0:0:
256,192,263156,1,4,0:0:0:0:
256,192,263548,1,4,0:0:0:0:
256,192,263678,1,8,0:0:0:0:
256,192,263809,1,0,0:0:0:0:
256,192,263939,1,0,0:0:0:0:
256,192,264069,1,12,0:0:0:0:
256,192,264200,1,0,0:0:0:0:
256,192,264265,1,0,0:0:0:0:
256,192,264330,1,0,0:0:0:0:
256,192,264461,1,0,0:0:0:0:
256,192,264591,1,8,0:0:0:0:
256,192,264722,1,0,0:0:0:0:
256,192,264852,1,0,0:0:0:0:
256,192,264983,1,12,0:0:0:0:
256,192,265243,1,0,0:0:0:0:
256,192,265374,1,8,0:0:0:0:
256,192,265504,1,8,0:0:0:0:
256,192,265635,1,0,0:0:0:0:
256,192,265765,1,0,0:0:0:0:
256,192,265896,1,8,0:0:0:0:
256,192,266156,1,12,0:0:0:0:
256,192,266287,1,0,0:0:0:0:
256,192,266352,1,0,0:0:0:0:
256,192,266417,1,0,0:0:0:0:
256,192,266548,1,0,0:0:0:0:
256,192,266678,1,12,0:0:0:0:
256,192,266809,1,0,0:0:0:0:
256,192,266939,1,8,0:0:0:0:
256,192,267069,1,0,0:0:0:0:
256,192,267135,1,0,0:0:0:0:
256,192,267200,1,12,0:0:0:0:
256,192,267330,1,0,0:0:0:0:
256,192,267591,1,0,0:0:0:0:
256,192,267722,1,8,0:0:0:0:
256,192,267852,1,0,0:0:0:0:
256,192,267983,1,0,0:0:0:0:
256,192,268048,1,0,0:0:0:0:
256,192,268113,1,0,0:0:0:0:
256,192,268243,1,12,0:0:0:0:
256,192,268504,1,0,0:0:0:0:
256,192,268765,1,0,0:0:0:0:
256,192,269026,1,0,0:0:0:0:
256,192,269287,1,0,0:0:0:0:
256,192,269548,1,0,0:0:0:0:
256,192,269809,1,0,0:0:0:0:
256,192,270069,1,0,0:0:0:0:
256,192,270330,1,0,0:0:0:0:
256,192,270591,1,0,0:0:0:0:
256,192,270852,1,0,0:0:0:0:
256,192,271113,1,0,0:0:0:0:
256,192,271374,1,0,0:0:0:0:
256,192,271635,1,0,0:0:0:0:
256,192,271896,1,0,0:0:0:0:
256,192,272156,1,8,0:0:0:0:
256,192,272222,1,0,0:0:0:0:
256,192,272287,1,8,0:0:0:0:
256,192,272352,1,0,0:0:0:0:
256,192,272417,1,8,0:0:0:0:
256,192,272678,1,0,0:0:0:0:
256,192,272809,1,8,0:0:0:0:
256,192,272939,1,0,0:0:0:0:
256,192,273200,1,8,0:0:0:0:
256,192,273461,1,0,0:0:0:0:
256,192,273591,1,8,0:0:0:0:
256,192,273722,1,0,0:0:0:0:
256,192,273983,1,8,0:0:0:0:
256,192,274113,1,0,0:0:0:0:
256,192,274178,1,0,0:0:0:0:
256,192,274243,1,0,0:0:0:0:
256,192,274374,1,8,0:0:0:0:
256,192,274504,1,0,0:0:0:0:
256,192,274765,1,0,0:0:0:0:
256,192,274896,1,8,0:0:0:0:
256,192,274961,1,8,0:0:0:0:
256,192,275026,1,0,0:0:0:0:
256,192,275156,1,8,0:0:0:0:
256,192,275287,1,0,0:0:0:0:
256,192,275417,1,0,0:0:0:0:
256,192,275548,1,8,0:0:0:0:
256,192,275678,1,8,0:0:0:0:
256,192,275743,1,8,0:0:0:0:
256,192,275809,1,8,0:0:0:0:
256,192,275939,1,0,0:0:0:0:
256,192,276069,1,8,0:0:0:0:
256,192,276330,1,0,0:0:0:0:
256,192,276591,1,8,0:0:0:0:
256,192,276852,1,0,0:0:0:0:
256,192,277113,1,0,0:0:0:0:
256,192,277374,1,0,0:0:0:0:
256,192,277635,1,0,0:0:0:0:
256,192,277896,1,0,0:0:0:0:
256,192,278156,1,0,0:0:0:0:
256,192,278417,1,0,0:0:0:0:
256,192,278678,1,0,0:0:0:0:
256,192,278939,1,0,0:0:0:0:
256,192,279200,1,0,0:0:0:0:
256,192,279461,1,0,0:0:0:0:
256,192,279722,1,0,0:0:0:0:
256,192,279983,1,0,0:0:0:0:
256,192,280243,1,0,0:0:0:0:
256,192,280504,1,0,0:0:0:0:
256,192,280635,1,0,0:0:0:0:
256,192,280765,1,0,0:0:0:0:
256,192,281026,1,0,0:0:0:0:
256,192,281287,1,0,0:0:0:0:
256,192,281548,1,0,0:0:0:0:
256,192,281809,1,0,0:0:0:0:
256,192,282069,1,0,0:0:0:0:
256,192,282330,1,0,0:0:0:0:
256,192,282591,1,0,0:0:0:0:
256,192,282852,1,0,0:0:0:0:
256,192,283113,1,0,0:0:0:0:
256,192,283374,1,0,0:0:0:0:
256,192,283635,1,0,0:0:0:0:
256,192,283896,1,0,0:0:0:0:
256,192,284026,1,0,0:0:0:0:
256,192,284091,1,0,0:0:0:0:
256,192,284156,1,0,0:0:0:0:
256,192,284287,1,0,0:0:0:0:
256,192,284417,1,0,0:0:0:0:
256,192,284678,1,8,0:0:0:0:
256,192,284939,1,0,0:0:0:0:
