osu file format v14

[General]
AudioFilename: audio.mp3
AudioLeadIn: 0
PreviewTime: 94323
Countdown: 0
SampleSet: Normal
StackLeniency: 0.7
Mode: 1
LetterboxInBreaks: 0
WidescreenStoryboard: 1

[Editor]
Bookmarks: 41964,59419,94328,111782
DistanceSpacing: 0.7
BeatDivisor: 4
GridSize: 4
TimelineZoom: 3.999999

[Metadata]
Title:Hoshikuzu Struck
TitleUnicode:星屑ストラック
Artist:t+pazolite
ArtistUnicode:t+pazolite
Creator:Suzux
Version:Inner Oni
Source:太鼓の達人 グリーンVer.
Tags:バンダイナムコ bandai namco ナムコオリジナル namco original 太鼓の達人 tnt taiko no tatsujin green version Alwaysyukaz HiroK
BeatmapID:2163723
BeatmapSetID:1034899

[Difficulty]
HPDrainRate:4
CircleSize:5
OverallDifficulty:6.5
ApproachRate:5
SliderMultiplier:1.4
SliderTickRate:1

[Events]
//Background and Video events
0,0,"373654.jpg",0,0
//Break Periods
//Storyboard Layer 0 (Background)
//Storyboard Layer 1 (Fail)
//Storyboard Layer 2 (Pass)
//Storyboard Layer 3 (Foreground)
//Storyboard Layer 4 (Overlay)
//Storyboard Sound Samples

[TimingPoints]
504.933403391005,272.727272727273,4,1,0,100,1,0
2146,-100,4,1,0,90,0,0
41959,-100,4,1,0,100,0,1
48504,-100,4,1,0,90,0,0
50686,-100,4,1,0,100,0,1
59414,-100,4,1,0,90,0,0
76595,-133.333333333333,4,1,0,90,0,0
80959,-100,4,1,0,90,0,0
94323,-100,4,1,0,100,0,1
111777,-100,4,1,0,90,0,0

[HitObjects]
257,190,2141,5,8,0:0:0:0:
257,190,2277,1,0,0:0:0:0:
257,190,2414,1,8,0:0:0:0:
257,190,2482,1,8,0:0:0:0:
257,190,2550,1,8,0:0:0:0:
257,190,2686,1,0,0:0:0:0:
257,190,3232,1,0,0:0:0:0:
257,190,3368,1,8,0:0:0:0:
257,190,3641,1,8,0:0:0:0:
257,190,3777,1,0,0:0:0:0:
257,190,3914,1,0,0:0:0:0:
257,190,3982,1,0,0:0:0:0:
257,190,4050,1,8,0:0:0:0:
257,190,4186,1,0,0:0:0:0:
257,190,4323,1,8,0:0:0:0:
257,190,4391,1,0,0:0:0:0:
257,190,4459,1,0,0:0:0:0:
257,190,4527,1,0,0:0:0:0:
257,190,4595,1,8,0:0:0:0:
257,190,4732,1,8,0:0:0:0:
257,190,4868,1,0,0:0:0:0:
257,190,5277,1,8,0:0:0:0:
257,190,5686,1,0,0:0:0:0:
257,190,5823,1,8,0:0:0:0:
257,190,5868,1,8,0:0:0:0:
257,190,5914,1,8,0:0:0:0:
257,190,5959,1,0,0:0:0:0:
257,190,6232,1,8,0:0:0:0:
257,190,6368,1,0,0:0:0:0:
257,190,6641,1,8,0:0:0:0:
257,190,6914,1,8,0:0:0:0:
257,190,6982,1,8,0:0:0:0:
257,190,7050,1,0,0:0:0:0:
257,190,7595,1,8,0:0:0:0:
257,190,7732,1,0,0:0:0:0:
257,190,7800,1,0,0:0:0:0:
257,190,7868,1,8,0:0:0:0:
257,190,7936,1,0,0:0:0:0:
257,190,8004,1,8,0:0:0:0:
257,190,8141,1,0,0:0:0:0:
257,190,8277,1,0,0:0:0:0:
257,190,8345,1,0,0:0:0:0:
257,190,8414,1,8,0:0:0:0:
257,190,8550,1,0,0:0:0:0:
257,190,8686,1,8,0:0:0:0:
257,190,8754,1,0,0:0:0:0:
257,190,8823,1,8,0:0:0:0:
257,190,8959,1,8,0:0:0:0:
257,190,9095,1,0,0:0:0:0:
257,190,9164,1,8,0:0:0:0:
257,190,9232,1,8,0:0:0:0:
257,190,9300,1,8,0:0:0:0:
257,190,9368,1,0,0:0:0:0:
257,190,9504,1,0,0:0:0:0:
257,190,9641,1,8,0:0:0:0:
257,190,9914,1,0,0:0:0:0:
257,190,10050,1,8,0:0:0:0:
257,190,10323,1,0,0:0:0:0:
257,190,10459,1,0,0:0:0:0:
257,190,10868,1,8,0:0:0:0:
257,190,11141,1,8,0:0:0:0:
257,190,11414,1,0,0:0:0:0:
257,190,11686,1,8,0:0:0:0:
257,190,11823,1,0,0:0:0:0:
257,190,11959,1,0,0:0:0:0:
257,190,12095,1,0,0:0:0:0:
257,190,12164,1,0,0:0:0:0:
257,190,12232,1,8,0:0:0:0:
257,190,12368,1,0,0:0:0:0:
257,190,12504,1,8,0:0:0:0:
257,190,12641,1,8,0:0:0:0:
257,190,12777,1,0,0:0:0:0:
257,190,13050,1,8,0:0:0:0:
257,190,13323,1,8,0:0:0:0:
257,190,13595,1,0,0:0:0:0:
257,190,13641,1,0,0:0:0:0:
257,190,13686,1,0,0:0:0:0:
257,190,13732,1,8,0:0:0:0:
257,190,13868,1,0,0:0:0:0:
257,190,14004,1,8,0:0:0:0:
257,190,14141,1,8,0:0:0:0:
257,190,14209,1,8,0:0:0:0:
257,190,14277,1,0,0:0:0:0:
257,190,14414,1,8,0:0:0:0:
257,190,14686,1,4,0:0:0:0:
257,190,14891,1,4,0:0:0:0:
257,190,15095,1,4,0:0:0:0:
257,190,15436,1,8,0:0:0:0:
257,190,15504,1,8,0:0:0:0:
257,190,15573,1,8,0:0:0:0:
257,190,15777,1,0,0:0:0:0:
257,190,16050,1,8,0:0:0:0:
257,190,16186,1,0,0:0:0:0:
257,190,16254,1,0,0:0:0:0:
257,190,16323,1,8,0:0:0:0:
257,190,16459,1,0,0:0:0:0:
257,190,16595,1,8,0:0:0:0:
257,190,16732,1,8,0:0:0:0:
257,190,16868,1,0,0:0:0:0:
257,190,16936,1,0,0:0:0:0:
257,190,17004,1,8,0:0:0:0:
257,190,17073,1,8,0:0:0:0:
257,190,17141,1,0,0:0:0:0:
257,190,17277,1,0,0:0:0:0:
257,190,17414,1,8,0:0:0:0:
257,190,17686,1,0,0:0:0:0:
257,190,17959,1,0,0:0:0:0:
257,190,18004,1,0,0:0:0:0:
257,190,18050,1,0,0:0:0:0:
257,190,18095,1,8,0:0:0:0:
257,190,18232,1,0,0:0:0:0:
257,190,18368,1,8,0:0:0:0:
257,190,18777,1,8,0:0:0:0:
257,190,19186,1,0,0:0:0:0:
257,190,19595,1,0,0:0:0:0:
257,190,19732,1,8,0:0:0:0:
257,190,19868,1,8,0:0:0:0:
257,190,19936,1,0,0:0:0:0:
257,190,20004,1,8,0:0:0:0:
257,190,20141,1,0,0:0:0:0:
257,190,20277,1,0,0:0:0:0:
257,190,20414,1,8,0:0:0:0:
257,190,20550,1,0,0:0:0:0:
257,190,20686,1,0,0:0:0:0:
257,190,20823,1,8,0:0:0:0:
257,190,20959,1,0,0:0:0:0:
257,190,21095,1,8,0:0:0:0:
257,190,21232,1,0,0:0:0:0:
257,190,21368,1,0,0:0:0:0:
257,190,21436,1,0,0:0:0:0:
257,190,21504,1,8,0:0:0:0:
257,190,21641,1,0,0:0:0:0:
257,190,21777,1,8,0:0:0:0:
257,190,21914,1,0,0:0:0:0:
257,190,21982,1,8,0:0:0:0:
257,190,22050,1,8,0:0:0:0:
257,190,22118,1,0,0:0:0:0:
257,190,22186,1,8,0:0:0:0:
257,190,22323,1,8,0:0:0:0:
257,190,22391,1,0,0:0:0:0:
257,190,22459,1,8,0:0:0:0:
257,190,22527,1,8,0:0:0:0:
257,190,22595,1,0,0:0:0:0:
257,190,22732,1,0,0:0:0:0:
257,190,22868,1,8,0:0:0:0:
257,190,23004,1,8,0:0:0:0:
257,190,23141,1,0,0:0:0:0:
257,190,23277,1,0,0:0:0:0:
257,190,23414,1,8,0:0:0:0:
257,190,23504,1,0,0:0:0:0:
257,190,23595,1,0,0:0:0:0:
257,190,23686,1,8,0:0:0:0:
257,190,23777,1,0,0:0:0:0:
257,190,23868,1,8,0:0:0:0:
257,190,23959,1,0,0:0:0:0:
257,190,24050,1,8,0:0:0:0:
257,190,24141,1,8,0:0:0:0:
257,190,24232,1,0,0:0:0:0:
257,190,24277,1,8,0:0:0:0:
257,190,24323,1,8,0:0:0:0:
257,190,24368,1,0,0:0:0:0:
257,190,24504,1,0,0:0:0:0:
257,190,24777,1,8,0:0:0:0:
257,190,24914,1,0,0:0:0:0:
257,190,24982,1,0,0:0:0:0:
257,190,25050,1,0,0:0:0:0:
257,190,25186,1,0,0:0:0:0:
257,190,25323,1,8,0:0:0:0:
257,190,25732,1,8,0:0:0:0:
257,190,25868,1,0,0:0:0:0:
257,190,26141,1,0,0:0:0:0:
257,190,26277,1,8,0:0:0:0:
257,190,26323,1,8,0:0:0:0:
257,190,26368,1,8,0:0:0:0:
257,190,26414,1,0,0:0:0:0:
257,190,26686,1,0,0:0:0:0:
257,190,26823,1,0,0:0:0:0:
257,190,26868,1,0,0:0:0:0:
257,190,26914,1,0,0:0:0:0:
257,190,26959,1,8,0:0:0:0:
257,190,27232,1,0,0:0:0:0:
257,190,27504,1,8,0:0:0:0:
257,190,27641,1,0,0:0:0:0:
257,190,27914,1,0,0:0:0:0:
257,190,27982,1,0,0:0:0:0:
257,190,28050,1,8,0:0:0:0:
257,190,28186,1,0,0:0:0:0:
257,190,28323,1,0,0:0:0:0:
257,190,28414,1,0,0:0:0:0:
257,190,28504,1,0,0:0:0:0:
257,190,28595,1,8,0:0:0:0:
257,190,28686,1,8,0:0:0:0:
257,190,28777,1,8,0:0:0:0:
257,190,28868,1,0,0:0:0:0:
257,190,29141,1,8,0:0:0:0:
257,190,29278,1,0,0:0:0:0:
257,190,29346,1,0,0:0:0:0:
257,190,29414,1,0,0:0:0:0:
257,190,29550,1,0,0:0:0:0:
257,190,29687,1,8,0:0:0:0:
257,190,29823,1,0,0:0:0:0:
257,190,30096,1,8,0:0:0:0:
257,190,30232,1,8,0:0:0:0:
257,190,30505,1,0,0:0:0:0:
257,190,30641,1,8,0:0:0:0:
257,190,30687,1,8,0:0:0:0:
257,190,30732,1,8,0:0:0:0:
257,190,30778,1,0,0:0:0:0:
257,190,31050,1,0,0:0:0:0:
257,190,31323,1,0,0:0:0:0:
257,190,31459,1,8,0:0:0:0:
257,190,31595,1,0,0:0:0:0:
257,190,31732,1,0,0:0:0:0:
257,190,31868,1,8,0:0:0:0:
257,190,32004,1,0,0:0:0:0:
257,190,32141,1,0,0:0:0:0:
257,190,32277,1,8,0:0:0:0:
257,190,32414,1,0,0:0:0:0:
257,190,32482,1,8,0:0:0:0:
257,190,32550,1,8,0:0:0:0:
257,190,32618,1,8,0:0:0:0:
257,190,32686,1,0,0:0:0:0:
257,190,32823,1,8,0:0:0:0:
257,190,32891,1,0,0:0:0:0:
257,190,32959,1,8,0:0:0:0:
257,190,33232,1,0,0:0:0:0:
257,190,33505,1,8,0:0:0:0:
257,190,33642,1,0,0:0:0:0:
257,190,33710,1,0,0:0:0:0:
257,190,33778,1,0,0:0:0:0:
257,190,33914,1,0,0:0:0:0:
257,190,34051,1,8,0:0:0:0:
257,190,34186,1,0,0:0:0:0:
257,190,34460,1,8,0:0:0:0:
257,190,34596,1,0,0:0:0:0:
257,190,34869,1,0,0:0:0:0:
257,190,35005,1,8,0:0:0:0:
257,190,35051,1,8,0:0:0:0:
257,190,35096,1,8,0:0:0:0:
257,190,35142,1,0,0:0:0:0:
257,190,35414,1,0,0:0:0:0:
257,190,35551,1,0,0:0:0:0:
257,190,35596,1,0,0:0:0:0:
257,190,35642,1,0,0:0:0:0:
257,190,35687,1,8,0:0:0:0:
257,190,35960,1,0,0:0:0:0:
257,190,36232,1,8,0:0:0:0:
257,190,36369,1,0,0:0:0:0:
257,190,36642,1,0,0:0:0:0:
257,190,36710,1,0,0:0:0:0:
257,190,36778,1,8,0:0:0:0:
257,190,36914,1,0,0:0:0:0:
257,190,37051,1,0,0:0:0:0:
257,190,37142,1,0,0:0:0:0:
257,190,37232,1,0,0:0:0:0:
257,190,37323,1,8,0:0:0:0:
257,190,37414,1,8,0:0:0:0:
257,190,37505,1,8,0:0:0:0:
257,190,37596,1,0,0:0:0:0:
257,190,37868,1,8,0:0:0:0:
257,190,38005,1,0,0:0:0:0:
257,190,38073,1,0,0:0:0:0:
257,190,38141,1,0,0:0:0:0:
257,190,38277,1,0,0:0:0:0:
257,190,38414,1,8,0:0:0:0:
257,190,38549,1,0,0:0:0:0:
257,190,38686,1,0,0:0:0:0:
257,190,38823,1,0,0:0:0:0:
257,190,38959,1,0,0:0:0:0:
257,190,39095,1,0,0:0:0:0:
257,190,39232,1,8,0:0:0:0:
257,190,39368,1,0,0:0:0:0:
257,190,39436,1,0,0:0:0:0:
257,190,39504,1,8,0:0:0:0:
257,190,39641,1,0,0:0:0:0:
257,190,39777,1,0,0:0:0:0:
257,190,40050,1,8,0:0:0:0:
257,190,40118,1,8,0:0:0:0:
257,190,40186,1,8,0:0:0:0:
257,190,40323,1,8,0:0:0:0:
257,190,40459,1,8,0:0:0:0:
257,190,40527,1,8,0:0:0:0:
257,190,40595,1,8,0:0:0:0:
257,190,40732,1,8,0:0:0:0:
257,190,40868,1,0,0:0:0:0:
257,190,41004,1,8,0:0:0:0:
257,190,41141,1,8,0:0:0:0:
257,190,41209,1,8,0:0:0:0:
257,190,41277,1,8,0:0:0:0:
257,190,41414,1,0,0:0:0:0:
257,190,41686,1,8,0:0:0:0:
257,190,41959,1,4,0:0:0:0:
257,190,42164,1,8,0:0:0:0:
257,190,42232,1,0,0:0:0:0:
257,190,42300,1,0,0:0:0:0:
257,190,42368,1,8,0:0:0:0:
257,190,42504,1,0,0:0:0:0:
257,190,42641,1,0,0:0:0:0:
257,190,42709,1,8,0:0:0:0:
257,190,42777,1,0,0:0:0:0:
257,190,42914,1,8,0:0:0:0:
257,190,43050,1,0,0:0:0:0:
257,190,43118,1,8,0:0:0:0:
257,190,43186,1,0,0:0:0:0:
257,190,43254,1,8,0:0:0:0:
257,190,43323,1,0,0:0:0:0:
257,190,43459,1,8,0:0:0:0:
257,190,43527,1,8,0:0:0:0:
257,190,43595,1,0,0:0:0:0:
257,190,43664,1,0,0:0:0:0:
257,190,43732,1,0,0:0:0:0:
257,190,43800,1,8,0:0:0:0:
257,190,43868,1,8,0:0:0:0:
257,190,44004,1,8,0:0:0:0:
257,190,44141,1,0,0:0:0:0:
257,190,44209,1,8,0:0:0:0:
257,190,44277,1,8,0:0:0:0:
257,190,44345,1,0,0:0:0:0:
257,190,44413,1,8,0:0:0:0:
257,190,44550,1,0,0:0:0:0:
257,190,44687,1,8,0:0:0:0:
257,190,44755,1,8,0:0:0:0:
257,190,44823,1,0,0:0:0:0:
257,190,44959,1,8,0:0:0:0:
257,190,45095,1,0,0:0:0:0:
257,190,45163,1,8,0:0:0:0:
257,190,45231,1,0,0:0:0:0:
257,190,45299,1,8,0:0:0:0:
257,190,45368,1,0,0:0:0:0:
257,190,45504,1,8,0:0:0:0:
257,190,45572,1,8,0:0:0:0:
257,190,45640,1,0,0:0:0:0:
257,190,45709,1,8,0:0:0:0:
257,190,45777,1,0,0:0:0:0:
257,190,46050,1,8,0:0:0:0:
257,190,46323,1,0,0:0:0:0:
257,190,46391,1,8,0:0:0:0:
257,190,46459,1,0,0:0:0:0:
257,190,46527,1,0,0:0:0:0:
257,190,46595,1,8,0:0:0:0:
257,190,46732,1,0,0:0:0:0:
257,190,46868,1,8,0:0:0:0:
257,190,46936,1,8,0:0:0:0:
257,190,47004,1,0,0:0:0:0:
257,190,47073,1,8,0:0:0:0:
257,190,47141,1,0,0:0:0:0:
257,190,47277,1,8,0:0:0:0:
257,190,47414,1,8,0:0:0:0:
257,190,47482,1,0,0:0:0:0:
257,190,47550,1,8,0:0:0:0:
257,190,47618,1,0,0:0:0:0:
257,190,47686,1,8,0:0:0:0:
257,190,47823,1,8,0:0:0:0:
257,190,47891,1,8,0:0:0:0:
257,190,47959,1,0,0:0:0:0:
257,190,48027,1,8,0:0:0:0:
257,190,48095,1,0,0:0:0:0:
257,190,48164,1,8,0:0:0:0:
257,190,48232,1,0,0:0:0:0:
257,190,48368,1,0,0:0:0:0:
257,190,48504,1,8,0:0:0:0:
257,190,48573,1,0,0:0:0:0:
257,190,48641,1,0,0:0:0:0:
257,190,48709,1,8,0:0:0:0:
257,190,48845,1,0,0:0:0:0:
257,190,48914,1,8,0:0:0:0:
257,190,48982,1,8,0:0:0:0:
257,190,49050,1,0,0:0:0:0:
257,190,49186,1,0,0:0:0:0:
257,190,49323,1,8,0:0:0:0:
257,190,49459,1,0,0:0:0:0:
257,190,49595,1,8,0:0:0:0:
257,190,49732,1,0,0:0:0:0:
257,190,49868,1,0,0:0:0:0:
257,190,50004,1,8,0:0:0:0:
257,190,50141,1,0,0:0:0:0:
257,190,50414,1,8,0:0:0:0:
257,190,50459,1,8,0:0:0:0:
257,190,50504,1,8,0:0:0:0:
257,190,50550,1,0,0:0:0:0:
257,190,50686,1,4,0:0:0:0:
257,190,50891,1,8,0:0:0:0:
257,190,50959,1,0,0:0:0:0:
257,190,51027,1,0,0:0:0:0:
257,190,51095,1,8,0:0:0:0:
257,190,51231,1,0,0:0:0:0:
257,190,51368,1,0,0:0:0:0:
257,190,51436,1,8,0:0:0:0:
257,190,51504,1,0,0:0:0:0:
257,190,51641,1,8,0:0:0:0:
257,190,51777,1,0,0:0:0:0:
257,190,51845,1,8,0:0:0:0:
257,190,51913,1,0,0:0:0:0:
257,190,51981,1,8,0:0:0:0:
257,190,52050,1,0,0:0:0:0:
257,190,52186,1,8,0:0:0:0:
257,190,52254,1,8,0:0:0:0:
257,190,52322,1,0,0:0:0:0:
257,190,52391,1,0,0:0:0:0:
257,190,52459,1,0,0:0:0:0:
257,190,52527,1,8,0:0:0:0:
257,190,52595,1,8,0:0:0:0:
257,190,52731,1,8,0:0:0:0:
257,190,52868,1,0,0:0:0:0:
257,190,52936,1,8,0:0:0:0:
257,190,53004,1,0,0:0:0:0:
257,190,53072,1,0,0:0:0:0:
257,190,53140,1,8,0:0:0:0:
257,190,53276,1,0,0:0:0:0:
257,190,53413,1,8,0:0:0:0:
257,190,53481,1,8,0:0:0:0:
257,190,53549,1,0,0:0:0:0:
257,190,53686,1,8,0:0:0:0:
257,190,53822,1,0,0:0:0:0:
257,190,53890,1,8,0:0:0:0:
257,190,53958,1,0,0:0:0:0:
257,190,54026,1,8,0:0:0:0:
257,190,54095,1,0,0:0:0:0:
257,190,54231,1,8,0:0:0:0:
257,190,54299,1,8,0:0:0:0:
257,190,54367,1,0,0:0:0:0:
257,190,54436,1,0,0:0:0:0:
257,190,54777,1,8,0:0:0:0:
257,190,55050,1,0,0:0:0:0:
257,190,55118,1,8,0:0:0:0:
257,190,55186,1,0,0:0:0:0:
257,190,55254,1,0,0:0:0:0:
257,190,55322,1,8,0:0:0:0:
257,190,55459,1,0,0:0:0:0:
257,190,55595,1,8,0:0:0:0:
257,190,55663,1,8,0:0:0:0:
257,190,55731,1,0,0:0:0:0:
257,190,55800,1,8,0:0:0:0:
257,190,55868,1,0,0:0:0:0:
257,190,56004,1,8,0:0:0:0:
257,190,56141,1,8,0:0:0:0:
257,190,56209,1,0,0:0:0:0:
257,190,56277,1,8,0:0:0:0:
257,190,56345,1,0,0:0:0:0:
257,190,56413,1,8,0:0:0:0:
257,190,56550,1,8,0:0:0:0:
257,190,56618,1,8,0:0:0:0:
257,190,56686,1,0,0:0:0:0:
257,190,56754,1,8,0:0:0:0:
257,190,56822,1,8,0:0:0:0:
257,190,56891,1,8,0:0:0:0:
257,190,56959,1,0,0:0:0:0:
257,190,57095,1,0,0:0:0:0:
257,190,57164,1,0,0:0:0:0:
257,190,57231,1,8,0:0:0:0:
257,190,57300,1,8,0:0:0:0:
257,190,57368,1,0,0:0:0:0:
257,190,57436,1,0,0:0:0:0:
257,190,57504,1,8,0:0:0:0:
257,190,57573,1,8,0:0:0:0:
257,190,57641,1,0,0:0:0:0:
257,190,57709,1,0,0:0:0:0:
257,190,57777,1,8,0:0:0:0:
257,190,57845,1,8,0:0:0:0:
257,190,57913,1,0,0:0:0:0:
257,190,57982,1,0,0:0:0:0:
257,190,58050,1,8,0:0:0:0:
257,190,58118,1,8,0:0:0:0:
257,190,58186,1,0,0:0:0:0:
257,190,58254,1,0,0:0:0:0:
257,190,58323,1,8,0:0:0:0:
257,190,59414,5,0,0:0:0:0:
257,190,59687,1,8,0:0:0:0:
257,190,59823,1,0,0:0:0:0:
257,190,60096,1,0,0:0:0:0:
257,190,60232,1,8,0:0:0:0:
257,190,60504,1,0,0:0:0:0:
257,190,60777,1,8,0:0:0:0:
257,190,60914,1,0,0:0:0:0:
257,190,61186,1,0,0:0:0:0:
257,190,61323,1,8,0:0:0:0:
257,190,61595,1,0,0:0:0:0:
257,190,61868,1,8,0:0:0:0:
257,190,62004,1,0,0:0:0:0:
257,190,62277,1,0,0:0:0:0:
257,190,62414,1,8,0:0:0:0:
257,190,62686,1,0,0:0:0:0:
257,190,62959,1,8,0:0:0:0:
257,190,63095,1,0,0:0:0:0:
257,190,63232,1,8,0:0:0:0:
257,190,63368,1,8,0:0:0:0:
257,190,63777,1,0,0:0:0:0:
257,190,63914,1,0,0:0:0:0:
257,190,64050,1,0,0:0:0:0:
257,190,64186,1,0,0:0:0:0:
257,190,64254,1,0,0:0:0:0:
257,190,64323,1,8,0:0:0:0:
257,190,64459,1,0,0:0:0:0:
257,190,64595,1,0,0:0:0:0:
257,190,64732,1,0,0:0:0:0:
257,190,65004,1,0,0:0:0:0:
257,190,65073,1,0,0:0:0:0:
257,190,65141,1,0,0:0:0:0:
257,190,65277,1,0,0:0:0:0:
257,190,65414,1,8,0:0:0:0:
257,190,65550,1,0,0:0:0:0:
257,190,65595,1,0,0:0:0:0:
257,190,65641,1,0,0:0:0:0:
257,190,65686,1,0,0:0:0:0:
257,190,65823,1,0,0:0:0:0:
257,190,65959,1,8,0:0:0:0:
257,190,66095,1,0,0:0:0:0:
257,190,66232,1,8,0:0:0:0:
257,190,66368,1,0,0:0:0:0:
257,190,66504,1,0,0:0:0:0:
257,190,66573,1,0,0:0:0:0:
257,190,66641,1,8,0:0:0:0:
257,190,66709,1,0,0:0:0:0:
257,190,66777,1,8,0:0:0:0:
257,190,66914,1,0,0:0:0:0:
257,190,67050,1,8,0:0:0:0:
257,190,67118,1,8,0:0:0:0:
257,190,67186,1,8,0:0:0:0:
257,190,67254,1,8,0:0:0:0:
257,190,67323,1,0,0:0:0:0:
257,190,67391,1,0,0:0:0:0:
257,190,67459,1,0,0:0:0:0:
257,190,67527,1,0,0:0:0:0:
257,190,67595,1,8,0:0:0:0:
257,190,67641,1,8,0:0:0:0:
257,190,67686,1,8,0:0:0:0:
257,190,67732,1,0,0:0:0:0:
257,190,67868,1,0,0:0:0:0:
257,190,67914,1,8,0:0:0:0:
257,190,67959,1,8,0:0:0:0:
257,190,68004,1,8,0:0:0:0:
257,190,68141,1,0,0:0:0:0:
257,190,68414,1,8,0:0:0:0:
257,190,68550,1,0,0:0:0:0:
257,190,68686,1,0,0:0:0:0:
257,190,68823,1,8,0:0:0:0:
257,190,68959,1,0,0:0:0:0:
257,190,69232,1,8,0:0:0:0:
257,190,69368,1,8,0:0:0:0:
257,190,69504,1,0,0:0:0:0:
257,190,69641,1,0,0:0:0:0:
257,190,69777,1,8,0:0:0:0:
257,190,70050,1,8,0:0:0:0:
257,190,70323,1,8,0:0:0:0:
257,190,70459,1,0,0:0:0:0:
257,190,70595,1,0,0:0:0:0:
257,190,70732,1,0,0:0:0:0:
257,190,70868,1,8,0:0:0:0:
257,190,71004,1,0,0:0:0:0:
257,190,71141,1,8,0:0:0:0:
257,190,71277,1,0,0:0:0:0:
257,190,71414,1,8,0:0:0:0:
257,190,71550,1,8,0:0:0:0:
257,190,71686,1,0,0:0:0:0:
257,190,71823,1,0,0:0:0:0:
257,190,71959,1,8,0:0:0:0:
257,190,72232,1,8,0:0:0:0:
257,190,72504,1,8,0:0:0:0:
257,190,72573,1,0,0:0:0:0:
257,190,72641,1,0,0:0:0:0:
257,190,72709,1,0,0:0:0:0:
257,190,72777,1,8,0:0:0:0:
257,190,72914,1,0,0:0:0:0:
257,190,73050,1,8,0:0:0:0:
257,190,73118,1,8,0:0:0:0:
257,190,73186,1,0,0:0:0:0:
257,190,73254,1,0,0:0:0:0:
257,190,73323,1,8,0:0:0:0:
257,190,73459,1,0,0:0:0:0:
257,190,73595,1,8,0:0:0:0:
257,190,73664,1,8,0:0:0:0:
257,190,73732,1,0,0:0:0:0:
257,190,73800,1,8,0:0:0:0:
257,190,73868,1,8,0:0:0:0:
257,190,74004,1,8,0:0:0:0:
257,190,74141,1,8,0:0:0:0:
257,190,74209,1,8,0:0:0:0:
257,190,74277,1,0,0:0:0:0:
257,190,74345,1,8,0:0:0:0:
257,190,74414,1,8,0:0:0:0:
257,190,74550,1,0,0:0:0:0:
257,190,74686,1,0,0:0:0:0:
257,190,74754,1,8,0:0:0:0:
257,190,74823,1,8,0:0:0:0:
257,190,74891,1,8,0:0:0:0:
257,190,74959,1,8,0:0:0:0:
257,190,75027,1,8,0:0:0:0:
257,190,75095,1,8,0:0:0:0:
257,190,75164,1,8,0:0:0:0:
257,190,75232,1,8,0:0:0:0:
257,190,75300,1,8,0:0:0:0:
257,190,75368,1,8,0:0:0:0:
257,190,75436,1,8,0:0:0:0:
257,190,75504,1,8,0:0:0:0:
257,190,75573,1,8,0:0:0:0:
257,190,75641,1,8,0:0:0:0:
257,190,75777,1,8,0:0:0:0:
257,190,75845,1,0,0:0:0:0:
257,190,75914,1,0,0:0:0:0:
257,190,76050,1,8,0:0:0:0:
257,190,76186,1,0,0:0:0:0:
257,190,76323,1,8,0:0:0:0:
257,190,76595,1,8,0:0:0:0:
257,190,76732,1,8,0:0:0:0:
257,190,76868,1,0,0:0:0:0:
257,190,77414,1,8,0:0:0:0:
257,190,77959,1,0,0:0:0:0:
257,190,78504,1,8,0:0:0:0:
257,190,78777,1,8,0:0:0:0:
257,190,79050,1,0,0:0:0:0:
257,190,79323,1,8,0:0:0:0:
257,190,79459,1,0,0:0:0:0:
257,190,79732,1,8,0:0:0:0:
257,190,80004,1,0,0:0:0:0:
257,190,80959,5,12,0:0:0:0:
257,190,81232,1,0,0:0:0:0:
257,190,81504,1,8,0:0:0:0:
257,190,81641,1,0,0:0:0:0:
257,190,81914,1,0,0:0:0:0:
257,190,82050,1,8,0:0:0:0:
257,190,82323,1,0,0:0:0:0:
257,190,82595,1,8,0:0:0:0:
257,190,82732,1,0,0:0:0:0:
257,190,82868,1,8,0:0:0:0:
257,190,83141,1,8,0:0:0:0:
257,190,83209,1,8,0:0:0:0:
257,190,83277,1,8,0:0:0:0:
257,190,83414,1,0,0:0:0:0:
257,190,83550,1,0,0:0:0:0:
257,190,83686,1,8,0:0:0:0:
257,190,83754,1,8,0:0:0:0:
257,190,83823,1,0,0:0:0:0:
257,190,83959,1,0,0:0:0:0:
257,190,84095,1,8,0:0:0:0:
257,190,84232,1,8,0:0:0:0:
257,190,84368,1,0,0:0:0:0:
257,190,84504,1,8,0:0:0:0:
257,190,84573,1,8,0:0:0:0:
257,190,84641,1,0,0:0:0:0:
257,190,84709,1,0,0:0:0:0:
257,190,84777,1,8,0:0:0:0:
257,190,84914,1,0,0:0:0:0:
257,190,85050,1,8,0:0:0:0:
257,190,85118,1,0,0:0:0:0:
257,190,85186,1,0,0:0:0:0:
257,190,85323,1,8,0:0:0:0:
257,190,85459,1,8,0:0:0:0:
257,190,85595,1,0,0:0:0:0:
257,190,85867,1,8,0:0:0:0:
257,190,86004,1,0,0:0:0:0:
257,190,86277,1,0,0:0:0:0:
257,190,86413,1,8,0:0:0:0:
257,190,86686,1,0,0:0:0:0:
257,190,86958,1,8,0:0:0:0:
257,190,87095,1,0,0:0:0:0:
257,190,87231,1,8,0:0:0:0:
257,190,87504,1,8,0:0:0:0:
257,190,87572,1,8,0:0:0:0:
257,190,87640,1,8,0:0:0:0:
257,190,87777,1,0,0:0:0:0:
257,190,87913,1,0,0:0:0:0:
257,190,88049,1,8,0:0:0:0:
257,190,88117,1,8,0:0:0:0:
257,190,88186,1,0,0:0:0:0:
257,190,88322,1,0,0:0:0:0:
257,190,88458,1,8,0:0:0:0:
257,190,88595,1,8,0:0:0:0:
257,190,88731,1,0,0:0:0:0:
257,190,88867,1,8,0:0:0:0:
257,190,88936,1,8,0:0:0:0:
257,190,89004,1,0,0:0:0:0:
257,190,89072,1,0,0:0:0:0:
257,190,89140,1,8,0:0:0:0:
257,190,89277,1,0,0:0:0:0:
257,190,89413,1,8,0:0:0:0:
257,190,89481,1,0,0:0:0:0:
257,190,89549,1,0,0:0:0:0:
257,190,89686,1,8,0:0:0:0:
257,190,89822,1,8,0:0:0:0:
257,190,89958,1,0,0:0:0:0:
257,190,90095,1,0,0:0:0:0:
257,190,90232,1,0,0:0:0:0:
257,190,90368,1,0,0:0:0:0:
257,190,90504,1,0,0:0:0:0:
257,190,90641,1,0,0:0:0:0:
257,190,90777,1,0,0:0:0:0:
257,190,90914,1,0,0:0:0:0:
257,190,91050,1,0,0:0:0:0:
257,190,91186,1,0,0:0:0:0:
257,190,91323,1,0,0:0:0:0:
257,190,91391,1,0,0:0:0:0:
257,190,91459,1,0,0:0:0:0:
257,190,91527,1,0,0:0:0:0:
257,190,91595,1,0,0:0:0:0:
257,190,91664,1,0,0:0:0:0:
257,190,91732,1,0,0:0:0:0:
257,190,91800,1,0,0:0:0:0:
257,190,91868,1,8,0:0:0:0:
257,190,92141,5,4,0:0:0:0:
257,190,92414,1,8,0:0:0:0:
257,190,92550,1,12,0:0:0:0:
257,190,92823,1,4,0:0:0:0:
257,190,93095,1,0,0:0:0:0:
257,190,93232,1,0,0:0:0:0:
257,190,93300,1,8,0:0:0:0:
257,190,93368,1,8,0:0:0:0:
257,190,93436,1,8,0:0:0:0:
257,190,93504,1,0,0:0:0:0:
257,190,93573,1,8,0:0:0:0:
257,190,93641,1,0,0:0:0:0:
257,190,93777,1,0,0:0:0:0:
257,190,94050,5,8,0:0:0:0:
257,190,94323,5,4,0:0:0:0:
257,190,94459,1,8,0:0:0:0:
257,190,94527,1,8,0:0:0:0:
257,190,94595,1,0,0:0:0:0:
257,190,94732,1,8,0:0:0:0:
257,190,94868,1,0,0:0:0:0:
257,190,95004,1,8,0:0:0:0:
257,190,95073,1,8,0:0:0:0:
257,190,95141,1,0,0:0:0:0:
257,190,95277,1,8,0:0:0:0:
257,190,95414,1,0,0:0:0:0:
257,190,95482,1,8,0:0:0:0:
257,190,95550,1,8,0:0:0:0:
257,190,95618,1,0,0:0:0:0:
257,190,95686,1,8,0:0:0:0:
257,190,95754,1,8,0:0:0:0:
257,190,95823,1,0,0:0:0:0:
257,190,95891,1,8,0:0:0:0:
257,190,95959,1,8,0:0:0:0:
257,190,96027,1,0,0:0:0:0:
257,190,96095,1,8,0:0:0:0:
257,190,96164,1,8,0:0:0:0:
257,190,96232,1,0,0:0:0:0:
257,190,96368,1,8,0:0:0:0:
257,190,96504,1,0,0:0:0:0:
257,190,96573,1,0,0:0:0:0:
257,190,96641,1,8,0:0:0:0:
257,190,96777,1,0,0:0:0:0:
257,190,96914,1,8,0:0:0:0:
257,190,97050,1,0,0:0:0:0:
257,190,97118,1,8,0:0:0:0:
257,190,97186,1,8,0:0:0:0:
257,190,97323,1,0,0:0:0:0:
257,190,97459,1,8,0:0:0:0:
257,190,97595,1,0,0:0:0:0:
257,190,97664,1,8,0:0:0:0:
257,190,97732,1,8,0:0:0:0:
257,190,97800,1,8,0:0:0:0:
257,190,97868,1,0,0:0:0:0:
257,190,97936,1,8,0:0:0:0:
257,190,98004,1,0,0:0:0:0:
257,190,98073,1,8,0:0:0:0:
257,190,98141,1,0,0:0:0:0:
257,190,98209,1,8,0:0:0:0:
257,190,98277,1,8,0:0:0:0:
257,190,98345,1,8,0:0:0:0:
257,190,98414,1,0,0:0:0:0:
257,190,98550,1,8,0:0:0:0:
257,190,98686,1,0,0:0:0:0:
257,190,98754,1,8,0:0:0:0:
257,190,98822,1,8,0:0:0:0:
257,190,98958,1,0,0:0:0:0:
257,190,99095,1,8,0:0:0:0:
257,190,99231,1,0,0:0:0:0:
257,190,99367,1,8,0:0:0:0:
257,190,99436,1,8,0:0:0:0:
257,190,99504,1,0,0:0:0:0:
257,190,99640,1,8,0:0:0:0:
257,190,99777,1,0,0:0:0:0:
257,190,99845,1,8,0:0:0:0:
257,190,99913,1,8,0:0:0:0:
257,190,99981,1,0,0:0:0:0:
257,190,100049,1,8,0:0:0:0:
257,190,100117,1,8,0:0:0:0:
257,190,100186,1,0,0:0:0:0:
257,190,100254,1,8,0:0:0:0:
257,190,100322,1,8,0:0:0:0:
257,190,100390,1,0,0:0:0:0:
257,190,100458,1,8,0:0:0:0:
257,190,100527,1,8,0:0:0:0:
257,190,100595,1,0,0:0:0:0:
257,190,100732,1,8,0:0:0:0:
257,190,100868,1,0,0:0:0:0:
257,190,100936,1,8,0:0:0:0:
257,190,101004,1,8,0:0:0:0:
257,190,101073,1,8,0:0:0:0:
257,190,101141,1,0,0:0:0:0:
257,190,101209,1,8,0:0:0:0:
257,190,101277,1,0,0:0:0:0:
257,190,101345,1,8,0:0:0:0:
257,190,101414,1,0,0:0:0:0:
257,190,101482,1,8,0:0:0:0:
257,190,101550,1,8,0:0:0:0:
257,190,101618,1,8,0:0:0:0:
257,190,101686,1,0,0:0:0:0:
257,190,101823,1,8,0:0:0:0:
257,190,101959,1,0,0:0:0:0:
257,190,102095,1,8,0:0:0:0:
257,190,102164,1,0,0:0:0:0:
257,190,102232,1,0,0:0:0:0:
257,190,102368,1,8,0:0:0:0:
257,190,102504,1,0,0:0:0:0:
257,190,102641,1,8,0:0:0:0:
257,190,102709,1,8,0:0:0:0:
257,190,102777,1,0,0:0:0:0:
257,190,102914,1,8,0:0:0:0:
257,190,103050,5,4,0:0:0:0:
257,190,103186,1,8,0:0:0:0:
257,190,103254,1,8,0:0:0:0:
257,190,103322,1,0,0:0:0:0:
257,190,103391,1,8,0:0:0:0:
257,190,103459,1,8,0:0:0:0:
257,190,103595,1,0,0:0:0:0:
257,190,103664,1,8,0:0:0:0:
257,190,103732,1,8,0:0:0:0:
257,190,103800,1,0,0:0:0:0:
257,190,103868,1,8,0:0:0:0:
257,190,104004,1,8,0:0:0:0:
257,190,104141,1,0,0:0:0:0:
257,190,104209,1,8,0:0:0:0:
257,190,104277,1,8,0:0:0:0:
257,190,104345,1,0,0:0:0:0:
257,190,104413,1,8,0:0:0:0:
257,190,104481,1,8,0:0:0:0:
257,190,104550,1,0,0:0:0:0:
257,190,104618,1,8,0:0:0:0:
257,190,104686,1,8,0:0:0:0:
257,190,104754,1,0,0:0:0:0:
257,190,104822,1,8,0:0:0:0:
257,190,104891,1,8,0:0:0:0:
257,190,104959,1,0,0:0:0:0:
257,190,105095,1,8,0:0:0:0:
257,190,105231,1,0,0:0:0:0:
257,190,105300,1,0,0:0:0:0:
257,190,105368,1,8,0:0:0:0:
257,190,105436,1,8,0:0:0:0:
257,190,105504,1,0,0:0:0:0:
257,190,105641,1,8,0:0:0:0:
257,190,105777,1,0,0:0:0:0:
257,190,105845,1,8,0:0:0:0:
257,190,105913,1,8,0:0:0:0:
257,190,105982,1,8,0:0:0:0:
257,190,106050,1,0,0:0:0:0:
257,190,106186,1,8,0:0:0:0:
257,190,106322,1,0,0:0:0:0:
257,190,106391,1,8,0:0:0:0:
257,190,106459,1,8,0:0:0:0:
257,190,106527,1,8,0:0:0:0:
257,190,106595,1,0,0:0:0:0:
257,190,106663,1,8,0:0:0:0:
257,190,106731,1,0,0:0:0:0:
257,190,106800,1,8,0:0:0:0:
257,190,106868,1,0,0:0:0:0:
257,190,106936,1,8,0:0:0:0:
257,190,107004,1,8,0:0:0:0:
257,190,107072,1,8,0:0:0:0:
257,190,107141,1,0,0:0:0:0:
257,190,107277,1,8,0:0:0:0:
257,190,107413,1,0,0:0:0:0:
257,190,107482,1,0,0:0:0:0:
257,190,107549,1,8,0:0:0:0:
257,190,107618,1,0,0:0:0:0:
257,190,107685,1,0,0:0:0:0:
257,190,107822,1,8,0:0:0:0:
257,190,107958,1,0,0:0:0:0:
257,190,108027,1,0,0:0:0:0:
257,190,108094,1,8,0:0:0:0:
257,190,108163,1,0,0:0:0:0:
257,190,108231,1,8,0:0:0:0:
257,190,108367,1,0,0:0:0:0:
257,190,108504,1,0,0:0:0:0:
257,190,108573,1,8,0:0:0:0:
257,190,108641,1,8,0:0:0:0:
257,190,108709,1,0,0:0:0:0:
257,190,108777,1,8,0:0:0:0:
257,190,108845,1,8,0:0:0:0:
257,190,108914,1,0,0:0:0:0:
257,190,108982,1,8,0:0:0:0:
257,190,109050,1,0,0:0:0:0:
257,190,109186,1,8,0:0:0:0:
257,190,109323,1,0,0:0:0:0:
257,190,109459,1,8,0:0:0:0:
257,190,109595,1,4,0:0:0:0:
257,190,109868,1,8,0:0:0:0:
257,190,110004,1,12,0:0:0:0:
257,190,110277,1,12,0:0:0:0:
257,190,110550,1,4,0:0:0:0:
257,190,110686,1,0,0:0:0:0:
257,190,110822,1,8,0:0:0:0:
257,190,110891,1,0,0:0:0:0:
257,190,110959,1,0,0:0:0:0:
257,190,111027,1,0,0:0:0:0:
257,190,111095,1,8,0:0:0:0:
257,190,111231,1,0,0:0:0:0:
257,190,111368,1,8,0:0:0:0:
257,190,111436,1,8,0:0:0:0:
257,190,111504,1,0,0:0:0:0:
257,190,111573,1,8,0:0:0:0:
257,190,111641,1,8,0:0:0:0:
257,190,111777,1,0,0:0:0:0:
257,190,112050,1,8,0:0:0:0:
257,190,112186,1,0,0:0:0:0:
257,190,112254,1,0,0:0:0:0:
257,190,112323,1,0,0:0:0:0:
257,190,112459,1,0,0:0:0:0:
257,190,112595,1,8,0:0:0:0:
257,190,112732,1,0,0:0:0:0:
257,190,113141,1,8,0:0:0:0:
257,190,113414,1,0,0:0:0:0:
257,190,113550,1,0,0:0:0:0:
257,190,113686,1,8,0:0:0:0:
257,190,113959,1,0,0:0:0:0:
257,190,114027,1,0,0:0:0:0:
257,190,114095,1,8,0:0:0:0:
257,190,114141,1,0,0:0:0:0:
257,190,114186,1,0,0:0:0:0:
257,190,114232,1,8,0:0:0:0:
257,190,114504,1,8,0:0:0:0:
257,190,114777,1,8,0:0:0:0:
257,190,114914,1,0,0:0:0:0:
257,190,115186,1,8,0:0:0:0:
257,190,115323,1,8,0:0:0:0:
257,190,115595,1,0,0:0:0:0:
257,190,115686,1,0,0:0:0:0:
257,190,115777,1,0,0:0:0:0:
257,190,115868,1,8,0:0:0:0:
257,190,115959,1,8,0:0:0:0:
257,190,116050,1,8,0:0:0:0:
257,190,116141,1,0,0:0:0:0:
257,190,116414,1,8,0:0:0:0:
257,190,116550,1,0,0:0:0:0:
257,190,116618,1,0,0:0:0:0:
257,190,116686,1,8,0:0:0:0:
257,190,116732,1,8,0:0:0:0:
257,190,116777,1,8,0:0:0:0:
257,190,116823,1,0,0:0:0:0:
257,190,116959,1,8,0:0:0:0:
257,190,117095,1,0,0:0:0:0:
257,190,117504,1,8,0:0:0:0:
257,190,117777,1,0,0:0:0:0:
257,190,117913,1,0,0:0:0:0:
257,190,118049,1,8,0:0:0:0:
257,190,118322,1,0,0:0:0:0:
257,190,118390,1,0,0:0:0:0:
257,190,118458,1,8,0:0:0:0:
257,190,118504,1,0,0:0:0:0:
257,190,118549,1,0,0:0:0:0:
257,190,118595,1,8,0:0:0:0:
257,190,118868,1,8,0:0:0:0:
257,190,119141,1,8,0:0:0:0:
257,190,119278,1,0,0:0:0:0:
257,190,119550,1,0,0:0:0:0:
257,190,119618,1,0,0:0:0:0:
257,190,119686,1,0,0:0:0:0:
257,190,119754,1,0,0:0:0:0:
257,190,119823,1,0,0:0:0:0:
257,190,119891,1,0,0:0:0:0:
257,190,119959,1,8,0:0:0:0:
257,190,120095,1,0,0:0:0:0:
257,190,120232,1,8,0:0:0:0:
257,190,120300,1,8,0:0:0:0:
257,190,120368,1,0,0:0:0:0:
257,190,120504,1,4,0:0:0:0:
257,190,121050,1,8,0:0:0:0:
257,190,121186,1,0,0:0:0:0:
257,190,121323,1,0,0:0:0:0:
257,190,121459,1,8,0:0:0:0:
257,190,121595,1,0,0:0:0:0:
257,190,121732,1,0,0:0:0:0:
257,190,121868,1,8,0:0:0:0:
257,190,121936,1,0,0:0:0:0:
257,190,122004,1,8,0:0:0:0:
257,190,122073,1,8,0:0:0:0:
257,190,122141,1,0,0:0:0:0:
257,190,122277,1,0,0:0:0:0:
257,190,122414,1,8,0:0:0:0:
257,190,122686,1,0,0:0:0:0:
