osu file format v14

[General]
AudioFilename: audio.mp3
AudioLeadIn: 0
PreviewTime: 94323
Countdown: 0
SampleSet: Normal
StackLeniency: 0.7
Mode: 1
LetterboxInBreaks: 0
WidescreenStoryboard: 1

[Editor]
Bookmarks: 24504,39777,111777,120504
DistanceSpacing: 0.7
BeatDivisor: 4
GridSize: 16
TimelineZoom: 2.000001

[Metadata]
Title:Hoshikuzu Struck
TitleUnicode:星屑ストラック
Artist:t+pazolite
ArtistUnicode:t+pazolite
Creator:Suzux
Version:Futsuu
Source:太鼓の達人 グリーンVer.
Tags:バンダイナムコ bandai namco ナムコオリジナル namco original 太鼓の達人 tnt taiko no tatsujin green version Alwaysyukaz HiroK
BeatmapID:2184743
BeatmapSetID:1034899

[Difficulty]
HPDrainRate:4
CircleSize:5
OverallDifficulty:3.5
ApproachRate:5
SliderMultiplier:1.4
SliderTickRate:1

[Events]
//Background and Video events
0,0,"373654.jpg",0,0
//Break Periods
//Storyboard Layer 0 (Background)
//Storyboard Layer 1 (Fail)
//Storyboard Layer 2 (Pass)
//Storyboard Layer 3 (Foreground)
//Storyboard Layer 4 (Overlay)
//Storyboard Sound Samples

[TimingPoints]
504.933403391005,272.727272727273,4,1,0,100,1,0
2146,-100,4,1,0,90,0,0
41959,-100,4,1,0,100,0,1
48504,-100,4,1,0,90,0,0
50686,-100,4,1,0,100,0,1
59414,-100,4,1,0,90,0,0
94323,-100,4,1,0,100,0,1
111777,-100,4,1,0,90,0,0

[HitObjects]
257,190,2686,5,0,0:0:0:0:
257,190,3232,1,0,0:0:0:0:
257,190,3368,1,0,0:0:0:0:
257,190,3641,1,8,0:0:0:0:
257,190,4050,1,8,0:0:0:0:
257,190,4323,1,0,0:0:0:0:
257,190,4595,1,0,0:0:0:0:
257,190,4868,1,0,0:0:0:0:
257,190,5277,1,8,0:0:0:0:
257,190,5686,1,0,0:0:0:0:
257,190,6641,1,0,0:0:0:0:
257,190,7050,1,0,0:0:0:0:
257,190,7595,1,0,0:0:0:0:
257,190,7732,1,0,0:0:0:0:
257,190,8004,1,8,0:0:0:0:
257,190,8414,1,8,0:0:0:0:
257,190,8686,1,0,0:0:0:0:
257,190,8959,1,0,0:0:0:0:
257,190,9232,1,0,0:0:0:0:
257,190,9504,1,8,0:0:0:0:
257,190,9641,1,0,0:0:0:0:
257,190,9914,1,0,0:0:0:0:
257,190,10050,1,8,0:0:0:0:
257,190,10323,1,0,0:0:0:0:
257,190,10868,1,8,0:0:0:0:
257,190,11141,1,8,0:0:0:0:
257,190,11414,1,0,0:0:0:0:
257,190,11959,1,0,0:0:0:0:
257,190,12095,1,0,0:0:0:0:
257,190,12368,1,8,0:0:0:0:
257,190,12777,1,0,0:0:0:0:
257,190,13050,1,0,0:0:0:0:
257,190,13323,1,8,0:0:0:0:
257,190,14004,1,8,0:0:0:0:
257,190,14414,1,0,0:0:0:0:
257,190,14686,1,4,0:0:0:0:
257,190,15095,1,4,0:0:0:0:
257,190,15777,1,4,0:0:0:0:
257,190,16323,1,0,0:0:0:0:
257,190,16459,1,0,0:0:0:0:
257,190,16732,1,8,0:0:0:0:
257,190,17141,1,8,0:0:0:0:
257,190,17414,1,0,0:0:0:0:
257,190,17687,1,0,0:0:0:0:
257,190,18368,1,8,0:0:0:0:
257,190,18641,1,8,0:0:0:0:
256,192,19050,1,4,0:0:0:0:
240,192,19459,1,4,0:0:0:0:
257,190,20141,1,0,0:0:0:0:
257,190,20414,1,8,0:0:0:0:
257,190,20823,1,8,0:0:0:0:
257,190,21232,1,0,0:0:0:0:
257,190,21504,1,8,0:0:0:0:
257,190,21914,1,8,0:0:0:0:
257,190,22323,1,0,0:0:0:0:
257,190,22595,1,8,0:0:0:0:
257,190,23004,1,8,0:0:0:0:
257,190,23414,1,0,0:0:0:0:
257,190,24504,1,4,0:0:0:0:
257,190,24777,1,8,0:0:0:0:
257,190,24914,1,8,0:0:0:0:
257,190,25050,1,0,0:0:0:0:
257,190,25323,1,8,0:0:0:0:
257,190,25459,1,0,0:0:0:0:
257,190,25732,1,8,0:0:0:0:
257,190,26141,1,0,0:0:0:0:
257,190,26686,1,0,0:0:0:0:
257,190,26959,1,8,0:0:0:0:
257,190,27232,1,0,0:0:0:0:
257,190,27504,1,8,0:0:0:0:
257,190,27641,1,0,0:0:0:0:
257,190,27914,1,0,0:0:0:0:
257,190,28186,1,8,0:0:0:0:
257,190,28868,1,4,0:0:0:0:
257,190,29141,1,8,0:0:0:0:
257,190,29278,1,8,0:0:0:0:
257,190,29414,1,0,0:0:0:0:
257,190,29687,1,8,0:0:0:0:
257,190,29823,1,0,0:0:0:0:
257,190,30096,1,0,0:0:0:0:
257,190,30505,1,0,0:0:0:0:
257,190,31050,1,4,0:0:0:0:
257,190,31323,1,0,0:0:0:0:
257,190,31459,1,8,0:0:0:0:
257,190,31868,1,8,0:0:0:0:
257,190,32277,1,0,0:0:0:0:
257,190,32686,1,0,0:0:0:0:
257,190,32959,1,8,0:0:0:0:
257,190,33232,1,4,0:0:0:0:
257,190,33505,1,8,0:0:0:0:
257,190,33642,1,8,0:0:0:0:
257,190,33778,1,0,0:0:0:0:
257,190,34051,1,8,0:0:0:0:
257,190,34187,1,0,0:0:0:0:
257,190,34460,1,8,0:0:0:0:
257,190,34869,1,0,0:0:0:0:
257,190,35414,1,0,0:0:0:0:
257,190,35687,1,8,0:0:0:0:
257,190,35960,1,0,0:0:0:0:
257,190,36232,1,8,0:0:0:0:
257,190,36369,1,0,0:0:0:0:
257,190,36642,1,0,0:0:0:0:
257,190,36914,1,8,0:0:0:0:
257,190,37595,1,4,0:0:0:0:
257,190,37868,1,8,0:0:0:0:
257,190,38005,1,0,0:0:0:0:
257,190,38141,1,8,0:0:0:0:
257,190,38414,1,8,0:0:0:0:
257,190,38686,1,0,0:0:0:0:
257,190,38823,1,0,0:0:0:0:
257,190,38959,1,0,0:0:0:0:
257,190,39232,1,8,0:0:0:0:
257,190,39777,1,0,0:0:0:0:
257,190,40050,1,8,0:0:0:0:
257,190,40186,1,0,0:0:0:0:
257,190,40323,1,0,0:0:0:0:
257,190,40595,1,0,0:0:0:0:
257,190,40868,1,0,0:0:0:0:
257,190,41141,1,8,0:0:0:0:
257,190,41414,1,0,0:0:0:0:
257,190,41959,1,4,0:0:0:0:
257,190,42232,1,8,0:0:0:0:
257,190,42504,1,0,0:0:0:0:
257,190,42641,1,0,0:0:0:0:
257,190,42777,1,0,0:0:0:0:
257,190,43050,1,0,0:0:0:0:
257,190,43186,1,8,0:0:0:0:
257,190,43459,1,8,0:0:0:0:
257,190,43595,1,0,0:0:0:0:
257,190,43868,1,8,0:0:0:0:
257,190,44141,1,0,0:0:0:0:
257,190,44413,1,0,0:0:0:0:
257,190,44686,1,8,0:0:0:0:
257,190,44822,1,8,0:0:0:0:
257,190,44959,1,0,0:0:0:0:
257,190,45231,1,0,0:0:0:0:
257,190,45367,1,8,0:0:0:0:
257,190,45641,1,8,0:0:0:0:
257,190,45777,1,0,0:0:0:0:
257,190,46323,1,4,0:0:0:0:
257,190,46596,1,8,0:0:0:0:
257,190,46868,1,0,0:0:0:0:
257,190,47005,1,0,0:0:0:0:
257,190,47141,1,0,0:0:0:0:
257,190,47414,1,0,0:0:0:0:
257,190,47550,1,8,0:0:0:0:
257,190,47823,1,8,0:0:0:0:
257,190,47959,1,0,0:0:0:0:
257,190,48232,1,0,0:0:0:0:
257,190,48504,1,8,0:0:0:0:
257,190,48777,1,8,0:0:0:0:
257,190,48914,1,8,0:0:0:0:
257,190,49050,1,8,0:0:0:0:
257,190,49323,1,8,0:0:0:0:
257,190,49595,1,0,0:0:0:0:
257,190,49732,1,0,0:0:0:0:
257,190,49868,1,0,0:0:0:0:
257,190,50141,1,8,0:0:0:0:
257,190,50686,1,4,0:0:0:0:
257,190,50959,1,8,0:0:0:0:
257,190,51231,1,0,0:0:0:0:
257,190,51368,1,0,0:0:0:0:
257,190,51504,1,0,0:0:0:0:
257,190,51777,1,0,0:0:0:0:
257,190,51913,1,8,0:0:0:0:
257,190,52186,1,8,0:0:0:0:
257,190,52322,1,0,0:0:0:0:
257,190,52595,1,8,0:0:0:0:
257,190,52868,1,0,0:0:0:0:
257,190,53140,1,0,0:0:0:0:
257,190,53413,1,8,0:0:0:0:
257,190,53549,1,8,0:0:0:0:
257,190,53686,1,0,0:0:0:0:
257,190,53958,1,0,0:0:0:0:
257,190,54094,1,8,0:0:0:0:
257,190,54368,1,8,0:0:0:0:
257,190,54504,1,0,0:0:0:0:
257,190,55050,5,4,0:0:0:0:
257,190,55323,1,0,0:0:0:0:
257,190,55595,1,0,0:0:0:0:
257,190,55732,1,0,0:0:0:0:
257,190,55868,1,0,0:0:0:0:
257,190,56141,1,0,0:0:0:0:
257,190,56277,1,8,0:0:0:0:
257,190,56550,1,8,0:0:0:0:
257,190,56686,1,0,0:0:0:0:
257,190,56959,1,8,0:0:0:0:
257,190,57231,1,0,0:0:0:0:
257,190,57504,1,8,0:0:0:0:
257,190,57777,1,0,0:0:0:0:
257,190,57914,1,8,0:0:0:0:
257,190,58050,1,8,0:0:0:0:
257,190,58186,1,8,0:0:0:0:
257,190,58323,1,0,0:0:0:0:
257,190,59414,5,0,0:0:0:0:
257,190,60232,1,0,0:0:0:0:
257,190,60504,1,0,0:0:0:0:
257,190,60777,1,0,0:0:0:0:
257,190,61186,1,0,0:0:0:0:
257,190,61595,1,0,0:0:0:0:
257,190,61868,1,0,0:0:0:0:
257,190,62414,1,0,0:0:0:0:
257,190,62686,1,0,0:0:0:0:
257,190,62959,1,0,0:0:0:0:
257,190,63368,1,0,0:0:0:0:
257,190,63777,1,0,0:0:0:0:
257,190,64050,1,8,0:0:0:0:
257,190,64323,1,8,0:0:0:0:
257,190,64459,1,0,0:0:0:0:
257,190,64732,1,8,0:0:0:0:
257,190,65141,1,0,0:0:0:0:
257,190,65414,1,8,0:0:0:0:
257,190,65959,1,0,0:0:0:0:
257,190,66232,1,8,0:0:0:0:
257,190,66504,1,0,0:0:0:0:
257,190,66641,1,8,0:0:0:0:
257,190,66777,1,8,0:0:0:0:
257,190,67050,1,8,0:0:0:0:
257,190,67186,1,8,0:0:0:0:
257,190,67459,1,0,0:0:0:0:
257,190,67595,1,8,0:0:0:0:
257,190,67868,1,8,0:0:0:0:
257,190,68141,1,4,0:0:0:0:
257,190,68686,1,0,0:0:0:0:
257,190,68959,1,0,0:0:0:0:
257,190,69232,1,8,0:0:0:0:
257,190,69504,1,0,0:0:0:0:
257,190,69641,1,0,0:0:0:0:
257,190,69777,1,8,0:0:0:0:
240,192,70050,1,0,0:0:0:0:
257,190,70323,1,8,0:0:0:0:
257,190,70595,1,8,0:0:0:0:
257,190,70868,1,8,0:0:0:0:
256,192,71004,1,0,0:0:0:0:
257,190,71277,1,0,0:0:0:0:
257,190,71414,1,8,0:0:0:0:
257,190,71686,1,0,0:0:0:0:
257,190,71823,1,0,0:0:0:0:
257,190,71959,1,8,0:0:0:0:
257,190,72504,1,0,0:0:0:0:
257,190,72777,1,8,0:0:0:0:
257,190,73050,1,0,0:0:0:0:
257,190,73186,1,8,0:0:0:0:
257,190,73323,1,8,0:0:0:0:
257,190,73595,1,0,0:0:0:0:
257,190,73868,1,8,0:0:0:0:
257,190,74141,1,0,0:0:0:0:
257,190,74277,1,8,0:0:0:0:
257,190,74414,1,8,0:0:0:0:
256,192,74686,12,0,75777,0:0:0:0:
257,190,76868,5,0,0:0:0:0:
257,190,77414,1,8,0:0:0:0:
257,190,77959,1,0,0:0:0:0:
257,190,78504,1,8,0:0:0:0:
257,190,78777,1,0,0:0:0:0:
257,190,79050,1,0,0:0:0:0:
257,190,79323,1,8,0:0:0:0:
257,190,79459,1,0,0:0:0:0:
257,190,79732,1,8,0:0:0:0:
257,190,80004,1,0,0:0:0:0:
256,192,80141,12,0,80686,0:0:0:0:
257,190,80959,5,12,0:0:0:0:
257,190,81232,1,0,0:0:0:0:
257,190,81504,1,8,0:0:0:0:
257,190,81641,1,0,0:0:0:0:
257,190,82050,1,8,0:0:0:0:
257,190,82323,1,0,0:0:0:0:
257,190,82595,1,8,0:0:0:0:
257,190,82732,1,0,0:0:0:0:
257,190,82868,1,8,0:0:0:0:
257,190,83414,1,8,0:0:0:0:
257,190,83686,1,0,0:0:0:0:
257,190,83823,1,0,0:0:0:0:
257,190,83959,1,8,0:0:0:0:
257,190,84095,1,0,0:0:0:0:
257,190,84368,1,8,0:0:0:0:
257,190,84641,1,0,0:0:0:0:
257,190,84777,1,8,0:0:0:0:
257,190,85050,1,8,0:0:0:0:
257,190,85595,1,0,0:0:0:0:
257,190,85867,1,8,0:0:0:0:
257,190,86004,1,0,0:0:0:0:
257,190,86413,1,8,0:0:0:0:
257,190,86686,1,0,0:0:0:0:
257,190,86958,1,0,0:0:0:0:
257,190,87095,1,0,0:0:0:0:
257,190,87231,1,8,0:0:0:0:
257,190,87504,1,8,0:0:0:0:
257,190,87777,1,8,0:0:0:0:
257,190,88049,1,0,0:0:0:0:
257,190,88186,1,0,0:0:0:0:
257,190,88322,1,8,0:0:0:0:
257,190,88458,5,0,0:0:0:0:
257,190,88731,1,8,0:0:0:0:
257,190,89004,1,0,0:0:0:0:
257,190,89140,1,8,0:0:0:0:
257,190,89413,1,8,0:0:0:0:
257,190,89959,1,0,0:0:0:0:
257,190,90232,1,0,0:0:0:0:
257,190,90504,1,0,0:0:0:0:
257,190,90641,1,8,0:0:0:0:
257,190,90777,1,8,0:0:0:0:
257,190,91050,1,0,0:0:0:0:
257,190,91323,1,8,0:0:0:0:
257,190,91595,1,0,0:0:0:0:
257,190,91732,1,0,0:0:0:0:
257,190,91868,1,12,0:0:0:0:
257,190,92141,5,4,0:0:0:0:
257,190,92414,1,12,0:0:0:0:
257,190,92550,1,12,0:0:0:0:
257,190,92823,1,4,0:0:0:0:
257,190,93095,1,4,0:0:0:0:
384,112,93232,2,0,L|463:114,8,35
257,190,94050,5,12,0:0:0:0:
257,190,94323,5,4,0:0:0:0:
257,190,94595,1,8,0:0:0:0:
257,190,94868,1,0,0:0:0:0:
257,190,95004,1,0,0:0:0:0:
256,192,95141,1,8,0:0:0:0:
257,190,95414,1,8,0:0:0:0:
257,190,95550,1,8,0:0:0:0:
257,190,95686,1,0,0:0:0:0:
257,190,95823,1,0,0:0:0:0:
257,190,95959,1,8,0:0:0:0:
257,190,96232,1,8,0:0:0:0:
257,190,96504,1,0,0:0:0:0:
257,190,96777,1,0,0:0:0:0:
257,190,96914,1,8,0:0:0:0:
257,190,97050,1,8,0:0:0:0:
257,190,97323,1,0,0:0:0:0:
257,190,97595,1,0,0:0:0:0:
257,190,97732,1,0,0:0:0:0:
257,190,97868,1,8,0:0:0:0:
257,190,98004,1,8,0:0:0:0:
257,190,98141,1,0,0:0:0:0:
257,190,98686,1,0,0:0:0:0:
257,190,98959,1,8,0:0:0:0:
257,190,99095,1,8,0:0:0:0:
257,190,99231,1,0,0:0:0:0:
257,190,99367,1,8,0:0:0:0:
257,190,99504,1,0,0:0:0:0:
257,190,99777,1,0,0:0:0:0:
257,190,99913,1,0,0:0:0:0:
257,190,100049,1,8,0:0:0:0:
257,190,100186,1,8,0:0:0:0:
257,190,100458,1,8,0:0:0:0:
257,190,100595,1,0,0:0:0:0:
257,190,100868,1,0,0:0:0:0:
257,190,101004,1,8,0:0:0:0:
257,190,101141,1,8,0:0:0:0:
257,190,101414,1,0,0:0:0:0:
257,190,101550,1,8,0:0:0:0:
257,190,101686,1,8,0:0:0:0:
257,190,101823,1,8,0:0:0:0:
240,192,101959,1,0,0:0:0:0:
257,190,102232,1,8,0:0:0:0:
257,190,102368,1,0,0:0:0:0:
256,192,102504,1,8,0:0:0:0:
257,190,103050,5,4,0:0:0:0:
257,190,103322,1,8,0:0:0:0:
257,190,103595,1,0,0:0:0:0:
257,190,103731,1,0,0:0:0:0:
256,192,103868,1,8,0:0:0:0:
257,190,104141,1,8,0:0:0:0:
257,190,104277,1,8,0:0:0:0:
257,190,104413,1,0,0:0:0:0:
257,190,104550,1,0,0:0:0:0:
257,190,104686,1,8,0:0:0:0:
257,190,104959,1,8,0:0:0:0:
257,190,105231,1,0,0:0:0:0:
257,190,105504,1,0,0:0:0:0:
257,190,105641,1,8,0:0:0:0:
257,190,105777,1,8,0:0:0:0:
257,190,106050,1,0,0:0:0:0:
257,190,106322,1,0,0:0:0:0:
257,190,106459,1,0,0:0:0:0:
257,190,106595,1,8,0:0:0:0:
257,190,106731,1,8,0:0:0:0:
257,190,106868,1,0,0:0:0:0:
257,190,107413,1,0,0:0:0:0:
257,190,107686,1,0,0:0:0:0:
257,190,107958,1,0,0:0:0:0:
257,190,108232,1,0,0:0:0:0:
257,190,108504,1,8,0:0:0:0:
257,190,108641,1,8,0:0:0:0:
257,190,108777,1,8,0:0:0:0:
257,190,109050,1,8,0:0:0:0:
257,190,109323,1,0,0:0:0:0:
257,190,109595,1,4,0:0:0:0:
257,190,109868,1,12,0:0:0:0:
257,190,110004,1,12,0:0:0:0:
257,190,110277,5,12,0:0:0:0:
257,190,110550,1,4,0:0:0:0:
257,190,111231,1,8,0:0:0:0:
257,190,111504,1,0,0:0:0:0:
257,190,111777,1,4,0:0:0:0:
257,190,112050,1,8,0:0:0:0:
257,190,112187,1,8,0:0:0:0:
257,190,112323,1,0,0:0:0:0:
257,190,112596,1,8,0:0:0:0:
257,190,112732,1,0,0:0:0:0:
257,190,113005,1,8,0:0:0:0:
257,190,113414,1,0,0:0:0:0:
257,190,113959,1,0,0:0:0:0:
257,190,114232,1,8,0:0:0:0:
257,190,114505,1,0,0:0:0:0:
257,190,114777,1,8,0:0:0:0:
257,190,114914,1,0,0:0:0:0:
257,190,115187,1,0,0:0:0:0:
257,190,115595,1,8,0:0:0:0:
257,190,116141,1,0,0:0:0:0:
257,190,116414,1,8,0:0:0:0:
257,190,116551,1,8,0:0:0:0:
257,190,116686,1,0,0:0:0:0:
257,190,116959,1,8,0:0:0:0:
257,190,117095,1,0,0:0:0:0:
257,190,117369,1,8,0:0:0:0:
257,190,117777,1,0,0:0:0:0:
257,190,118051,1,8,0:0:0:0:
257,190,118323,1,4,0:0:0:0:
257,190,118868,1,0,0:0:0:0:
257,190,119141,1,8,0:0:0:0:
257,190,119414,1,0,0:0:0:0:
257,190,119687,1,8,0:0:0:0:
257,190,119823,1,8,0:0:0:0:
257,190,119959,1,8,0:0:0:0:
257,190,120232,1,8,0:0:0:0:
257,190,120505,1,4,0:0:0:0:
257,190,121050,5,0,0:0:0:0:
257,190,121186,1,0,0:0:0:0:
257,190,121459,1,8,0:0:0:0:
257,190,121732,1,0,0:0:0:0:
257,190,121868,1,8,0:0:0:0:
257,190,122141,1,0,0:0:0:0:
257,190,122277,1,0,0:0:0:0:
257,190,122414,1,8,0:0:0:0:
257,190,122686,1,4,0:0:0:0:
