osu file format v14

[General]
AudioFilename: audio.mp3
AudioLeadIn: 0
PreviewTime: 21187
Countdown: 0
SampleSet: Normal
StackLeniency: 0.7
Mode: 3
LetterboxInBreaks: 0
SpecialStyle: 0
WidescreenStoryboard: 0

[Editor]
Bookmarks: 69187,149187,165187
DistanceSpacing: 0.7
BeatDivisor: 2
GridSize: 4
TimelineZoom: 1.7

[Metadata]
Title:Guchagucha Coke Screw
TitleUnicode:Guchagucha Coke Screw
Artist:t+pazolite
ArtistUnicode:t+pazolite
Creator:Kaito-kun
Version:"NM" BEAUTiFUL!
Source:
Tags:LinkTayord Happy Speedcore ULTRA CUTiE BREAKiN'!!!! Moe
BeatmapID:1079010
BeatmapSetID:477797

[Difficulty]
HPDrainRate:7.5
CircleSize:4
OverallDifficulty:8
ApproachRate:5
SliderMultiplier:1.4
SliderTickRate:1

[Events]
//Background and Video events
0,0,"Kawaii.jpg",0,0
//Break Periods
//Storyboard Layer 0 (Background)
//Storyboard Layer 1 (Fail)
//Storyboard Layer 2 (Pass)
//Storyboard Layer 3 (Foreground)
//Storyboard Sound Samples
Sample,0,0,"normal-hitwhistle.wav",55
Sample,300,0,"normal-hitwhistle.wav",55
Sample,1500,0,"normal-hitwhistle.wav",55
Sample,2400,0,"normal-hitwhistle.wav",55
Sample,2700,0,"normal-hitwhistle.wav",55
Sample,3900,0,"normal-hitwhistle.wav",55
Sample,4800,0,"normal-hitwhistle.wav",55
Sample,5100,0,"normal-hitwhistle.wav",55
Sample,6300,0,"normal-hitwhistle.wav",55
Sample,7200,0,"xilophone.wav",80
Sample,7500,0,"xilophone.wav",80
Sample,8400,0,"normal-hitnormal.wav",20
Sample,9600,0,"xilophone.wav",80
Sample,9900,0,"normal-hitwhistle.wav",55
Sample,11100,0,"xilophone.wav",80
Sample,12000,0,"normal-hitwhistle.wav",55
Sample,12300,0,"normal-hitwhistle.wav",55
Sample,13500,0,"normal-hitwhistle.wav",55
Sample,14400,0,"xilophone.wav",80
Sample,14700,0,"xilophone.wav",80
Sample,15900,0,"normal-hitwhistle.wav",55
Sample,16800,0,"normal-hitwhistle.wav",55
Sample,17100,0,"normal-hitwhistle.wav",55
Sample,21187,0,"echo crash.wav",20
Sample,21312,0,"hard kick.wav",25
Sample,21437,0,"hard kick.wav",25
Sample,21562,0,"hard kick.wav",25
Sample,21687,0,"hard kick.wav",25
Sample,21812,0,"hard kick.wav",25
Sample,21937,0,"hard kick.wav",25
Sample,22062,0,"hard kick.wav",25
Sample,22187,0,"I+hate+pitch.wav",10
Sample,22312,0,"hard kick.wav",25
Sample,22437,0,"hard kick.wav",25
Sample,22562,0,"hard kick.wav",25
Sample,22687,0,"hard kick.wav",25
Sample,22812,0,"I+hate+pitch.wav",10
Sample,22937,0,"hard kick.wav",25
Sample,23187,0,"hard kick.wav",25
Sample,23312,0,"I+hate+pitch.wav",10
Sample,23437,0,"hard kick.wav",25
Sample,23562,0,"hard kick.wav",25
Sample,23687,0,"hard kick.wav",25
Sample,23812,0,"hard kick.wav",25
Sample,23937,0,"hard kick.wav",25
Sample,24062,0,"hard kick.wav",25
Sample,24187,0,"I+hate+pitch.wav",10
Sample,24312,0,"I+hate+pitch.wav",10
Sample,24437,0,"hard kick.wav",25
Sample,24562,0,"hard kick.wav",25
Sample,24687,0,"hard kick.wav",25
Sample,24812,0,"hard kick.wav",25
Sample,24937,0,"hard kick.wav",25
Sample,25187,0,"hard kick.wav",25
Sample,25312,0,"hard kick.wav",25
Sample,25437,0,"hard kick.wav",25
Sample,25562,0,"hard kick.wav",25
Sample,25687,0,"hard kick.wav",25
Sample,25812,0,"hard kick.wav",25
Sample,25937,0,"hard kick.wav",25
Sample,26062,0,"hard kick.wav",25
Sample,26187,0,"hard kick.wav",25
Sample,26312,0,"I+hate+pitch.wav",10
Sample,26437,0,"hard kick.wav",25
Sample,26562,0,"hard kick.wav",25
Sample,26687,0,"hard kick.wav",25
Sample,26812,0,"hard kick.wav",25
Sample,26937,0,"hard kick.wav",25
Sample,27187,0,"hard kick.wav",25
Sample,27312,0,"hard kick.wav",25
Sample,27437,0,"I+hate+pitch.wav",10
Sample,27562,0,"I+hate+pitch.wav",10
Sample,27687,0,"hard kick.wav",25
Sample,27812,0,"hard kick.wav",25
Sample,27937,0,"hard kick.wav",25
Sample,28062,0,"I+hate+pitch.wav",10
Sample,28187,0,"normal-hitwhistle.wav",30
Sample,28437,0,"normal-hitwhistle.wav",30
Sample,28687,0,"normal-hitwhistle.wav",30
Sample,28937,0,"I+hate+pitch.wav",10
Sample,29187,0,"normal-hitwhistle.wav",30
Sample,29312,0,"I+hate+pitch.wav",10
Sample,29437,0,"I+hate+pitch.wav",10
Sample,29562,0,"hard kick.wav",25
Sample,29687,0,"hard kick.wav",25
Sample,29812,0,"hard kick.wav",25
Sample,29937,0,"I+hate+pitch.wav",10
Sample,30062,0,"I+hate+pitch.wav",10
Sample,30187,0,"hard kick.wav",25
Sample,30312,0,"I+hate+pitch.wav",10
Sample,30437,0,"hard kick.wav",25
Sample,30562,0,"I+hate+pitch.wav",10
Sample,30687,0,"I+hate+pitch.wav",10
Sample,30812,0,"hard kick.wav",25
Sample,30937,0,"I+hate+pitch.wav",10
Sample,31187,0,"I+hate+pitch.wav",10
Sample,31312,0,"I+hate+pitch.wav",10
Sample,31437,0,"I+hate+pitch.wav",10
Sample,31562,0,"hard kick.wav",25
Sample,31687,0,"I+hate+pitch.wav",10
Sample,31812,0,"I+hate+pitch.wav",10
Sample,31937,0,"I+hate+pitch.wav",10
Sample,32062,0,"I+hate+pitch.wav",10
Sample,32187,0,"I+hate+pitch.wav",10
Sample,32312,0,"I+hate+pitch.wav",10
Sample,32437,0,"hard kick.wav",25
Sample,32562,0,"hard kick.wav",25
Sample,32687,0,"hard kick.wav",25
Sample,32812,0,"hard kick.wav",25
Sample,32937,0,"hard kick.wav",25
Sample,33187,0,"hard kick.wav",25
Sample,33312,0,"hard kick.wav",25
Sample,33437,0,"I+hate+pitch.wav",10
Sample,33562,0,"hard kick.wav",25
Sample,33687,0,"I+hate+pitch.wav",10
Sample,33812,0,"hard kick.wav",25
Sample,33937,0,"hard kick.wav",25
Sample,34062,0,"I+hate+pitch.wav",10
Sample,34187,0,"hard kick.wav",25
Sample,34312,0,"hard kick.wav",25
Sample,34437,0,"I+hate+pitch.wav",10
Sample,34562,0,"hard kick.wav",25
Sample,34687,0,"hard kick.wav",25
Sample,34812,0,"I+hate+pitch.wav",10
Sample,35187,0,"I+hate+pitch.wav",10
Sample,35437,0,"hard kick.wav",25
Sample,35687,0,"hard kick.wav",25
Sample,35937,0,"hard kick.wav",25
Sample,37187,0,"hard kick.wav",25
Sample,37687,0,"light clap.wav",55
Sample,37937,0,"normal-hitwhistle.wav",30
Sample,37937,0,"hard kick.wav",15
Sample,38312,0,"I+hate+pitch.wav",20
Sample,38312,0,"normal-hitwhistle.wav",30
Sample,38687,0,"normal-hitwhistle.wav",30
Sample,39187,0,"normal-hitwhistle.wav",30
Sample,39687,0,"normal-hitwhistle.wav",30
Sample,39937,0,"hard kick.wav",15
Sample,39937,0,"normal-hitwhistle.wav",30
Sample,40312,0,"normal-hitwhistle.wav",30
Sample,40312,0,"hard kick.wav",15
Sample,40687,0,"normal-hitwhistle.wav",30
Sample,41187,0,"normal-hitwhistle.wav",30
Sample,41687,0,"normal-hitwhistle.wav",70
Sample,41937,0,"hard kick.wav",15
Sample,41937,0,"normal-hitwhistle.wav",30
Sample,42312,0,"normal-hitwhistle.wav",30
Sample,42312,0,"hard kick.wav",15
Sample,42687,0,"light clap.wav",55
Sample,43187,0,"hard kick.wav",15
Sample,43687,0,"light clap.wav",55
Sample,43937,0,"normal-hitwhistle.wav",30
Sample,43937,0,"hard kick.wav",15
Sample,44187,0,"normal-hitnormal.wav",20
Sample,44937,0,"normal-hitnormal.wav",20
Sample,45187,0,"hard kick.wav",15
Sample,45437,0,"normal-hitwhistle.wav",45
Sample,45812,0,"I+hate+pitch.wav",10
Sample,45812,0,"hard kick.wav",20
Sample,45937,0,"normal-hitwhistle.wav",45
Sample,46062,0,"I+hate+pitch.wav",10
Sample,46062,0,"normal-hitwhistle.wav",45
Sample,46312,0,"I+hate+pitch.wav",10
Sample,46312,0,"normal-hitwhistle.wav",45
Sample,46437,0,"normal-hitwhistle.wav",45
Sample,46687,0,"I+hate+pitch.wav",10
Sample,46687,0,"normal-hitwhistle.wav",45
Sample,46812,0,"I+hate+pitch.wav",10
Sample,46812,0,"normal-hitwhistle.wav",45
Sample,46937,0,"normal-hitwhistle.wav",45
Sample,47187,0,"normal-hitwhistle.wav",45
Sample,47437,0,"normal-hitwhistle.wav",45
Sample,47812,0,"normal-hitwhistle.wav",45
Sample,47812,0,"I+hate+pitch.wav",10
Sample,47937,0,"light clap.wav",50
Sample,48062,0,"normal-hitwhistle.wav",45
Sample,48062,0,"I+hate+pitch.wav",10
Sample,48312,0,"I+hate+pitch.wav",10
Sample,48312,0,"hard kick.wav",20
Sample,48437,0,"normal-hitwhistle.wav",45
Sample,48687,0,"hard kick.wav",20
Sample,48687,0,"I+hate+pitch.wav",10
Sample,48812,0,"I+hate+pitch.wav",10
Sample,48812,0,"normal-hitwhistle.wav",45
Sample,48937,0,"normal-hitwhistle.wav",45
Sample,49187,0,"normal-hitwhistle.wav",30
Sample,49437,0,"hard kick.wav",20
Sample,49687,0,"normal-hitwhistle.wav",30
Sample,49937,0,"normal-hitwhistle.wav",30
Sample,50187,0,"I+hate+pitch.wav",10
Sample,50437,0,"I+hate+pitch.wav",10
Sample,50687,0,"hard kick.wav",20
Sample,50937,0,"I+hate+pitch.wav",10
Sample,51187,0,"normal-hitwhistle.wav",45
Sample,51312,0,"normal-hitwhistle.wav",45
Sample,51437,0,"normal-hitwhistle.wav",45
Sample,51562,0,"I+hate+pitch.wav",10
Sample,51687,0,"I+hate+pitch.wav",10
Sample,51812,0,"normal-hitwhistle.wav",45
Sample,51937,0,"normal-hitwhistle.wav",45
Sample,52062,0,"I+hate+pitch.wav",10
Sample,52437,0,"hard kick.wav",20
Sample,52687,0,"normal-hitwhistle.wav",45
Sample,52937,0,"hard kick.wav",20
Sample,54187,0,"I+hate+pitch.wav",15
Sample,54312,0,"hard kick.wav",25
Sample,55062,0,"hard kick.wav",25
Sample,56187,0,"hard kick.wav",25
Sample,56312,0,"hard kick.wav",25
Sample,57062,0,"I+hate+pitch.wav",15
Sample,58187,0,"hard kick.wav",25
Sample,58312,0,"hard kick.wav",25
Sample,59062,0,"hard kick.wav",25
Sample,60187,0,"I+hate+pitch.wav",15
Sample,60312,0,"I+hate+pitch.wav",15
Sample,61062,0,"I+hate+pitch.wav",15
Sample,61187,0,"light clap.wav",30
Sample,61187,0,"echo crash.wav",20
Sample,61437,0,"hard kick.wav",25
Sample,61437,0,"normal-hitwhistle.wav",30
Sample,61687,0,"hard kick.wav",25
Sample,61687,0,"I+hate+pitch.wav",15
Sample,61937,0,"I+hate+pitch.wav",15
Sample,61937,0,"normal-hitwhistle.wav",30
Sample,62187,0,"hard kick.wav",25
Sample,62187,0,"I+hate+pitch.wav",15
Sample,62312,0,"I+hate+pitch.wav",15
Sample,62312,0,"hard kick.wav",25
Sample,62562,0,"hard kick.wav",25
Sample,62562,0,"normal-hitwhistle.wav",30
Sample,62812,0,"hard kick.wav",25
Sample,62812,0,"I+hate+pitch.wav",15
Sample,63062,0,"normal-hitwhistle.wav",30
Sample,63062,0,"hard kick.wav",25
Sample,63187,0,"I+hate+pitch.wav",15
Sample,63187,0,"normal-hitwhistle.wav",30
Sample,63437,0,"normal-hitwhistle.wav",30
Sample,63437,0,"hard kick.wav",25
Sample,63687,0,"normal-hitwhistle.wav",30
Sample,63687,0,"I+hate+pitch.wav",15
Sample,63937,0,"I+hate+pitch.wav",15
Sample,63937,0,"normal-hitwhistle.wav",30
Sample,64187,0,"I+hate+pitch.wav",15
Sample,64187,0,"normal-hitwhistle.wav",30
Sample,64312,0,"hard kick.wav",25
Sample,64312,0,"normal-hitwhistle.wav",30
Sample,64562,0,"normal-hitwhistle.wav",30
Sample,64562,0,"hard kick.wav",25
Sample,64812,0,"hard kick.wav",25
Sample,64812,0,"normal-hitwhistle.wav",30
Sample,65062,0,"normal-hitwhistle.wav",30
Sample,65062,0,"I+hate+pitch.wav",15
Sample,65187,0,"normal-hitwhistle.wav",30
Sample,65437,0,"hard kick.wav",25
Sample,65437,0,"normal-hitwhistle.wav",30
Sample,65687,0,"I+hate+pitch.wav",15
Sample,65687,0,"hard kick.wav",25
Sample,65937,0,"normal-hitwhistle.wav",30
Sample,65937,0,"I+hate+pitch.wav",15
Sample,66187,0,"hard kick.wav",25
Sample,66187,0,"normal-hitwhistle.wav",30
Sample,66312,0,"I+hate+pitch.wav",15
Sample,66312,0,"hard kick.wav",25
Sample,66562,0,"hard kick.wav",25
Sample,66562,0,"I+hate+pitch.wav",25
Sample,66812,0,"I+hate+pitch.wav",15
Sample,66812,0,"hard kick.wav",25
Sample,67062,0,"I+hate+pitch.wav",15
Sample,67062,0,"hard kick.wav",25
Sample,67187,0,"I+hate+pitch.wav",15
Sample,67187,0,"normal-hitwhistle.wav",30
Sample,67312,0,"normal-hitwhistle.wav",35
Sample,67437,0,"hard kick.wav",25
Sample,67437,0,"I+hate+pitch.wav",15
Sample,67562,0,"normal-hitwhistle.wav",35
Sample,67687,0,"hard kick.wav",25
Sample,67687,0,"normal-hitwhistle.wav",35
Sample,67812,0,"normal-hitwhistle.wav",35
Sample,67937,0,"I+hate+pitch.wav",15
Sample,67937,0,"hard kick.wav",25
Sample,68062,0,"normal-hitwhistle.wav",35
Sample,68187,0,"normal-hitnormal.wav",20
Sample,68687,0,"normal-hitnormal.wav",20
Sample,69312,0,"hard kick.wav",25
Sample,69437,0,"hard kick.wav",25
Sample,69562,0,"hard kick.wav",25
Sample,69687,0,"I+hate+pitch.wav",10
Sample,69812,0,"I+hate+pitch.wav",10
Sample,69937,0,"I+hate+pitch.wav",10
Sample,70062,0,"hard kick.wav",25
Sample,70187,0,"hard kick.wav",25
Sample,70312,0,"I+hate+pitch.wav",10
Sample,70437,0,"I+hate+pitch.wav",10
Sample,70562,0,"hard kick.wav",25
Sample,70687,0,"I+hate+pitch.wav",10
Sample,70812,0,"I+hate+pitch.wav",10
Sample,70937,0,"hard kick.wav",25
Sample,71187,0,"hard kick.wav",25
Sample,71312,0,"hard kick.wav",25
Sample,71437,0,"hard kick.wav",25
Sample,71562,0,"I+hate+pitch.wav",10
Sample,71687,0,"I+hate+pitch.wav",10
Sample,71812,0,"hard kick.wav",25
Sample,71937,0,"hard kick.wav",25
Sample,72062,0,"I+hate+pitch.wav",10
Sample,72187,0,"I+hate+pitch.wav",10
Sample,72312,0,"hard kick.wav",25
Sample,72437,0,"I+hate+pitch.wav",10
Sample,72562,0,"hard kick.wav",25
Sample,72687,0,"I+hate+pitch.wav",10
Sample,72812,0,"hard kick.wav",25
Sample,72937,0,"hard kick.wav",25
Sample,73187,0,"hard kick.wav",25
Sample,73312,0,"hard kick.wav",25
Sample,73437,0,"I+hate+pitch.wav",10
Sample,73562,0,"hard kick.wav",25
Sample,73687,0,"I+hate+pitch.wav",10
Sample,73812,0,"I+hate+pitch.wav",10
Sample,73937,0,"I+hate+pitch.wav",10
Sample,74062,0,"I+hate+pitch.wav",10
Sample,74187,0,"hard kick.wav",25
Sample,74312,0,"hard kick.wav",25
Sample,74437,0,"I+hate+pitch.wav",10
Sample,74562,0,"I+hate+pitch.wav",10
Sample,74687,0,"hard kick.wav",25
Sample,74812,0,"hard kick.wav",25
Sample,74937,0,"hard kick.wav",25
Sample,75187,0,"hard kick.wav",25
Sample,75312,0,"I+hate+pitch.wav",10
Sample,75437,0,"hard kick.wav",25
Sample,75562,0,"I+hate+pitch.wav",10
Sample,75687,0,"hard kick.wav",25
Sample,75812,0,"hard kick.wav",25
Sample,75937,0,"I+hate+pitch.wav",10
Sample,76062,0,"I+hate+pitch.wav",10
Sample,76187,0,"hard kick.wav",25
Sample,76437,0,"normal-hitwhistle.wav",20
Sample,76687,0,"normal-hitwhistle.wav",20
Sample,76937,0,"I+hate+pitch.wav",10
Sample,77187,0,"echo crash.wav",20
Sample,77312,0,"hard kick.wav",25
Sample,77437,0,"hard kick.wav",25
Sample,77562,0,"I+hate+pitch.wav",10
Sample,77687,0,"I+hate+pitch.wav",10
Sample,77812,0,"hard kick.wav",25
Sample,77937,0,"I+hate+pitch.wav",10
Sample,78062,0,"hard kick.wav",25
Sample,78187,0,"hard kick.wav",25
Sample,78312,0,"hard kick.wav",25
Sample,78437,0,"I+hate+pitch.wav",10
Sample,78562,0,"hard kick.wav",25
Sample,78687,0,"I+hate+pitch.wav",10
Sample,78812,0,"hard kick.wav",25
Sample,78937,0,"I+hate+pitch.wav",10
Sample,79187,0,"hard kick.wav",25
Sample,79312,0,"I+hate+pitch.wav",10
Sample,79437,0,"hard kick.wav",25
Sample,79562,0,"hard kick.wav",25
Sample,79687,0,"hard kick.wav",25
Sample,79812,0,"hard kick.wav",25
Sample,79937,0,"I+hate+pitch.wav",10
Sample,80062,0,"hard kick.wav",25
Sample,80187,0,"I+hate+pitch.wav",10
Sample,80312,0,"I+hate+pitch.wav",10
Sample,80437,0,"I+hate+pitch.wav",10
Sample,80562,0,"I+hate+pitch.wav",10
Sample,80687,0,"I+hate+pitch.wav",10
Sample,80812,0,"I+hate+pitch.wav",10
Sample,80937,0,"I+hate+pitch.wav",10
Sample,81187,0,"hard kick.wav",25
Sample,81312,0,"I+hate+pitch.wav",10
Sample,81437,0,"hard kick.wav",25
Sample,81562,0,"I+hate+pitch.wav",10
Sample,81687,0,"hard kick.wav",25
Sample,81812,0,"I+hate+pitch.wav",10
Sample,81937,0,"hard kick.wav",25
Sample,82062,0,"I+hate+pitch.wav",10
Sample,82187,0,"hard kick.wav",25
Sample,82312,0,"I+hate+pitch.wav",10
Sample,82437,0,"I+hate+pitch.wav",10
Sample,82562,0,"hard kick.wav",25
Sample,82687,0,"I+hate+pitch.wav",10
Sample,82812,0,"hard kick.wav",25
Sample,83187,0,"hard kick.wav",25
Sample,83437,0,"I+hate+pitch.wav",10
Sample,83687,0,"hard kick.wav",25
Sample,83937,0,"I+hate+pitch.wav",10
Sample,84187,0,"hard kick.wav",25
Sample,84437,0,"hard kick.wav",25
Sample,84687,0,"hard kick.wav",25
Sample,84812,0,"hard kick.wav",25
Sample,89187,0,"normal-hitwhistle.wav",40
Sample,89437,0,"normal-hitwhistle.wav",40
Sample,93187,0,"echo crash.wav",20
Sample,93312,0,"soft-hitnormal.wav",10
Sample,93437,0,"normal-hitwhistle.wav",35
Sample,93687,0,"normal-hitwhistle.wav",15
Sample,93812,0,"snare.wav",70
Sample,94187,0,"normal-hitwhistle.wav",15
Sample,94437,0,"snare-side.wav",75
Sample,94687,0,"normal-hitnormal.wav",20
Sample,94812,0,"snare.wav",70
Sample,95187,0,"normal-hitwhistle.wav",15
Sample,95312,0,"normal-hitwhistle.wav",15
Sample,95437,0,"normal-hitwhistle.wav",35
Sample,95687,0,"normal-hitwhistle.wav",15
Sample,95812,0,"snare.wav",70
Sample,96187,0,"normal-hitwhistle.wav",15
Sample,96437,0,"normal-hitwhistle.wav",35
Sample,96687,0,"normal-hitwhistle.wav",15
Sample,96812,0,"snare.wav",70
Sample,97187,0,"soft-hitnormal.wav",10
Sample,97312,0,"normal-hitwhistle.wav",15
Sample,97437,0,"normal-hitwhistle.wav",35
Sample,97687,0,"rim.wav",35
Sample,97812,0,"snare.wav",70
Sample,98187,0,"normal-hitwhistle.wav",15
Sample,98437,0,"normal-hitwhistle.wav",35
Sample,98687,0,"normal-hitnormal.wav",20
Sample,98812,0,"normal-hitwhistle.wav",15
Sample,99187,0,"normal-hitnormal.wav",20
Sample,99312,0,"normal-hitnormal.wav",20
Sample,99437,0,"normal-hitwhistle.wav",35
Sample,99687,0,"normal-hitwhistle.wav",15
Sample,99812,0,"snare.wav",70
Sample,100187,0,"normal-hitwhistle.wav",15
Sample,100437,0,"snare-side.wav",75
Sample,100687,0,"normal-hitwhistle.wav",15
Sample,100812,0,"soft-hitnormal.wav",10
Sample,101187,0,"soft-hitnormal.wav",10
Sample,101312,0,"soft-hitnormal.wav",10
Sample,101437,0,"snare-side.wav",75
Sample,101687,0,"normal-hitwhistle.wav",15
Sample,101812,0,"snare.wav",70
Sample,102187,0,"soft-hitnormal.wav",10
Sample,102437,0,"normal-hitwhistle.wav",35
Sample,102687,0,"rim.wav",35
Sample,102812,0,"normal-hitwhistle.wav",15
Sample,103187,0,"normal-hitwhistle.wav",15
Sample,103312,0,"normal-hitwhistle.wav",15
Sample,103437,0,"normal-hitwhistle.wav",35
Sample,103687,0,"normal-hitnormal.wav",20
Sample,103812,0,"snare.wav",70
Sample,104187,0,"normal-hitwhistle.wav",30
Sample,104312,0,"hard kick.wav",25
Sample,104437,0,"hard kick.wav",25
Sample,104562,0,"normal-hitwhistle.wav",20
Sample,104687,0,"hard kick.wav",25
Sample,105187,0,"normal-hitwhistle.wav",20
Sample,112187,0,"normal-hitwhistle.wav",20
Sample,112187,0,"I+hate+pitch.wav",10
Sample,112437,0,"hard kick.wav",25
Sample,112437,0,"I+hate+pitch.wav",10
Sample,112687,0,"I+hate+pitch.wav",10
Sample,112687,0,"normal-hitwhistle.wav",20
Sample,113187,0,"I+hate+pitch.wav",10
Sample,113312,0,"hard kick.wav",25
Sample,113437,0,"I+hate+pitch.wav",10
Sample,113437,0,"hard kick.wav",25
Sample,113562,0,"hard kick.wav",25
Sample,113687,0,"I+hate+pitch.wav",10
Sample,113687,0,"hard kick.wav",25
Sample,113812,0,"hard kick.wav",25
Sample,114187,0,"I+hate+pitch.wav",10
Sample,114187,0,"hard kick.wav",25
Sample,114312,0,"normal-hitwhistle.wav",25
Sample,114437,0,"hard kick.wav",25
Sample,114437,0,"I+hate+pitch.wav",10
Sample,114562,0,"normal-hitwhistle.wav",25
Sample,114687,0,"I+hate+pitch.wav",10
Sample,114687,0,"normal-hitwhistle.wav",25
Sample,114812,0,"normal-hitwhistle.wav",25
Sample,115187,0,"hard kick.wav",25
Sample,115187,0,"normal-hitwhistle.wav",25
Sample,115312,0,"hard kick.wav",25
Sample,115437,0,"hard kick.wav",25
Sample,115437,0,"normal-hitwhistle.wav",25
Sample,115562,0,"normal-hitwhistle.wav",25
Sample,115687,0,"hard kick.wav",25
Sample,115687,0,"normal-hitwhistle.wav",25
Sample,115812,0,"hard kick.wav",25
Sample,115937,0,"normal-hitwhistle.wav",25
Sample,115937,0,"hard kick.wav",25
Sample,116062,0,"normal-hitwhistle.wav",25
Sample,116187,0,"normal-hitwhistle.wav",25
Sample,116187,0,"hard kick.wav",25
Sample,116437,0,"normal-hitwhistle.wav",25
Sample,116437,0,"hard kick.wav",25
Sample,116562,0,"normal-hitwhistle.wav",25
Sample,117312,0,"hard kick.wav",25
Sample,117437,0,"hard kick.wav",25
Sample,117437,0,"normal-hitwhistle.wav",25
Sample,117562,0,"normal-hitwhistle.wav",25
Sample,117687,0,"hard kick.wav",25
Sample,117687,0,"I+hate+pitch.wav",10
Sample,117812,0,"hard kick.wav",25
Sample,118187,0,"hard kick.wav",25
Sample,118187,0,"normal-hitwhistle.wav",25
Sample,118312,0,"hard kick.wav",25
Sample,118437,0,"I+hate+pitch.wav",10
Sample,118437,0,"hard kick.wav",25
Sample,118562,0,"hard kick.wav",25
Sample,118687,0,"I+hate+pitch.wav",10
Sample,118687,0,"hard kick.wav",25
Sample,118812,0,"hard kick.wav",25
Sample,119187,0,"I+hate+pitch.wav",10
Sample,119187,0,"hard kick.wav",25
Sample,119312,0,"normal-hitwhistle.wav",25
Sample,119437,0,"normal-hitwhistle.wav",25
Sample,119437,0,"hard kick.wav",25
Sample,119562,0,"normal-hitwhistle.wav",25
Sample,119687,0,"I+hate+pitch.wav",10
Sample,119687,0,"normal-hitwhistle.wav",25
Sample,119812,0,"normal-hitwhistle.wav",25
Sample,119937,0,"I+hate+pitch.wav",10
Sample,119937,0,"normal-hitwhistle.wav",25
Sample,120062,0,"normal-hitwhistle.wav",25
Sample,120187,0,"normal-hitwhistle.wav",25
Sample,120187,0,"I+hate+pitch.wav",10
Sample,120437,0,"hard kick.wav",25
Sample,120437,0,"normal-hitwhistle.wav",25
Sample,120562,0,"hard kick.wav",25
Sample,121312,0,"hard kick.wav",25
Sample,121437,0,"I+hate+pitch.wav",10
Sample,121437,0,"hard kick.wav",25
Sample,121562,0,"normal-hitwhistle.wav",25
Sample,121687,0,"normal-hitwhistle.wav",25
Sample,121687,0,"hard kick.wav",25
Sample,121812,0,"normal-hitwhistle.wav",25
Sample,122187,0,"I+hate+pitch.wav",10
Sample,122187,0,"hard kick.wav",25
Sample,122312,0,"hard kick.wav",25
Sample,122437,0,"I+hate+pitch.wav",10
Sample,122437,0,"hard kick.wav",25
Sample,122562,0,"hard kick.wav",25
Sample,122687,0,"I+hate+pitch.wav",10
Sample,122687,0,"normal-hitwhistle.wav",25
Sample,122812,0,"normal-hitwhistle.wav",25
Sample,123187,0,"normal-hitwhistle.wav",25
Sample,123187,0,"hard kick.wav",25
Sample,123312,0,"hard kick.wav",25
Sample,123437,0,"I+hate+pitch.wav",10
Sample,123437,0,"normal-hitwhistle.wav",25
Sample,123562,0,"normal-hitwhistle.wav",25
Sample,123687,0,"hard kick.wav",25
Sample,123687,0,"I+hate+pitch.wav",10
Sample,123812,0,"hard kick.wav",25
Sample,123937,0,"normal-hitwhistle.wav",25
Sample,123937,0,"I+hate+pitch.wav",10
Sample,124062,0,"normal-hitwhistle.wav",25
Sample,124187,0,"hard kick.wav",25
Sample,124187,0,"I+hate+pitch.wav",10
Sample,124437,0,"normal-hitwhistle.wav",25
Sample,124437,0,"hard kick.wav",25
Sample,124562,0,"normal-hitwhistle.wav",25
Sample,124812,0,"normal-hitwhistle.wav",25
Sample,124937,0,"hard kick.wav",25
Sample,124937,0,"normal-hitwhistle.wav",25
Sample,125062,0,"hard kick.wav",25
Sample,125187,0,"I+hate+pitch.wav",10
Sample,125187,0,"hard kick.wav",25
Sample,125312,0,"hard kick.wav",25
Sample,125562,0,"normal-hitwhistle.wav",25
Sample,125687,0,"I+hate+pitch.wav",10
Sample,125687,0,"hard kick.wav",25
Sample,125937,0,"I+hate+pitch.wav",10
Sample,125937,0,"normal-hitwhistle.wav",25
Sample,126187,0,"echo crash.wav",20
Sample,126187,0,"normal-hitwhistle.wav",25
Sample,126562,0,"I+hate+pitch.wav",10
Sample,126562,0,"normal-hitwhistle.wav",25
Sample,126937,0,"hard kick.wav",25
Sample,126937,0,"echo crash.wav",20
Sample,127187,0,"normal-hitwhistle.wav",25
Sample,127187,0,"echo crash.wav",20
Sample,127312,0,"hard kick.wav",25
Sample,127437,0,"I+hate+pitch.wav",10
Sample,127437,0,"hard kick.wav",25
Sample,127562,0,"hard kick.wav",25
Sample,127812,0,"normal-hitwhistle.wav",25
Sample,127937,0,"normal-hitwhistle.wav",25
Sample,127937,0,"I+hate+pitch.wav",10
Sample,128062,0,"normal-hitwhistle.wav",25
Sample,128187,0,"normal-hitwhistle.wav",25
Sample,128187,0,"hard kick.wav",25
Sample,128812,0,"I+hate+pitch.wav",10
Sample,128937,0,"I+hate+pitch.wav",10
Sample,129062,0,"I+hate+pitch.wav",10
Sample,129187,0,"normal-hitwhistle.wav",30
Sample,129187,0,"echo crash.wav",20
Sample,129312,0,"I+hate+pitch.wav",10
Sample,129312,0,"hard kick.wav",25
Sample,129562,0,"normal-hitwhistle.wav",25
Sample,129562,0,"hard kick.wav",25
Sample,129687,0,"normal-hitwhistle.wav",25
Sample,129687,0,"I+hate+pitch.wav",10
Sample,129937,0,"hard kick.wav",25
Sample,129937,0,"I+hate+pitch.wav",10
Sample,130312,0,"normal-hitwhistle.wav",25
Sample,130437,0,"hard kick.wav",25
Sample,130562,0,"normal-hitwhistle.wav",25
Sample,130937,0,"hard kick.wav",25
Sample,131187,0,"I+hate+pitch.wav",10
Sample,131312,0,"normal-hitwhistle.wav",20
Sample,131437,0,"hard kick.wav",25
Sample,131562,0,"hard kick.wav",25
Sample,131812,0,"hard kick.wav",25
Sample,131937,0,"normal-hitwhistle.wav",20
Sample,132062,0,"normal-hitwhistle.wav",20
Sample,132187,0,"hard kick.wav",25
Sample,134187,0,"I+hate+pitch.wav",15
Sample,134312,0,"hard kick.wav",25
Sample,135062,0,"hard kick.wav",25
Sample,136187,0,"hard kick.wav",25
Sample,136312,0,"I+hate+pitch.wav",15
Sample,137062,0,"I+hate+pitch.wav",15
Sample,138187,0,"I+hate+pitch.wav",15
Sample,138312,0,"hard kick.wav",25
Sample,139062,0,"I+hate+pitch.wav",15
Sample,140187,0,"I+hate+pitch.wav",15
Sample,140312,0,"I+hate+pitch.wav",15
Sample,141062,0,"I+hate+pitch.wav",15
Sample,141187,0,"normal-hitwhistle.wav",20
Sample,141187,0,"echo crash.wav",20
Sample,141437,0,"I+hate+pitch.wav",15
Sample,141437,0,"hard kick.wav",25
Sample,141687,0,"I+hate+pitch.wav",15
Sample,141687,0,"hard kick.wav",25
Sample,141937,0,"I+hate+pitch.wav",15
Sample,141937,0,"normal-hitwhistle.wav",20
Sample,142187,0,"I+hate+pitch.wav",15
Sample,142187,0,"hard kick.wav",25
Sample,142312,0,"normal-hitwhistle.wav",20
Sample,142312,0,"hard kick.wav",25
Sample,142562,0,"hard kick.wav",25
Sample,142562,0,"I+hate+pitch.wav",15
Sample,142812,0,"I+hate+pitch.wav",15
Sample,142812,0,"hard kick.wav",25
Sample,143062,0,"I+hate+pitch.wav",15
Sample,143062,0,"hard kick.wav",25
Sample,143187,0,"hard kick.wav",25
Sample,143187,0,"normal-hitwhistle.wav",20
Sample,143437,0,"hard kick.wav",25
Sample,143437,0,"I+hate+pitch.wav",15
Sample,143687,0,"I+hate+pitch.wav",15
Sample,143687,0,"hard kick.wav",25
Sample,143937,0,"hard kick.wav",25
Sample,143937,0,"normal-hitwhistle.wav",20
Sample,144187,0,"I+hate+pitch.wav",15
Sample,144187,0,"hard kick.wav",25
Sample,144312,0,"I+hate+pitch.wav",15
Sample,144312,0,"hard kick.wav",25
Sample,144562,0,"I+hate+pitch.wav",15
Sample,144562,0,"hard kick.wav",25
Sample,144812,0,"normal-hitwhistle.wav",20
Sample,144812,0,"hard kick.wav",25
Sample,145062,0,"I+hate+pitch.wav",15
Sample,145062,0,"hard kick.wav",25
Sample,145187,0,"normal-hitwhistle.wav",20
Sample,145437,0,"hard kick.wav",25
Sample,145437,0,"I+hate+pitch.wav",15
Sample,145687,0,"hard kick.wav",25
Sample,145687,0,"normal-hitwhistle.wav",20
Sample,145937,0,"hard kick.wav",25
Sample,145937,0,"I+hate+pitch.wav",15
Sample,146187,0,"hard kick.wav",25
Sample,146187,0,"I+hate+pitch.wav",15
Sample,146312,0,"hard kick.wav",25
Sample,146312,0,"I+hate+pitch.wav",15
Sample,146562,0,"normal-hitwhistle.wav",20
Sample,146562,0,"I+hate+pitch.wav",15
Sample,146812,0,"hard kick.wav",25
Sample,146812,0,"I+hate+pitch.wav",15
Sample,147062,0,"I+hate+pitch.wav",15
Sample,147062,0,"hard kick.wav",25
Sample,147187,0,"hard kick.wav",25
Sample,147187,0,"normal-hitwhistle.wav",20
Sample,147312,0,"normal-hitwhistle.wav",20
Sample,147437,0,"hard kick.wav",25
Sample,147437,0,"I+hate+pitch.wav",15
Sample,147562,0,"hard kick.wav",25
Sample,147687,0,"hard kick.wav",25
Sample,147687,0,"hard kick.wav",25
Sample,147812,0,"normal-hitwhistle.wav",20
Sample,147937,0,"hard kick.wav",25
Sample,147937,0,"I+hate+pitch.wav",15
Sample,148062,0,"hard kick.wav",25
Sample,148187,0,"normal-hitnormal.wav",20
Sample,149312,0,"I+hate+pitch.wav",10
Sample,149437,0,"hard kick.wav",20
Sample,149562,0,"I+hate+pitch.wav",10
Sample,149562,0,"normal-hitwhistle.wav",20
Sample,149687,0,"I+hate+pitch.wav",10
Sample,149812,0,"I+hate+pitch.wav",10
Sample,149937,0,"I+hate+pitch.wav",10
Sample,149937,0,"hard kick.wav",20
Sample,150062,0,"hard kick.wav",20
Sample,150062,0,"I+hate+pitch.wav",10
Sample,150187,0,"I+hate+pitch.wav",10
Sample,150187,0,"hard kick.wav",20
Sample,150312,0,"hard kick.wav",20
Sample,150437,0,"hard kick.wav",20
Sample,150562,0,"I+hate+pitch.wav",10
Sample,150562,0,"normal-hitwhistle.wav",20
Sample,150687,0,"I+hate+pitch.wav",10
Sample,150812,0,"I+hate+pitch.wav",10
Sample,150937,0,"I+hate+pitch.wav",10
Sample,151187,0,"hard kick.wav",20
Sample,151312,0,"I+hate+pitch.wav",10
Sample,151437,0,"hard kick.wav",20
Sample,151562,0,"normal-hitwhistle.wav",20
Sample,151562,0,"hard kick.wav",20
Sample,151687,0,"I+hate+pitch.wav",10
Sample,151812,0,"hard kick.wav",20
Sample,151937,0,"I+hate+pitch.wav",10
Sample,151937,0,"hard kick.wav",20
Sample,152062,0,"hard kick.wav",20
Sample,152062,0,"I+hate+pitch.wav",10
Sample,152187,0,"hard kick.wav",20
Sample,152187,0,"normal-hitwhistle.wav",20
Sample,152312,0,"hard kick.wav",20
Sample,152312,0,"I+hate+pitch.wav",10
Sample,152437,0,"normal-hitwhistle.wav",20
Sample,152437,0,"hard kick.wav",20
Sample,152562,0,"normal-hitwhistle.wav",20
Sample,152562,0,"hard kick.wav",20
Sample,152687,0,"I+hate+pitch.wav",10
Sample,152687,0,"hard kick.wav",20
Sample,152812,0,"I+hate+pitch.wav",10
Sample,152812,0,"hard kick.wav",20
Sample,152937,0,"I+hate+pitch.wav",10
Sample,153187,0,"hard kick.wav",20
Sample,153312,0,"I+hate+pitch.wav",10
Sample,153437,0,"hard kick.wav",20
Sample,153562,0,"normal-hitwhistle.wav",20
Sample,153562,0,"I+hate+pitch.wav",10
Sample,153687,0,"hard kick.wav",20
Sample,153812,0,"hard kick.wav",20
Sample,153937,0,"normal-hitwhistle.wav",20
Sample,153937,0,"I+hate+pitch.wav",10
Sample,154062,0,"I+hate+pitch.wav",10
Sample,154062,0,"hard kick.wav",20
Sample,154187,0,"I+hate+pitch.wav",10
Sample,154187,0,"hard kick.wav",20
Sample,154312,0,"I+hate+pitch.wav",10
Sample,154437,0,"I+hate+pitch.wav",10
Sample,154562,0,"normal-hitwhistle.wav",20
Sample,154562,0,"hard kick.wav",20
Sample,154687,0,"I+hate+pitch.wav",10
Sample,154812,0,"hard kick.wav",20
Sample,154937,0,"I+hate+pitch.wav",10
Sample,155187,0,"hard kick.wav",20
Sample,155312,0,"I+hate+pitch.wav",10
Sample,155437,0,"hard kick.wav",20
Sample,155562,0,"I+hate+pitch.wav",10
Sample,155562,0,"hard kick.wav",20
Sample,155687,0,"I+hate+pitch.wav",10
Sample,155812,0,"I+hate+pitch.wav",10
Sample,155937,0,"I+hate+pitch.wav",10
Sample,155937,0,"normal-hitwhistle.wav",20
Sample,156062,0,"normal-hitwhistle.wav",20
Sample,156062,0,"I+hate+pitch.wav",10
Sample,156187,0,"I+hate+pitch.wav",10
Sample,156437,0,"normal-hitwhistle.wav",20
Sample,156687,0,"normal-hitwhistle.wav",20
Sample,156937,0,"hard kick.wav",20
Sample,157187,0,"hard kick.wav",20
Sample,157187,0,"I+hate+pitch.wav",10
Sample,157312,0,"I+hate+pitch.wav",10
Sample,157437,0,"I+hate+pitch.wav",10
Sample,157562,0,"hard kick.wav",20
Sample,157562,0,"I+hate+pitch.wav",10
Sample,157687,0,"hard kick.wav",20
Sample,157812,0,"hard kick.wav",20
Sample,157937,0,"I+hate+pitch.wav",10
Sample,157937,0,"hard kick.wav",20
Sample,158062,0,"I+hate+pitch.wav",10
Sample,158062,0,"normal-hitwhistle.wav",20
Sample,158187,0,"hard kick.wav",20
Sample,158187,0,"I+hate+pitch.wav",10
Sample,158312,0,"hard kick.wav",20
Sample,158437,0,"hard kick.wav",20
Sample,158562,0,"I+hate+pitch.wav",10
Sample,158562,0,"hard kick.wav",20
Sample,158687,0,"I+hate+pitch.wav",10
Sample,158812,0,"I+hate+pitch.wav",10
Sample,158937,0,"I+hate+pitch.wav",10
Sample,159187,0,"hard kick.wav",20
Sample,159312,0,"I+hate+pitch.wav",10
Sample,159437,0,"hard kick.wav",20
Sample,159562,0,"I+hate+pitch.wav",10
Sample,159562,0,"normal-hitwhistle.wav",20
Sample,159687,0,"I+hate+pitch.wav",10
Sample,159812,0,"hard kick.wav",20
Sample,159937,0,"hard kick.wav",20
Sample,159937,0,"hard kick.wav",20
Sample,160062,0,"hard kick.wav",20
Sample,160062,0,"I+hate+pitch.wav",10
Sample,160187,0,"hard kick.wav",20
Sample,160187,0,"normal-hitwhistle.wav",20
Sample,160312,0,"I+hate+pitch.wav",10
Sample,160312,0,"hard kick.wav",20
Sample,160437,0,"normal-hitwhistle.wav",20
Sample,160437,0,"I+hate+pitch.wav",10
Sample,160562,0,"hard kick.wav",20
Sample,160562,0,"I+hate+pitch.wav",10
Sample,160687,0,"hard kick.wav",20
Sample,160687,0,"I+hate+pitch.wav",10
Sample,160812,0,"normal-hitwhistle.wav",20
Sample,160812,0,"I+hate+pitch.wav",10
Sample,160937,0,"hard kick.wav",20
Sample,161187,0,"hard kick.wav",20
Sample,161312,0,"I+hate+pitch.wav",10
Sample,161437,0,"I+hate+pitch.wav",10
Sample,161562,0,"hard kick.wav",20
Sample,161562,0,"I+hate+pitch.wav",10
Sample,161687,0,"I+hate+pitch.wav",10
Sample,161812,0,"hard kick.wav",20
Sample,161937,0,"normal-hitwhistle.wav",20
Sample,161937,0,"I+hate+pitch.wav",10
Sample,162062,0,"normal-hitwhistle.wav",20
Sample,162062,0,"I+hate+pitch.wav",10
Sample,162187,0,"normal-hitwhistle.wav",20
Sample,162187,0,"hard kick.wav",20
Sample,162312,0,"I+hate+pitch.wav",10
Sample,162437,0,"hard kick.wav",20
Sample,162562,0,"hard kick.wav",20
Sample,162562,0,"normal-hitwhistle.wav",20
Sample,162687,0,"hard kick.wav",20
Sample,162812,0,"I+hate+pitch.wav",10
Sample,163187,0,"hard kick.wav",20
Sample,163437,0,"I+hate+pitch.wav",10
Sample,163687,0,"normal-hitwhistle.wav",20
Sample,163937,0,"normal-hitwhistle.wav",20
Sample,164187,0,"hard kick.wav",20
Sample,164437,0,"normal-hitwhistle.wav",20
Sample,164687,0,"hard kick.wav",20
Sample,164937,0,"normal-hitwhistle.wav",20
Sample,165187,0,"hard kick.wav",20
Sample,165187,0,"echo crash.wav",20
Sample,165687,0,"normal-hitwhistle.wav",40
Sample,165937,0,"I+hate+pitch.wav",10
Sample,165937,0,"normal-hitwhistle.wav",40
Sample,166312,0,"I+hate+pitch.wav",10
Sample,166312,0,"normal-hitwhistle.wav",40
Sample,166687,0,"normal-hitwhistle.wav",40
Sample,167187,0,"hard kick.wav",25
Sample,167687,0,"normal-hitwhistle.wav",40
Sample,167937,0,"I+hate+pitch.wav",10
Sample,167937,0,"hard kick.wav",25
Sample,168312,0,"hard kick.wav",25
Sample,168312,0,"I+hate+pitch.wav",10
Sample,168687,0,"normal-hitwhistle.wav",40
Sample,169187,0,"hard kick.wav",25
Sample,169687,0,"light clap.wav",55
Sample,169937,0,"I+hate+pitch.wav",10
Sample,169937,0,"hard kick.wav",25
Sample,170312,0,"I+hate+pitch.wav",10
Sample,170312,0,"normal-hitwhistle.wav",40
Sample,170687,0,"light clap.wav",55
Sample,171187,0,"normal-hitwhistle.wav",40
Sample,171687,0,"normal-hitwhistle.wav",40
Sample,171937,0,"normal-hitwhistle.wav",40
Sample,171937,0,"I+hate+pitch.wav",10
Sample,173187,0,"hard kick.wav",25
Sample,173187,0,"normal-hitwhistle.wav",25
Sample,173437,0,"normal-hitwhistle.wav",20
Sample,173812,0,"I+hate+pitch.wav",10
Sample,173812,0,"normal-hitwhistle.wav",20
Sample,173937,0,"light clap.wav",55
Sample,174062,0,"normal-hitwhistle.wav",20
Sample,174062,0,"hard kick.wav",25
Sample,174312,0,"hard kick.wav",25
Sample,174312,0,"I+hate+pitch.wav",10
Sample,174437,0,"normal-hitwhistle.wav",20
Sample,174687,0,"I+hate+pitch.wav",10
Sample,174687,0,"hard kick.wav",25
Sample,174812,0,"I+hate+pitch.wav",10
Sample,174812,0,"normal-hitwhistle.wav",20
Sample,174937,0,"normal-hitwhistle.wav",20
Sample,175187,0,"I+hate+pitch.wav",10
Sample,175437,0,"normal-hitwhistle.wav",20
Sample,175812,0,"normal-hitwhistle.wav",20
Sample,175812,0,"I+hate+pitch.wav",10
Sample,175937,0,"normal-hitwhistle.wav",20
Sample,176062,0,"I+hate+pitch.wav",10
Sample,176062,0,"hard kick.wav",25
Sample,176312,0,"hard kick.wav",25
Sample,176312,0,"normal-hitwhistle.wav",20
Sample,176437,0,"light clap.wav",55
Sample,176687,0,"normal-hitwhistle.wav",20
Sample,176687,0,"I+hate+pitch.wav",10
Sample,176812,0,"normal-hitwhistle.wav",20
Sample,176812,0,"hard kick.wav",25
Sample,176937,0,"light clap.wav",55
Sample,177187,0,"normal-hitwhistle.wav",20
Sample,177437,0,"normal-hitwhistle.wav",20
Sample,177687,0,"hard kick.wav",25
Sample,177937,0,"I+hate+pitch.wav",10
Sample,178187,0,"normal-hitwhistle.wav",20
Sample,178437,0,"normal-hitwhistle.wav",20
Sample,178687,0,"hard kick.wav",25
Sample,178937,0,"normal-hitwhistle.wav",20
Sample,179187,0,"I+hate+pitch.wav",10
Sample,179187,0,"normal-hitwhistle.wav",20
Sample,179312,0,"light clap.wav",25
Sample,179437,0,"I+hate+pitch.wav",10
Sample,179437,0,"normal-hitwhistle.wav",20
Sample,179562,0,"light clap.wav",25
Sample,179687,0,"I+hate+pitch.wav",10
Sample,179687,0,"hard kick.wav",25
Sample,179812,0,"normal-hitwhistle.wav",20
Sample,179937,0,"normal-hitwhistle.wav",20
Sample,179937,0,"I+hate+pitch.wav",10
Sample,180062,0,"normal-hitwhistle.wav",20
Sample,180187,0,"hard kick.wav",25
Sample,180437,0,"hard kick.wav",25
Sample,180687,0,"normal-hitwhistle.wav",20
Sample,180937,0,"normal-hitwhistle.wav",20
Sample,181187,0,"hard kick.wav",25
Sample,182437,0,"hard kick.wav",25
Sample,182687,0,"hard kick.wav",25
Sample,182937,0,"hard kick.wav",25
Sample,183187,0,"hard kick.wav",25

[TimingPoints]
-12,300,4,1,0,20,1,0
-12,-83.3333333333333,4,1,0,20,0,0
20187,250,4,1,0,20,1,0
21187,-100,4,1,0,20,0,1
37187,-100,4,1,0,20,0,0
69187,-100,4,1,0,20,0,1
85187,-100,4,1,0,20,0,0
149187,-100,4,1,0,20,0,1
165187,-100,4,1,0,20,0,0

[HitObjects]
64,192,288,5,0,0:0:0:80:xilophone.wav
320,192,588,1,0,0:0:0:80:xilophone.wav
192,192,588,1,0,0:0:0:55:light clap.wav
448,192,888,1,0,0:0:0:80:xilophone.wav
320,192,1188,1,0,0:0:0:80:xilophone.wav
192,192,1488,1,0,0:0:0:80:xilophone.wav
64,192,1788,1,0,0:0:0:80:xilophone.wav
320,192,1788,1,0,0:0:0:55:light clap.wav
448,192,2088,1,0,0:0:0:80:xilophone.wav
192,192,2388,1,0,0:0:0:80:xilophone.wav
320,192,2688,1,0,0:0:0:80:xilophone.wav
64,192,2988,1,0,0:0:0:55:light clap.wav
192,192,2988,1,0,0:0:0:80:xilophone.wav
448,192,3288,1,0,0:0:0:80:xilophone.wav
320,192,3588,1,0,0:0:0:80:xilophone.wav
64,192,3888,1,0,0:0:0:80:xilophone.wav
192,192,4188,1,0,0:0:0:80:xilophone.wav
448,192,4188,1,0,0:0:0:55:light clap.wav
320,192,4488,1,0,0:0:0:80:xilophone.wav
448,192,4788,1,0,0:0:0:80:xilophone.wav
192,192,5088,1,0,0:0:0:80:xilophone.wav
448,192,5388,1,0,0:0:0:80:xilophone.wav
64,192,5388,1,0,0:0:0:55:light clap.wav
192,192,5688,1,0,0:0:0:80:xilophone.wav
320,192,5988,1,0,0:0:0:80:xilophone.wav
64,192,6288,1,0,0:0:0:80:xilophone.wav
192,192,6588,1,0,0:0:0:55:light clap.wav
320,192,6588,1,0,0:0:0:80:xilophone.wav
448,192,6888,1,0,0:0:0:55:normal-hitwhistle.wav
320,192,7188,1,0,0:0:0:55:normal-hitwhistle.wav
192,192,7488,1,0,0:0:0:55:normal-hitwhistle.wav
64,192,7788,1,0,0:0:0:80:xilophone.wav
448,192,7788,1,0,0:0:0:55:light clap.wav
320,192,8088,1,0,0:0:0:80:xilophone.wav
192,192,8388,128,0,8988:0:0:0:55:normal-hitwhistle.wav
448,192,8988,128,0,9138:0:0:0:55:normal-hitwhistle.wav
64,192,9288,1,0,0:0:0:30:hard kick.wav
320,192,9588,1,0,0:0:0:55:normal-hitwhistle.wav
192,192,9888,1,0,0:0:0:80:xilophone.wav
448,192,10188,1,0,0:0:0:80:xilophone.wav
320,192,10188,1,0,0:0:0:55:light clap.wav
64,192,10488,1,0,0:0:0:80:xilophone.wav
192,192,10788,1,0,0:0:0:80:xilophone.wav
448,192,11088,1,0,0:0:0:55:normal-hitwhistle.wav
320,192,11388,1,0,0:0:0:80:xilophone.wav
64,192,11388,1,0,0:0:0:55:light clap.wav
192,192,11688,1,0,0:0:0:80:xilophone.wav
64,192,11988,1,0,0:0:0:80:xilophone.wav
192,192,12288,1,0,0:0:0:80:xilophone.wav
448,192,12588,1,0,0:0:0:80:xilophone.wav
320,192,12588,1,0,0:0:0:55:light clap.wav
192,192,12888,1,0,0:0:0:80:xilophone.wav
448,192,13188,1,0,0:0:0:80:xilophone.wav
64,192,13488,1,0,0:0:0:80:xilophone.wav
320,192,13788,1,0,0:0:0:80:xilophone.wav
192,192,13788,1,0,0:0:0:55:light clap.wav
448,192,14088,1,0,0:0:0:80:xilophone.wav
64,192,14388,1,0,0:0:0:55:normal-hitwhistle.wav
320,192,14688,1,0,0:0:0:55:normal-hitwhistle.wav
448,192,14988,1,0,0:0:0:80:xilophone.wav
192,192,14988,1,0,0:0:0:55:light clap.wav
64,192,15288,1,0,0:0:0:80:xilophone.wav
320,192,15588,1,0,0:0:0:80:xilophone.wav
192,192,15888,1,0,0:0:0:70:xilophone.wav
448,192,16188,1,0,0:0:0:70:xilophone.wav
64,192,16188,1,0,0:0:0:55:light clap.wav
192,192,16488,1,0,0:0:0:70:xilophone.wav
320,192,16788,1,0,0:0:0:80:xilophone.wav
64,192,17088,1,0,0:0:0:80:xilophone.wav
192,192,17388,1,0,0:0:0:80:xilophone.wav
320,192,17388,1,0,0:0:0:55:light clap.wav
448,192,17688,1,0,0:0:0:80:xilophone.wav
192,192,19188,128,0,21187:0:0:0:20:
448,192,21187,1,0,0:0:0:10:I+hate+pitch.wav
64,192,21187,1,0,0:0:0:25:hard kick.wav
320,192,21312,1,0,0:0:0:10:I+hate+pitch.wav
192,192,21437,1,0,0:0:0:10:I+hate+pitch.wav
448,192,21562,1,0,0:0:0:10:I+hate+pitch.wav
64,192,21687,1,0,0:0:0:10:I+hate+pitch.wav
192,192,21812,1,0,0:0:0:10:I+hate+pitch.wav
448,192,21937,1,0,0:0:0:10:I+hate+pitch.wav
192,192,22062,1,0,0:0:0:10:I+hate+pitch.wav
320,192,22187,1,0,0:0:0:25:hard kick.wav
64,192,22312,1,0,0:0:0:10:I+hate+pitch.wav
448,192,22437,1,0,0:0:0:10:I+hate+pitch.wav
320,192,22562,1,0,0:0:0:10:I+hate+pitch.wav
192,192,22687,1,0,0:0:0:10:I+hate+pitch.wav
64,192,22812,1,0,0:0:0:25:hard kick.wav
320,192,22937,128,0,23187:0:0:0:10:I+hate+pitch.wav
64,192,23187,1,0,0:0:0:10:I+hate+pitch.wav
192,192,23312,1,0,0:0:0:25:hard kick.wav
448,192,23437,1,0,0:0:0:10:I+hate+pitch.wav
64,192,23562,1,0,0:0:0:10:I+hate+pitch.wav
448,192,23687,1,0,0:0:0:10:I+hate+pitch.wav
192,192,23812,1,0,0:0:0:10:I+hate+pitch.wav
320,192,23937,1,0,0:0:0:10:I+hate+pitch.wav
64,192,24062,1,0,0:0:0:10:I+hate+pitch.wav
448,192,24187,1,0,0:0:0:25:hard kick.wav
320,192,24312,1,0,0:0:0:25:hard kick.wav
64,192,24437,1,0,0:0:0:10:I+hate+pitch.wav
192,192,24562,1,0,0:0:0:10:I+hate+pitch.wav
448,192,24687,1,0,0:0:0:10:I+hate+pitch.wav
320,192,24812,1,0,0:0:0:10:I+hate+pitch.wav
64,192,24937,128,0,25187:0:0:0:10:I+hate+pitch.wav
448,192,25187,1,0,0:0:0:10:I+hate+pitch.wav
320,192,25312,1,0,0:0:0:10:I+hate+pitch.wav
448,192,25437,1,0,0:0:0:10:I+hate+pitch.wav
64,192,25562,1,0,0:0:0:10:I+hate+pitch.wav
192,192,25687,1,0,0:0:0:10:I+hate+pitch.wav
64,192,25812,1,0,0:0:0:10:I+hate+pitch.wav
448,192,25937,1,0,0:0:0:10:I+hate+pitch.wav
320,192,26062,1,0,0:0:0:10:I+hate+pitch.wav
192,192,26187,1,0,0:0:0:10:I+hate+pitch.wav
448,192,26312,1,0,0:0:0:25:hard kick.wav
64,192,26437,1,0,0:0:0:10:I+hate+pitch.wav
192,192,26562,1,0,0:0:0:10:I+hate+pitch.wav
320,192,26687,1,0,0:0:0:10:I+hate+pitch.wav
448,192,26812,1,0,0:0:0:10:I+hate+pitch.wav
192,192,26937,128,0,27187:0:0:0:10:I+hate+pitch.wav
64,192,27187,1,0,0:0:0:10:I+hate+pitch.wav
320,192,27312,1,0,0:0:0:10:I+hate+pitch.wav
448,192,27437,1,0,0:0:0:25:hard kick.wav
192,192,27562,1,0,0:0:0:25:hard kick.wav
320,192,27687,1,0,0:0:0:10:I+hate+pitch.wav
64,192,27812,1,0,0:0:0:10:I+hate+pitch.wav
320,192,27937,1,0,0:0:0:10:I+hate+pitch.wav
192,192,28062,1,0,0:0:0:25:hard kick.wav
320,192,28187,1,0,0:0:0:10:I+hate+pitch.wav
448,192,28187,1,0,0:0:0:25:hard kick.wav
192,192,28437,1,0,0:0:0:10:I+hate+pitch.wav
64,192,28437,1,0,0:0:0:25:hard kick.wav
448,192,28687,1,0,0:0:0:10:I+hate+pitch.wav
320,192,28687,1,0,0:0:0:25:hard kick.wav
192,192,28937,1,0,0:0:0:25:hard kick.wav
64,192,28937,1,0,0:0:0:30:normal-hitwhistle.wav
64,192,29187,1,0,0:0:0:10:I+hate+pitch.wav
448,192,29187,1,0,0:0:0:25:hard kick.wav
192,192,29312,1,0,0:0:0:25:hard kick.wav
320,192,29437,1,0,0:0:0:25:hard kick.wav
64,192,29562,1,0,0:0:0:10:I+hate+pitch.wav
448,192,29687,1,0,0:0:0:10:I+hate+pitch.wav
192,192,29812,1,0,0:0:0:10:I+hate+pitch.wav
448,192,29937,1,0,0:0:0:25:hard kick.wav
64,192,30062,1,0,0:0:0:25:hard kick.wav
320,192,30187,1,0,0:0:0:10:I+hate+pitch.wav
192,192,30312,1,0,0:0:0:25:hard kick.wav
64,192,30437,1,0,0:0:0:10:I+hate+pitch.wav
448,192,30562,1,0,0:0:0:25:hard kick.wav
192,192,30687,1,0,0:0:0:25:hard kick.wav
320,192,30812,1,0,0:0:0:10:I+hate+pitch.wav
448,192,30937,128,0,31187:0:0:0:25:hard kick.wav
64,192,31187,1,0,0:0:0:25:hard kick.wav
192,192,31312,1,0,0:0:0:25:hard kick.wav
320,192,31437,1,0,0:0:0:25:hard kick.wav
64,192,31562,1,0,0:0:0:10:I+hate+pitch.wav
448,192,31687,1,0,0:0:0:25:hard kick.wav
320,192,31812,1,0,0:0:0:25:hard kick.wav
192,192,31937,1,0,0:0:0:25:hard kick.wav
448,192,32062,1,0,0:0:0:25:hard kick.wav
64,192,32187,1,0,0:0:0:25:hard kick.wav
320,192,32312,1,0,0:0:0:25:hard kick.wav
192,192,32437,1,0,0:0:0:10:I+hate+pitch.wav
448,192,32562,1,0,0:0:0:10:I+hate+pitch.wav
64,192,32687,1,0,0:0:0:10:I+hate+pitch.wav
320,192,32812,1,0,0:0:0:10:I+hate+pitch.wav
192,192,32937,128,0,33187:0:0:0:10:I+hate+pitch.wav
448,192,33187,1,0,0:0:0:10:I+hate+pitch.wav
64,192,33312,1,0,0:0:0:10:I+hate+pitch.wav
320,192,33437,1,0,0:0:0:25:hard kick.wav
192,192,33562,1,0,0:0:0:10:I+hate+pitch.wav
64,192,33687,1,0,0:0:0:25:hard kick.wav
448,192,33812,1,0,0:0:0:10:I+hate+pitch.wav
320,192,33937,1,0,0:0:0:10:I+hate+pitch.wav
192,192,34062,1,0,0:0:0:25:hard kick.wav
448,192,34187,1,0,0:0:0:10:I+hate+pitch.wav
64,192,34312,1,0,0:0:0:10:I+hate+pitch.wav
448,192,34437,1,0,0:0:0:25:hard kick.wav
192,192,34562,1,0,0:0:0:10:I+hate+pitch.wav
320,192,34687,1,0,0:0:0:10:I+hate+pitch.wav
192,192,34812,1,0,0:0:0:25:hard kick.wav
448,192,34937,128,0,36187:0:0:0:10:I+hate+pitch.wav
64,192,34937,1,0,0:0:0:25:hard kick.wav
192,192,35187,1,0,0:0:0:25:hard kick.wav
320,192,35437,1,0,0:0:0:10:I+hate+pitch.wav
192,192,35687,1,0,0:0:0:10:I+hate+pitch.wav
64,192,35937,1,0,0:0:0:10:I+hate+pitch.wav
192,192,36187,1,0,0:0:0:25:hard kick.wav
320,192,36187,1,0,0:0:0:10:I+hate+pitch.wav
448,192,36437,1,0,0:0:0:25:hard kick.wav
64,192,36437,1,0,0:0:0:10:I+hate+pitch.wav
192,192,36687,1,0,0:0:0:25:hard kick.wav
320,192,36687,1,0,0:0:0:10:I+hate+pitch.wav
448,192,36937,1,0,0:0:0:25:hard kick.wav
64,192,36937,1,0,0:0:0:10:I+hate+pitch.wav
448,192,37187,1,0,0:0:0:10:I+hate+pitch.wav
320,192,37187,1,0,0:0:0:20:echo crash.wav
192,192,37312,1,0,0:0:0:30:normal-hitwhistle.wav
64,192,37437,1,0,0:0:0:30:normal-hitwhistle.wav
320,192,37562,1,0,0:0:0:30:normal-hitwhistle.wav
448,192,37687,1,0,0:0:0:30:normal-hitwhistle.wav
64,192,37937,1,0,0:0:0:20:I+hate+pitch.wav
448,192,38062,1,0,0:0:0:30:normal-hitwhistle.wav
192,192,38187,1,0,0:0:0:30:normal-hitwhistle.wav
64,192,38312,1,0,0:0:0:15:hard kick.wav
320,192,38437,1,0,0:0:0:30:normal-hitwhistle.wav
448,192,38687,1,0,0:0:0:55:light clap.wav
64,192,38937,1,0,0:0:0:30:normal-hitwhistle.wav
320,192,39187,1,0,0:0:0:20:I+hate+pitch.wav
448,192,39187,1,0,0:0:0:15:hard kick.wav
64,192,39312,1,0,0:0:0:30:normal-hitwhistle.wav
192,192,39437,1,0,0:0:0:30:normal-hitwhistle.wav
320,192,39562,1,0,0:0:0:30:normal-hitwhistle.wav
448,192,39687,1,0,0:0:0:55:light clap.wav
192,192,39937,1,0,0:0:0:20:I+hate+pitch.wav
448,192,40062,1,0,0:0:0:30:normal-hitwhistle.wav
64,192,40187,1,0,0:0:0:30:normal-hitwhistle.wav
320,192,40312,1,0,0:0:0:20:I+hate+pitch.wav
192,192,40437,1,0,0:0:0:30:normal-hitwhistle.wav
448,192,40562,1,0,0:0:0:30:normal-hitwhistle.wav
192,192,40687,1,0,0:0:0:55:light clap.wav
64,192,40812,1,0,0:0:0:0:
192,192,40937,1,0,0:0:0:30:normal-hitwhistle.wav
320,192,41062,1,0,0:0:0:0:
448,192,41187,1,0,0:0:0:15:hard kick.wav
64,192,41187,1,0,0:0:0:20:I+hate+pitch.wav
320,192,41312,1,0,0:0:0:30:normal-hitwhistle.wav
64,192,41437,1,0,0:0:0:30:normal-hitwhistle.wav
192,192,41562,1,0,0:0:0:30:normal-hitwhistle.wav
448,192,41687,1,0,0:0:0:55:light clap.wav
320,192,41937,1,0,0:0:0:20:I+hate+pitch.wav
448,192,42062,1,0,0:0:0:30:normal-hitwhistle.wav
320,192,42187,1,0,0:0:0:30:normal-hitwhistle.wav
192,192,42312,1,0,0:0:0:20:I+hate+pitch.wav
448,192,42437,1,0,0:0:0:30:normal-hitwhistle.wav
64,192,42687,1,0,0:0:0:30:normal-hitwhistle.wav
320,192,42937,1,0,0:0:0:30:normal-hitwhistle.wav
448,192,43187,1,0,0:0:0:30:normal-hitwhistle.wav
192,192,43187,1,0,0:0:0:20:I+hate+pitch.wav
320,192,43312,1,0,0:0:0:30:normal-hitwhistle.wav
64,192,43437,1,0,0:0:0:30:normal-hitwhistle.wav
448,192,43562,1,0,0:0:0:30:normal-hitwhistle.wav
192,192,43687,1,0,0:0:0:30:normal-hitwhistle.wav
448,192,43937,1,0,0:0:0:20:I+hate+pitch.wav
192,192,44062,1,0,0:0:0:30:normal-hitwhistle.wav
320,192,44187,1,0,0:0:0:70:normal-hitwhistle.wav
192,192,44437,1,0,0:0:0:70:normal-hitwhistle.wav
64,192,44562,1,0,0:0:0:70:normal-hitwhistle.wav
448,192,44687,1,0,0:0:0:70:normal-hitwhistle.wav
64,192,44937,1,0,0:0:0:70:normal-hitwhistle.wav
192,192,45187,1,0,0:0:0:20:echo crash.wav
320,192,45187,1,0,0:0:0:25:I+hate+pitch.wav
64,192,45312,1,0,0:0:0:45:normal-hitwhistle.wav
448,192,45437,1,0,0:0:0:50:light clap.wav
192,192,45562,1,0,0:0:0:45:normal-hitwhistle.wav
448,192,45687,1,0,0:0:0:45:normal-hitwhistle.wav
320,192,45812,1,0,0:0:0:45:normal-hitwhistle.wav
64,192,45937,1,0,0:0:0:50:light clap.wav
192,192,46062,1,0,0:0:0:20:hard kick.wav
320,192,46187,1,0,0:0:0:45:normal-hitwhistle.wav
448,192,46312,1,0,0:0:0:20:hard kick.wav
64,192,46437,1,0,0:0:0:50:light clap.wav
320,192,46687,1,0,0:0:0:20:hard kick.wav
192,192,46812,1,0,0:0:0:20:hard kick.wav
320,192,46937,1,0,0:0:0:50:light clap.wav
448,192,47187,1,0,0:0:0:20:hard kick.wav
64,192,47187,1,0,0:0:0:10:I+hate+pitch.wav
320,192,47312,1,0,0:0:0:45:normal-hitwhistle.wav
192,192,47437,1,0,0:0:0:50:light clap.wav
64,192,47562,1,0,0:0:0:45:normal-hitwhistle.wav
448,192,47687,1,0,0:0:0:45:normal-hitwhistle.wav
192,192,47812,1,0,0:0:0:20:hard kick.wav
64,192,47937,1,0,0:0:0:45:normal-hitwhistle.wav
320,192,48062,1,0,0:0:0:20:hard kick.wav
192,192,48187,1,0,0:0:0:45:normal-hitwhistle.wav
448,192,48312,1,0,0:0:0:45:normal-hitwhistle.wav
320,192,48437,1,0,0:0:0:50:light clap.wav
64,192,48562,1,0,0:0:0:45:normal-hitwhistle.wav
192,192,48687,1,0,0:0:0:45:normal-hitwhistle.wav
64,192,48812,1,0,0:0:0:20:hard kick.wav
448,192,48937,1,0,0:0:0:50:light clap.wav
320,192,49062,1,0,0:0:0:0:
448,192,49187,1,0,0:0:0:10:I+hate+pitch.wav
64,192,49187,1,0,0:0:0:20:hard kick.wav
192,192,49437,1,0,0:0:0:10:I+hate+pitch.wav
320,192,49437,1,0,0:0:0:30:normal-hitwhistle.wav
320,192,49687,1,0,0:0:0:20:hard kick.wav
448,192,49687,1,0,0:0:0:10:I+hate+pitch.wav
192,192,49937,1,0,0:0:0:20:hard kick.wav
64,192,49937,1,0,0:0:0:10:I+hate+pitch.wav
448,192,50187,1,0,0:0:0:20:hard kick.wav
192,192,50187,1,0,0:0:0:30:normal-hitwhistle.wav
320,192,50437,1,0,0:0:0:30:normal-hitwhistle.wav
64,192,50437,1,0,0:0:0:20:hard kick.wav
64,192,50687,1,0,0:0:0:10:I+hate+pitch.wav
448,192,50687,1,0,0:0:0:30:normal-hitwhistle.wav
192,192,50937,1,0,0:0:0:20:hard kick.wav
320,192,50937,1,0,0:0:0:30:normal-hitwhistle.wav
448,192,51187,1,0,0:0:0:10:I+hate+pitch.wav
320,192,51312,1,0,0:0:0:10:I+hate+pitch.wav
64,192,51437,1,0,0:0:0:10:I+hate+pitch.wav
192,192,51562,1,0,0:0:0:45:normal-hitwhistle.wav
448,192,51687,1,0,0:0:0:45:normal-hitwhistle.wav
320,192,51812,1,0,0:0:0:10:I+hate+pitch.wav
64,192,51937,1,0,0:0:0:10:I+hate+pitch.wav
192,192,52062,1,0,0:0:0:45:normal-hitwhistle.wav
448,192,52187,128,0,53187:0:0:0:45:normal-hitwhistle.wav
320,192,52187,1,0,0:0:0:20:hard kick.wav
192,192,52437,1,0,0:0:0:45:normal-hitwhistle.wav
320,192,52687,1,0,0:0:0:20:hard kick.wav
64,192,52937,1,0,0:0:0:45:normal-hitwhistle.wav
320,192,53187,1,0,0:0:0:20:hard kick.wav
64,192,53187,1,0,0:0:0:45:normal-hitwhistle.wav
192,192,53437,1,0,0:0:0:25:hard kick.wav
448,192,53437,1,0,0:0:0:20:I+hate+pitch.wav
64,192,53687,1,0,0:0:0:25:hard kick.wav
320,192,53687,1,0,0:0:0:15:I+hate+pitch.wav
448,192,53937,1,0,0:0:0:15:I+hate+pitch.wav
192,192,53937,1,0,0:0:0:25:hard kick.wav
320,192,54187,1,0,0:0:0:25:hard kick.wav
64,192,54312,1,0,0:0:0:15:I+hate+pitch.wav
320,192,54562,1,0,0:0:0:15:I+hate+pitch.wav
448,192,54562,1,0,0:0:0:25:hard kick.wav
192,192,54812,1,0,0:0:0:25:hard kick.wav
64,192,54812,1,0,0:0:0:15:I+hate+pitch.wav
448,192,55062,1,0,0:0:0:15:I+hate+pitch.wav
64,192,55187,1,0,0:0:0:15:I+hate+pitch.wav
320,192,55187,1,0,0:0:0:25:hard kick.wav
448,192,55437,1,0,0:0:0:15:I+hate+pitch.wav
192,192,55437,1,0,0:0:0:25:hard kick.wav
320,192,55687,1,0,0:0:0:15:I+hate+pitch.wav
64,192,55687,1,0,0:0:0:25:hard kick.wav
448,192,55937,1,0,0:0:0:15:I+hate+pitch.wav
192,192,55937,1,0,0:0:0:25:hard kick.wav
64,192,56187,1,0,0:0:0:15:I+hate+pitch.wav
192,192,56312,1,0,0:0:0:15:I+hate+pitch.wav
448,192,56562,1,0,0:0:0:25:hard kick.wav
64,192,56562,1,0,0:0:0:15:I+hate+pitch.wav
192,192,56812,1,0,0:0:0:15:I+hate+pitch.wav
320,192,56812,1,0,0:0:0:25:hard kick.wav
64,192,57062,1,0,0:0:0:25:hard kick.wav
448,192,57187,1,0,0:0:0:25:hard kick.wav
320,192,57187,1,0,0:0:0:15:I+hate+pitch.wav
64,192,57437,1,0,0:0:0:25:hard kick.wav
192,192,57437,1,0,0:0:0:15:I+hate+pitch.wav
448,192,57687,1,0,0:0:0:15:I+hate+pitch.wav
320,192,57687,1,0,0:0:0:25:hard kick.wav
64,192,57937,1,0,0:0:0:25:hard kick.wav
192,192,57937,1,0,0:0:0:15:I+hate+pitch.wav
448,192,58187,1,0,0:0:0:15:I+hate+pitch.wav
320,192,58312,1,0,0:0:0:15:I+hate+pitch.wav
448,192,58562,1,0,0:0:0:25:hard kick.wav
192,192,58562,1,0,0:0:0:15:I+hate+pitch.wav
64,192,58812,1,0,0:0:0:15:I+hate+pitch.wav
320,192,58812,1,0,0:0:0:25:hard kick.wav
448,192,59062,1,0,0:0:0:15:I+hate+pitch.wav
192,192,59187,1,0,0:0:0:25:hard kick.wav
320,192,59187,1,0,0:0:0:15:I+hate+pitch.wav
64,192,59437,1,0,0:0:0:15:I+hate+pitch.wav
448,192,59437,1,0,0:0:0:25:hard kick.wav
320,192,59687,1,0,0:0:0:25:hard kick.wav
192,192,59687,1,0,0:0:0:15:I+hate+pitch.wav
64,192,59937,1,0,0:0:0:25:hard kick.wav
448,192,59937,1,0,0:0:0:15:I+hate+pitch.wav
320,192,60187,1,0,0:0:0:25:hard kick.wav
192,192,60312,1,0,0:0:0:25:hard kick.wav
64,192,60562,1,0,0:0:0:25:hard kick.wav
320,192,60562,1,0,0:0:0:15:I+hate+pitch.wav
192,192,60812,1,0,0:0:0:25:hard kick.wav
448,192,60812,1,0,0:0:0:15:I+hate+pitch.wav
320,192,61062,1,0,0:0:0:25:hard kick.wav
64,192,61187,128,0,65187:0:0:0:25:hard kick.wav
192,192,61187,1,0,0:0:0:15:I+hate+pitch.wav
448,192,61437,1,0,0:0:0:15:I+hate+pitch.wav
192,192,61687,1,0,0:0:0:30:normal-hitwhistle.wav
448,192,61937,1,0,0:0:0:25:hard kick.wav
320,192,62187,1,0,0:0:0:30:normal-hitwhistle.wav
448,192,62312,1,0,0:0:0:30:normal-hitwhistle.wav
192,192,62562,1,0,0:0:0:15:I+hate+pitch.wav
448,192,62812,1,0,0:0:0:30:normal-hitwhistle.wav
192,192,63062,1,0,0:0:0:15:I+hate+pitch.wav
320,192,63187,1,0,0:0:0:25:hard kick.wav
448,192,63437,1,0,0:0:0:15:I+hate+pitch.wav
320,192,63687,1,0,0:0:0:25:hard kick.wav
448,192,63937,1,0,0:0:0:25:hard kick.wav
192,192,64187,1,0,0:0:0:25:hard kick.wav
320,192,64312,1,0,0:0:0:15:I+hate+pitch.wav
448,192,64562,1,0,0:0:0:15:I+hate+pitch.wav
192,192,64812,1,0,0:0:0:15:I+hate+pitch.wav
320,192,65062,1,0,0:0:0:25:hard kick.wav
448,192,65187,128,0,68187:0:0:0:15:I+hate+pitch.wav
192,192,65187,1,0,0:0:0:25:hard kick.wav
64,192,65437,1,0,0:0:0:15:I+hate+pitch.wav
192,192,65687,1,0,0:0:0:30:normal-hitwhistle.wav
64,192,65937,1,0,0:0:0:25:hard kick.wav
320,192,66187,1,0,0:0:0:15:I+hate+pitch.wav
192,192,66312,1,0,0:0:0:30:normal-hitwhistle.wav
64,192,66562,1,0,0:0:0:30:normal-hitwhistle.wav
320,192,66812,1,0,0:0:0:30:normal-hitwhistle.wav
192,192,67062,1,0,0:0:0:30:normal-hitwhistle.wav
64,192,67187,1,0,0:0:0:25:hard kick.wav
192,192,67312,1,0,0:0:0:55:light clap.wav
320,192,67437,1,0,0:0:0:35:normal-hitwhistle.wav
64,192,67562,1,0,0:0:0:55:light clap.wav
320,192,67687,1,0,0:0:0:15:I+hate+pitch.wav
192,192,67812,1,0,0:0:0:55:light clap.wav
64,192,67937,1,0,0:0:0:35:normal-hitwhistle.wav
320,192,68062,1,0,0:0:0:55:light clap.wav
64,192,68187,128,0,69187:0:0:0:25:normal-hitwhistle.wav
448,192,68687,128,0,69187:0:0:0:25:normal-hitwhistle.wav
320,192,69187,1,0,0:0:0:25:hard kick.wav
192,192,69187,1,0,0:0:0:20:echo crash.wav
64,192,69312,1,0,0:0:0:20:normal-hitwhistle.wav
192,192,69437,1,0,0:0:0:10:I+hate+pitch.wav
448,192,69562,1,0,0:0:0:10:I+hate+pitch.wav
320,192,69687,1,0,0:0:0:25:hard kick.wav
192,192,69812,1,0,0:0:0:25:hard kick.wav
64,192,69937,1,0,0:0:0:25:hard kick.wav
320,192,70062,1,0,0:0:0:10:I+hate+pitch.wav
192,192,70187,1,0,0:0:0:10:I+hate+pitch.wav
448,192,70312,1,0,0:0:0:25:hard kick.wav
64,192,70437,1,0,0:0:0:25:hard kick.wav
320,192,70562,1,0,0:0:0:10:I+hate+pitch.wav
192,192,70687,1,0,0:0:0:25:hard kick.wav
64,192,70812,1,0,0:0:0:25:hard kick.wav
448,192,70937,128,0,71187:0:0:0:10:I+hate+pitch.wav
64,192,71187,1,0,0:0:0:10:I+hate+pitch.wav
320,192,71312,1,0,0:0:0:10:I+hate+pitch.wav
448,192,71437,1,0,0:0:0:10:I+hate+pitch.wav
192,192,71562,1,0,0:0:0:25:hard kick.wav
320,192,71687,1,0,0:0:0:25:hard kick.wav
64,192,71812,1,0,0:0:0:10:I+hate+pitch.wav
448,192,71937,1,0,0:0:0:10:I+hate+pitch.wav
192,192,72062,1,0,0:0:0:25:hard kick.wav
320,192,72187,1,0,0:0:0:25:hard kick.wav
448,192,72312,1,0,0:0:0:10:I+hate+pitch.wav
192,192,72437,1,0,0:0:0:25:hard kick.wav
64,192,72562,1,0,0:0:0:10:I+hate+pitch.wav
320,192,72687,1,0,0:0:0:25:hard kick.wav
448,192,72812,1,0,0:0:0:10:I+hate+pitch.wav
192,192,72937,128,0,73187:0:0:0:10:I+hate+pitch.wav
320,192,73187,1,0,0:0:0:10:I+hate+pitch.wav
448,192,73312,1,0,0:0:0:10:I+hate+pitch.wav
64,192,73437,1,0,0:0:0:25:hard kick.wav
320,192,73562,1,0,0:0:0:10:I+hate+pitch.wav
192,192,73687,1,0,0:0:0:25:hard kick.wav
448,192,73812,1,0,0:0:0:25:hard kick.wav
64,192,73937,1,0,0:0:0:25:hard kick.wav
192,192,74062,1,0,0:0:0:25:hard kick.wav
320,192,74187,1,0,0:0:0:10:I+hate+pitch.wav
192,192,74312,1,0,0:0:0:10:I+hate+pitch.wav
448,192,74437,1,0,0:0:0:25:hard kick.wav
64,192,74562,1,0,0:0:0:25:hard kick.wav
192,192,74687,1,0,0:0:0:10:I+hate+pitch.wav
320,192,74812,1,0,0:0:0:10:I+hate+pitch.wav
64,192,74937,128,0,75187:0:0:0:10:I+hate+pitch.wav
320,192,75187,1,0,0:0:0:10:I+hate+pitch.wav
448,192,75312,1,0,0:0:0:25:hard kick.wav
320,192,75437,1,0,0:0:0:10:I+hate+pitch.wav
192,192,75562,1,0,0:0:0:25:hard kick.wav
64,192,75687,1,0,0:0:0:10:I+hate+pitch.wav
192,192,75812,1,0,0:0:0:10:I+hate+pitch.wav
320,192,75937,1,0,0:0:0:25:hard kick.wav
64,192,76062,1,0,0:0:0:25:hard kick.wav
192,192,76187,1,0,0:0:0:20:normal-hitwhistle.wav
448,192,76187,1,0,0:0:0:10:I+hate+pitch.wav
320,192,76437,1,0,0:0:0:10:I+hate+pitch.wav
64,192,76437,1,0,0:0:0:25:hard kick.wav
192,192,76687,1,0,0:0:0:10:I+hate+pitch.wav
448,192,76687,1,0,0:0:0:25:hard kick.wav
64,192,76937,1,0,0:0:0:20:normal-hitwhistle.wav
320,192,76937,1,0,0:0:0:25:hard kick.wav
448,192,77187,1,0,0:0:0:25:hard kick.wav
192,192,77187,1,0,0:0:0:10:I+hate+pitch.wav
320,192,77312,1,0,0:0:0:10:I+hate+pitch.wav
192,192,77437,1,0,0:0:0:10:I+hate+pitch.wav
64,192,77562,1,0,0:0:0:25:hard kick.wav
320,192,77687,1,0,0:0:0:25:hard kick.wav
192,192,77812,1,0,0:0:0:10:I+hate+pitch.wav
448,192,77937,1,0,0:0:0:25:hard kick.wav
64,192,78062,1,0,0:0:0:10:I+hate+pitch.wav
320,192,78187,1,0,0:0:0:10:I+hate+pitch.wav
192,192,78312,1,0,0:0:0:10:I+hate+pitch.wav
64,192,78437,1,0,0:0:0:25:hard kick.wav
320,192,78562,1,0,0:0:0:10:I+hate+pitch.wav
448,192,78687,1,0,0:0:0:25:hard kick.wav
192,192,78812,1,0,0:0:0:25:hard kick.wav
320,192,78937,128,0,79187:0:0:0:25:hard kick.wav
192,192,79187,1,0,0:0:0:10:I+hate+pitch.wav
64,192,79312,1,0,0:0:0:25:hard kick.wav
448,192,79437,1,0,0:0:0:10:I+hate+pitch.wav
320,192,79562,1,0,0:0:0:10:I+hate+pitch.wav
192,192,79687,1,0,0:0:0:10:I+hate+pitch.wav
64,192,79812,1,0,0:0:0:10:I+hate+pitch.wav
320,192,79937,1,0,0:0:0:25:hard kick.wav
448,192,80062,1,0,0:0:0:10:I+hate+pitch.wav
320,192,80187,1,0,0:0:0:25:hard kick.wav
192,192,80312,1,0,0:0:0:25:hard kick.wav
448,192,80437,1,0,0:0:0:25:hard kick.wav
64,192,80562,1,0,0:0:0:25:hard kick.wav
320,192,80687,1,0,0:0:0:25:hard kick.wav
192,192,80812,1,0,0:0:0:25:hard kick.wav
64,192,80937,128,0,81187:0:0:0:25:hard kick.wav
320,192,81187,1,0,0:0:0:10:I+hate+pitch.wav
192,192,81312,1,0,0:0:0:25:hard kick.wav
448,192,81437,1,0,0:0:0:10:I+hate+pitch.wav
64,192,81562,1,0,0:0:0:25:hard kick.wav
192,192,81687,1,0,0:0:0:10:I+hate+pitch.wav
320,192,81812,1,0,0:0:0:25:hard kick.wav
64,192,81937,1,0,0:0:0:10:I+hate+pitch.wav
448,192,82062,1,0,0:0:0:25:hard kick.wav
192,192,82187,1,0,0:0:0:10:I+hate+pitch.wav
320,192,82312,1,0,0:0:0:25:hard kick.wav
448,192,82437,1,0,0:0:0:25:hard kick.wav
192,192,82562,1,0,0:0:0:10:I+hate+pitch.wav
64,192,82687,1,0,0:0:0:25:hard kick.wav
192,192,82812,1,0,0:0:0:10:I+hate+pitch.wav
448,192,82937,128,0,85187:0:0:0:25:hard kick.wav
320,192,82937,1,0,0:0:0:10:I+hate+pitch.wav
192,192,83187,1,0,0:0:0:10:I+hate+pitch.wav
64,192,83437,1,0,0:0:0:25:hard kick.wav
320,192,83687,1,0,0:0:0:10:I+hate+pitch.wav
192,192,83937,1,0,0:0:0:25:hard kick.wav
64,192,84187,1,0,0:0:0:10:I+hate+pitch.wav
320,192,84437,1,0,0:0:0:10:I+hate+pitch.wav
64,192,84687,1,0,0:0:0:10:I+hate+pitch.wav
192,192,84812,128,0,85187:0:0:0:25:hard kick.wav
320,192,85187,1,0,0:0:0:25:hard kick.wav
320,192,85437,1,0,0:0:0:40:normal-hitwhistle.wav
64,192,85687,1,0,0:0:0:55:light clap.wav
192,192,85937,1,0,0:0:0:40:normal-hitwhistle.wav
448,192,86312,128,0,86562:0:0:0:40:normal-hitwhistle.wav
64,192,86562,1,0,0:0:0:40:normal-hitwhistle.wav
192,192,86687,1,0,0:0:0:55:light clap.wav
448,192,86812,1,0,0:0:0:40:normal-hitwhistle.wav
320,192,86937,1,0,0:0:0:40:normal-hitwhistle.wav
192,192,87062,1,0,0:0:0:40:normal-hitwhistle.wav
64,192,87187,1,0,0:0:0:40:normal-hitwhistle.wav
192,192,87312,1,0,0:0:0:40:normal-hitwhistle.wav
448,192,87562,128,0,88937:0:0:0:40:normal-hitwhistle.wav
192,192,89187,1,0,0:0:0:30:normal-hitwhistle.wav
192,192,89437,1,0,0:0:0:30:normal-hitwhistle.wav
64,192,89687,1,0,0:0:0:55:light clap.wav
192,192,89937,1,0,0:0:0:40:normal-hitwhistle.wav
448,192,90312,128,0,90562:0:0:0:40:normal-hitwhistle.wav
64,192,90562,1,0,0:0:0:40:normal-hitwhistle.wav
192,192,90687,1,0,0:0:0:55:light clap.wav
320,192,90812,1,0,0:0:0:40:normal-hitwhistle.wav
64,192,90937,1,0,0:0:0:40:normal-hitwhistle.wav
448,192,91062,1,0,0:0:0:40:normal-hitwhistle.wav
320,192,91187,1,0,0:0:0:40:normal-hitwhistle.wav
192,192,91187,128,0,92562:0:0:0:40:normal-hitwhistle.wav
320,192,92812,1,0,0:0:0:40:normal-hitwhistle.wav
192,192,92937,1,0,0:0:0:40:normal-hitwhistle.wav
320,192,93062,1,0,0:0:0:40:normal-hitwhistle.wav
448,192,93187,128,0,94062:0:0:0:20:echo crash.wav
64,192,93187,128,0,94062:0:0:0:25:normal-hitwhistle.wav
192,192,94312,128,0,94562:0:0:0:25:normal-hitwhistle.wav
64,192,94562,1,0,0:0:0:35:rim.wav
448,192,94687,1,0,0:0:0:35:rim.wav
320,192,94812,1,0,0:0:0:35:rim.wav
64,192,94937,1,0,0:0:0:35:rim.wav
448,192,95062,1,0,0:0:0:35:rim.wav
192,192,95187,128,0,95437:0:0:0:25:normal-hitwhistle.wav
64,192,95437,128,0,95687:0:0:0:25:normal-hitwhistle.wav
448,192,95687,128,0,95937:0:0:0:25:normal-hitwhistle.wav
320,192,95937,1,0,0:0:0:35:rim.wav
64,192,96062,128,0,96312:0:0:0:25:normal-hitwhistle.wav
320,192,96312,128,0,96562:0:0:0:25:normal-hitwhistle.wav
192,192,96562,128,0,96812:0:0:0:25:normal-hitwhistle.wav
448,192,96937,128,0,97187:0:0:0:25:normal-hitwhistle.wav
64,192,97187,128,0,97687:0:0:0:25:normal-hitwhistle.wav
320,192,97687,128,0,98187:0:0:0:25:normal-hitwhistle.wav
192,192,98187,128,0,98687:0:0:0:25:normal-hitwhistle.wav
320,192,98687,128,0,99187:0:0:0:25:normal-hitwhistle.wav
448,192,99187,128,0,99687:0:0:0:25:normal-hitwhistle.wav
320,192,99687,128,0,100187:0:0:0:25:normal-hitwhistle.wav
64,192,100187,128,0,100687:0:0:0:25:normal-hitwhistle.wav
192,192,100687,128,0,101187:0:0:0:25:normal-hitwhistle.wav
448,192,101187,128,0,103187:0:0:0:25:normal-hitwhistle.wav
320,192,101187,128,0,103187:0:0:0:25:soft-hitnormal.wav
64,192,103187,1,0,0:0:0:35:rim.wav
192,192,103562,1,0,0:0:0:35:rim.wav
448,192,103937,1,0,0:0:0:35:rim.wav
192,192,104312,1,0,0:0:0:20:normal-hitwhistle.wav
64,192,104312,1,0,0:0:0:10:I+hate+pitch.wav
320,192,104437,1,0,0:0:0:10:I+hate+pitch.wav
448,192,104437,1,0,0:0:0:20:normal-hitwhistle.wav
192,192,104562,1,0,0:0:0:25:hard kick.wav
64,192,104562,1,0,0:0:0:10:I+hate+pitch.wav
320,192,104687,1,0,0:0:0:20:normal-hitwhistle.wav
448,192,104687,1,0,0:0:0:10:I+hate+pitch.wav
64,192,104937,128,0,105187:0:0:0:25:normal-hitwhistle.wav
448,192,105187,1,0,0:0:0:10:hard kick.wav
192,192,105187,1,0,0:0:0:10:I+hate+pitch.wav
320,192,105312,1,0,0:0:0:20:
64,192,105437,1,0,0:0:0:20:
192,192,105562,1,0,0:0:0:20:
448,192,105687,1,0,0:0:0:20:
320,192,105812,1,0,0:0:0:20:
320,192,106312,1,0,0:0:0:20:
64,192,106437,1,0,0:0:0:20:
192,192,106562,1,0,0:0:0:20:
448,192,106687,1,0,0:0:0:20:
320,192,106812,1,0,0:0:0:20:
448,192,107312,1,0,0:0:0:20:
64,192,107437,1,0,0:0:0:20:
320,192,107562,1,0,0:0:0:20:
192,192,107687,1,0,0:0:0:0:
64,192,107812,1,0,0:0:0:20:
192,192,107937,1,0,0:0:0:20:
448,192,108062,1,0,0:0:0:20:
320,192,108187,1,0,0:0:0:20:
192,192,108437,1,0,0:0:0:20:
64,192,108562,1,0,0:0:0:20:
192,192,109187,1,0,0:0:0:20:
320,192,109312,1,0,0:0:0:20:
192,192,109562,1,0,0:0:0:20:
448,192,109687,1,0,0:0:0:20:
64,192,109937,1,0,0:0:0:20:
320,192,110187,1,0,0:0:0:20:
448,192,110312,1,0,0:0:0:20:
320,192,110437,1,0,0:0:0:20:
192,192,110562,1,0,0:0:0:20:
64,192,110937,1,0,0:0:0:20:
320,192,111187,1,0,0:0:0:20:
192,192,111312,1,0,0:0:0:20:
320,192,111437,1,0,0:0:0:20:
64,192,111562,1,0,0:0:0:20:
192,192,111687,1,0,0:0:0:0:
448,192,111812,1,0,0:0:0:20:
320,192,111937,128,0,112187:0:0:0:40:normal-hitwhistle.wav
64,192,112187,1,0,0:0:0:25:hard kick.wav
320,192,112437,1,0,0:0:0:20:normal-hitwhistle.wav
448,192,112687,1,0,0:0:0:25:hard kick.wav
192,192,112937,128,0,113187:0:0:0:35:rim.wav
64,192,113187,1,0,0:0:0:20:echo crash.wav
448,192,113187,1,0,0:0:0:25:hard kick.wav
320,192,113312,1,0,0:0:0:25:hard kick.wav
64,192,113437,1,0,0:0:0:25:normal-hitwhistle.wav
192,192,113562,1,0,0:0:0:25:hard kick.wav
320,192,113687,1,0,0:0:0:25:normal-hitwhistle.wav
448,192,113812,128,0,114187:0:0:0:25:normal-hitwhistle.wav
64,192,114187,1,0,0:0:0:25:normal-hitwhistle.wav
320,192,114312,1,0,0:0:0:25:hard kick.wav
64,192,114437,1,0,0:0:0:25:normal-hitwhistle.wav
192,192,114562,1,0,0:0:0:25:hard kick.wav
448,192,114687,1,0,0:0:0:25:hard kick.wav
192,192,114812,128,0,115187:0:0:0:25:hard kick.wav
64,192,115187,1,0,0:0:0:10:I+hate+pitch.wav
448,192,115312,1,0,0:0:0:25:normal-hitwhistle.wav
192,192,115437,1,0,0:0:0:10:I+hate+pitch.wav
320,192,115562,1,0,0:0:0:25:hard kick.wav
64,192,115687,1,0,0:0:0:10:I+hate+pitch.wav
320,192,115812,1,0,0:0:0:25:normal-hitwhistle.wav
192,192,115937,1,0,0:0:0:10:I+hate+pitch.wav
448,192,116062,1,0,0:0:0:25:hard kick.wav
192,192,116187,128,0,116437:0:0:0:10:I+hate+pitch.wav
320,192,116437,1,0,0:0:0:10:I+hate+pitch.wav
64,192,116562,128,0,117187:0:0:0:25:hard kick.wav
320,192,117312,1,0,0:0:0:25:normal-hitwhistle.wav
64,192,117437,1,0,0:0:0:10:I+hate+pitch.wav
192,192,117562,1,0,0:0:0:25:hard kick.wav
448,192,117687,1,0,0:0:0:25:normal-hitwhistle.wav
192,192,117812,128,0,118187:0:0:0:25:normal-hitwhistle.wav
320,192,118187,1,0,0:0:0:10:I+hate+pitch.wav
64,192,118312,1,0,0:0:0:25:normal-hitwhistle.wav
192,192,118437,1,0,0:0:0:25:normal-hitwhistle.wav
320,192,118562,1,0,0:0:0:25:normal-hitwhistle.wav
64,192,118687,1,0,0:0:0:25:normal-hitwhistle.wav
320,192,118812,128,0,119187:0:0:0:25:normal-hitwhistle.wav
448,192,119187,1,0,0:0:0:25:normal-hitwhistle.wav
64,192,119312,1,0,0:0:0:25:hard kick.wav
320,192,119437,1,0,0:0:0:10:I+hate+pitch.wav
192,192,119562,1,0,0:0:0:25:hard kick.wav
320,192,119687,1,0,0:0:0:25:hard kick.wav
448,192,119812,1,0,0:0:0:25:hard kick.wav
192,192,119937,1,0,0:0:0:25:hard kick.wav
64,192,120062,1,0,0:0:0:25:hard kick.wav
448,192,120187,128,0,120437:0:0:0:25:hard kick.wav
320,192,120437,1,0,0:0:0:10:I+hate+pitch.wav
64,192,120562,128,0,121187:0:0:0:25:normal-hitwhistle.wav
320,192,121187,1,0,0:0:0:10:I+hate+pitch.wav
448,192,121187,1,0,0:0:0:20:echo crash.wav
192,192,121312,1,0,0:0:0:25:normal-hitwhistle.wav
64,192,121437,1,0,0:0:0:25:normal-hitwhistle.wav
448,192,121562,1,0,0:0:0:25:hard kick.wav
320,192,121687,1,0,0:0:0:10:I+hate+pitch.wav
64,192,121812,128,0,122187:0:0:0:25:hard kick.wav
448,192,122187,1,0,0:0:0:25:normal-hitwhistle.wav
320,192,122312,1,0,0:0:0:25:normal-hitwhistle.wav
64,192,122437,1,0,0:0:0:25:normal-hitwhistle.wav
448,192,122562,1,0,0:0:0:25:normal-hitwhistle.wav
192,192,122687,1,0,0:0:0:25:hard kick.wav
448,192,122812,128,0,123187:0:0:0:25:hard kick.wav
64,192,123187,1,0,0:0:0:10:I+hate+pitch.wav
320,192,123312,1,0,0:0:0:25:normal-hitwhistle.wav
192,192,123437,1,0,0:0:0:25:hard kick.wav
448,192,123562,1,0,0:0:0:25:hard kick.wav
192,192,123687,1,0,0:0:0:25:normal-hitwhistle.wav
320,192,123812,1,0,0:0:0:25:normal-hitwhistle.wav
192,192,123937,1,0,0:0:0:25:hard kick.wav
64,192,124062,1,0,0:0:0:25:hard kick.wav
320,192,124187,128,0,124437:0:0:0:25:normal-hitwhistle.wav
192,192,124437,1,0,0:0:0:10:I+hate+pitch.wav
64,192,124562,128,0,124812:0:0:0:25:hard kick.wav
192,192,124812,1,0,0:0:0:25:hard kick.wav
448,192,124937,1,0,0:0:0:10:I+hate+pitch.wav
320,192,125062,1,0,0:0:0:25:normal-hitwhistle.wav
64,192,125187,1,0,0:0:0:25:normal-hitwhistle.wav
192,192,125312,1,0,0:0:0:25:normal-hitwhistle.wav
448,192,125562,1,0,0:0:0:25:hard kick.wav
320,192,125687,1,0,0:0:0:25:normal-hitwhistle.wav
192,192,125937,1,0,0:0:0:25:hard kick.wav
64,192,126187,1,0,0:0:0:10:I+hate+pitch.wav
448,192,126187,1,0,0:0:0:25:hard kick.wav
192,192,126312,1,0,0:0:0:25:hard kick.wav
320,192,126437,1,0,0:0:0:25:hard kick.wav
448,192,126562,1,0,0:0:0:20:echo crash.wav
192,192,126562,1,0,0:0:0:25:hard kick.wav
320,192,126937,1,0,0:0:0:25:normal-hitwhistle.wav
64,192,126937,1,0,0:0:0:10:I+hate+pitch.wav
448,192,127187,1,0,0:0:0:25:hard kick.wav
192,192,127187,1,0,0:0:0:10:I+hate+pitch.wav
320,192,127312,1,0,0:0:0:25:normal-hitwhistle.wav
64,192,127437,1,0,0:0:0:25:normal-hitwhistle.wav
192,192,127562,128,0,127812:0:0:0:25:normal-hitwhistle.wav
448,192,127812,1,0,0:0:0:25:hard kick.wav
320,192,127937,1,0,0:0:0:25:hard kick.wav
192,192,128062,1,0,0:0:0:25:hard kick.wav
64,192,128187,128,0,128812:0:0:0:10:I+hate+pitch.wav
448,192,128812,1,0,0:0:0:25:hard kick.wav
192,192,128937,1,0,0:0:0:25:hard kick.wav
320,192,129062,1,0,0:0:0:25:hard kick.wav
448,192,129187,1,0,0:0:0:25:normal-hitwhistle.wav
64,192,129187,1,0,0:0:0:10:I+hate+pitch.wav
192,192,129312,1,0,0:0:0:25:normal-hitwhistle.wav
320,192,129562,1,0,0:0:0:25:hard kick.wav
64,192,129687,1,0,0:0:0:25:hard kick.wav
448,192,129937,1,0,0:0:0:25:normal-hitwhistle.wav
64,192,130187,128,0,131187:0:0:0:25:normal-hitwhistle.wav
192,192,130187,1,0,0:0:0:10:I+hate+pitch.wav
320,192,130312,1,0,0:0:0:25:hard kick.wav
448,192,130437,1,0,0:0:0:10:I+hate+pitch.wav
192,192,130562,1,0,0:0:0:25:hard kick.wav
320,192,130937,1,0,0:0:0:25:normal-hitwhistle.wav
192,192,131187,1,0,0:0:0:25:hard kick.wav
448,192,131187,1,0,0:0:0:20:echo crash.wav
320,192,131312,1,0,0:0:0:25:hard kick.wav
64,192,131437,1,0,0:0:0:20:normal-hitwhistle.wav
448,192,131562,128,0,131812:0:0:0:20:normal-hitwhistle.wav
320,192,131812,1,0,0:0:0:20:normal-hitwhistle.wav
192,192,131937,1,0,0:0:0:25:hard kick.wav
64,192,132062,1,0,0:0:0:25:hard kick.wav
320,192,132187,128,0,132937:0:0:0:20:normal-hitwhistle.wav
64,192,132937,128,0,133187:0:0:0:35:normal-hitwhistle.wav
448,192,132937,128,0,133187:0:0:0:0:
320,192,133187,1,0,0:0:0:15:I+hate+pitch.wav
192,192,133187,1,0,0:0:0:25:hard kick.wav
448,192,133437,1,0,0:0:0:25:hard kick.wav
64,192,133437,1,0,0:0:0:15:I+hate+pitch.wav
320,192,133687,1,0,0:0:0:25:hard kick.wav
192,192,133687,1,0,0:0:0:15:I+hate+pitch.wav
448,192,133937,1,0,0:0:0:25:hard kick.wav
64,192,133937,1,0,0:0:0:15:I+hate+pitch.wav
192,192,134187,1,0,0:0:0:25:hard kick.wav
320,192,134312,1,0,0:0:0:15:I+hate+pitch.wav
192,192,134562,1,0,0:0:0:25:hard kick.wav
448,192,134562,1,0,0:0:0:15:I+hate+pitch.wav
64,192,134812,1,0,0:0:0:25:hard kick.wav
320,192,134812,1,0,0:0:0:15:I+hate+pitch.wav
192,192,135062,1,0,0:0:0:15:I+hate+pitch.wav
320,192,135187,1,0,0:0:0:15:I+hate+pitch.wav
448,192,135187,1,0,0:0:0:25:hard kick.wav
192,192,135437,1,0,0:0:0:15:I+hate+pitch.wav
64,192,135437,1,0,0:0:0:25:hard kick.wav
320,192,135687,1,0,0:0:0:15:I+hate+pitch.wav
448,192,135687,1,0,0:0:0:25:hard kick.wav
192,192,135937,1,0,0:0:0:15:I+hate+pitch.wav
64,192,135937,1,0,0:0:0:25:hard kick.wav
448,192,136187,1,0,0:0:0:15:I+hate+pitch.wav
320,192,136312,1,0,0:0:0:25:hard kick.wav
448,192,136562,1,0,0:0:0:25:hard kick.wav
64,192,136562,1,0,0:0:0:15:I+hate+pitch.wav
192,192,136812,1,0,0:0:0:15:I+hate+pitch.wav
320,192,136812,1,0,0:0:0:25:hard kick.wav
448,192,137062,1,0,0:0:0:25:hard kick.wav
64,192,137187,1,0,0:0:0:15:I+hate+pitch.wav
320,192,137187,1,0,0:0:0:25:hard kick.wav
192,192,137437,1,0,0:0:0:25:hard kick.wav
448,192,137437,1,0,0:0:0:15:I+hate+pitch.wav
64,192,137687,1,0,0:0:0:15:I+hate+pitch.wav
320,192,137687,1,0,0:0:0:25:hard kick.wav
192,192,137937,1,0,0:0:0:25:hard kick.wav
448,192,137937,1,0,0:0:0:15:I+hate+pitch.wav
320,192,138187,1,0,0:0:0:25:hard kick.wav
192,192,138312,1,0,0:0:0:15:I+hate+pitch.wav
448,192,138562,1,0,0:0:0:25:hard kick.wav
320,192,138562,1,0,0:0:0:15:I+hate+pitch.wav
192,192,138812,1,0,0:0:0:15:I+hate+pitch.wav
64,192,138812,1,0,0:0:0:25:hard kick.wav
320,192,139062,1,0,0:0:0:25:hard kick.wav
448,192,139187,1,0,0:0:0:25:hard kick.wav
64,192,139187,1,0,0:0:0:15:I+hate+pitch.wav
192,192,139437,1,0,0:0:0:25:hard kick.wav
320,192,139437,1,0,0:0:0:15:I+hate+pitch.wav
448,192,139687,1,0,0:0:0:25:hard kick.wav
64,192,139687,1,0,0:0:0:15:I+hate+pitch.wav
192,192,139937,1,0,0:0:0:25:hard kick.wav
320,192,139937,1,0,0:0:0:15:I+hate+pitch.wav
64,192,140187,1,0,0:0:0:25:hard kick.wav
192,192,140312,1,0,0:0:0:25:hard kick.wav
448,192,140562,1,0,0:0:0:25:hard kick.wav
320,192,140562,1,0,0:0:0:15:I+hate+pitch.wav
64,192,140812,1,0,0:0:0:25:hard kick.wav
192,192,140812,1,0,0:0:0:15:I+hate+pitch.wav
320,192,141062,1,0,0:0:0:25:hard kick.wav
448,192,141187,1,0,0:0:0:25:hard kick.wav
64,192,141187,128,0,145187:0:0:0:15:I+hate+pitch.wav
192,192,141437,1,0,0:0:0:20:normal-hitwhistle.wav
448,192,141687,1,0,0:0:0:20:normal-hitwhistle.wav
192,192,141937,1,0,0:0:0:25:hard kick.wav
448,192,142187,1,0,0:0:0:20:normal-hitwhistle.wav
320,192,142312,1,0,0:0:0:15:I+hate+pitch.wav
192,192,142562,1,0,0:0:0:20:normal-hitwhistle.wav
448,192,142812,1,0,0:0:0:20:normal-hitwhistle.wav
192,192,143062,1,0,0:0:0:20:normal-hitwhistle.wav
320,192,143187,1,0,0:0:0:15:I+hate+pitch.wav
448,192,143437,1,0,0:0:0:20:normal-hitwhistle.wav
320,192,143687,1,0,0:0:0:20:normal-hitwhistle.wav
448,192,143937,1,0,0:0:0:15:I+hate+pitch.wav
320,192,144187,1,0,0:0:0:20:normal-hitwhistle.wav
192,192,144312,1,0,0:0:0:20:normal-hitwhistle.wav
448,192,144562,1,0,0:0:0:20:normal-hitwhistle.wav
320,192,144812,1,0,0:0:0:15:I+hate+pitch.wav
192,192,145062,1,0,0:0:0:20:normal-hitwhistle.wav
320,192,145187,1,0,0:0:0:15:I+hate+pitch.wav
448,192,145187,128,0,148187:0:0:0:25:hard kick.wav
64,192,145437,1,0,0:0:0:20:normal-hitwhistle.wav
320,192,145687,1,0,0:0:0:15:I+hate+pitch.wav
64,192,145937,1,0,0:0:0:20:normal-hitwhistle.wav
320,192,146187,1,0,0:0:0:20:normal-hitwhistle.wav
192,192,146312,1,0,0:0:0:20:normal-hitwhistle.wav
64,192,146562,1,0,0:0:0:25:hard kick.wav
320,192,146812,1,0,0:0:0:20:normal-hitwhistle.wav
192,192,147062,1,0,0:0:0:20:normal-hitwhistle.wav
64,192,147187,1,0,0:0:0:15:I+hate+pitch.wav
320,192,147312,1,0,0:0:0:25:hard kick.wav
192,192,147437,1,0,0:0:0:20:normal-hitwhistle.wav
64,192,147562,1,0,0:0:0:20:normal-hitwhistle.wav
320,192,147687,1,0,0:0:0:15:I+hate+pitch.wav
64,192,147812,1,0,0:0:0:25:hard kick.wav
192,192,147937,1,0,0:0:0:20:normal-hitwhistle.wav
64,192,148062,1,0,0:0:0:20:normal-hitwhistle.wav
320,192,148187,128,0,149187:0:0:0:20:
192,192,148687,128,0,149187:0:0:0:20:
448,192,149187,1,0,0:0:0:55:light clap.wav
64,192,149187,1,0,0:0:0:10:I+hate+pitch.wav
320,192,149312,1,0,0:0:0:20:hard kick.wav
64,192,149437,1,0,0:0:0:10:I+hate+pitch.wav
192,192,149562,1,0,0:0:0:20:hard kick.wav
320,192,149687,1,0,0:0:0:20:hard kick.wav
448,192,149812,1,0,0:0:0:20:hard kick.wav
64,192,149937,1,0,0:0:0:20:normal-hitwhistle.wav
320,192,150062,1,0,0:0:0:20:normal-hitwhistle.wav
192,192,150187,1,0,0:0:0:20:normal-hitwhistle.wav
448,192,150312,1,0,0:0:0:10:I+hate+pitch.wav
320,192,150437,1,0,0:0:0:10:I+hate+pitch.wav
192,192,150562,1,0,0:0:0:20:hard kick.wav
64,192,150687,1,0,0:0:0:20:hard kick.wav
448,192,150812,1,0,0:0:0:20:hard kick.wav
192,192,150937,128,0,151187:0:0:0:20:hard kick.wav
320,192,151187,1,0,0:0:0:20:hard kick.wav
448,192,151312,1,0,0:0:0:20:hard kick.wav
64,192,151437,1,0,0:0:0:10:I+hate+pitch.wav
320,192,151562,1,0,0:0:0:10:I+hate+pitch.wav
192,192,151687,1,0,0:0:0:20:hard kick.wav
320,192,151812,1,0,0:0:0:10:I+hate+pitch.wav
448,192,151937,1,0,0:0:0:20:normal-hitwhistle.wav
320,192,152062,1,0,0:0:0:20:normal-hitwhistle.wav
192,192,152187,1,0,0:0:0:10:I+hate+pitch.wav
64,192,152312,1,0,0:0:0:20:normal-hitwhistle.wav
320,192,152437,1,0,0:0:0:10:I+hate+pitch.wav
448,192,152562,1,0,0:0:0:10:I+hate+pitch.wav
192,192,152687,1,0,0:0:0:20:normal-hitwhistle.wav
64,192,152812,1,0,0:0:0:20:normal-hitwhistle.wav
448,192,152937,128,0,153187:0:0:0:20:hard kick.wav
320,192,153187,1,0,0:0:0:10:I+hate+pitch.wav
64,192,153312,1,0,0:0:0:20:hard kick.wav
192,192,153437,1,0,0:0:0:10:I+hate+pitch.wav
448,192,153562,1,0,0:0:0:20:hard kick.wav
320,192,153687,1,0,0:0:0:10:I+hate+pitch.wav
64,192,153812,1,0,0:0:0:10:I+hate+pitch.wav
320,192,153937,1,0,0:0:0:20:hard kick.wav
448,192,154062,1,0,0:0:0:20:normal-hitwhistle.wav
192,192,154187,1,0,0:0:0:20:normal-hitwhistle.wav
64,192,154312,1,0,0:0:0:20:hard kick.wav
448,192,154437,1,0,0:0:0:20:hard kick.wav
320,192,154562,1,0,0:0:0:10:I+hate+pitch.wav
192,192,154687,1,0,0:0:0:20:hard kick.wav
64,192,154812,1,0,0:0:0:10:I+hate+pitch.wav
320,192,154937,128,0,155187:0:0:0:20:hard kick.wav
192,192,155187,1,0,0:0:0:10:I+hate+pitch.wav
448,192,155312,1,0,0:0:0:20:hard kick.wav
192,192,155437,1,0,0:0:0:10:I+hate+pitch.wav
448,192,155562,1,0,0:0:0:20:hard kick.wav
320,192,155687,1,0,0:0:0:20:hard kick.wav
64,192,155812,1,0,0:0:0:20:hard kick.wav
192,192,155937,1,0,0:0:0:20:hard kick.wav
448,192,156062,1,0,0:0:0:20:hard kick.wav
192,192,156187,1,0,0:0:0:20:normal-hitwhistle.wav
64,192,156187,1,0,0:0:0:20:hard kick.wav
320,192,156437,1,0,0:0:0:20:hard kick.wav
448,192,156437,1,0,0:0:0:10:I+hate+pitch.wav
64,192,156687,1,0,0:0:0:20:hard kick.wav
192,192,156687,1,0,0:0:0:10:I+hate+pitch.wav
448,192,156937,1,0,0:0:0:20:normal-hitwhistle.wav
320,192,156937,1,0,0:0:0:10:I+hate+pitch.wav
192,192,157187,1,0,0:0:0:20:normal-hitwhistle.wav
64,192,157187,1,0,0:0:0:15:echo crash.wav
320,192,157312,1,0,0:0:0:20:hard kick.wav
448,192,157437,1,0,0:0:0:20:hard kick.wav
64,192,157562,1,0,0:0:0:20:normal-hitwhistle.wav
192,192,157687,1,0,0:0:0:10:I+hate+pitch.wav
320,192,157812,1,0,0:0:0:10:I+hate+pitch.wav
448,192,157937,1,0,0:0:0:20:normal-hitwhistle.wav
64,192,158062,1,0,0:0:0:20:hard kick.wav
448,192,158187,1,0,0:0:0:20:normal-hitwhistle.wav
320,192,158312,1,0,0:0:0:10:I+hate+pitch.wav
192,192,158437,1,0,0:0:0:10:I+hate+pitch.wav
448,192,158562,1,0,0:0:0:20:normal-hitwhistle.wav
64,192,158687,1,0,0:0:0:20:hard kick.wav
320,192,158812,1,0,0:0:0:20:hard kick.wav
192,192,158937,128,0,159187:0:0:0:20:hard kick.wav
448,192,159187,1,0,0:0:0:10:I+hate+pitch.wav
64,192,159312,1,0,0:0:0:20:hard kick.wav
320,192,159437,1,0,0:0:0:10:I+hate+pitch.wav
192,192,159562,1,0,0:0:0:20:hard kick.wav
64,192,159687,1,0,0:0:0:20:hard kick.wav
320,192,159812,1,0,0:0:0:10:I+hate+pitch.wav
192,192,159937,1,0,0:0:0:10:I+hate+pitch.wav
448,192,160062,1,0,0:0:0:20:hard kick.wav
192,192,160187,1,0,0:0:0:10:I+hate+pitch.wav
64,192,160312,1,0,0:0:0:20:normal-hitwhistle.wav
320,192,160437,1,0,0:0:0:20:hard kick.wav
448,192,160562,1,0,0:0:0:20:normal-hitwhistle.wav
192,192,160687,1,0,0:0:0:20:normal-hitwhistle.wav
64,192,160812,1,0,0:0:0:20:hard kick.wav
192,192,160937,128,0,161187:0:0:0:10:I+hate+pitch.wav
448,192,161187,1,0,0:0:0:10:I+hate+pitch.wav
320,192,161312,1,0,0:0:0:20:hard kick.wav
192,192,161437,1,0,0:0:0:20:hard kick.wav
448,192,161562,1,0,0:0:0:20:normal-hitwhistle.wav
320,192,161687,1,0,0:0:0:20:hard kick.wav
192,192,161812,1,0,0:0:0:10:I+hate+pitch.wav
64,192,161937,1,0,0:0:0:20:hard kick.wav
192,192,162062,1,0,0:0:0:20:hard kick.wav
448,192,162187,1,0,0:0:0:10:I+hate+pitch.wav
320,192,162312,1,0,0:0:0:20:hard kick.wav
192,192,162437,1,0,0:0:0:10:I+hate+pitch.wav
448,192,162562,1,0,0:0:0:10:I+hate+pitch.wav
64,192,162687,1,0,0:0:0:10:I+hate+pitch.wav
192,192,162812,1,0,0:0:0:20:hard kick.wav
448,192,162937,1,0,0:0:0:20:hard kick.wav
64,192,162937,128,0,164187:0:0:0:10:I+hate+pitch.wav
320,192,163187,1,0,0:0:0:10:I+hate+pitch.wav
192,192,163437,1,0,0:0:0:20:hard kick.wav
448,192,163687,1,0,0:0:0:20:hard kick.wav
320,192,163937,1,0,0:0:0:20:hard kick.wav
448,192,164187,1,0,0:0:0:10:I+hate+pitch.wav
192,192,164187,1,0,0:0:0:20:normal-hitwhistle.wav
64,192,164437,1,0,0:0:0:20:hard kick.wav
320,192,164437,1,0,0:0:0:10:I+hate+pitch.wav
448,192,164687,1,0,0:0:0:10:I+hate+pitch.wav
192,192,164687,1,0,0:0:0:20:normal-hitwhistle.wav
64,192,164937,1,0,0:0:0:10:I+hate+pitch.wav
320,192,164937,1,0,0:0:0:20:hard kick.wav
448,192,165187,1,0,0:0:0:20:normal-hitwhistle.wav
192,192,165187,1,0,0:0:0:10:I+hate+pitch.wav
320,192,165312,1,0,0:0:0:40:normal-hitwhistle.wav
64,192,165437,1,0,0:0:0:40:normal-hitwhistle.wav
192,192,165562,1,0,0:0:0:40:normal-hitwhistle.wav
320,192,165687,1,0,0:0:0:55:light clap.wav
448,192,165937,1,0,0:0:0:25:hard kick.wav
192,192,166062,1,0,0:0:0:40:normal-hitwhistle.wav
64,192,166187,1,0,0:0:0:40:normal-hitwhistle.wav
320,192,166312,1,0,0:0:0:25:hard kick.wav
192,192,166437,1,0,0:0:0:40:normal-hitwhistle.wav
448,192,166687,1,0,0:0:0:55:light clap.wav
320,192,166937,1,0,0:0:0:40:normal-hitwhistle.wav
64,192,167187,1,0,0:0:0:10:I+hate+pitch.wav
192,192,167187,1,0,0:0:0:40:normal-hitwhistle.wav
320,192,167312,1,0,0:0:0:40:normal-hitwhistle.wav
448,192,167437,1,0,0:0:0:40:normal-hitwhistle.wav
320,192,167562,1,0,0:0:0:40:normal-hitwhistle.wav
64,192,167687,1,0,0:0:0:55:light clap.wav
448,192,167937,1,0,0:0:0:40:normal-hitwhistle.wav
192,192,168062,1,0,0:0:0:40:normal-hitwhistle.wav
64,192,168187,1,0,0:0:0:40:normal-hitwhistle.wav
448,192,168312,1,0,0:0:0:40:normal-hitwhistle.wav
192,192,168437,1,0,0:0:0:40:normal-hitwhistle.wav
320,192,168562,1,0,0:0:0:40:normal-hitwhistle.wav
448,192,168687,1,0,0:0:0:55:light clap.wav
192,192,168812,1,0,0:0:0:40:normal-hitwhistle.wav
320,192,168937,1,0,0:0:0:40:normal-hitwhistle.wav
64,192,169062,1,0,0:0:0:40:normal-hitwhistle.wav
320,192,169187,1,0,0:0:0:10:I+hate+pitch.wav
448,192,169187,1,0,0:0:0:40:normal-hitwhistle.wav
192,192,169312,1,0,0:0:0:40:normal-hitwhistle.wav
64,192,169437,1,0,0:0:0:40:normal-hitwhistle.wav
448,192,169562,1,0,0:0:0:40:normal-hitwhistle.wav
64,192,169687,1,0,0:0:0:55:light clap.wav
192,192,169937,1,0,0:0:0:40:normal-hitwhistle.wav
448,192,170062,1,0,0:0:0:40:normal-hitwhistle.wav
64,192,170187,1,0,0:0:0:40:normal-hitwhistle.wav
320,192,170312,1,0,0:0:0:25:hard kick.wav
448,192,170437,1,0,0:0:0:40:normal-hitwhistle.wav
192,192,170687,1,0,0:0:0:55:light clap.wav
64,192,170937,1,0,0:0:0:40:normal-hitwhistle.wav
448,192,171187,1,0,0:0:0:25:hard kick.wav
192,192,171187,1,0,0:0:0:10:I+hate+pitch.wav
320,192,171312,1,0,0:0:0:40:normal-hitwhistle.wav
192,192,171437,1,0,0:0:0:40:normal-hitwhistle.wav
64,192,171562,1,0,0:0:0:40:normal-hitwhistle.wav
448,192,171687,1,0,0:0:0:55:light clap.wav
192,192,171937,1,0,0:0:0:25:hard kick.wav
320,192,172062,1,0,0:0:0:40:normal-hitwhistle.wav
448,192,172187,1,0,0:0:0:70:normal-hitwhistle.wav
64,192,172437,1,0,0:0:0:70:normal-hitwhistle.wav
192,192,172562,1,0,0:0:0:70:normal-hitwhistle.wav
320,192,172687,1,0,0:0:0:70:normal-hitwhistle.wav
192,192,172937,1,0,0:0:0:70:normal-hitwhistle.wav
448,192,173187,1,0,0:0:0:20:echo crash.wav
64,192,173187,1,0,0:0:0:15:I+hate+pitch.wav
320,192,173312,1,0,0:0:0:20:normal-hitwhistle.wav
448,192,173437,1,0,0:0:0:55:light clap.wav
64,192,173562,1,0,0:0:0:20:normal-hitwhistle.wav
192,192,173687,1,0,0:0:0:20:normal-hitwhistle.wav
320,192,173812,1,0,0:0:0:25:hard kick.wav
192,192,173937,1,0,0:0:0:20:normal-hitwhistle.wav
448,192,174062,1,0,0:0:0:10:I+hate+pitch.wav
320,192,174187,1,0,0:0:0:20:normal-hitwhistle.wav
64,192,174312,1,0,0:0:0:20:normal-hitwhistle.wav
192,192,174437,1,0,0:0:0:55:light clap.wav
64,192,174687,1,0,0:0:0:20:normal-hitwhistle.wav
448,192,174812,1,0,0:0:0:25:hard kick.wav
192,192,174937,1,0,0:0:0:55:light clap.wav
448,192,175187,1,0,0:0:0:20:normal-hitwhistle.wav
64,192,175187,1,0,0:0:0:25:hard kick.wav
192,192,175312,1,0,0:0:0:20:normal-hitwhistle.wav
320,192,175437,1,0,0:0:0:55:light clap.wav
448,192,175562,1,0,0:0:0:20:normal-hitwhistle.wav
64,192,175687,1,0,0:0:0:20:normal-hitwhistle.wav
320,192,175812,1,0,0:0:0:25:hard kick.wav
192,192,175937,1,0,0:0:0:55:light clap.wav
64,192,176062,1,0,0:0:0:20:normal-hitwhistle.wav
320,192,176187,1,0,0:0:0:20:normal-hitwhistle.wav
448,192,176312,1,0,0:0:0:10:I+hate+pitch.wav
64,192,176437,1,0,0:0:0:20:normal-hitwhistle.wav
192,192,176562,1,0,0:0:0:20:normal-hitwhistle.wav
320,192,176687,1,0,0:0:0:25:hard kick.wav
64,192,176812,1,0,0:0:0:10:I+hate+pitch.wav
448,192,176937,1,0,0:0:0:20:normal-hitwhistle.wav
192,192,177062,1,0,0:0:0:20:normal-hitwhistle.wav
64,192,177187,1,0,0:0:0:10:I+hate+pitch.wav
320,192,177187,1,0,0:0:0:25:hard kick.wav
192,192,177437,1,0,0:0:0:25:hard kick.wav
448,192,177437,1,0,0:0:0:10:I+hate+pitch.wav
320,192,177687,1,0,0:0:0:20:normal-hitwhistle.wav
64,192,177687,1,0,0:0:0:10:I+hate+pitch.wav
192,192,177937,1,0,0:0:0:25:hard kick.wav
448,192,177937,1,0,0:0:0:20:normal-hitwhistle.wav
64,192,178187,1,0,0:0:0:25:hard kick.wav
448,192,178187,1,0,0:0:0:10:I+hate+pitch.wav
320,192,178437,1,0,0:0:0:25:hard kick.wav
192,192,178437,1,0,0:0:0:10:I+hate+pitch.wav
448,192,178687,1,0,0:0:0:20:normal-hitwhistle.wav
64,192,178687,1,0,0:0:0:10:I+hate+pitch.wav
192,192,178937,1,0,0:0:0:25:hard kick.wav
320,192,178937,1,0,0:0:0:10:I+hate+pitch.wav
448,192,179187,1,0,0:0:0:25:hard kick.wav
320,192,179312,1,0,0:0:0:20:normal-hitwhistle.wav
64,192,179437,1,0,0:0:0:25:hard kick.wav
192,192,179562,1,0,0:0:0:20:normal-hitwhistle.wav
448,192,179687,1,0,0:0:0:20:normal-hitwhistle.wav
320,192,179812,1,0,0:0:0:25:light clap.wav
64,192,179937,1,0,0:0:0:25:hard kick.wav
192,192,180062,1,0,0:0:0:25:light clap.wav
448,192,180187,128,0,181187:0:0:0:10:I+hate+pitch.wav
320,192,180187,1,0,0:0:0:20:normal-hitwhistle.wav
64,192,180437,1,0,0:0:0:20:normal-hitwhistle.wav
320,192,180687,1,0,0:0:0:25:hard kick.wav
192,192,180937,1,0,0:0:0:25:hard kick.wav
64,192,181187,1,0,0:0:0:20:normal-hitwhistle.wav
192,192,181437,1,0,0:0:0:70:normal-hitwhistle.wav
448,192,181562,1,0,0:0:0:70:normal-hitwhistle.wav
320,192,181687,1,0,0:0:0:70:normal-hitwhistle.wav
64,192,181937,1,0,0:0:0:70:normal-hitwhistle.wav
64,192,182437,1,0,0:0:0:20:normal-hitwhistle.wav
192,192,182437,1,0,0:0:0:10:I+hate+pitch.wav
320,192,182687,1,0,0:0:0:20:normal-hitwhistle.wav
192,192,182687,1,0,0:0:0:10:I+hate+pitch.wav
448,192,182937,1,0,0:0:0:20:normal-hitwhistle.wav
320,192,182937,1,0,0:0:0:10:I+hate+pitch.wav
64,192,183187,1,0,0:0:0:20:normal-hitwhistle.wav
192,192,183187,1,0,0:0:0:20:echo crash.wav
448,192,183187,1,0,0:0:0:10:I+hate+pitch.wav
