osu file format v14

[General]
AudioFilename: audio.mp3
AudioLeadIn: 0
PreviewTime: 253657
Countdown: 1
SampleSet: Normal
StackLeniency: 0.7
Mode: 1
LetterboxInBreaks: 0
WidescreenStoryboard: 0

[Editor]
Bookmarks: 157154,172154,187154,215279
DistanceSpacing: 1.1
BeatDivisor: 4
GridSize: 32
TimelineZoom: 2.999998

[Metadata]
Title:Garakuta Doll Play (uncut edition)
TitleUnicode:Garakuta Doll Play (uncut edition)
Artist:t+pazolite
ArtistUnicode:t+pazolite
Creator:ControlPro
Version:Girlish Oni
Source:
Tags:high bpm electronic ponko2 girlish
BeatmapID:1972935
BeatmapSetID:944735

[Difficulty]
HPDrainRate:6
CircleSize:7
OverallDifficulty:6
ApproachRate:0
SliderMultiplier:1.4
SliderTickRate:1

[Events]
//Background and Video events
0,0,"ponko2 girlish2.jpg",0,0
//Break Periods
2,216299,223323
2,239854,245354
//Storyboard Layer 0 (Background)
//Storyboard Layer 1 (Fail)
//Storyboard Layer 2 (Pass)
//Storyboard Layer 3 (Foreground)
//Storyboard Sound Samples

[TimingPoints]
2596,631.578947368421,4,1,0,100,1,0
20279,234.375,4,1,0,100,1,0
37154,-100,4,1,0,100,0,1
43716,-100,4,1,0,100,0,0
44654,-100,4,1,0,100,0,1
50279,-100,4,1,0,100,0,0
52154,-100,4,1,0,100,0,1
55904,-99.009900990099,4,1,0,100,0,1
56138,-98.0392156862745,4,1,0,100,0,1
56372,-97.0873786407767,4,1,0,100,0,1
56607,-96.1538461538462,4,1,0,100,0,1
56841,-95.2380952380952,4,1,0,100,0,1
57075,-94.3396226415095,4,1,0,100,0,1
57310,-93.4579439252337,4,1,0,100,0,1
57544,-92.5925925925926,4,1,0,100,0,1
57779,-91.7431192660551,4,1,0,100,0,1
58013,-90.9090909090909,4,1,0,100,0,1
58247,-90.0900900900901,4,1,0,100,0,1
58482,-89.2857142857143,4,1,0,100,0,1
58716,-88.495575221239,4,1,0,100,0,0
58950,-87.719298245614,4,1,0,100,0,0
59185,-86.9565217391305,4,1,0,100,0,0
59419,-86.2068965517241,4,1,0,100,0,0
59654,-100,4,1,0,100,0,1
63404,-99.009900990099,4,1,0,100,0,1
63638,-98.0392156862745,4,1,0,100,0,1
63872,-97.0873786407767,4,1,0,100,0,1
64107,-96.1538461538462,4,1,0,100,0,1
64341,-95.2380952380952,4,1,0,100,0,1
64575,-94.3396226415095,4,1,0,100,0,1
64810,-93.4579439252337,4,1,0,100,0,1
65044,-92.5925925925926,4,1,0,100,0,1
65279,-91.7431192660551,4,1,0,100,0,1
65337,-90.9090909090909,4,1,0,100,0,1
65396,-89.2857142857143,4,1,0,100,0,1
65454,-87.719298245614,4,1,0,100,0,1
65513,-86.2068965517241,4,1,0,100,0,1
65571,-84.0336134453782,4,1,0,100,0,1
65630,-81.9672131147541,4,1,0,100,0,1
65689,-80,4,1,0,100,0,1
65747,-78.125,4,1,0,100,0,1
65806,-75.7575757575758,4,1,0,100,0,1
65864,-73.5294117647059,4,1,0,100,0,1
65923,-71.4285714285714,4,1,0,100,0,1
65982,-68.9655172413793,4,1,0,100,0,1
66040,-66.6666666666667,4,1,0,100,0,1
66099,-64.5161290322581,4,1,0,100,0,1
66157,-62.5,4,1,0,100,0,0
66626,-100,4,1,0,100,0,0
74654,-100,4,1,0,100,0,1
81216,-100,4,1,0,100,0,0
82154,-100,4,1,0,100,0,1
89654,-100,4,1,0,100,0,0
91529,-100,4,1,0,100,0,1
96216,-100,4,1,0,100,0,0
97154,-100,4,1,0,100,0,1
102544,-100,4,1,0,100,0,0
104654,-100,4,1,0,100,0,1
112154,-100,4,1,0,100,0,0
157154,-100,4,1,0,100,0,1
162661,-100,4,1,0,100,0,0
164654,-100,4,1,0,100,0,1
171216,-100,4,1,0,100,0,0
184341,-90.9090909090909,4,1,0,100,0,0
184458,-83.3333333333333,4,1,0,100,0,0
184575,-76.9230769230769,4,1,0,100,0,0
184693,-71.4285714285714,4,1,0,100,0,0
184810,-66.6666666666667,4,1,0,100,0,0
184927,-62.5,4,1,0,100,0,0
185044,-58.8235294117647,4,1,0,100,0,0
185279,-100,4,1,0,100,0,0
187154,-100,4,1,0,100,0,1
190669,-100,4,1,0,100,0,0
190904,-149.253731343284,4,1,0,100,0,0
194068,-142.857142857143,4,1,0,100,0,0
194126,-136.986301369863,4,1,0,100,0,0
194185,-131.578947368421,4,1,0,100,0,0
194243,-126.582278481013,4,1,0,100,0,0
194302,-121.951219512195,4,1,0,100,0,0
194361,-117.647058823529,4,1,0,100,0,0
194419,-113.636363636364,4,1,0,100,0,0
194478,-109.89010989011,4,1,0,100,0,0
194536,-106.382978723404,4,1,0,100,0,0
194595,-103.092783505155,4,1,0,100,0,0
194654,-100,4,1,0,100,0,1
198169,-100,4,1,0,100,0,0
198404,-149.253731343284,4,1,0,100,0,0
201568,-142.857142857143,4,1,0,100,0,0
201626,-136.986301369863,4,1,0,100,0,0
201685,-131.578947368421,4,1,0,100,0,0
201743,-126.582278481013,4,1,0,100,0,0
201802,-121.951219512195,4,1,0,100,0,0
201861,-117.647058823529,4,1,0,100,0,0
201919,-113.636363636364,4,1,0,100,0,0
201978,-109.89010989011,4,1,0,100,0,0
202036,-106.382978723404,4,1,0,100,0,0
202095,-103.092783505155,4,1,0,100,0,0
202154,-100,4,1,0,100,0,1
207779,-100,4,1,0,100,0,0
209654,-100,4,1,0,100,0,1
213404,-100,4,1,0,100,0,0
213462,-99.009900990099,4,1,0,100,0,0
213521,-98.0392156862745,4,1,0,100,0,0
213579,-97.0873786407767,4,1,0,100,0,0
213638,-96.1538461538462,4,1,0,100,0,0
213696,-95.2380952380952,4,1,0,100,0,0
213755,-94.3396226415095,4,1,0,100,0,0
213813,-93.4579439252337,4,1,0,100,0,0
213872,-92.5925925925926,4,1,0,100,0,0
213930,-91.7431192660551,4,1,0,100,0,0
213989,-90.9090909090909,4,1,0,100,0,0
214047,-90.0900900900901,4,1,0,100,0,0
214107,-89.2857142857143,4,1,0,100,0,0
214165,-88.495575221239,4,1,0,100,0,0
214224,-87.719298245614,4,1,0,100,0,0
214282,-86.9565217391305,4,1,0,100,0,0
214341,-86.2068965517241,4,1,0,100,0,0
214399,-85.4700854700855,4,1,0,100,0,0
214458,-84.7457627118644,4,1,0,100,0,0
214516,-84.0336134453782,4,1,0,100,0,0
214575,-83.3333333333333,4,1,0,100,0,0
214633,-82.6446280991736,4,1,0,100,0,0
214692,-81.9672131147541,4,1,0,100,0,0
214750,-81.3008130081301,4,1,0,100,0,0
214810,-80.6451612903226,4,1,0,100,0,0
214868,-80,4,1,0,100,0,0
214927,-79.3650793650794,4,1,0,100,0,0
214985,-78.740157480315,4,1,0,100,0,0
215044,-78.125,4,1,0,100,0,0
215103,-77.5193798449613,4,1,0,100,0,0
215161,-76.9230769230769,4,1,0,100,0,0
216685,58.59375,4,1,0,15,1,0
218926,29.296875,4,1,0,100,1,0
219746,234.375,4,1,0,100,1,0
225123,234.375,4,1,0,100,1,0
225123,-100,4,1,0,15,0,0
227935,-100,4,1,0,30,0,0
231685,-100,4,1,0,50,0,0
233560,-100,4,1,0,80,0,0
237779,-100,4,1,0,100,0,0
254654,-100,4,1,0,100,0,1
261919,-100,4,1,0,100,0,0
262154,-100,4,1,0,100,0,1
268599,-100,4,1,0,100,0,0
269654,-100,4,1,0,100,0,1
272935,-100,4,1,0,100,0,0
273404,-100,4,1,0,100,0,1
276685,-100,4,1,0,100,0,0
277154,-100,4,1,0,100,0,1
281841,-99.009900990099,4,1,0,100,0,1
281900,-98.0392156862745,4,1,0,100,0,1
281958,-97.0873786407767,4,1,0,100,0,1
282017,-96.1538461538462,4,1,0,100,0,1
282076,-95.2380952380952,4,1,0,100,0,1
282134,-94.3396226415095,4,1,0,100,0,1
282193,-93.4579439252337,4,1,0,100,0,1
282251,-92.5925925925926,4,1,0,100,0,1
282310,-91.7431192660551,4,1,0,100,0,1
282349,-90.0900900900901,4,1,0,100,0,1
282388,-88.495575221239,4,1,0,100,0,1
282427,-86.9565217391305,4,1,0,100,0,1
282466,-84.7457627118644,4,1,0,100,0,1
282505,-82.6446280991736,4,1,0,100,0,1
282544,-80.6451612903226,4,1,0,100,0,1
282583,-78.740157480315,4,1,0,100,0,1
282623,-76.9230769230769,4,1,0,100,0,1
282662,-75.187969924812,4,1,0,100,0,1
282837,-66.6666666666667,4,1,0,100,0,1
283775,-33.3333333333333,4,1,0,100,0,1
284595,-25,4,1,0,100,0,0

[HitObjects]
256,192,2596,5,8,0:0:0:0:
256,192,3227,1,0,0:0:0:0:
256,192,3385,1,8,0:0:0:0:
256,192,3701,1,8,0:0:0:0:
256,192,4017,8,0,6069,0:0:0:0:
256,192,6385,5,8,0:0:0:0:
256,192,7016,1,0,0:0:0:0:
256,192,7174,1,8,0:0:0:0:
256,192,7490,1,12,0:0:0:0:
256,192,7806,8,0,8596,0:0:0:0:
256,192,8911,5,8,0:0:0:0:
256,192,10174,1,0,0:0:0:0:
256,192,11437,1,0,0:0:0:0:
256,192,12700,1,0,0:0:0:0:
256,192,14279,1,0,0:0:0:0:
256,192,14596,1,8,0:0:0:0:
256,192,14910,1,0,0:0:0:0:
256,192,15226,1,0,0:0:0:0:
256,192,15542,8,0,17437,0:0:0:0:
256,192,17753,8,0,21919,0:0:0:0:
256,192,22154,5,4,0:0:0:0:
256,192,23325,1,8,0:0:0:0:
256,192,23560,1,0,0:0:0:0:
256,192,23794,1,0,0:0:0:0:
256,192,25200,1,8,0:0:0:0:
256,192,25435,1,0,0:0:0:0:
256,192,25552,1,0,0:0:0:0:
256,192,25669,1,0,0:0:0:0:
256,192,27075,1,8,0:0:0:0:
256,192,27310,1,0,0:0:0:0:
256,192,27544,1,0,0:0:0:0:
256,192,28247,8,0,28716,0:0:0:0:
256,192,28833,5,8,0:0:0:0:
256,192,28950,1,0,0:0:0:0:
256,192,29068,1,0,0:0:0:0:
256,192,29185,1,8,0:0:0:0:
256,192,29302,1,8,0:0:0:0:
256,192,29419,1,0,0:0:0:0:
256,192,29654,1,4,0:0:0:0:
256,192,29888,1,8,0:0:0:0:
256,192,30122,1,0,0:0:0:0:
256,192,30357,1,0,0:0:0:0:
256,192,30474,1,8,0:0:0:0:
256,192,30708,1,8,0:0:0:0:
256,192,30825,1,0,0:0:0:0:
256,192,31060,8,8,31118,0:0:0:0:
256,192,31294,5,8,0:0:0:0:
256,192,31411,1,8,0:0:0:0:
256,192,31529,1,0,0:0:0:0:
256,192,31763,1,0,0:0:0:0:
256,192,31880,1,8,0:0:0:0:
256,192,31997,1,0,0:0:0:0:
256,192,32114,1,8,0:0:0:0:
256,192,32232,1,8,0:0:0:0:
256,192,32349,1,8,0:0:0:0:
256,192,32466,1,0,0:0:0:0:
256,192,32700,1,8,0:0:0:0:
256,192,32759,1,8,0:0:0:0:
256,192,32818,1,8,0:0:0:0:
256,192,32876,1,8,0:0:0:0:
256,192,32935,1,0,0:0:0:0:
256,192,33052,1,8,0:0:0:0:
256,192,33169,1,0,0:0:0:0:
256,192,33228,1,0,0:0:0:0:
256,192,33286,1,0,0:0:0:0:
256,192,33345,1,0,0:0:0:0:
256,192,33404,1,8,0:0:0:0:
256,192,33462,1,8,0:0:0:0:
256,192,33521,1,8,0:0:0:0:
256,192,33579,1,8,0:0:0:0:
256,192,33638,1,0,0:0:0:0:
256,192,33872,1,0,0:0:0:0:
256,192,33989,1,0,0:0:0:0:
256,192,34107,1,8,0:0:0:0:
256,192,34224,1,0,0:0:0:0:
256,192,34341,1,8,0:0:0:0:
256,192,34400,1,8,0:0:0:0:
256,192,34458,1,8,0:0:0:0:
256,192,34517,1,8,0:0:0:0:
256,192,34575,1,0,0:0:0:0:
256,192,34810,1,8,0:0:0:0:
256,192,35044,1,8,0:0:0:0:
256,192,35103,1,0,0:0:0:0:
256,192,35161,1,8,0:0:0:0:
256,192,35220,1,8,0:0:0:0:
256,192,35279,1,0,0:0:0:0:
256,192,35337,1,0,0:0:0:0:
256,192,35396,1,8,0:0:0:0:
256,192,35454,1,0,0:0:0:0:
256,192,35513,1,8,0:0:0:0:
256,192,35571,1,0,0:0:0:0:
256,192,35630,1,0,0:0:0:0:
256,192,35689,1,8,0:0:0:0:
256,192,35747,1,0,0:0:0:0:
256,192,35806,1,8,0:0:0:0:
256,192,35864,1,0,0:0:0:0:
256,192,35923,1,0,0:0:0:0:
256,192,35982,1,8,0:0:0:0:
256,192,36040,1,8,0:0:0:0:
256,192,36099,1,8,0:0:0:0:
256,192,36157,1,8,0:0:0:0:
256,192,37154,1,4,0:0:0:0:
256,192,37271,1,8,0:0:0:0:
256,192,37329,1,8,0:0:0:0:
256,192,37388,1,0,0:0:0:0:
256,192,37505,1,8,0:0:0:0:
256,192,37622,1,0,0:0:0:0:
256,192,37681,1,8,0:0:0:0:
256,192,37739,1,8,0:0:0:0:
256,192,37798,1,8,0:0:0:0:
256,192,37857,1,0,0:0:0:0:
256,192,37974,1,8,0:0:0:0:
256,192,38091,1,0,0:0:0:0:
256,192,38150,1,0,0:0:0:0:
256,192,38208,1,8,0:0:0:0:
256,192,38325,1,0,0:0:0:0:
256,192,38443,1,8,0:0:0:0:
256,192,38560,1,0,0:0:0:0:
256,192,38677,1,8,0:0:0:0:
256,192,38736,1,8,0:0:0:0:
256,192,38794,1,0,0:0:0:0:
256,192,38911,1,8,0:0:0:0:
256,192,39029,1,0,0:0:0:0:
256,192,39087,1,8,0:0:0:0:
256,192,39146,1,0,0:0:0:0:
256,192,39204,1,0,0:0:0:0:
256,192,39263,1,8,0:0:0:0:
256,192,39380,1,8,0:0:0:0:
256,192,39498,1,0,0:0:0:0:
256,192,39556,1,0,0:0:0:0:
256,192,39614,1,8,0:0:0:0:
256,192,39732,1,0,0:0:0:0:
256,192,39849,1,8,0:0:0:0:
256,192,39966,1,0,0:0:0:0:
256,192,40083,1,0,0:0:0:0:
256,192,40142,1,0,0:0:0:0:
256,192,40200,1,0,0:0:0:0:
256,192,40318,1,0,0:0:0:0:
256,192,40435,1,0,0:0:0:0:
256,192,40552,1,8,0:0:0:0:
256,192,40611,1,8,0:0:0:0:
256,192,40669,1,0,0:0:0:0:
256,192,40786,1,8,0:0:0:0:
256,192,40904,1,0,0:0:0:0:
256,192,40962,1,0,0:0:0:0:
256,192,41021,1,0,0:0:0:0:
256,192,41079,1,0,0:0:0:0:
256,192,41138,1,8,0:0:0:0:
256,192,41255,1,8,0:0:0:0:
256,192,41373,1,0,0:0:0:0:
256,192,41489,1,8,0:0:0:0:
256,192,41607,1,0,0:0:0:0:
256,192,41665,1,0,0:0:0:0:
256,192,41724,1,8,0:0:0:0:
256,192,41841,1,0,0:0:0:0:
256,192,41958,1,8,0:0:0:0:
256,192,42017,1,8,0:0:0:0:
256,192,42075,1,0,0:0:0:0:
256,192,42193,1,0,0:0:0:0:
256,192,42310,1,8,0:0:0:0:
256,192,42368,1,8,0:0:0:0:
256,192,42427,1,8,0:0:0:0:
256,192,42486,1,8,0:0:0:0:
256,192,42544,1,0,0:0:0:0:
256,192,42661,1,0,0:0:0:0:
256,192,42779,1,0,0:0:0:0:
256,192,42896,1,8,0:0:0:0:
256,192,43013,1,0,0:0:0:0:
256,192,43130,1,8,0:0:0:0:
256,192,43247,1,0,0:0:0:0:
256,192,43364,1,8,0:0:0:0:
256,192,43423,1,0,0:0:0:0:
256,192,43482,1,8,0:0:0:0:
256,192,43540,1,0,0:0:0:0:
256,192,43599,1,8,0:0:0:0:
256,192,43716,1,0,0:0:0:0:
256,192,43833,1,0,0:0:0:0:
256,192,43892,1,0,0:0:0:0:
256,192,43950,1,0,0:0:0:0:
256,192,44068,1,0,0:0:0:0:
256,192,44185,1,0,0:0:0:0:
256,192,44244,1,0,0:0:0:0:
256,192,44302,1,0,0:0:0:0:
256,192,44361,1,0,0:0:0:0:
256,192,44419,1,8,0:0:0:0:
256,192,44478,1,8,0:0:0:0:
256,192,44537,1,8,0:0:0:0:
256,192,44595,1,8,0:0:0:0:
256,192,44654,1,0,0:0:0:0:
256,192,44771,1,8,0:0:0:0:
256,192,44888,1,0,0:0:0:0:
256,192,44946,1,0,0:0:0:0:
256,192,45005,1,8,0:0:0:0:
256,192,45122,1,0,0:0:0:0:
256,192,45239,1,8,0:0:0:0:
256,192,45298,1,8,0:0:0:0:
256,192,45357,1,0,0:0:0:0:
256,192,45474,1,8,0:0:0:0:
256,192,45591,1,0,0:0:0:0:
256,192,45650,1,0,0:0:0:0:
256,192,45708,1,8,0:0:0:0:
256,192,45825,1,0,0:0:0:0:
256,192,45943,1,8,0:0:0:0:
256,192,46060,1,0,0:0:0:0:
256,192,46118,1,0,0:0:0:0:
256,192,46177,1,8,0:0:0:0:
256,192,46236,1,8,0:0:0:0:
256,192,46294,1,0,0:0:0:0:
256,192,46411,1,8,0:0:0:0:
256,192,46529,1,0,0:0:0:0:
256,192,46587,1,0,0:0:0:0:
256,192,46646,1,0,0:0:0:0:
256,192,46763,1,8,0:0:0:0:
256,192,46880,1,0,0:0:0:0:
256,192,46997,1,8,0:0:0:0:
256,192,47056,1,8,0:0:0:0:
256,192,47114,1,0,0:0:0:0:
256,192,47232,1,8,0:0:0:0:
256,192,47349,1,8,0:0:0:0:
256,192,47466,1,0,0:0:0:0:
256,192,47525,1,0,0:0:0:0:
256,192,47583,1,0,0:0:0:0:
256,192,47642,1,0,0:0:0:0:
256,192,47700,1,0,0:0:0:0:
256,192,47818,1,0,0:0:0:0:
256,192,47935,1,0,0:0:0:0:
256,192,48052,1,8,0:0:0:0:
256,192,48111,1,8,0:0:0:0:
256,192,48169,1,8,0:0:0:0:
256,192,48286,1,8,0:0:0:0:
256,192,48404,1,0,0:0:0:0:
256,192,48462,1,0,0:0:0:0:
256,192,48521,1,0,0:0:0:0:
256,192,48579,1,0,0:0:0:0:
256,192,48638,1,8,0:0:0:0:
256,192,48755,1,0,0:0:0:0:
256,192,48872,1,8,0:0:0:0:
256,192,48989,1,8,0:0:0:0:
256,192,49048,1,8,0:0:0:0:
256,192,49107,1,0,0:0:0:0:
256,192,49224,1,0,0:0:0:0:
256,192,49341,1,8,0:0:0:0:
256,192,49458,1,0,0:0:0:0:
256,192,49517,1,8,0:0:0:0:
256,192,49575,1,8,0:0:0:0:
256,192,49693,1,8,0:0:0:0:
256,192,49810,1,0,0:0:0:0:
256,192,49868,1,8,0:0:0:0:
256,192,49927,1,0,0:0:0:0:
256,192,49986,1,0,0:0:0:0:
256,192,50044,1,8,0:0:0:0:
256,192,50103,1,0,0:0:0:0:
256,192,50161,1,8,0:0:0:0:
256,192,50279,1,4,0:0:0:0:
256,192,50396,1,0,0:0:0:0:
256,192,50513,1,0,0:0:0:0:
256,192,50747,1,8,0:0:0:0:
256,192,50982,1,0,0:0:0:0:
256,192,51216,1,12,0:0:0:0:
256,192,51333,1,8,0:0:0:0:
256,192,51450,1,8,0:0:0:0:
256,192,51685,1,0,0:0:0:0:
256,192,51919,1,8,0:0:0:0:
256,192,52154,1,4,0:0:0:0:
256,192,52271,1,8,0:0:0:0:
256,192,52329,1,0,0:0:0:0:
256,192,52388,1,8,0:0:0:0:
256,192,52505,1,8,0:0:0:0:
256,192,52622,1,0,0:0:0:0:
256,192,52739,1,8,0:0:0:0:
256,192,52798,1,8,0:0:0:0:
256,192,52857,1,0,0:0:0:0:
256,192,52974,1,8,0:0:0:0:
256,192,53091,1,0,0:0:0:0:
256,192,53150,1,8,0:0:0:0:
256,192,53208,1,0,0:0:0:0:
256,192,53267,1,0,0:0:0:0:
256,192,53325,1,8,0:0:0:0:
256,192,53443,1,0,0:0:0:0:
256,192,53560,1,8,0:0:0:0:
256,192,53618,1,8,0:0:0:0:
256,192,53677,1,0,0:0:0:0:
256,192,53794,1,8,0:0:0:0:
256,192,53911,1,8,0:0:0:0:
256,192,54029,1,0,0:0:0:0:
256,192,54087,1,0,0:0:0:0:
256,192,54146,1,8,0:0:0:0:
256,192,54263,1,0,0:0:0:0:
256,192,54380,1,8,0:0:0:0:
256,192,54439,1,8,0:0:0:0:
256,192,54497,1,0,0:0:0:0:
256,192,54614,1,0,0:0:0:0:
256,192,54732,1,8,0:0:0:0:
256,192,54790,1,0,0:0:0:0:
256,192,54849,1,0,0:0:0:0:
256,192,54907,1,0,0:0:0:0:
256,192,54966,1,8,0:0:0:0:
256,192,55083,1,0,0:0:0:0:
256,192,55200,1,8,0:0:0:0:
256,192,55318,1,0,0:0:0:0:
256,192,55376,1,0,0:0:0:0:
256,192,55435,1,8,0:0:0:0:
256,192,55552,1,8,0:0:0:0:
256,192,55669,1,0,0:0:0:0:
256,192,55786,1,8,0:0:0:0:
256,192,55904,1,0,0:0:0:0:
256,192,55962,1,0,0:0:0:0:
256,192,56021,1,8,0:0:0:0:
256,192,56079,1,0,0:0:0:0:
256,192,56138,1,8,0:0:0:0:
256,192,56255,1,0,0:0:0:0:
256,192,56372,1,8,0:0:0:0:
256,192,56431,1,8,0:0:0:0:
256,192,56489,1,0,0:0:0:0:
256,192,56607,1,0,0:0:0:0:
256,192,56724,1,8,0:0:0:0:
256,192,56782,1,0,0:0:0:0:
256,192,56841,1,8,0:0:0:0:
256,192,56958,1,8,0:0:0:0:
256,192,57075,1,0,0:0:0:0:
256,192,57193,1,0,0:0:0:0:
256,192,57310,1,8,0:0:0:0:
256,192,57368,1,8,0:0:0:0:
256,192,57427,1,8,0:0:0:0:
256,192,57486,1,8,0:0:0:0:
256,192,57544,1,0,0:0:0:0:
256,192,57661,1,8,0:0:0:0:
256,192,57779,1,8,0:0:0:0:
224,192,57837,1,8,0:0:0:0:
256,192,57896,1,0,0:0:0:0:
256,192,58013,1,8,0:0:0:0:
256,192,58130,1,0,0:0:0:0:
256,192,58189,1,0,0:0:0:0:
256,192,58247,1,0,0:0:0:0:
256,192,58306,1,0,0:0:0:0:
256,192,58364,1,8,0:0:0:0:
256,192,58423,1,0,0:0:0:0:
256,192,58482,1,8,0:0:0:0:
256,192,58540,1,0,0:0:0:0:
256,192,58599,1,8,0:0:0:0:
256,192,58716,1,0,0:0:0:0:
256,192,58833,1,0,0:0:0:0:
256,192,58950,1,8,0:0:0:0:
256,192,59009,1,8,0:0:0:0:
256,192,59068,1,0,0:0:0:0:
256,192,59126,1,0,0:0:0:0:
256,192,59185,1,8,0:0:0:0:
256,192,59302,1,0,0:0:0:0:
256,192,59419,1,8,0:0:0:0:
256,192,59536,1,8,0:0:0:0:
256,192,59654,1,4,0:0:0:0:
256,192,59771,1,8,0:0:0:0:
256,192,59829,1,8,0:0:0:0:
256,192,59888,1,0,0:0:0:0:
256,192,60005,1,8,0:0:0:0:
256,192,60122,1,0,0:0:0:0:
256,192,60181,1,0,0:0:0:0:
256,192,60239,1,8,0:0:0:0:
256,192,60298,1,8,0:0:0:0:
256,192,60357,1,0,0:0:0:0:
256,192,60474,1,0,0:0:0:0:
256,192,60591,1,8,0:0:0:0:
256,192,60650,1,8,0:0:0:0:
256,192,60708,1,0,0:0:0:0:
256,192,60825,1,8,0:0:0:0:
256,192,60943,1,8,0:0:0:0:
256,192,61060,1,0,0:0:0:0:
256,192,61118,1,0,0:0:0:0:
256,192,61177,1,0,0:0:0:0:
256,192,61236,1,0,0:0:0:0:
256,192,61294,1,8,0:0:0:0:
256,192,61411,1,0,0:0:0:0:
256,192,61529,1,8,0:0:0:0:
256,192,61587,1,0,0:0:0:0:
256,192,61646,1,0,0:0:0:0:
256,192,61763,1,0,0:0:0:0:
256,192,61880,1,8,0:0:0:0:
256,192,61939,1,8,0:0:0:0:
256,192,61997,1,0,0:0:0:0:
256,192,62114,1,0,0:0:0:0:
256,192,62232,1,8,0:0:0:0:
256,192,62290,1,8,0:0:0:0:
256,192,62349,1,8,0:0:0:0:
256,192,62466,1,8,0:0:0:0:
256,192,62583,1,0,0:0:0:0:
256,192,62700,1,8,0:0:0:0:
256,192,62759,1,8,0:0:0:0:
256,192,62818,1,0,0:0:0:0:
256,192,62876,1,0,0:0:0:0:
256,192,62935,1,8,0:0:0:0:
256,192,63052,1,0,0:0:0:0:
256,192,63169,1,8,0:0:0:0:
256,192,63286,1,8,0:0:0:0:
256,192,63404,1,0,0:0:0:0:
256,192,63462,1,0,0:0:0:0:
256,192,63521,1,0,0:0:0:0:
256,192,63579,1,0,0:0:0:0:
256,192,63638,1,8,0:0:0:0:
256,192,63755,1,0,0:0:0:0:
256,192,63872,1,8,0:0:0:0:
256,192,63931,1,8,0:0:0:0:
256,192,63989,1,0,0:0:0:0:
256,192,64107,1,0,0:0:0:0:
256,192,64224,1,0,0:0:0:0:
256,192,64341,1,8,0:0:0:0:
256,192,64400,1,0,0:0:0:0:
256,192,64458,1,8,0:0:0:0:
256,192,64517,1,8,0:0:0:0:
256,192,64575,1,8,0:0:0:0:
256,192,64693,1,8,0:0:0:0:
256,192,64810,1,0,0:0:0:0:
256,192,64868,1,0,0:0:0:0:
256,192,64927,1,0,0:0:0:0:
256,192,65044,1,8,0:0:0:0:
256,192,65161,1,8,0:0:0:0:
256,192,65279,1,0,0:0:0:0:
256,192,65337,1,0,0:0:0:0:
256,192,65396,1,8,0:0:0:0:
256,192,65454,1,8,0:0:0:0:
256,192,65513,1,8,0:0:0:0:
256,192,65571,1,8,0:0:0:0:
256,192,65630,1,8,0:0:0:0:
256,192,65689,1,8,0:0:0:0:
256,192,65747,1,8,0:0:0:0:
256,192,65806,1,8,0:0:0:0:
256,192,65864,1,8,0:0:0:0:
256,192,65923,1,8,0:0:0:0:
256,192,65982,1,8,0:0:0:0:
256,192,66040,1,8,0:0:0:0:
256,192,66099,1,8,0:0:0:0:
256,192,66157,1,8,0:0:0:0:
256,192,66685,1,4,0:0:0:0:
256,192,66919,1,8,0:0:0:0:
256,192,67154,1,8,0:0:0:0:
256,192,67622,1,0,0:0:0:0:
256,192,67739,1,8,0:0:0:0:
256,192,67974,1,8,0:0:0:0:
256,192,68560,1,8,0:0:0:0:
256,192,68677,1,8,0:0:0:0:
256,192,68794,1,0,0:0:0:0:
256,192,68911,1,8,0:0:0:0:
256,192,69029,1,0,0:0:0:0:
256,192,69497,1,0,0:0:0:0:
256,192,69614,1,8,0:0:0:0:
256,192,69849,1,8,0:0:0:0:
256,192,70435,1,8,0:0:0:0:
256,192,70553,1,0,0:0:0:0:
256,192,70670,1,8,0:0:0:0:
256,192,70787,1,0,0:0:0:0:
256,192,70904,1,8,0:0:0:0:
256,192,71138,1,0,0:0:0:0:
256,192,71372,1,8,0:0:0:0:
256,192,71489,1,8,0:0:0:0:
256,192,71607,1,0,0:0:0:0:
256,192,71724,1,8,0:0:0:0:
256,192,71958,1,0,0:0:0:0:
256,192,72075,1,8,0:0:0:0:
256,192,72310,1,8,0:0:0:0:
256,192,72427,1,8,0:0:0:0:
256,192,72544,1,0,0:0:0:0:
256,192,72661,1,8,0:0:0:0:
256,192,72779,1,0,0:0:0:0:
256,192,73013,1,0,0:0:0:0:
256,192,73247,1,8,0:0:0:0:
256,192,73364,1,0,0:0:0:0:
256,192,73599,1,0,0:0:0:0:
256,192,73950,1,8,0:0:0:0:
256,192,73989,1,8,0:0:0:0:
256,192,74029,1,8,0:0:0:0:
256,192,74068,1,8,0:0:0:0:
256,192,74185,1,0,0:0:0:0:
256,192,74419,1,0,0:0:0:0:
256,192,74654,1,12,0:0:0:0:
256,192,74888,1,0,0:0:0:0:
256,192,75122,1,0,0:0:0:0:
256,192,75357,1,0,0:0:0:0:
256,192,75591,1,0,0:0:0:0:
256,192,75825,1,0,0:0:0:0:
256,192,76059,1,0,0:0:0:0:
256,192,76294,1,0,0:0:0:0:
256,192,76411,1,0,0:0:0:0:
256,192,76529,1,12,0:0:0:0:
256,192,76763,1,0,0:0:0:0:
256,192,76997,1,0,0:0:0:0:
256,192,77232,1,0,0:0:0:0:
256,192,77466,1,0,0:0:0:0:
256,192,77700,1,0,0:0:0:0:
256,192,77934,1,0,0:0:0:0:
256,192,78052,1,0,0:0:0:0:
256,192,78111,1,0,0:0:0:0:
256,192,78169,1,0,0:0:0:0:
256,192,78286,1,0,0:0:0:0:
256,192,78404,1,12,0:0:0:0:
256,192,78638,1,0,0:0:0:0:
256,192,78755,1,0,0:0:0:0:
256,192,78872,1,0,0:0:0:0:
256,192,78989,1,0,0:0:0:0:
256,192,79107,1,0,0:0:0:0:
256,192,79224,1,0,0:0:0:0:
256,192,79341,1,12,0:0:0:0:
256,192,79575,1,0,0:0:0:0:
256,192,79693,1,0,0:0:0:0:
256,192,79810,1,0,0:0:0:0:
256,192,79927,1,0,0:0:0:0:
256,192,79986,1,0,0:0:0:0:
256,192,80044,1,0,0:0:0:0:
256,192,80161,1,0,0:0:0:0:
256,192,80279,1,12,0:0:0:0:
256,192,80396,1,0,0:0:0:0:
256,192,80513,1,0,0:0:0:0:
256,192,80571,1,0,0:0:0:0:
256,192,80630,1,0,0:0:0:0:
256,192,80747,1,12,0:0:0:0:
256,192,80864,1,0,0:0:0:0:
256,192,80982,1,0,0:0:0:0:
256,192,81040,1,0,0:0:0:0:
256,192,81099,1,0,0:0:0:0:
256,192,81216,1,8,0:0:0:0:
256,192,81275,1,8,0:0:0:0:
256,192,81333,1,0,0:0:0:0:
256,192,81392,1,0,0:0:0:0:
256,192,81450,1,8,0:0:0:0:
256,192,81509,1,0,0:0:0:0:
256,192,81568,1,8,0:0:0:0:
256,192,81626,1,8,0:0:0:0:
256,192,81685,1,0,0:0:0:0:
256,192,81743,1,8,0:0:0:0:
256,192,81802,1,0,0:0:0:0:
256,192,81861,1,0,0:0:0:0:
256,192,81919,1,8,0:0:0:0:
256,192,81978,1,8,0:0:0:0:
256,192,82036,1,0,0:0:0:0:
256,192,82154,1,4,0:0:0:0:
256,192,82271,1,8,0:0:0:0:
256,192,82329,1,8,0:0:0:0:
256,192,82388,1,0,0:0:0:0:
256,192,82505,1,8,0:0:0:0:
256,192,82622,1,0,0:0:0:0:
256,192,82681,1,0,0:0:0:0:
256,192,82739,1,8,0:0:0:0:
256,192,82857,1,8,0:0:0:0:
256,192,82974,1,0,0:0:0:0:
256,192,83091,1,8,0:0:0:0:
256,192,83150,1,8,0:0:0:0:
256,192,83208,1,8,0:0:0:0:
256,192,83325,1,0,0:0:0:0:
256,192,83443,1,8,0:0:0:0:
256,192,83501,1,8,0:0:0:0:
256,192,83560,1,0,0:0:0:0:
256,192,83677,1,0,0:0:0:0:
256,192,83794,1,8,0:0:0:0:
256,192,83911,1,0,0:0:0:0:
256,192,84029,1,8,0:0:0:0:
256,192,84087,1,8,0:0:0:0:
256,192,84146,1,0,0:0:0:0:
256,192,84263,1,8,0:0:0:0:
256,192,84380,1,0,0:0:0:0:
256,192,84497,1,0,0:0:0:0:
256,192,84614,1,8,0:0:0:0:
256,192,84732,1,8,0:0:0:0:
256,192,84849,1,0,0:0:0:0:
256,192,84966,1,8,0:0:0:0:
256,192,85025,1,8,0:0:0:0:
256,192,85083,1,0,0:0:0:0:
256,192,85200,1,0,0:0:0:0:
256,192,85318,1,8,0:0:0:0:
256,192,85376,1,8,0:0:0:0:
256,192,85435,1,8,0:0:0:0:
256,192,85493,1,8,0:0:0:0:
256,192,85552,1,0,0:0:0:0:
256,192,85669,1,0,0:0:0:0:
256,192,85786,1,8,0:0:0:0:
256,192,85904,1,0,0:0:0:0:
256,192,85962,1,0,0:0:0:0:
256,192,86021,1,0,0:0:0:0:
256,192,86138,1,8,0:0:0:0:
256,192,86255,1,0,0:0:0:0:
256,192,86372,1,8,0:0:0:0:
256,192,86431,1,8,0:0:0:0:
256,192,86489,1,0,0:0:0:0:
256,192,86607,1,0,0:0:0:0:
256,192,86724,1,8,0:0:0:0:
256,192,86841,1,8,0:0:0:0:
256,192,86900,1,0,0:0:0:0:
256,192,86958,1,0,0:0:0:0:
256,192,87017,1,8,0:0:0:0:
256,192,87075,1,0,0:0:0:0:
256,192,87134,1,0,0:0:0:0:
256,192,87193,1,8,0:0:0:0:
256,192,87251,1,0,0:0:0:0:
256,192,87310,1,8,0:0:0:0:
256,192,87427,1,0,0:0:0:0:
256,192,87544,1,12,0:0:0:0:
256,192,87661,1,0,0:0:0:0:
256,192,87779,1,8,0:0:0:0:
256,192,87837,1,8,0:0:0:0:
256,192,87896,1,8,0:0:0:0:
256,192,87954,1,8,0:0:0:0:
256,192,88013,1,0,0:0:0:0:
256,192,88130,1,0,0:0:0:0:
256,192,88247,1,8,0:0:0:0:
256,192,88364,1,0,0:0:0:0:
256,192,88423,1,0,0:0:0:0:
256,192,88482,1,8,0:0:0:0:
256,192,88599,1,0,0:0:0:0:
256,192,88716,1,8,0:0:0:0:
256,192,88775,1,8,0:0:0:0:
256,192,88833,1,0,0:0:0:0:
256,192,88950,1,0,0:0:0:0:
256,192,89068,1,0,0:0:0:0:
256,192,89126,1,0,0:0:0:0:
256,192,89185,1,0,0:0:0:0:
256,192,89302,1,8,0:0:0:0:
256,192,89419,1,0,0:0:0:0:
256,192,89536,1,0,0:0:0:0:
256,192,89654,1,12,0:0:0:0:
256,192,90005,1,0,0:0:0:0:
256,192,90122,1,0,0:0:0:0:
256,192,90357,1,0,0:0:0:0:
256,192,90591,1,8,0:0:0:0:
256,192,90825,1,0,0:0:0:0:
256,192,90943,1,8,0:0:0:0:
256,192,91294,1,8,0:0:0:0:
256,192,91353,1,8,0:0:0:0:
256,192,91411,1,8,0:0:0:0:
256,192,91529,1,12,0:0:0:0:
256,192,91646,1,0,0:0:0:0:
256,192,91763,1,8,0:0:0:0:
256,192,91821,1,8,0:0:0:0:
256,192,91880,1,0,0:0:0:0:
256,192,91997,1,8,0:0:0:0:
256,192,92114,1,0,0:0:0:0:
256,192,92173,1,0,0:0:0:0:
256,192,92232,1,8,0:0:0:0:
256,192,92349,1,0,0:0:0:0:
256,192,92466,1,8,0:0:0:0:
256,192,92525,1,8,0:0:0:0:
256,192,92583,1,0,0:0:0:0:
256,192,92701,1,0,0:0:0:0:
256,192,92818,1,8,0:0:0:0:
256,192,92876,1,8,0:0:0:0:
256,192,92935,1,8,0:0:0:0:
256,192,92993,1,8,0:0:0:0:
256,192,93052,1,8,0:0:0:0:
256,192,93111,1,8,0:0:0:0:
256,192,93169,1,0,0:0:0:0:
256,192,93286,1,0,0:0:0:0:
256,192,93404,1,8,0:0:0:0:
256,192,93462,1,8,0:0:0:0:
256,192,93521,1,0,0:0:0:0:
256,192,93638,1,8,0:0:0:0:
256,192,93755,1,0,0:0:0:0:
256,192,93872,1,8,0:0:0:0:
256,192,93931,1,0,0:0:0:0:
256,192,93989,1,8,0:0:0:0:
256,192,94107,1,0,0:0:0:0:
256,192,94224,1,8,0:0:0:0:
256,192,94341,1,0,0:0:0:0:
256,192,94400,1,0,0:0:0:0:
256,192,94458,1,8,0:0:0:0:
256,192,94517,1,0,0:0:0:0:
256,192,94575,1,8,0:0:0:0:
256,192,94693,1,0,0:0:0:0:
256,192,94810,1,8,0:0:0:0:
256,192,94868,1,8,0:0:0:0:
256,192,94927,1,0,0:0:0:0:
256,192,95044,1,8,0:0:0:0:
256,192,95161,1,0,0:0:0:0:
256,192,95279,1,8,0:0:0:0:
256,192,95337,1,8,0:0:0:0:
256,192,95396,1,8,0:0:0:0:
256,192,95513,1,8,0:0:0:0:
256,192,95630,1,8,0:0:0:0:
256,192,95747,1,8,0:0:0:0:
256,192,95864,1,8,0:0:0:0:
256,192,95982,1,8,0:0:0:0:
256,192,96099,1,8,0:0:0:0:
256,192,96216,1,0,0:0:0:0:
256,192,96333,1,0,0:0:0:0:
256,192,96450,1,8,0:0:0:0:
256,192,96568,1,0,0:0:0:0:
256,192,96685,1,8,0:0:0:0:
256,192,96802,1,8,0:0:0:0:
256,192,96919,1,0,0:0:0:0:
256,192,97036,1,8,0:0:0:0:
256,192,97154,1,4,0:0:0:0:
256,192,97271,1,8,0:0:0:0:
256,192,97329,1,8,0:0:0:0:
256,192,97388,1,0,0:0:0:0:
256,192,97505,1,8,0:0:0:0:
256,192,97622,1,0,0:0:0:0:
256,192,97681,1,0,0:0:0:0:
256,192,97739,1,0,0:0:0:0:
256,192,97857,1,8,0:0:0:0:
256,192,97974,1,0,0:0:0:0:
256,192,98091,1,0,0:0:0:0:
256,192,98208,1,8,0:0:0:0:
256,192,98325,1,0,0:0:0:0:
256,192,98384,1,0,0:0:0:0:
256,192,98443,1,0,0:0:0:0:
256,192,98501,1,0,0:0:0:0:
256,192,98560,1,8,0:0:0:0:
256,192,98677,1,0,0:0:0:0:
256,192,98794,1,8,0:0:0:0:
256,192,98853,1,8,0:0:0:0:
256,192,98911,1,0,0:0:0:0:
256,192,99029,1,8,0:0:0:0:
256,192,99146,1,0,0:0:0:0:
256,192,99204,1,0,0:0:0:0:
256,192,99263,1,8,0:0:0:0:
256,192,99380,1,0,0:0:0:0:
256,192,99497,1,8,0:0:0:0:
256,192,99556,1,8,0:0:0:0:
256,192,99614,1,0,0:0:0:0:
256,192,99732,1,8,0:0:0:0:
256,192,99849,1,8,0:0:0:0:
256,192,99966,1,0,0:0:0:0:
256,192,100025,1,0,0:0:0:0:
256,192,100083,1,8,0:0:0:0:
256,192,100142,1,0,0:0:0:0:
256,192,100200,1,8,0:0:0:0:
256,192,100318,1,0,0:0:0:0:
256,192,100435,1,8,0:0:0:0:
256,192,100493,1,8,0:0:0:0:
256,192,100552,1,8,0:0:0:0:
256,192,100669,1,8,0:0:0:0:
256,192,100786,1,8,0:0:0:0:
256,192,100904,1,0,0:0:0:0:
256,192,100962,1,0,0:0:0:0:
256,192,101021,1,8,0:0:0:0:
256,192,101079,1,8,0:0:0:0:
256,192,101138,1,0,0:0:0:0:
256,192,101255,1,8,0:0:0:0:
256,192,101372,1,0,0:0:0:0:
256,192,101431,1,0,0:0:0:0:
256,192,101489,1,8,0:0:0:0:
256,192,101607,1,0,0:0:0:0:
256,192,101724,1,8,0:0:0:0:
256,192,101841,1,0,0:0:0:0:
256,192,101900,1,0,0:0:0:0:
256,192,101958,1,0,0:0:0:0:
256,192,102075,1,0,0:0:0:0:
256,192,102193,1,8,0:0:0:0:
256,192,102251,1,8,0:0:0:0:
256,192,102310,1,0,0:0:0:0:
256,192,102544,1,0,0:0:0:0:
256,192,102779,1,12,0:0:0:0:
256,192,103130,1,0,0:0:0:0:
256,192,103364,1,8,0:0:0:0:
256,192,103599,1,8,0:0:0:0:
256,192,103716,1,0,0:0:0:0:
256,192,103833,1,8,0:0:0:0:
256,192,103950,1,8,0:0:0:0:
256,192,104068,1,8,0:0:0:0:
256,192,104185,1,8,0:0:0:0:
256,192,104302,1,8,0:0:0:0:
256,192,104419,1,8,0:0:0:0:
256,192,104536,1,8,0:0:0:0:
256,192,104654,1,4,0:0:0:0:
256,192,104771,1,8,0:0:0:0:
256,192,104829,1,8,0:0:0:0:
256,192,104888,1,0,0:0:0:0:
256,192,105005,1,8,0:0:0:0:
256,192,105122,1,0,0:0:0:0:
256,192,105181,1,8,0:0:0:0:
256,192,105239,1,0,0:0:0:0:
256,192,105298,1,0,0:0:0:0:
256,192,105357,1,8,0:0:0:0:
256,192,105474,1,8,0:0:0:0:
256,192,105591,1,0,0:0:0:0:
256,192,105650,1,0,0:0:0:0:
256,192,105708,1,0,0:0:0:0:
256,192,105825,1,8,0:0:0:0:
256,192,105943,1,0,0:0:0:0:
256,192,106060,1,8,0:0:0:0:
256,192,106118,1,8,0:0:0:0:
256,192,106177,1,0,0:0:0:0:
256,192,106294,1,8,0:0:0:0:
256,192,106411,1,0,0:0:0:0:
256,192,106529,1,8,0:0:0:0:
256,192,106587,1,0,0:0:0:0:
256,192,106646,1,0,0:0:0:0:
256,192,106704,1,0,0:0:0:0:
256,192,106763,1,8,0:0:0:0:
256,192,106880,1,0,0:0:0:0:
256,192,106997,1,8,0:0:0:0:
256,192,107056,1,8,0:0:0:0:
256,192,107114,1,0,0:0:0:0:
256,192,107232,1,0,0:0:0:0:
256,192,107349,1,8,0:0:0:0:
256,192,107466,1,0,0:0:0:0:
256,192,107525,1,0,0:0:0:0:
256,192,107583,1,0,0:0:0:0:
256,192,107700,1,8,0:0:0:0:
256,192,107818,1,8,0:0:0:0:
256,192,107935,1,0,0:0:0:0:
256,192,107993,1,0,0:0:0:0:
256,192,108052,1,0,0:0:0:0:
256,192,108111,1,0,0:0:0:0:
256,192,108169,1,8,0:0:0:0:
256,192,108286,1,8,0:0:0:0:
256,192,108404,1,0,0:0:0:0:
256,192,108462,1,0,0:0:0:0:
256,192,108521,1,0,0:0:0:0:
256,192,108579,1,0,0:0:0:0:
256,192,108638,1,8,0:0:0:0:
256,192,108696,1,8,0:0:0:0:
256,192,108755,1,8,0:0:0:0:
256,192,108814,1,8,0:0:0:0:
256,192,108872,1,0,0:0:0:0:
256,192,108930,1,0,0:0:0:0:
256,192,108989,1,0,0:0:0:0:
256,192,109047,1,0,0:0:0:0:
256,192,109106,1,8,0:0:0:0:
256,192,109164,1,8,0:0:0:0:
256,192,109223,1,8,0:0:0:0:
256,192,109282,1,8,0:0:0:0:
256,192,109341,1,0,0:0:0:0:
256,192,109399,1,0,0:0:0:0:
256,192,109458,1,0,0:0:0:0:
256,192,109516,1,0,0:0:0:0:
256,192,109575,1,8,0:0:0:0:
256,192,109633,1,8,0:0:0:0:
256,192,109692,1,8,0:0:0:0:
256,192,109751,1,8,0:0:0:0:
256,192,109810,1,0,0:0:0:0:
256,192,109868,1,0,0:0:0:0:
256,192,109927,1,0,0:0:0:0:
256,192,109985,1,0,0:0:0:0:
256,192,110044,1,8,0:0:0:0:
256,192,110102,1,8,0:0:0:0:
256,192,110161,1,8,0:0:0:0:
256,192,110279,1,4,0:0:0:0:
256,192,110630,1,4,0:0:0:0:
256,192,110864,1,4,0:0:0:0:
256,192,111099,1,4,0:0:0:0:
256,192,111450,1,0,0:0:0:0:
256,192,111685,1,8,0:0:0:0:
256,192,111919,1,8,0:0:0:0:
256,192,112154,1,4,0:0:0:0:
256,192,112505,1,8,0:0:0:0:
256,192,112564,1,8,0:0:0:0:
256,192,112622,1,8,0:0:0:0:
256,224,112857,1,8,0:0:0:0:
256,224,112915,1,8,0:0:0:0:
256,224,112974,1,0,0:0:0:0:
256,192,113208,1,8,0:0:0:0:
256,192,113325,1,0,0:0:0:0:
256,192,113443,1,8,0:0:0:0:
256,192,113560,1,0,0:0:0:0:
256,192,113677,1,8,0:0:0:0:
256,192,113736,1,8,0:0:0:0:
256,192,113794,1,0,0:0:0:0:
256,192,114029,1,0,0:0:0:0:
256,192,114146,1,8,0:0:0:0:
256,192,114263,1,8,0:0:0:0:
256,192,114380,1,0,0:0:0:0:
256,192,114497,1,8,0:0:0:0:
256,192,114732,1,0,0:0:0:0:
256,192,114849,1,0,0:0:0:0:
256,192,114966,1,0,0:0:0:0:
256,192,115083,1,8,0:0:0:0:
256,192,115200,1,0,0:0:0:0:
256,192,115318,1,8,0:0:0:0:
256,192,115376,1,0,0:0:0:0:
256,192,115435,1,8,0:0:0:0:
256,192,115669,1,0,0:0:0:0:
256,192,115728,1,8,0:0:0:0:
256,192,115786,1,0,0:0:0:0:
256,192,115904,1,8,0:0:0:0:
256,192,116021,1,8,0:0:0:0:
256,192,116138,1,0,0:0:0:0:
256,192,116196,1,0,0:0:0:0:
256,192,116255,1,0,0:0:0:0:
256,192,116372,1,8,0:0:0:0:
256,192,116489,1,8,0:0:0:0:
256,192,116607,1,0,0:0:0:0:
256,192,116665,1,0,0:0:0:0:
256,192,116724,1,0,0:0:0:0:
256,192,116841,1,8,0:0:0:0:
256,192,116958,1,8,0:0:0:0:
256,192,117075,1,0,0:0:0:0:
288,192,117134,1,0,0:0:0:0:
288,192,117193,1,0,0:0:0:0:
256,192,117310,1,8,0:0:0:0:
256,192,117427,1,8,0:0:0:0:
288,192,117544,1,0,0:0:0:0:
288,192,117602,1,0,0:0:0:0:
288,192,117661,1,0,0:0:0:0:
256,192,117779,1,8,0:0:0:0:
256,192,118013,1,0,0:0:0:0:
256,192,118130,1,8,0:0:0:0:
256,192,118247,1,0,0:0:0:0:
256,160,118364,1,0,0:0:0:0:
256,192,118482,1,8,0:0:0:0:
256,192,118599,1,8,0:0:0:0:
256,192,118833,1,8,0:0:0:0:
256,192,119068,1,8,0:0:0:0:
256,192,119185,1,8,0:0:0:0:
256,192,119302,1,8,0:0:0:0:
256,192,119419,1,8,0:0:0:0:
256,192,119654,1,4,0:0:0:0:
256,192,120005,1,8,0:0:0:0:
256,192,120239,1,8,0:0:0:0:
256,192,120591,1,4,0:0:0:0:
256,192,120943,1,12,0:0:0:0:
256,192,121294,1,4,0:0:0:0:
256,192,121529,1,4,0:0:0:0:
256,192,121763,1,8,0:0:0:0:
256,192,121997,1,0,0:0:0:0:
256,192,122232,1,8,0:0:0:0:
256,192,122466,1,4,0:0:0:0:
256,192,122818,1,12,0:0:0:0:
256,192,123169,1,12,0:0:0:0:
256,192,123404,1,4,0:0:0:0:
256,192,123638,1,8,0:0:0:0:
256,192,123872,1,0,0:0:0:0:
256,192,124107,1,0,0:0:0:0:
256,192,124185,1,0,0:0:0:0:
256,192,124263,1,0,0:0:0:0:
256,192,124341,1,8,0:0:0:0:
256,192,124575,1,8,0:0:0:0:
256,192,124810,1,0,0:0:0:0:
256,192,125044,1,0,0:0:0:0:
256,192,125103,1,0,0:0:0:0:
256,192,125161,1,0,0:0:0:0:
256,192,125220,1,0,0:0:0:0:
256,192,125279,1,8,0:0:0:0:
256,192,125513,1,0,0:0:0:0:
256,192,125747,1,12,0:0:0:0:
256,192,125982,1,0,0:0:0:0:
256,192,126216,1,0,0:0:0:0:
256,192,126275,1,0,0:0:0:0:
256,192,126333,1,8,0:0:0:0:
256,192,126392,1,0,0:0:0:0:
256,192,126450,1,8,0:0:0:0:
256,160,126509,1,8,0:0:0:0:
256,192,126568,1,0,0:0:0:0:
256,192,126626,1,0,0:0:0:0:
256,192,126685,1,8,0:0:0:0:
256,192,126743,1,8,0:0:0:0:
256,192,126802,1,8,0:0:0:0:
256,192,126861,1,8,0:0:0:0:
256,192,126919,1,8,0:0:0:0:
256,192,126978,1,8,0:0:0:0:
256,192,127036,1,8,0:0:0:0:
256,192,127154,1,4,0:0:0:0:
256,192,127271,1,8,0:0:0:0:
256,192,127329,1,8,0:0:0:0:
256,192,127388,1,0,0:0:0:0:
256,192,127505,1,8,0:0:0:0:
256,192,127622,1,0,0:0:0:0:
256,192,127681,1,0,0:0:0:0:
256,192,127739,1,8,0:0:0:0:
256,192,127798,1,0,0:0:0:0:
256,192,127857,1,8,0:0:0:0:
256,192,127974,1,0,0:0:0:0:
256,192,128091,1,8,0:0:0:0:
256,192,128150,1,8,0:0:0:0:
256,192,128208,1,0,0:0:0:0:
256,192,128325,1,8,0:0:0:0:
256,192,128443,1,0,0:0:0:0:
256,192,128501,1,0,0:0:0:0:
256,192,128560,1,8,0:0:0:0:
256,192,128677,1,8,0:0:0:0:
256,192,128794,1,0,0:0:0:0:
256,192,128853,1,8,0:0:0:0:
256,192,128911,1,0,0:0:0:0:
256,192,128970,1,8,0:0:0:0:
256,192,129029,1,0,0:0:0:0:
256,192,129146,1,8,0:0:0:0:
256,192,129263,1,0,0:0:0:0:
256,192,129321,1,0,0:0:0:0:
256,192,129380,1,8,0:0:0:0:
256,192,129497,1,0,0:0:0:0:
256,192,129614,1,8,0:0:0:0:
256,192,129673,1,8,0:0:0:0:
256,192,129732,1,0,0:0:0:0:
256,192,129849,1,8,0:0:0:0:
256,192,129966,1,0,0:0:0:0:
256,192,130083,1,0,0:0:0:0:
256,192,130142,1,0,0:0:0:0:
256,192,130200,1,0,0:0:0:0:
256,192,130318,1,0,0:0:0:0:
256,192,130435,1,0,0:0:0:0:
256,192,130493,1,0,0:0:0:0:
256,192,130552,1,0,0:0:0:0:
256,192,130611,1,0,0:0:0:0:
256,192,130669,1,0,0:0:0:0:
256,192,130786,1,8,0:0:0:0:
256,192,130904,1,0,0:0:0:0:
256,192,131021,1,0,0:0:0:0:
256,192,131079,1,0,0:0:0:0:
256,192,131138,1,8,0:0:0:0:
256,192,131255,1,0,0:0:0:0:
256,192,131372,1,8,0:0:0:0:
256,192,131431,1,8,0:0:0:0:
256,192,131489,1,0,0:0:0:0:
256,192,131548,1,0,0:0:0:0:
256,192,131607,1,8,0:0:0:0:
256,192,131724,1,0,0:0:0:0:
256,192,131841,1,0,0:0:0:0:
256,192,131958,1,8,0:0:0:0:
256,192,132017,1,8,0:0:0:0:
224,192,132075,1,0,0:0:0:0:
224,192,132193,1,0,0:0:0:0:
224,192,132310,1,8,0:0:0:0:
224,192,132427,1,8,0:0:0:0:
256,192,132544,1,0,0:0:0:0:
256,192,132603,1,0,0:0:0:0:
256,192,132661,1,0,0:0:0:0:
256,192,132720,1,0,0:0:0:0:
256,192,132779,1,0,0:0:0:0:
256,192,132896,1,8,0:0:0:0:
256,192,133013,1,0,0:0:0:0:
256,192,133071,1,0,0:0:0:0:
256,192,133130,1,8,0:0:0:0:
256,192,133247,1,0,0:0:0:0:
256,192,133364,1,0,0:0:0:0:
256,192,133482,1,8,0:0:0:0:
256,192,133540,1,0,0:0:0:0:
256,192,133599,1,8,0:0:0:0:
256,192,133716,1,4,0:0:0:0:
256,192,134068,1,8,0:0:0:0:
256,192,134302,1,8,0:0:0:0:
256,192,134654,1,4,0:0:0:0:
256,192,134771,1,8,0:0:0:0:
256,192,134829,1,8,0:0:0:0:
256,192,134888,1,0,0:0:0:0:
256,192,135005,1,8,0:0:0:0:
256,192,135122,1,0,0:0:0:0:
256,192,135181,1,0,0:0:0:0:
256,192,135239,1,8,0:0:0:0:
256,192,135357,1,0,0:0:0:0:
256,192,135474,1,8,0:0:0:0:
256,192,135591,1,0,0:0:0:0:
256,192,135650,1,0,0:0:0:0:
256,192,135708,1,8,0:0:0:0:
256,192,135767,1,0,0:0:0:0:
256,192,135825,1,8,0:0:0:0:
256,192,135943,1,8,0:0:0:0:
256,192,136060,1,0,0:0:0:0:
256,192,136177,1,8,0:0:0:0:
256,192,136236,1,8,0:0:0:0:
256,192,136294,1,0,0:0:0:0:
256,192,136411,1,8,0:0:0:0:
256,192,136529,1,0,0:0:0:0:
256,192,136587,1,0,0:0:0:0:
256,192,136646,1,8,0:0:0:0:
256,192,136763,1,0,0:0:0:0:
256,192,136880,1,8,0:0:0:0:
256,192,136939,1,8,0:0:0:0:
256,192,136997,1,0,0:0:0:0:
224,192,137114,1,8,0:0:0:0:
256,192,137232,1,0,0:0:0:0:
224,192,137290,1,8,0:0:0:0:
224,192,137349,1,0,0:0:0:0:
224,192,137407,1,0,0:0:0:0:
224,192,137466,1,8,0:0:0:0:
256,192,137583,1,8,0:0:0:0:
256,192,137700,1,0,0:0:0:0:
256,192,137759,1,8,0:0:0:0:
256,192,137818,1,0,0:0:0:0:
256,192,137935,1,8,0:0:0:0:
256,192,138052,1,0,0:0:0:0:
256,192,138111,1,0,0:0:0:0:
256,192,138169,1,8,0:0:0:0:
256,192,138286,1,8,0:0:0:0:
256,192,138404,1,0,0:0:0:0:
256,192,138521,1,8,0:0:0:0:
256,192,138579,1,8,0:0:0:0:
256,192,138638,1,0,0:0:0:0:
256,192,138755,1,8,0:0:0:0:
256,192,138872,1,0,0:0:0:0:
256,192,138931,1,8,0:0:0:0:
256,192,138989,1,8,0:0:0:0:
256,192,139048,1,8,0:0:0:0:
256,192,139107,1,0,0:0:0:0:
256,192,139224,1,8,0:0:0:0:
256,192,139341,1,0,0:0:0:0:
256,192,139458,1,0,0:0:0:0:
256,192,139517,1,0,0:0:0:0:
256,192,139575,1,0,0:0:0:0:
256,192,139693,1,0,0:0:0:0:
256,192,139810,1,8,0:0:0:0:
256,192,139927,1,0,0:0:0:0:
256,192,140044,1,8,0:0:0:0:
256,192,140161,1,0,0:0:0:0:
256,192,140279,1,12,0:0:0:0:
256,192,140396,1,12,0:0:0:0:
256,192,140513,1,0,0:0:0:0:
256,192,140552,1,0,0:0:0:0:
256,192,140591,1,0,0:0:0:0:
256,192,140630,1,8,0:0:0:0:
256,192,140689,1,8,0:0:0:0:
256,192,140747,1,0,0:0:0:0:
256,192,140806,1,0,0:0:0:0:
256,192,140864,1,8,0:0:0:0:
256,192,140923,1,0,0:0:0:0:
256,192,140982,1,8,0:0:0:0:
256,192,141021,1,8,0:0:0:0:
256,192,141060,1,8,0:0:0:0:
256,192,141099,1,0,0:0:0:0:
256,192,141157,1,0,0:0:0:0:
256,192,141216,1,0,0:0:0:0:
256,192,141685,1,0,0:0:0:0:
256,192,141919,1,8,0:0:0:0:
256,192,142154,1,12,0:0:0:0:
256,192,142622,1,0,0:0:0:0:
256,192,142739,1,8,0:0:0:0:
256,192,142974,1,8,0:0:0:0:
256,192,143560,1,8,0:0:0:0:
256,192,143677,1,8,0:0:0:0:
256,192,143794,1,0,0:0:0:0:
256,192,143911,1,8,0:0:0:0:
256,192,144029,1,0,0:0:0:0:
256,192,144497,1,0,0:0:0:0:
256,192,144614,1,8,0:0:0:0:
256,192,144849,1,8,0:0:0:0:
256,192,145435,1,0,0:0:0:0:
256,192,145670,1,8,0:0:0:0:
256,192,145904,1,8,0:0:0:0:
256,192,146372,1,0,0:0:0:0:
256,192,146489,1,8,0:0:0:0:
256,192,146724,1,8,0:0:0:0:
256,192,147310,1,8,0:0:0:0:
256,192,147427,1,8,0:0:0:0:
256,192,147544,1,0,0:0:0:0:
256,192,147661,1,8,0:0:0:0:
256,192,147779,1,0,0:0:0:0:
256,192,148247,1,8,0:0:0:0:
256,192,148364,1,0,0:0:0:0:
256,192,148599,1,0,0:0:0:0:
256,192,149185,1,0,0:0:0:0:
256,192,149419,1,8,0:0:0:0:
256,192,149654,1,12,0:0:0:0:
256,192,149888,1,8,0:0:0:0:
256,192,150122,1,0,0:0:0:0:
256,192,150239,1,8,0:0:0:0:
256,192,150357,1,0,0:0:0:0:
256,192,150474,1,8,0:0:0:0:
256,192,150591,1,0,0:0:0:0:
256,192,150825,1,0,0:0:0:0:
256,192,150943,1,0,0:0:0:0:
256,192,151060,1,8,0:0:0:0:
256,192,151294,1,0,0:0:0:0:
256,192,151529,1,12,0:0:0:0:
256,192,151763,1,0,0:0:0:0:
256,192,151880,1,8,0:0:0:0:
256,192,151997,1,0,0:0:0:0:
256,192,152114,1,8,0:0:0:0:
256,192,152232,1,0,0:0:0:0:
256,192,152349,1,0,0:0:0:0:
256,192,152466,1,8,0:0:0:0:
256,192,152700,1,0,0:0:0:0:
256,192,152818,1,0,0:0:0:0:
256,192,152935,1,0,0:0:0:0:
256,192,153052,1,8,0:0:0:0:
256,192,153286,1,0,0:0:0:0:
256,192,153404,1,4,0:0:0:0:
256,192,153638,1,0,0:0:0:0:
256,192,153872,1,0,0:0:0:0:
256,192,153989,1,8,0:0:0:0:
256,192,154107,1,0,0:0:0:0:
256,192,154224,1,8,0:0:0:0:
256,192,154341,1,4,0:0:0:0:
256,192,154575,1,0,0:0:0:0:
256,192,154693,1,8,0:0:0:0:
256,192,154810,1,0,0:0:0:0:
256,192,155044,1,0,0:0:0:0:
256,192,155161,1,8,0:0:0:0:
256,192,155279,1,4,0:0:0:0:
256,192,155396,1,8,0:0:0:0:
256,192,155513,1,0,0:0:0:0:
256,192,155630,1,8,0:0:0:0:
256,192,155747,1,4,0:0:0:0:
256,192,155864,1,0,0:0:0:0:
256,192,155982,1,8,0:0:0:0:
256,192,156099,1,0,0:0:0:0:
256,192,156216,1,12,0:0:0:0:
256,192,157154,1,4,0:0:0:0:
256,192,157271,1,8,0:0:0:0:
256,192,157329,1,8,0:0:0:0:
256,192,157388,1,0,0:0:0:0:
256,192,157505,1,8,0:0:0:0:
256,192,157622,1,0,0:0:0:0:
256,192,157681,1,0,0:0:0:0:
256,192,157739,1,8,0:0:0:0:
256,192,157857,1,0,0:0:0:0:
256,192,157974,1,0,0:0:0:0:
256,192,158091,1,8,0:0:0:0:
256,192,158150,1,8,0:0:0:0:
256,192,158208,1,0,0:0:0:0:
256,192,158325,1,8,0:0:0:0:
256,192,158443,1,0,0:0:0:0:
256,192,158560,1,8,0:0:0:0:
256,192,158618,1,8,0:0:0:0:
256,192,158677,1,0,0:0:0:0:
256,192,158794,1,8,0:0:0:0:
256,192,158911,1,8,0:0:0:0:
256,192,159029,1,0,0:0:0:0:
256,192,159087,1,0,0:0:0:0:
256,192,159146,1,0,0:0:0:0:
256,192,159204,1,0,0:0:0:0:
256,192,159263,1,8,0:0:0:0:
256,192,159380,1,0,0:0:0:0:
256,192,159497,1,8,0:0:0:0:
256,192,159556,1,8,0:0:0:0:
256,192,159614,1,0,0:0:0:0:
256,192,159732,1,8,0:0:0:0:
256,192,159849,1,8,0:0:0:0:
256,192,159966,1,0,0:0:0:0:
256,192,160025,1,0,0:0:0:0:
256,192,160083,1,8,0:0:0:0:
256,192,160200,1,0,0:0:0:0:
256,192,160318,1,0,0:0:0:0:
256,192,160435,1,8,0:0:0:0:
256,192,160493,1,0,0:0:0:0:
256,192,160552,1,0,0:0:0:0:
256,192,160611,1,0,0:0:0:0:
256,192,160669,1,8,0:0:0:0:
256,192,160786,1,0,0:0:0:0:
256,192,160904,1,8,0:0:0:0:
256,192,160962,1,8,0:0:0:0:
256,192,161021,1,0,0:0:0:0:
256,192,161138,1,0,0:0:0:0:
256,192,161255,1,8,0:0:0:0:
256,192,161372,1,0,0:0:0:0:
256,192,161431,1,0,0:0:0:0:
256,192,161489,1,8,0:0:0:0:
256,192,161548,1,8,0:0:0:0:
256,192,161607,1,0,0:0:0:0:
256,192,161724,1,8,0:0:0:0:
256,192,161841,1,0,0:0:0:0:
256,192,161900,1,0,0:0:0:0:
256,192,161958,1,8,0:0:0:0:
256,192,162075,1,0,0:0:0:0:
256,192,162193,1,8,0:0:0:0:
256,192,162310,1,0,0:0:0:0:
256,192,162368,1,0,0:0:0:0:
256,192,162427,1,8,0:0:0:0:
256,192,162544,1,0,0:0:0:0:
256,192,162661,1,12,0:0:0:0:
256,192,162896,1,0,0:0:0:0:
256,192,163013,1,8,0:0:0:0:
256,192,163130,1,8,0:0:0:0:
256,192,163247,1,0,0:0:0:0:
256,192,163364,1,0,0:0:0:0:
256,192,163482,1,8,0:0:0:0:
256,192,163599,1,0,0:0:0:0:
256,192,163716,1,0,0:0:0:0:
256,192,163950,1,0,0:0:0:0:
256,192,164185,1,8,0:0:0:0:
256,192,164419,1,8,0:0:0:0:
256,192,164654,1,4,0:0:0:0:
256,192,164771,1,8,0:0:0:0:
256,192,164829,1,8,0:0:0:0:
256,192,164888,1,0,0:0:0:0:
256,192,165005,1,8,0:0:0:0:
256,192,165122,1,0,0:0:0:0:
256,192,165181,1,0,0:0:0:0:
256,192,165239,1,0,0:0:0:0:
256,192,165298,1,0,0:0:0:0:
256,192,165357,1,8,0:0:0:0:
256,192,165474,1,0,0:0:0:0:
256,192,165591,1,8,0:0:0:0:
256,192,165650,1,8,0:0:0:0:
256,192,165708,1,0,0:0:0:0:
256,192,165825,1,8,0:0:0:0:
256,192,165943,1,8,0:0:0:0:
256,192,166060,1,0,0:0:0:0:
256,192,166118,1,0,0:0:0:0:
256,192,166177,1,8,0:0:0:0:
256,192,166294,1,0,0:0:0:0:
256,192,166411,1,8,0:0:0:0:
256,192,166529,1,0,0:0:0:0:
256,192,166587,1,0,0:0:0:0:
256,192,166646,1,0,0:0:0:0:
256,192,166763,1,8,0:0:0:0:
256,192,166880,1,0,0:0:0:0:
256,192,166997,1,8,0:0:0:0:
256,192,167056,1,8,0:0:0:0:
256,192,167114,1,0,0:0:0:0:
256,192,167232,1,8,0:0:0:0:
256,192,167349,1,8,0:0:0:0:
256,192,167466,1,0,0:0:0:0:
256,192,167525,1,0,0:0:0:0:
256,192,167583,1,8,0:0:0:0:
256,192,167642,1,0,0:0:0:0:
256,192,167700,1,8,0:0:0:0:
256,192,167818,1,8,0:0:0:0:
256,192,167935,1,0,0:0:0:0:
256,192,167993,1,0,0:0:0:0:
256,192,168052,1,8,0:0:0:0:
256,192,168169,1,0,0:0:0:0:
256,192,168286,1,8,0:0:0:0:
256,192,168345,1,8,0:0:0:0:
256,192,168404,1,0,0:0:0:0:
256,192,168521,1,0,0:0:0:0:
256,192,168638,1,0,0:0:0:0:
256,192,168696,1,0,0:0:0:0:
256,192,168755,1,8,0:0:0:0:
256,192,168872,1,0,0:0:0:0:
256,192,168989,1,8,0:0:0:0:
256,192,169107,1,0,0:0:0:0:
256,192,169165,1,0,0:0:0:0:
256,192,169224,1,0,0:0:0:0:
256,192,169282,1,0,0:0:0:0:
256,192,169341,1,8,0:0:0:0:
256,192,169458,1,8,0:0:0:0:
256,192,169575,1,0,0:0:0:0:
256,192,169634,1,0,0:0:0:0:
256,192,169693,1,0,0:0:0:0:
256,192,169751,1,0,0:0:0:0:
256,192,169810,1,8,0:0:0:0:
256,192,169927,1,0,0:0:0:0:
256,192,170044,1,8,0:0:0:0:
256,192,170103,1,8,0:0:0:0:
256,192,170161,1,0,0:0:0:0:
256,192,170279,1,0,0:0:0:0:
256,192,170396,1,8,0:0:0:0:
256,192,170513,1,8,0:0:0:0:
256,192,170630,1,8,0:0:0:0:
256,192,170747,1,8,0:0:0:0:
256,192,170864,1,8,0:0:0:0:
256,192,170982,1,8,0:0:0:0:
256,192,171099,1,8,0:0:0:0:
256,192,171216,1,4,0:0:0:0:
256,192,171333,8,0,171919,0:0:0:0:
256,192,172154,5,4,0:0:0:0:
256,192,172271,1,0,0:0:0:0:
256,192,172329,1,0,0:0:0:0:
256,192,172388,1,8,0:0:0:0:
256,192,172505,1,0,0:0:0:0:
256,192,172622,1,8,0:0:0:0:
256,192,172681,1,8,0:0:0:0:
256,192,172739,1,0,0:0:0:0:
256,192,172798,1,0,0:0:0:0:
256,192,172857,1,8,0:0:0:0:
256,192,172974,1,8,0:0:0:0:
256,192,173091,1,0,0:0:0:0:
256,192,173150,1,0,0:0:0:0:
256,192,173208,1,0,0:0:0:0:
256,192,173325,1,0,0:0:0:0:
256,192,173443,1,8,0:0:0:0:
256,192,173501,1,0,0:0:0:0:
256,192,173560,1,8,0:0:0:0:
256,192,173677,1,8,0:0:0:0:
256,192,173794,1,0,0:0:0:0:
256,192,173853,1,0,0:0:0:0:
256,192,173911,1,8,0:0:0:0:
256,192,174029,1,0,0:0:0:0:
256,192,174146,1,8,0:0:0:0:
256,192,174204,1,8,0:0:0:0:
256,192,174263,1,0,0:0:0:0:
256,192,174380,1,0,0:0:0:0:
256,192,174497,1,8,0:0:0:0:
252,181,174556,1,0,0:0:0:0:
256,192,174614,1,8,0:0:0:0:
256,192,174673,1,8,0:0:0:0:
256,192,174732,1,0,0:0:0:0:
256,192,174849,1,0,0:0:0:0:
256,192,174966,1,8,0:0:0:0:
256,192,175025,1,8,0:0:0:0:
256,192,175083,1,0,0:0:0:0:
256,192,175200,1,0,0:0:0:0:
256,192,175318,1,8,0:0:0:0:
256,192,175435,1,0,0:0:0:0:
256,192,175493,1,0,0:0:0:0:
256,192,175552,1,0,0:0:0:0:
256,192,175611,1,0,0:0:0:0:
256,192,175669,1,8,0:0:0:0:
256,192,175786,1,0,0:0:0:0:
256,192,175904,1,8,0:0:0:0:
256,192,175962,1,8,0:0:0:0:
256,192,176021,1,8,0:0:0:0:
256,192,176138,1,0,0:0:0:0:
256,192,176255,1,0,0:0:0:0:
256,192,176372,1,8,0:0:0:0:
256,192,176430,1,8,0:0:0:0:
256,192,176489,1,8,0:0:0:0:
256,192,176606,1,0,0:0:0:0:
256,192,176724,1,0,0:0:0:0:
256,192,176841,1,8,0:0:0:0:
256,192,176958,1,8,0:0:0:0:
256,192,176997,1,8,0:0:0:0:
256,192,177036,1,8,0:0:0:0:
256,192,177075,1,8,0:0:0:0:
256,192,177193,1,8,0:0:0:0:
256,192,177310,1,8,0:0:0:0:
256,192,177427,1,8,0:0:0:0:
256,192,177544,1,8,0:0:0:0:
256,192,177661,1,8,0:0:0:0:
256,192,177779,1,0,0:0:0:0:
256,192,177896,1,8,0:0:0:0:
256,192,177954,1,8,0:0:0:0:
256,192,178013,1,0,0:0:0:0:
256,192,178130,1,8,0:0:0:0:
256,192,178247,1,0,0:0:0:0:
256,192,178306,1,8,0:0:0:0:
256,192,178364,1,8,0:0:0:0:
256,192,178423,1,8,0:0:0:0:
256,192,178482,1,0,0:0:0:0:
256,192,178599,1,0,0:0:0:0:
256,192,178716,1,8,0:0:0:0:
256,192,178775,1,8,0:0:0:0:
256,192,178833,1,0,0:0:0:0:
256,192,178950,1,0,0:0:0:0:
256,192,179068,1,8,0:0:0:0:
256,192,179126,1,8,0:0:0:0:
256,192,179185,1,0,0:0:0:0:
256,192,179243,1,0,0:0:0:0:
256,192,179302,1,8,0:0:0:0:
256,192,179419,1,4,0:0:0:0:
256,192,179536,1,0,0:0:0:0:
256,192,179654,1,8,0:0:0:0:
256,192,179771,1,8,0:0:0:0:
256,192,179829,1,8,0:0:0:0:
256,192,179888,1,0,0:0:0:0:
256,192,180005,1,0,0:0:0:0:
256,192,180122,1,8,0:0:0:0:
256,192,180239,1,8,0:0:0:0:
256,192,180357,1,8,0:0:0:0:
256,192,180474,1,8,0:0:0:0:
256,192,180591,1,0,0:0:0:0:
256,192,180708,1,8,0:0:0:0:
256,192,180767,1,8,0:0:0:0:
256,192,180825,1,0,0:0:0:0:
256,192,180943,1,8,0:0:0:0:
256,192,181060,1,0,0:0:0:0:
256,192,181177,1,0,0:0:0:0:
256,192,181294,1,8,0:0:0:0:
256,192,181411,1,0,0:0:0:0:
256,192,181529,1,8,0:0:0:0:
256,192,181646,1,8,0:0:0:0:
256,192,181704,1,8,0:0:0:0:
256,192,181763,1,0,0:0:0:0:
256,192,181880,1,0,0:0:0:0:
256,192,181997,1,8,0:0:0:0:
256,192,182114,1,8,0:0:0:0:
256,192,182173,1,8,0:0:0:0:
256,192,182232,1,0,0:0:0:0:
256,192,182349,1,0,0:0:0:0:
256,192,182466,1,8,0:0:0:0:
256,192,182583,1,8,0:0:0:0:
256,192,182642,1,8,0:0:0:0:
256,192,182700,1,8,0:0:0:0:
256,192,182759,1,8,0:0:0:0:
256,192,182818,1,8,0:0:0:0:
256,192,182876,1,8,0:0:0:0:
256,192,182935,1,0,0:0:0:0:
256,192,183052,1,8,0:0:0:0:
256,192,183169,1,0,0:0:0:0:
256,192,183228,1,0,0:0:0:0:
256,192,183286,1,8,0:0:0:0:
256,192,183345,1,0,0:0:0:0:
256,192,183404,1,8,0:0:0:0:
256,192,183521,1,8,0:0:0:0:
256,192,183638,1,0,0:0:0:0:
256,192,183755,1,0,0:0:0:0:
256,192,183872,1,8,0:0:0:0:
256,192,183931,1,8,0:0:0:0:
256,192,183989,1,0,0:0:0:0:
256,192,184107,1,0,0:0:0:0:
256,192,184224,1,0,0:0:0:0:
256,192,184341,1,12,0:0:0:0:
256,192,184458,1,12,0:0:0:0:
256,192,184575,1,12,0:0:0:0:
256,192,184693,1,12,0:0:0:0:
256,192,184810,1,12,0:0:0:0:
256,192,184927,1,12,0:0:0:0:
256,192,185044,1,12,0:0:0:0:
256,192,185279,1,0,0:0:0:0:
256,192,185396,1,0,0:0:0:0:
256,192,185454,1,0,0:0:0:0:
256,192,185513,1,0,0:0:0:0:
256,192,185630,1,0,0:0:0:0:
256,192,185747,1,8,0:0:0:0:
256,192,185864,1,0,0:0:0:0:
256,192,185982,1,0,0:0:0:0:
256,192,186216,1,8,0:0:0:0:
256,192,186450,1,8,0:0:0:0:
256,192,186568,1,0,0:0:0:0:
256,192,186802,1,8,0:0:0:0:
256,192,186861,1,8,0:0:0:0:
256,192,186919,1,0,0:0:0:0:
256,192,187036,1,0,0:0:0:0:
256,192,187154,1,12,0:0:0:0:
256,192,187271,1,0,0:0:0:0:
256,192,187329,1,0,0:0:0:0:
256,192,187388,1,8,0:0:0:0:
256,192,187505,1,0,0:0:0:0:
256,192,187622,1,8,0:0:0:0:
256,192,187681,1,0,0:0:0:0:
256,192,187739,1,0,0:0:0:0:
256,192,187798,1,0,0:0:0:0:
256,192,187857,1,8,0:0:0:0:
256,192,187974,1,0,0:0:0:0:
256,192,188091,1,8,0:0:0:0:
256,192,188150,1,8,0:0:0:0:
256,192,188208,1,0,0:0:0:0:
256,192,188325,1,8,0:0:0:0:
256,192,188443,1,0,0:0:0:0:
256,192,188560,1,8,0:0:0:0:
256,192,188618,1,0,0:0:0:0:
256,192,188677,1,8,0:0:0:0:
256,192,188794,1,0,0:0:0:0:
256,192,188911,1,8,0:0:0:0:
256,192,189029,1,0,0:0:0:0:
256,192,189087,1,0,0:0:0:0:
256,192,189146,1,0,0:0:0:0:
256,192,189204,1,0,0:0:0:0:
256,192,189263,1,0,0:0:0:0:
256,192,189380,1,8,0:0:0:0:
256,192,189497,1,0,0:0:0:0:
256,192,189556,1,0,0:0:0:0:
256,192,189614,1,8,0:0:0:0:
256,192,189732,1,0,0:0:0:0:
256,192,189849,1,0,0:0:0:0:
256,192,189966,1,8,0:0:0:0:
256,192,190025,1,8,0:0:0:0:
256,192,190083,1,0,0:0:0:0:
256,192,190200,1,0,0:0:0:0:
256,192,190318,1,8,0:0:0:0:
256,192,190435,1,0,0:0:0:0:
256,192,190493,1,0,0:0:0:0:
256,192,190552,1,0,0:0:0:0:
256,192,190669,1,8,0:0:0:0:
256,192,190904,1,0,0:0:0:0:
256,192,190962,1,0,0:0:0:0:
256,192,191021,1,0,0:0:0:0:
256,192,191079,1,0,0:0:0:0:
256,192,191138,1,0,0:0:0:0:
256,192,191255,1,0,0:0:0:0:
256,192,191372,1,8,0:0:0:0:
256,192,191489,1,0,0:0:0:0:
256,192,191607,1,0,0:0:0:0:
256,192,191724,1,8,0:0:0:0:
256,192,191841,1,0,0:0:0:0:
256,192,191958,1,8,0:0:0:0:
256,192,192075,1,0,0:0:0:0:
256,192,192193,1,0,0:0:0:0:
256,192,192251,1,0,0:0:0:0:
256,192,192310,1,8,0:0:0:0:
256,192,192427,1,0,0:0:0:0:
256,192,192544,1,0,0:0:0:0:
256,192,192661,1,8,0:0:0:0:
256,192,192779,1,0,0:0:0:0:
256,192,192896,1,8,0:0:0:0:
256,192,192954,1,8,0:0:0:0:
256,192,193013,1,0,0:0:0:0:
256,192,193130,1,0,0:0:0:0:
256,192,193247,1,8,0:0:0:0:
256,192,193364,1,0,0:0:0:0:
256,192,193482,1,0,0:0:0:0:
256,192,193599,1,8,0:0:0:0:
256,192,193716,1,0,0:0:0:0:
256,192,193833,1,8,0:0:0:0:
256,192,193950,1,0,0:0:0:0:
256,192,194068,1,8,0:0:0:0:
256,192,194126,1,8,0:0:0:0:
256,192,194185,1,8,0:0:0:0:
256,192,194243,1,8,0:0:0:0:
256,192,194302,1,0,0:0:0:0:
256,192,194361,1,0,0:0:0:0:
256,192,194419,1,8,0:0:0:0:
256,192,194478,1,8,0:0:0:0:
256,192,194536,1,8,0:0:0:0:
256,192,194595,1,8,0:0:0:0:
256,192,194654,1,0,0:0:0:0:
256,192,194771,1,8,0:0:0:0:
256,192,194888,1,0,0:0:0:0:
256,192,194946,1,0,0:0:0:0:
256,192,195005,1,8,0:0:0:0:
256,192,195122,1,0,0:0:0:0:
256,192,195239,1,8,0:0:0:0:
256,192,195357,1,0,0:0:0:0:
256,192,195415,1,0,0:0:0:0:
256,192,195474,1,0,0:0:0:0:
256,192,195591,1,8,0:0:0:0:
256,192,195708,1,0,0:0:0:0:
256,192,195825,1,8,0:0:0:0:
256,192,195884,1,8,0:0:0:0:
256,192,195943,1,0,0:0:0:0:
256,192,196060,1,8,0:0:0:0:
256,192,196177,1,0,0:0:0:0:
256,192,196236,1,0,0:0:0:0:
256,192,196294,1,8,0:0:0:0:
256,192,196411,1,8,0:0:0:0:
256,192,196529,1,0,0:0:0:0:
256,192,196587,1,0,0:0:0:0:
256,192,196646,1,0,0:0:0:0:
256,192,196763,1,8,0:0:0:0:
256,192,196880,1,0,0:0:0:0:
256,192,196997,1,8,0:0:0:0:
256,192,197056,1,8,0:0:0:0:
256,192,197114,1,0,0:0:0:0:
256,192,197173,1,0,0:0:0:0:
256,192,197232,1,8,0:0:0:0:
256,192,197349,1,0,0:0:0:0:
256,192,197466,1,8,0:0:0:0:
256,192,197583,1,0,0:0:0:0:
256,192,197642,1,0,0:0:0:0:
256,192,197700,1,8,0:0:0:0:
256,192,197818,1,0,0:0:0:0:
256,192,197935,1,8,0:0:0:0:
256,192,197993,1,0,0:0:0:0:
256,192,198052,1,0,0:0:0:0:
256,192,198111,1,0,0:0:0:0:
256,192,198169,1,8,0:0:0:0:
256,192,198404,1,0,0:0:0:0:
256,192,198462,1,0,0:0:0:0:
256,192,198521,1,0,0:0:0:0:
256,192,198579,1,0,0:0:0:0:
256,192,198638,1,0,0:0:0:0:
256,192,198755,1,0,0:0:0:0:
256,192,198872,1,8,0:0:0:0:
256,192,198989,1,0,0:0:0:0:
256,192,199107,1,0,0:0:0:0:
256,192,199224,1,8,0:0:0:0:
256,192,199341,1,0,0:0:0:0:
256,192,199400,1,0,0:0:0:0:
256,192,199458,1,8,0:0:0:0:
256,192,199575,1,0,0:0:0:0:
256,192,199693,1,8,0:0:0:0:
256,192,199751,1,8,0:0:0:0:
256,192,199810,1,8,0:0:0:0:
256,192,199927,1,8,0:0:0:0:
256,192,199986,1,8,0:0:0:0:
256,192,200044,1,8,0:0:0:0:
256,192,200161,1,8,0:0:0:0:
256,192,200279,1,8,0:0:0:0:
256,192,200337,1,8,0:0:0:0:
256,192,200396,1,0,0:0:0:0:
256,192,200513,1,0,0:0:0:0:
256,192,200630,1,0,0:0:0:0:
256,192,200747,1,8,0:0:0:0:
256,192,200864,1,0,0:0:0:0:
256,192,200982,1,0,0:0:0:0:
256,192,201040,1,0,0:0:0:0:
256,192,201099,1,0,0:0:0:0:
256,192,201216,1,8,0:0:0:0:
256,192,201333,1,0,0:0:0:0:
256,192,201450,1,8,0:0:0:0:
256,192,201568,1,0,0:0:0:0:
256,192,201685,1,8,0:0:0:0:
256,192,201802,1,8,0:0:0:0:
256,192,201919,1,0,0:0:0:0:
256,192,202036,1,8,0:0:0:0:
256,192,202154,1,4,0:0:0:0:
256,192,202271,1,8,0:0:0:0:
256,192,202329,1,8,0:0:0:0:
256,192,202388,1,0,0:0:0:0:
256,192,202505,1,8,0:0:0:0:
256,192,202622,1,0,0:0:0:0:
256,192,202681,1,0,0:0:0:0:
256,192,202739,1,0,0:0:0:0:
256,192,202857,1,8,0:0:0:0:
256,192,202974,1,0,0:0:0:0:
256,192,203091,1,8,0:0:0:0:
256,192,203150,1,8,0:0:0:0:
256,192,203208,1,0,0:0:0:0:
256,192,203267,1,8,0:0:0:0:
256,192,203325,1,0,0:0:0:0:
256,192,203443,1,0,0:0:0:0:
256,192,203560,1,8,0:0:0:0:
256,192,203618,1,0,0:0:0:0:
256,192,203677,1,0,0:0:0:0:
256,192,203736,1,0,0:0:0:0:
256,192,203794,1,8,0:0:0:0:
256,192,203911,1,0,0:0:0:0:
256,192,204029,1,8,0:0:0:0:
256,192,204087,1,8,0:0:0:0:
256,192,204146,1,0,0:0:0:0:
256,192,204263,1,0,0:0:0:0:
256,192,204380,1,8,0:0:0:0:
256,192,204497,1,0,0:0:0:0:
256,192,204556,1,0,0:0:0:0:
256,192,204614,1,8,0:0:0:0:
256,192,204732,1,0,0:0:0:0:
256,192,204849,1,8,0:0:0:0:
256,192,204966,1,0,0:0:0:0:
256,192,205025,1,0,0:0:0:0:
256,192,205083,1,0,0:0:0:0:
256,192,205200,1,0,0:0:0:0:
256,192,205318,1,0,0:0:0:0:
256,192,205435,1,8,0:0:0:0:
256,192,205493,1,8,0:0:0:0:
256,192,205552,1,0,0:0:0:0:
256,192,205669,1,8,0:0:0:0:
256,192,205786,1,8,0:0:0:0:
256,192,205904,1,0,0:0:0:0:
256,192,205962,1,0,0:0:0:0:
256,192,206021,1,0,0:0:0:0:
256,192,206079,1,0,0:0:0:0:
256,192,206138,1,0,0:0:0:0:
256,192,206255,1,0,0:0:0:0:
256,192,206372,1,8,0:0:0:0:
256,192,206431,1,8,0:0:0:0:
256,192,206489,1,0,0:0:0:0:
256,192,206607,1,8,0:0:0:0:
256,192,206724,1,0,0:0:0:0:
256,192,206841,1,8,0:0:0:0:
256,192,206900,1,8,0:0:0:0:
256,192,206958,1,0,0:0:0:0:
256,192,207017,1,0,0:0:0:0:
256,192,207075,1,0,0:0:0:0:
256,192,207193,1,8,0:0:0:0:
256,192,207310,1,8,0:0:0:0:
256,192,207427,1,8,0:0:0:0:
256,192,207544,1,0,0:0:0:0:
256,192,207603,1,0,0:0:0:0:
256,192,207661,1,0,0:0:0:0:
256,192,207779,1,12,0:0:0:0:
256,192,208130,1,4,0:0:0:0:
256,192,208364,1,12,0:0:0:0:
256,192,208599,1,8,0:0:0:0:
256,192,208716,1,4,0:0:0:0:
256,192,208833,1,8,0:0:0:0:
256,192,208950,1,8,0:0:0:0:
256,192,209068,1,8,0:0:0:0:
256,192,209185,1,8,0:0:0:0:
256,192,209302,1,8,0:0:0:0:
256,192,209419,1,8,0:0:0:0:
256,192,209536,1,8,0:0:0:0:
256,192,209654,1,4,0:0:0:0:
256,192,209771,1,8,0:0:0:0:
256,192,209829,1,8,0:0:0:0:
256,192,209888,1,0,0:0:0:0:
256,192,210005,1,0,0:0:0:0:
256,192,210122,1,8,0:0:0:0:
256,192,210181,1,0,0:0:0:0:
256,192,210239,1,0,0:0:0:0:
256,192,210298,1,0,0:0:0:0:
256,192,210357,1,8,0:0:0:0:
256,192,210474,1,8,0:0:0:0:
256,192,210591,1,0,0:0:0:0:
256,192,210650,1,0,0:0:0:0:
256,192,210708,1,0,0:0:0:0:
256,192,210825,1,8,0:0:0:0:
256,192,210943,1,8,0:0:0:0:
256,192,211060,1,0,0:0:0:0:
256,192,211118,1,8,0:0:0:0:
256,192,211177,1,0,0:0:0:0:
256,192,211294,1,8,0:0:0:0:
256,192,211411,1,8,0:0:0:0:
256,192,211529,1,0,0:0:0:0:
256,192,211646,1,8,0:0:0:0:
256,192,211704,1,8,0:0:0:0:
256,192,211763,1,0,0:0:0:0:
256,192,211880,1,0,0:0:0:0:
256,192,211997,1,8,0:0:0:0:
256,192,212056,1,8,0:0:0:0:
256,192,212114,1,0,0:0:0:0:
256,192,212173,1,0,0:0:0:0:
256,192,212232,1,8,0:0:0:0:
256,192,212349,1,0,0:0:0:0:
256,192,212466,1,8,0:0:0:0:
256,192,212525,1,8,0:0:0:0:
256,192,212583,1,0,0:0:0:0:
256,192,212700,1,0,0:0:0:0:
256,192,212818,1,8,0:0:0:0:
256,192,212935,1,0,0:0:0:0:
256,192,212993,1,0,0:0:0:0:
256,192,213052,1,0,0:0:0:0:
256,192,213111,1,0,0:0:0:0:
256,192,213169,1,8,0:0:0:0:
256,192,213286,1,8,0:0:0:0:
256,192,213404,1,0,0:0:0:0:
256,192,213462,1,0,0:0:0:0:
256,192,213521,1,0,0:0:0:0:
256,192,213579,1,0,0:0:0:0:
256,192,213638,1,8,0:0:0:0:
256,192,213696,1,8,0:0:0:0:
256,192,213755,1,8,0:0:0:0:
256,192,213813,1,8,0:0:0:0:
256,192,213872,1,0,0:0:0:0:
256,192,213930,1,0,0:0:0:0:
256,192,213989,1,0,0:0:0:0:
256,192,214047,1,0,0:0:0:0:
256,192,214107,1,8,0:0:0:0:
256,192,214165,1,8,0:0:0:0:
256,192,214224,1,8,0:0:0:0:
256,192,214282,1,8,0:0:0:0:
256,192,214341,1,0,0:0:0:0:
256,192,214399,1,0,0:0:0:0:
256,192,214458,1,0,0:0:0:0:
256,192,214516,1,0,0:0:0:0:
256,192,214575,1,8,0:0:0:0:
256,192,214633,1,8,0:0:0:0:
256,192,214692,1,8,0:0:0:0:
256,192,214750,1,8,0:0:0:0:
256,192,214810,1,0,0:0:0:0:
256,192,214868,1,0,0:0:0:0:
256,192,214927,1,0,0:0:0:0:
256,192,214985,1,0,0:0:0:0:
256,192,215044,1,8,0:0:0:0:
256,192,215102,1,8,0:0:0:0:
256,192,215161,1,8,0:0:0:0:
256,192,215279,1,4,0:0:0:0:
256,192,215630,1,4,0:0:0:0:
256,192,215864,1,4,0:0:0:0:
256,192,216099,1,4,0:0:0:0:
256,192,225123,5,0,0:0:0:0:
256,192,225240,1,8,0:0:0:0:
256,192,225475,1,8,0:0:0:0:
256,192,226061,1,8,0:0:0:0:
256,192,226178,1,8,0:0:0:0:
256,192,226295,1,0,0:0:0:0:
256,192,226412,1,8,0:0:0:0:
256,192,226530,1,0,0:0:0:0:
256,192,226998,1,8,0:0:0:0:
256,192,227115,1,8,0:0:0:0:
256,192,227350,1,8,0:0:0:0:
256,192,227936,1,0,0:0:0:0:
256,192,228169,1,0,0:0:0:0:
256,192,228404,1,8,0:0:0:0:
256,192,228873,1,0,0:0:0:0:
256,192,228990,1,0,0:0:0:0:
256,192,229225,1,8,0:0:0:0:
256,192,229811,1,8,0:0:0:0:
256,192,229928,1,8,0:0:0:0:
256,192,230045,1,0,0:0:0:0:
256,192,230162,1,8,0:0:0:0:
256,192,230280,1,0,0:0:0:0:
256,192,230748,1,8,0:0:0:0:
256,192,230865,1,0,0:0:0:0:
256,192,231100,1,0,0:0:0:0:
256,192,231685,1,0,0:0:0:0:
256,192,231919,1,8,0:0:0:0:
256,192,232154,1,8,0:0:0:0:
256,192,232623,1,0,0:0:0:0:
256,192,232740,1,8,0:0:0:0:
256,192,232975,1,8,0:0:0:0:
256,192,233561,1,8,0:0:0:0:
256,192,233678,1,8,0:0:0:0:
256,192,233795,1,0,0:0:0:0:
256,192,233912,1,8,0:0:0:0:
256,192,234030,1,0,0:0:0:0:
256,192,234498,1,8,0:0:0:0:
256,192,234615,1,0,0:0:0:0:
256,192,234850,1,8,0:0:0:0:
256,192,235436,1,0,0:0:0:0:
256,192,235669,1,0,0:0:0:0:
256,192,235904,1,8,0:0:0:0:
256,192,236373,1,0,0:0:0:0:
256,192,236490,1,0,0:0:0:0:
256,192,236725,1,8,0:0:0:0:
256,192,237311,1,8,0:0:0:0:
256,192,237428,1,8,0:0:0:0:
256,192,237779,1,4,0:0:0:0:
256,192,237896,1,4,0:0:0:0:
256,192,238013,1,0,0:0:0:0:
256,192,238072,1,0,0:0:0:0:
256,192,238130,1,8,0:0:0:0:
256,192,238169,1,8,0:0:0:0:
256,192,238208,1,8,0:0:0:0:
256,192,238248,1,0,0:0:0:0:
256,192,238306,1,0,0:0:0:0:
256,192,238365,1,8,0:0:0:0:
256,192,238423,1,0,0:0:0:0:
256,192,238482,1,8,0:0:0:0:
256,192,238521,1,8,0:0:0:0:
256,192,238560,1,8,0:0:0:0:
256,192,238599,1,0,0:0:0:0:
256,192,239185,1,0,0:0:0:0:
256,192,239419,1,8,0:0:0:0:
256,192,239654,1,4,0:0:0:0:
256,192,247154,5,4,0:0:0:0:
256,192,247623,1,0,0:0:0:0:
256,192,248091,1,0,0:0:0:0:
256,192,248560,1,0,0:0:0:0:
256,192,248794,1,0,0:0:0:0:
256,192,249029,1,4,0:0:0:0:
256,192,249498,1,0,0:0:0:0:
256,192,249966,1,0,0:0:0:0:
256,192,250201,1,0,0:0:0:0:
256,192,250435,1,0,0:0:0:0:
256,192,250669,1,0,0:0:0:0:
256,192,250904,1,4,0:0:0:0:
256,192,251138,1,0,0:0:0:0:
256,192,251373,1,0,0:0:0:0:
256,192,251607,1,0,0:0:0:0:
256,192,251841,1,4,0:0:0:0:
256,192,252076,1,0,0:0:0:0:
256,192,252310,1,0,0:0:0:0:
256,192,252544,1,0,0:0:0:0:
256,192,252779,1,4,0:0:0:0:
256,192,253013,1,0,0:0:0:0:
256,192,253248,1,4,0:0:0:0:
256,192,253482,1,0,0:0:0:0:
256,192,253716,1,4,0:0:0:0:
256,192,254185,8,0,254419,0:0:0:0:
256,192,254654,5,4,0:0:0:0:
256,192,254771,1,8,0:0:0:0:
256,192,254830,1,8,0:0:0:0:
256,192,254888,1,0,0:0:0:0:
256,192,255005,1,8,0:0:0:0:
256,192,255123,1,0,0:0:0:0:
256,192,255181,1,8,0:0:0:0:
256,192,255240,1,0,0:0:0:0:
256,192,255298,1,8,0:0:0:0:
256,192,255357,1,0,0:0:0:0:
256,192,255474,1,8,0:0:0:0:
256,192,255591,1,0,0:0:0:0:
256,192,255650,1,0,0:0:0:0:
256,192,255708,1,0,0:0:0:0:
256,192,255826,1,8,0:0:0:0:
256,192,255943,1,8,0:0:0:0:
256,192,256060,1,0,0:0:0:0:
256,192,256119,1,0,0:0:0:0:
256,192,256177,1,0,0:0:0:0:
256,192,256294,1,8,0:0:0:0:
256,192,256412,1,0,0:0:0:0:
256,192,256529,1,8,0:0:0:0:
256,192,256587,1,8,0:0:0:0:
256,192,256646,1,0,0:0:0:0:
256,192,256763,1,0,0:0:0:0:
256,192,256880,1,8,0:0:0:0:
256,192,256998,1,0,0:0:0:0:
256,192,257056,1,0,0:0:0:0:
256,192,257115,1,8,0:0:0:0:
256,192,257173,1,0,0:0:0:0:
256,192,257232,1,8,0:0:0:0:
256,192,257349,1,8,0:0:0:0:
256,192,257466,1,0,0:0:0:0:
256,192,257583,1,8,0:0:0:0:
256,192,257701,1,0,0:0:0:0:
256,192,257759,1,0,0:0:0:0:
256,192,257818,1,0,0:0:0:0:
256,192,257876,1,0,0:0:0:0:
256,192,257935,1,8,0:0:0:0:
256,192,258052,1,8,0:0:0:0:
256,192,258169,1,0,0:0:0:0:
256,192,258287,1,0,0:0:0:0:
256,192,258404,1,8,0:0:0:0:
256,192,258462,1,8,0:0:0:0:
256,192,258521,1,0,0:0:0:0:
256,192,258638,1,0,0:0:0:0:
256,192,258755,1,8,0:0:0:0:
256,192,258873,1,8,0:0:0:0:
256,192,258931,1,8,0:0:0:0:
256,192,258990,1,0,0:0:0:0:
256,192,259048,1,0,0:0:0:0:
256,192,259107,1,0,0:0:0:0:
256,192,259224,1,8,0:0:0:0:
256,192,259341,1,0,0:0:0:0:
256,192,259400,1,0,0:0:0:0:
256,192,259458,1,0,0:0:0:0:
256,192,259576,1,8,0:0:0:0:
256,192,259693,1,8,0:0:0:0:
256,192,259810,1,0,0:0:0:0:
256,192,259869,1,0,0:0:0:0:
256,192,259927,1,0,0:0:0:0:
256,192,260044,1,8,0:0:0:0:
256,192,260162,1,4,0:0:0:0:
256,192,260396,1,0,0:0:0:0:
256,192,260513,1,8,0:0:0:0:
256,192,260630,1,8,0:0:0:0:
256,192,260748,1,0,0:0:0:0:
256,192,260865,1,0,0:0:0:0:
256,192,260982,1,8,0:0:0:0:
256,192,261099,1,0,0:0:0:0:
256,192,261216,1,0,0:0:0:0:
256,192,261451,1,0,0:0:0:0:
256,192,261685,1,8,0:0:0:0:
256,192,261919,1,8,0:0:0:0:
256,192,262154,1,4,0:0:0:0:
256,192,262271,1,8,0:0:0:0:
256,192,262330,1,8,0:0:0:0:
256,192,262388,1,0,0:0:0:0:
256,192,262505,1,8,0:0:0:0:
256,192,262623,1,0,0:0:0:0:
256,192,262681,1,0,0:0:0:0:
256,192,262740,1,8,0:0:0:0:
256,192,262798,1,8,0:0:0:0:
256,192,262857,1,0,0:0:0:0:
256,192,262974,1,0,0:0:0:0:
256,192,263091,1,8,0:0:0:0:
256,192,263150,1,8,0:0:0:0:
256,192,263208,1,0,0:0:0:0:
256,192,263326,1,8,0:0:0:0:
256,192,263443,1,0,0:0:0:0:
256,192,263560,1,8,0:0:0:0:
256,192,263619,1,8,0:0:0:0:
256,192,263677,1,0,0:0:0:0:
256,192,263794,1,8,0:0:0:0:
256,192,263912,1,0,0:0:0:0:
256,192,264029,1,0,0:0:0:0:
256,192,264087,1,0,0:0:0:0:
256,192,264146,1,0,0:0:0:0:
256,192,264205,1,0,0:0:0:0:
256,192,264263,1,8,0:0:0:0:
256,192,264380,1,0,0:0:0:0:
256,192,264498,1,8,0:0:0:0:
256,192,264615,1,0,0:0:0:0:
256,192,264673,1,0,0:0:0:0:
256,192,264732,1,8,0:0:0:0:
256,192,264849,1,8,0:0:0:0:
256,192,264966,1,0,0:0:0:0:
256,192,265025,1,0,0:0:0:0:
256,192,265083,1,0,0:0:0:0:
256,192,265201,1,8,0:0:0:0:
256,192,265318,1,8,0:0:0:0:
256,192,265435,1,0,0:0:0:0:
256,192,265494,1,0,0:0:0:0:
256,192,265552,1,8,0:0:0:0:
256,192,265611,1,8,0:0:0:0:
256,192,265669,1,8,0:0:0:0:
256,192,265787,1,8,0:0:0:0:
256,192,265904,1,0,0:0:0:0:
256,192,266021,1,8,0:0:0:0:
256,192,266080,1,8,0:0:0:0:
256,192,266138,1,0,0:0:0:0:
256,192,266255,1,8,0:0:0:0:
256,192,266373,1,0,0:0:0:0:
256,192,266431,1,0,0:0:0:0:
256,192,266490,1,8,0:0:0:0:
256,192,266548,1,8,0:0:0:0:
256,192,266607,1,0,0:0:0:0:
256,192,266665,1,0,0:0:0:0:
256,192,266724,1,8,0:0:0:0:
256,192,266783,1,8,0:0:0:0:
256,192,266841,1,0,0:0:0:0:
256,192,266958,1,0,0:0:0:0:
256,192,267076,1,8,0:0:0:0:
256,192,267134,1,8,0:0:0:0:
256,192,267193,1,0,0:0:0:0:
256,192,267310,1,0,0:0:0:0:
256,192,267427,1,8,0:0:0:0:
256,192,267544,1,0,0:0:0:0:
256,192,267603,1,0,0:0:0:0:
256,192,267662,1,8,0:0:0:0:
256,192,267896,1,0,0:0:0:0:
256,192,268013,1,8,0:0:0:0:
256,192,268130,1,8,0:0:0:0:
256,192,268248,1,0,0:0:0:0:
256,192,268365,1,0,0:0:0:0:
256,192,268482,1,8,0:0:0:0:
256,192,268599,1,0,0:0:0:0:
256,192,268716,1,0,0:0:0:0:
256,192,268775,1,0,0:0:0:0:
256,192,268833,1,0,0:0:0:0:
256,192,268892,1,0,0:0:0:0:
256,192,268951,1,0,0:0:0:0:
256,192,269009,1,0,0:0:0:0:
256,192,269068,1,0,0:0:0:0:
256,192,269126,1,0,0:0:0:0:
256,192,269185,1,8,0:0:0:0:
256,192,269244,1,8,0:0:0:0:
256,192,269302,1,8,0:0:0:0:
256,192,269361,1,8,0:0:0:0:
256,192,269419,1,8,0:0:0:0:
256,192,269478,1,8,0:0:0:0:
256,192,269537,1,8,0:0:0:0:
256,192,269595,1,8,0:0:0:0:
256,192,269654,1,4,0:0:0:0:
256,192,269771,1,8,0:0:0:0:
256,192,269888,1,8,0:0:0:0:
256,192,270005,1,4,0:0:0:0:
256,192,270123,1,8,0:0:0:0:
256,192,270240,1,8,0:0:0:0:
256,192,270357,1,4,0:0:0:0:
256,192,270474,1,8,0:0:0:0:
256,192,270591,1,8,0:0:0:0:
256,192,270708,1,4,0:0:0:0:
256,192,270826,1,8,0:0:0:0:
256,192,270943,1,8,0:0:0:0:
256,192,271060,1,4,0:0:0:0:
256,192,271177,1,8,0:0:0:0:
256,192,271294,1,8,0:0:0:0:
256,192,271411,1,0,0:0:0:0:
256,192,271529,1,12,0:0:0:0:
256,192,271646,1,0,0:0:0:0:
256,192,271764,1,0,0:0:0:0:
256,192,271880,1,12,0:0:0:0:
256,192,271997,1,0,0:0:0:0:
256,192,272115,1,0,0:0:0:0:
256,192,272232,1,12,0:0:0:0:
256,192,272349,1,0,0:0:0:0:
256,192,272467,1,0,0:0:0:0:
256,192,272583,1,12,0:0:0:0:
256,192,272700,1,0,0:0:0:0:
256,192,272818,1,0,0:0:0:0:
256,192,272935,1,12,0:0:0:0:
256,192,273052,1,0,0:0:0:0:
256,192,273111,1,0,0:0:0:0:
256,192,273169,1,0,0:0:0:0:
256,192,273228,1,0,0:0:0:0:
256,192,273287,1,8,0:0:0:0:
256,192,273404,1,4,0:0:0:0:
256,192,273521,1,8,0:0:0:0:
256,192,273580,1,8,0:0:0:0:
256,192,273638,1,0,0:0:0:0:
256,192,273755,1,4,0:0:0:0:
256,192,273873,1,8,0:0:0:0:
256,192,273931,1,8,0:0:0:0:
256,192,273990,1,0,0:0:0:0:
256,192,274107,1,4,0:0:0:0:
256,192,274224,1,8,0:0:0:0:
256,192,274283,1,8,0:0:0:0:
256,192,274341,1,0,0:0:0:0:
256,192,274458,1,4,0:0:0:0:
256,192,274576,1,8,0:0:0:0:
256,192,274634,1,8,0:0:0:0:
256,192,274693,1,0,0:0:0:0:
256,192,274810,1,4,0:0:0:0:
256,192,274927,1,8,0:0:0:0:
256,192,274986,1,8,0:0:0:0:
256,192,275044,1,0,0:0:0:0:
256,192,275161,1,0,0:0:0:0:
256,192,275279,1,12,0:0:0:0:
256,192,275396,1,0,0:0:0:0:
256,192,275455,1,0,0:0:0:0:
256,192,275513,1,8,0:0:0:0:
256,192,275630,1,12,0:0:0:0:
256,192,275747,1,0,0:0:0:0:
256,192,275806,1,0,0:0:0:0:
256,192,275865,1,8,0:0:0:0:
256,192,275982,1,12,0:0:0:0:
256,192,276099,1,0,0:0:0:0:
256,192,276158,1,0,0:0:0:0:
256,192,276216,1,8,0:0:0:0:
256,192,276333,1,12,0:0:0:0:
256,192,276450,1,0,0:0:0:0:
256,192,276509,1,0,0:0:0:0:
256,192,276568,1,8,0:0:0:0:
256,192,276685,1,8,0:0:0:0:
256,192,276744,1,8,0:0:0:0:
256,192,276802,1,0,0:0:0:0:
256,192,276861,1,0,0:0:0:0:
256,192,276919,1,0,0:0:0:0:
256,192,277037,1,0,0:0:0:0:
256,192,277154,1,12,0:0:0:0:
256,192,277271,1,0,0:0:0:0:
256,192,277330,1,0,0:0:0:0:
256,192,277388,1,8,0:0:0:0:
256,192,277505,1,8,0:0:0:0:
256,192,277623,1,0,0:0:0:0:
256,192,277740,1,8,0:0:0:0:
256,192,277798,1,8,0:0:0:0:
256,192,277857,1,0,0:0:0:0:
256,192,277974,1,8,0:0:0:0:
256,192,278091,1,0,0:0:0:0:
256,192,278208,1,0,0:0:0:0:
256,192,278267,1,0,0:0:0:0:
256,192,278326,1,0,0:0:0:0:
256,192,278443,1,0,0:0:0:0:
256,192,278560,1,8,0:0:0:0:
256,192,278677,1,8,0:0:0:0:
256,192,278794,1,0,0:0:0:0:
256,192,278853,1,0,0:0:0:0:
256,192,278912,1,8,0:0:0:0:
256,192,278970,1,0,0:0:0:0:
256,192,279029,1,8,0:0:0:0:
256,192,279146,1,8,0:0:0:0:
256,192,279205,1,8,0:0:0:0:
256,192,279263,1,0,0:0:0:0:
256,192,279380,1,8,0:0:0:0:
256,192,279419,1,8,0:0:0:0:
256,192,279458,1,8,0:0:0:0:
256,192,279498,1,0,0:0:0:0:
256,192,279615,1,0,0:0:0:0:
256,192,279654,1,0,0:0:0:0:
256,192,279693,1,0,0:0:0:0:
256,192,279732,1,0,0:0:0:0:
256,192,279849,1,0,0:0:0:0:
256,192,279966,1,8,0:0:0:0:
256,192,280005,1,8,0:0:0:0:
256,192,280044,1,8,0:0:0:0:
256,192,280083,1,0,0:0:0:0:
256,192,280142,1,0,0:0:0:0:
256,192,280201,1,0,0:0:0:0:
256,192,280318,1,0,0:0:0:0:
256,192,280435,1,8,0:0:0:0:
256,192,280494,1,8,0:0:0:0:
256,192,280552,1,0,0:0:0:0:
256,192,280591,1,0,0:0:0:0:
256,192,280630,1,0,0:0:0:0:
256,192,280669,1,8,0:0:0:0:
256,192,280708,1,8,0:0:0:0:
256,192,280748,1,8,0:0:0:0:
256,192,280787,1,8,0:0:0:0:
256,192,280826,1,8,0:0:0:0:
256,192,280865,1,8,0:0:0:0:
256,192,280904,1,0,0:0:0:0:
256,192,281021,1,0,0:0:0:0:
256,192,281138,1,0,0:0:0:0:
256,192,281255,1,0,0:0:0:0:
256,192,281373,1,0,0:0:0:0:
256,192,281490,1,0,0:0:0:0:
256,192,281607,1,0,0:0:0:0:
256,192,281724,1,0,0:0:0:0:
256,192,281841,1,0,0:0:0:0:
256,192,281900,1,0,0:0:0:0:
256,192,281958,1,0,0:0:0:0:
256,192,282017,1,0,0:0:0:0:
256,192,282076,1,0,0:0:0:0:
256,192,282134,1,0,0:0:0:0:
256,192,282193,1,0,0:0:0:0:
256,192,282251,1,0,0:0:0:0:
256,192,282310,1,0,0:0:0:0:
256,192,282349,1,0,0:0:0:0:
256,192,282388,1,0,0:0:0:0:
256,192,282427,1,0,0:0:0:0:
256,192,282466,1,0,0:0:0:0:
256,192,282505,1,0,0:0:0:0:
256,192,282544,1,0,0:0:0:0:
256,192,282583,1,0,0:0:0:0:
256,192,282623,1,0,0:0:0:0:
256,192,282662,1,4,0:0:0:0:
256,192,282896,1,12,0:0:0:0:
256,192,283013,1,4,0:0:0:0:
256,192,283130,1,12,0:0:0:0:
256,192,283248,1,4,0:0:0:0:
256,192,283365,1,4,0:0:0:0:
256,192,283482,1,12,0:0:0:0:
256,192,283599,1,12,0:0:0:0:
256,192,283716,1,4,0:0:0:0:
96,192,283833,2,4,P|448:192|320:192,3,420.000016021729
256,192,284654,1,4,0:0:0:0:
