osu file format v14

[General]
AudioFilename: audio.ogg
AudioLeadIn: 0
PreviewTime: 91195
Countdown: 0
SampleSet: Soft
StackLeniency: 0.7
Mode: 3
LetterboxInBreaks: 0
SpecialStyle: 0
WidescreenStoryboard: 1

[Editor]
Bookmarks: 8695,16195,31195,46195,53695,61195,68695,74320,76195,83695,91195,106195,113695,117445
DistanceSpacing: 2
BeatDivisor: 4
GridSize: 8
TimelineZoom: 1.099999

[Metadata]
Title:Garakuta Doll Play
TitleUnicode:Garakuta Doll Play
Artist:t+pazolite
ArtistUnicode:t+pazolite
Creator:keksikosu
Version:BASIC
Source:maimai GreeN
Tags:tpz t+pz electronic instrumental video game sdvx CHUNITHM PLUS HEAVENLY 第二回天下一音ゲ祭 BANDAI NAMCO MAI-0001 CHS-0021 0022 jubeat saucer fulfill Ponko2 Girlish Garakuta Scramble! maimai SEGA Sounds Vol.5 -GreeNはじめました~!パック- 2013 comiket comic market 89 C89 ガラクタ sonota その他 GROOVE COASTER EX タイトー 太鼓の達人 キミドリ Ver. バンダイナムコ SOUND VOLTEX 譜面ボーイズ arcaea Maxim-miau Antipole Symmatrix- ATing
BeatmapID:3757493
BeatmapSetID:1830658

[Difficulty]
HPDrainRate:6.5
CircleSize:4
OverallDifficulty:6.5
ApproachRate:5
SliderMultiplier:1.4
SliderTickRate:1

[Events]
//Background and Video events
0,0,"BG.jpg",0,0
//Break Periods
//Storyboard Layer 0 (Background)
//Storyboard Layer 1 (Fail)
//Storyboard Layer 2 (Pass)
//Storyboard Layer 3 (Foreground)
//Storyboard Layer 4 (Overlay)
//Storyboard Sound Samples
Sample,10570,0,"soft-hitclap.wav",60
Sample,12445,0,"soft-hitclap.wav",50
Sample,13382,0,"soft-hitclap.wav",50
Sample,14320,0,"soft-hitclap.wav",60
Sample,14788,0,"soft-hitclap.wav",40
Sample,15257,0,"soft-hitclap.wav",40
Sample,44671,0,"LR_Cymbal.wav",60
Sample,44905,0,"LR_Cymbal.wav",60
Sample,54632,0,"LR_Cymbal.wav",60
Sample,54984,0,"LR_Cymbal.wav",60
Sample,55335,0,"LR_Cymbal.wav",60
Sample,56507,0,"LR_Cymbal.wav",60
Sample,56859,0,"LR_Cymbal.wav",60
Sample,57210,0,"LR_Cymbal.wav",60
Sample,88148,0,"soft-hitclap.wav",50
Sample,89554,0,"soft-hitclap.wav",50
Sample,90023,0,"soft-hitclap.wav",50
Sample,107601,0,"Ride.wav",70
Sample,107835,0,"Ride.wav",70
Sample,109476,0,"Ride.wav",70
Sample,109710,0,"Ride.wav",70
Sample,111351,0,"Ride.wav",70
Sample,111585,0,"Ride.wav",70
Sample,113226,0,"Ride.wav",70
Sample,113460,0,"Ride.wav",70

[TimingPoints]
1195,234.375,4,2,1,70,1,0
91195,-100,4,2,1,70,0,1
97757,-100,4,2,1,70,0,0
98695,-100,4,2,1,70,0,1
104202,-100,4,2,1,70,0,0
106195,-100,4,2,1,70,0,1
119202,-100,4,2,1,70,0,0

[HitObjects]
64,192,1195,5,0,0:0:0:0:
320,192,1663,1,0,0:0:0:0:
192,192,1780,1,0,0:0:0:0:
448,192,2015,1,0,0:0:0:0:
64,192,2601,1,0,0:0:0:0:
192,192,2835,1,0,0:0:0:0:
320,192,3070,1,0,0:0:0:0:
64,192,3538,1,0,0:0:0:0:
448,192,3655,1,0,0:0:0:0:
192,192,3890,1,0,0:0:0:0:
448,192,4476,1,8,0:0:0:50:soft-hitclap.wav
192,192,4593,1,8,0:0:0:50:soft-hitclap.wav
320,192,4710,1,8,0:0:0:50:soft-hitclap.wav
64,192,4827,1,8,0:0:0:50:soft-hitclap.wav
448,192,4945,1,2,0:0:0:50:soft-hitwhistle.wav
192,192,5413,1,8,0:0:0:50:soft-hitclap.wav
320,192,5530,1,0,0:0:0:0:
64,192,5765,1,2,0:0:0:50:soft-hitwhistle.wav
448,192,6351,1,8,0:0:0:50:soft-hitclap.wav
320,192,6585,1,0,0:0:0:0:
192,192,6820,1,0,0:0:0:50:soft-hitwhistle.wav
448,192,7288,1,0,0:0:0:50:soft-hitclap.wav
64,192,7405,1,0,0:0:0:0:
320,192,7640,1,0,0:0:0:50:soft-hitwhistle.wav
192,192,7991,128,0,8226:0:0:0:0:
320,192,8226,128,0,8460:0:0:0:0:
448,192,8460,128,0,8695:0:0:0:0:
64,192,8695,1,2,0:0:0:0:
192,192,8695,1,4,0:0:0:0:
320,192,8929,1,8,0:0:0:60:soft-hitclap.wav
448,192,9163,1,8,0:0:0:60:soft-hitclap.wav
192,192,9398,1,8,0:0:0:60:soft-hitclap.wav
320,192,9632,1,8,0:0:0:60:soft-hitclap.wav
64,192,9866,1,8,0:0:0:60:soft-hitclap.wav
448,192,10101,1,8,0:0:0:60:soft-hitclap.wav
192,192,10335,1,8,0:0:0:60:soft-hitclap.wav
320,192,10452,1,8,0:0:0:60:soft-hitclap.wav
64,192,10570,1,2,0:0:0:0:
192,192,10804,1,0,0:0:0:60:soft-hitclap.wav
448,192,11038,1,0,0:0:0:60:soft-hitclap.wav
320,192,11273,1,0,0:0:0:60:soft-hitclap.wav
192,192,11507,1,0,0:0:0:60:soft-hitclap.wav
64,192,11741,1,0,0:0:0:60:soft-hitclap.wav
320,192,11976,128,0,12210:0:0:0:60:soft-hitclap.wav
192,192,12210,128,0,12445:0:0:0:60:soft-hitclap.wav
448,192,12445,1,2,0:0:0:0:
64,192,12679,1,0,0:0:0:50:soft-hitclap.wav
320,192,12913,1,0,0:0:0:50:soft-hitclap.wav
192,192,13148,1,0,0:0:0:50:soft-hitclap.wav
448,192,13382,1,2,0:0:0:0:
64,192,13616,1,0,0:0:0:50:soft-hitclap.wav
192,192,13851,1,0,0:0:0:50:soft-hitclap.wav
448,192,14085,1,0,0:0:0:50:soft-hitclap.wav
64,192,14202,1,0,0:0:0:50:soft-hitclap.wav
320,192,14320,128,2,14788:0:0:0:0:
64,192,14788,128,2,15257:0:0:0:0:
192,192,15257,128,2,15491:0:0:0:0:
448,192,15491,128,0,15726:0:0:0:0:
64,192,15726,128,0,15960:0:0:0:0:
320,192,15960,128,0,16195:0:0:0:0:
64,192,16195,1,2,0:0:0:0:
192,192,16195,1,4,0:0:0:0:
192,192,16429,1,2,0:0:0:0:
448,192,16663,1,2,0:0:0:0:
448,192,16898,1,2,0:0:0:0:
64,192,17132,1,2,0:0:0:0:
64,192,17366,1,2,0:0:0:0:
320,192,17601,1,2,0:0:0:0:
320,192,17835,1,2,0:0:0:0:
192,192,17952,1,2,0:0:0:0:
448,192,18070,1,2,0:0:0:0:
64,192,18304,1,2,0:0:0:0:
320,192,18538,1,2,0:0:0:0:
64,192,18773,1,2,0:0:0:0:
192,192,19007,128,2,19241:0:0:0:0:
448,192,19241,128,2,19476:0:0:0:0:
64,192,19476,1,0,0:0:0:60:soft-hitwhistle.wav
320,192,19710,1,0,0:0:0:60:soft-hitwhistle.wav
192,192,19945,1,2,0:0:0:0:
192,192,20179,1,2,0:0:0:0:
448,192,20413,1,2,0:0:0:0:
448,192,20648,1,2,0:0:0:0:
64,192,20882,128,2,21116:0:0:0:0:
320,192,21116,128,2,21351:0:0:0:0:
192,192,21351,1,2,0:0:0:0:
64,192,21585,1,6,0:0:0:0:
448,192,21702,128,0,22171:0:0:0:0:
320,192,22171,1,2,0:0:0:0:
64,192,22288,1,8,0:0:0:0:
448,192,22405,1,2,0:0:0:0:
192,192,22523,1,2,0:0:0:0:
320,192,22757,1,2,0:0:0:0:
448,192,22991,1,2,0:0:0:0:
192,192,23226,128,2,23460:0:0:0:60:soft-hitwhistle.wav
64,192,23460,128,2,23695:0:0:0:50:soft-hitwhistle.wav
320,192,23695,1,2,0:0:0:0:
448,192,23695,1,4,0:0:0:0:
64,192,24046,1,2,0:0:0:0:
448,192,24163,1,8,0:0:0:0:
192,192,24398,1,2,0:0:0:0:
320,192,24632,1,2,0:0:0:0:
320,192,24866,1,2,0:0:0:0:
64,192,25101,1,8,0:0:0:0:
192,192,25335,128,0,25570:0:0:0:0:
320,192,25570,1,2,0:0:0:0:
448,192,25570,1,4,0:0:0:0:
320,192,25804,1,2,0:0:0:0:
64,192,26038,1,2,0:0:0:0:
64,192,26273,1,2,0:0:0:0:
448,192,26507,128,2,26741:0:0:0:0:
192,192,26741,128,2,26976:0:0:0:0:
64,192,26976,1,0,0:0:0:60:soft-hitwhistle.wav
320,192,27210,1,0,0:0:0:60:soft-hitwhistle.wav
448,192,27445,1,2,0:0:0:0:
448,192,27679,1,2,0:0:0:0:
192,192,27913,1,2,0:0:0:0:
192,192,28148,1,2,0:0:0:0:
320,192,28382,128,2,28616:0:0:0:0:
64,192,28616,128,2,28851:0:0:0:0:
448,192,28851,1,2,0:0:0:0:
320,192,29085,1,2,0:0:0:0:
192,192,29202,128,0,29671:0:0:0:0:
320,192,29671,1,2,0:0:0:0:
64,192,29788,1,8,0:0:0:0:
448,192,29905,1,2,0:0:0:0:
192,192,30023,1,2,0:0:0:0:
320,192,30257,128,0,30491:0:0:0:0:
64,192,30491,128,0,30726:0:0:0:60:soft-hitwhistle.wav
448,192,30726,128,0,30960:0:0:0:0:
192,192,30960,128,0,31195:0:0:0:60:soft-hitwhistle.wav
64,192,31195,1,2,0:0:0:0:
448,192,31195,1,4,0:0:0:0:
320,192,31429,1,2,0:0:0:0:
64,192,31663,1,2,0:0:0:0:
192,192,31898,1,2,0:0:0:0:
320,192,32132,1,2,0:0:0:0:
64,192,32366,128,2,32601:0:0:0:0:
448,192,32601,1,2,0:0:0:0:
192,192,32835,1,2,0:0:0:0:
320,192,32952,1,2,0:0:0:0:
64,192,33070,1,2,0:0:0:0:
448,192,33304,1,2,0:0:0:0:
320,192,33538,1,2,0:0:0:0:
64,192,33773,1,2,0:0:0:0:
448,192,34007,1,2,0:0:0:0:
192,192,34241,1,2,0:0:0:0:
320,192,34476,1,2,0:0:0:0:
64,192,34710,1,2,0:0:0:0:
448,192,34827,1,2,0:0:0:0:
192,192,34945,1,2,0:0:0:0:
320,192,35179,1,2,0:0:0:0:
64,192,35413,1,2,0:0:0:0:
448,192,35648,1,2,0:0:0:0:
192,192,35882,1,2,0:0:0:0:
448,192,36116,1,2,0:0:0:0:
64,192,36234,1,2,0:0:0:0:
320,192,36351,1,2,0:0:0:0:
192,192,36585,1,6,0:0:0:0:
448,192,36702,128,0,37171:0:0:0:0:
320,192,37171,1,2,0:0:0:0:
192,192,37288,1,8,0:0:0:0:
448,192,37405,1,2,0:0:0:0:
64,192,37523,1,2,0:0:0:0:
320,192,37757,1,2,0:0:0:60:soft-hitwhistle.wav
64,192,37991,1,2,0:0:0:50:soft-hitwhistle.wav
192,192,38226,128,2,38460:0:0:0:50:soft-hitwhistle.wav
320,192,38460,128,0,38695:0:0:0:0:
64,192,38695,1,2,0:0:0:0:
448,192,38695,1,4,0:0:0:0:
192,192,38929,1,2,0:0:0:0:
448,192,39163,1,2,0:0:0:0:
320,192,39398,1,2,0:0:0:0:
64,192,39632,1,2,0:0:0:0:
448,192,39866,128,2,40101:0:0:0:0:
192,192,40101,1,2,0:0:0:0:
320,192,40335,1,2,0:0:0:0:
64,192,40452,1,2,0:0:0:0:
448,192,40570,1,2,0:0:0:0:
192,192,40804,1,2,0:0:0:0:
320,192,41038,1,2,0:0:0:0:
64,192,41273,1,2,0:0:0:0:
448,192,41507,1,2,0:0:0:0:
320,192,41741,1,2,0:0:0:0:
64,192,41976,1,2,0:0:0:0:
192,192,42210,1,2,0:0:0:0:
448,192,42327,1,2,0:0:0:0:
64,192,42445,1,2,0:0:0:0:
320,192,42679,1,2,0:0:0:0:
64,192,42913,1,2,0:0:0:0:
448,192,43030,1,2,0:0:0:0:
64,192,43148,1,2,0:0:0:0:
448,192,43265,1,2,0:0:0:0:
192,192,43382,1,2,0:0:0:0:
320,192,43616,1,2,0:0:0:0:
64,192,43851,128,2,44085:0:0:0:0:
448,192,44085,1,2,0:0:0:0:
192,192,44202,1,2,0:0:0:0:
320,192,44320,1,6,0:0:0:0:
192,192,44671,1,2,0:0:0:0:
192,192,44905,1,2,0:0:0:0:
448,192,45140,1,6,0:0:0:0:
64,192,45491,1,2,0:0:0:60:soft-hitwhistle.wav
192,192,45726,128,0,45960:0:0:0:0:
320,192,45960,128,0,46195:0:0:0:0:
64,192,46195,1,2,0:0:0:0:
448,192,46195,1,4,0:0:0:0:
192,192,46663,1,8,0:0:0:0:
448,192,47015,1,2,0:0:0:0:
448,192,47366,1,2,0:0:0:0:
192,192,47601,1,8,0:0:0:0:
320,192,47835,1,2,0:0:0:0:
64,192,48070,1,2,0:0:0:0:
192,192,48070,1,8,0:0:0:0:
320,192,48538,1,8,0:0:0:0:
192,192,48890,1,2,0:0:0:0:
192,192,49241,1,2,0:0:0:0:
320,192,49476,1,8,0:0:0:0:
64,192,49710,1,2,0:0:0:0:
320,192,49945,1,2,0:0:0:0:
448,192,49945,1,8,0:0:0:0:
64,192,50413,1,8,0:0:0:0:
320,192,50765,1,2,0:0:0:0:
320,192,51116,1,2,0:0:0:0:
64,192,51351,1,8,0:0:0:0:
448,192,51585,1,2,0:0:0:0:
192,192,51820,1,2,0:0:0:0:
320,192,51820,1,8,0:0:0:0:
448,192,52288,1,8,0:0:0:0:
64,192,52640,1,2,0:0:0:0:
64,192,52991,1,2,0:0:0:0:
448,192,53226,1,10,0:0:0:0:
320,192,53460,1,2,0:0:0:0:
64,192,53695,1,2,0:0:0:0:
192,192,53695,1,4,0:0:0:0:
448,192,54398,1,2,0:0:0:0:
192,192,54632,1,2,0:0:0:0:
192,192,54984,1,2,0:0:0:0:
192,192,55335,1,2,0:0:0:0:
320,192,55570,1,2,0:0:0:0:
448,192,55570,1,4,0:0:0:0:
64,192,56273,1,2,0:0:0:0:
320,192,56507,1,2,0:0:0:0:
320,192,56859,1,2,0:0:0:0:
320,192,57210,1,2,0:0:0:0:
64,192,57445,1,4,0:0:0:0:
192,192,57445,1,2,0:0:0:0:
448,192,57913,1,2,0:0:0:0:
192,192,58148,128,2,58382:0:0:0:0:
64,192,58382,1,2,0:0:0:0:
320,192,58382,1,4,0:0:0:0:
64,192,58851,1,2,0:0:0:0:
320,192,59085,128,2,59320:0:0:0:0:
192,192,59320,1,2,0:0:0:0:
448,192,59320,1,4,0:0:0:0:
64,192,59554,1,2,0:0:0:0:
320,192,59788,1,2,0:0:0:0:
448,192,59788,1,4,0:0:0:0:
192,192,60023,1,2,0:0:0:0:
320,192,60257,128,2,60491:0:0:0:60:soft-hitwhistle.wav
64,192,60491,128,0,60726:0:0:0:50:soft-hitwhistle.wav
448,192,60726,128,0,60960:0:0:0:0:
192,192,60960,128,0,61195:0:0:0:0:
64,192,61195,1,2,0:0:0:0:
448,192,61195,128,4,61546:0:0:0:0:
64,192,61546,128,0,61898:0:0:0:0:
320,192,61898,128,2,62249:0:0:0:0:
192,192,62249,1,0,0:0:0:0:
448,192,62366,1,2,0:0:0:0:
64,192,62601,1,2,0:0:0:0:
320,192,62835,1,2,0:0:0:0:
192,192,62952,1,2,0:0:0:0:
448,192,63070,128,2,63421:0:0:0:0:
64,192,63421,128,0,63773:0:0:0:0:
320,192,63773,128,2,64124:0:0:0:0:
448,192,64124,1,2,0:0:0:0:
64,192,64241,1,2,0:0:0:0:
320,192,64359,1,2,0:0:0:0:
192,192,64476,128,0,64710:0:0:0:60:soft-hitwhistle.wav
448,192,64710,128,2,64945:0:0:0:60:soft-hitwhistle.wav
64,192,64945,128,2,65296:0:0:0:0:
320,192,65296,128,0,65648:0:0:0:0:
192,192,65648,128,2,65999:0:0:0:0:
64,192,65999,1,2,0:0:0:0:
448,192,66116,1,2,0:0:0:0:
192,192,66234,1,2,0:0:0:0:
320,192,66351,1,2,0:0:0:0:
64,192,66585,128,2,66820:0:0:0:0:
448,192,66820,128,2,67171:0:0:0:0:
192,192,67171,128,0,67523:0:0:0:0:
320,192,67523,128,0,67757:0:0:0:60:soft-hitwhistle.wav
64,192,67757,128,0,67991:0:0:0:50:soft-hitwhistle.wav
192,192,67991,128,0,68226:0:0:0:0:
448,192,68226,128,0,68460:0:0:0:0:
320,192,68460,128,0,68695:0:0:0:0:
64,192,68695,128,2,69046:0:0:0:0:
192,192,68695,1,4,0:0:0:0:
448,192,69046,128,0,69398:0:0:0:0:
192,192,69398,128,2,69749:0:0:0:0:
448,192,69749,1,0,0:0:0:0:
64,192,69866,128,2,70101:0:0:0:0:
320,192,70101,128,2,70335:0:0:0:0:
192,192,70335,1,2,0:0:0:0:
64,192,70452,1,2,0:0:0:0:
448,192,70570,128,2,70921:0:0:0:0:
192,192,70921,128,0,71273:0:0:0:0:
64,192,71273,128,2,71624:0:0:0:0:
320,192,71624,1,2,0:0:0:0:
448,192,71741,1,2,0:0:0:0:
192,192,71859,1,2,0:0:0:0:
320,192,71976,128,0,72210:0:0:0:60:soft-hitwhistle.wav
64,192,72210,128,0,72445:0:0:0:60:soft-hitwhistle.wav
448,192,72445,128,2,72796:0:0:0:0:
192,192,72796,128,0,73148:0:0:0:0:
320,192,73148,128,2,73499:0:0:0:0:
448,192,73499,1,2,0:0:0:0:
64,192,73616,1,2,0:0:0:0:
320,192,73734,1,2,0:0:0:0:
192,192,73851,128,6,74085:0:0:0:0:
448,192,74085,128,6,74320:0:0:0:0:
64,192,74320,1,0,0:0:0:60:soft-hitwhistle.wav
192,192,74437,1,0,0:0:0:60:soft-hitwhistle.wav
320,192,74554,128,0,74788:0:0:0:0:
64,192,74788,128,0,75023:0:0:0:0:
448,192,75023,128,0,75257:0:0:0:0:
320,192,75726,128,0,75960:0:0:0:0:
192,192,75960,128,2,76195:0:0:0:0:
64,192,76195,128,2,76663:0:0:0:0:
448,192,76195,1,4,0:0:0:0:
192,192,76663,1,0,0:0:0:0:
448,192,76780,1,0,0:0:0:0:
320,192,77015,128,0,77601:0:0:0:0:
64,192,77601,1,0,0:0:0:0:
448,192,77835,1,0,0:0:0:0:
192,192,78070,128,0,78538:0:0:0:0:
64,192,78538,1,0,0:0:0:0:
320,192,78655,1,0,0:0:0:0:
64,192,78890,128,0,79476:0:0:0:0:
192,192,79476,128,0,79710:0:0:0:0:
320,192,79710,128,0,79945:0:0:0:0:
448,192,79945,128,0,80413:0:0:0:0:
64,192,80413,1,0,0:0:0:0:
320,192,80530,1,0,0:0:0:0:
192,192,80765,128,0,81351:0:0:0:0:
448,192,81351,1,0,0:0:0:0:
64,192,81585,1,0,0:0:0:0:
320,192,81820,128,0,82288:0:0:0:0:
448,192,82288,1,0,0:0:0:0:
192,192,82405,1,0,0:0:0:0:
448,192,82640,128,0,83226:0:0:0:0:
320,192,83226,128,0,83460:0:0:0:0:
192,192,83460,128,0,83695:0:0:0:0:
64,192,83695,1,2,0:0:0:0:
448,192,83695,1,4,0:0:0:0:
64,192,83929,1,0,0:0:0:60:soft-hitclap.wav
320,192,84163,1,0,0:0:0:60:soft-hitclap.wav
192,192,84398,1,0,0:0:0:60:soft-hitclap.wav
448,192,84632,1,0,0:0:0:60:soft-hitclap.wav
64,192,84866,1,0,0:0:0:60:soft-hitclap.wav
192,192,85101,128,0,85335:0:0:0:60:soft-hitclap.wav
320,192,85335,128,0,85570:0:0:0:60:soft-hitclap.wav
64,192,85570,1,2,0:0:0:0:
448,192,85570,1,4,0:0:0:0:
192,192,85804,1,0,0:0:0:60:soft-hitclap.wav
320,192,86038,1,0,0:0:0:60:soft-hitclap.wav
64,192,86273,1,0,0:0:0:60:soft-hitclap.wav
448,192,86507,1,0,0:0:0:60:soft-hitclap.wav
192,192,86741,128,0,86976:0:0:0:60:soft-hitclap.wav
64,192,86976,1,0,0:0:0:60:soft-hitclap.wav
448,192,87093,128,0,87327:0:0:0:60:soft-hitclap.wav
320,192,87327,1,0,0:0:0:60:soft-hitclap.wav
64,192,87445,1,2,0:0:0:0:
192,192,87445,1,4,0:0:0:0:
192,192,87679,1,0,0:0:0:50:soft-hitclap.wav
320,192,87913,128,0,88148:0:0:0:50:soft-hitclap.wav
64,192,88148,128,2,88382:0:0:0:0:
320,192,88382,1,2,0:0:0:0:
448,192,88382,1,4,0:0:0:0:
192,192,88616,1,0,0:0:0:50:soft-hitclap.wav
64,192,88851,1,0,0:0:0:50:soft-hitclap.wav
320,192,89085,1,0,0:0:0:50:soft-hitclap.wav
64,192,89320,1,2,0:0:0:0:
448,192,89320,1,4,0:0:0:0:
192,192,89554,1,2,0:0:0:0:
320,192,89788,1,2,0:0:0:0:
448,192,89788,1,4,0:0:0:0:
192,192,90023,1,2,0:0:0:0:
64,192,90257,1,2,0:0:0:0:
320,192,90491,1,0,0:0:0:0:
192,192,90726,128,0,91195:0:0:0:0:
64,192,91195,1,2,0:0:0:0:
448,192,91195,1,4,0:0:0:0:
448,192,91429,1,2,0:0:0:0:
192,192,91663,1,2,0:0:0:0:
320,192,91780,1,0,0:0:0:0:
192,192,91898,1,2,0:0:0:0:
320,192,92015,1,0,0:0:0:0:
64,192,92132,128,10,92366:0:0:0:0:
448,192,92366,1,2,0:0:0:0:
192,192,92484,1,0,0:0:0:0:
320,192,92601,128,2,92835:0:0:0:0:
192,192,92835,128,2,93070:0:0:0:0:
448,192,93070,128,10,93304:0:0:0:0:
64,192,93304,1,2,0:0:0:0:
320,192,93421,1,0,0:0:0:0:
64,192,93538,1,2,0:0:0:0:
320,192,93655,1,0,0:0:0:0:
192,192,93773,128,2,94007:0:0:0:0:
320,192,94007,128,10,94241:0:0:0:0:
192,192,94241,1,2,0:0:0:0:
448,192,94359,1,0,0:0:0:0:
64,192,94476,128,2,94710:0:0:0:0:
448,192,94710,128,2,94945:0:0:0:0:
192,192,94945,1,10,0:0:0:0:
192,192,95179,1,2,0:0:0:0:
448,192,95413,1,2,0:0:0:0:
64,192,95530,1,0,0:0:0:0:
448,192,95648,1,2,0:0:0:0:
64,192,95765,1,0,0:0:0:0:
320,192,95882,128,10,96116:0:0:0:0:
192,192,96116,1,2,0:0:0:0:
448,192,96234,1,0,0:0:0:0:
64,192,96351,128,2,96585:0:0:0:0:
192,192,96585,1,2,0:0:0:0:
320,192,96702,128,2,97288:0:0:0:0:
448,192,96702,1,4,0:0:0:0:
64,192,97288,128,2,97523:0:0:0:0:
448,192,97523,128,2,97757:0:0:0:0:
192,192,97757,128,0,98226:0:0:0:0:
320,192,98226,128,0,98460:0:0:0:0:
64,192,98460,128,0,98695:0:0:0:0:
320,192,98695,1,2,0:0:0:0:
448,192,98695,1,4,0:0:0:0:
320,192,98929,1,2,0:0:0:0:
192,192,99163,1,2,0:0:0:0:
448,192,99280,1,0,0:0:0:0:
192,192,99398,1,2,0:0:0:0:
448,192,99515,1,0,0:0:0:0:
64,192,99632,128,10,99866:0:0:0:0:
320,192,99866,1,2,0:0:0:0:
192,192,99984,1,0,0:0:0:0:
448,192,100101,128,2,100335:0:0:0:0:
64,192,100335,128,2,100570:0:0:0:0:
320,192,100570,128,10,100804:0:0:0:0:
64,192,100804,1,2,0:0:0:0:
448,192,100921,1,0,0:0:0:0:
64,192,101038,1,2,0:0:0:0:
448,192,101155,1,0,0:0:0:0:
192,192,101273,128,2,101507:0:0:0:0:
448,192,101507,128,10,101741:0:0:0:0:
320,192,101741,1,2,0:0:0:0:
192,192,101859,1,0,0:0:0:0:
320,192,101976,1,2,0:0:0:0:
64,192,102093,128,2,102327:0:0:0:0:
448,192,102327,1,2,0:0:0:0:
192,192,102445,1,10,0:0:0:0:
192,192,102679,1,2,0:0:0:0:
320,192,102913,1,2,0:0:0:0:
64,192,103030,1,0,0:0:0:0:
320,192,103148,1,2,0:0:0:0:
64,192,103265,1,0,0:0:0:0:
448,192,103382,128,10,103616:0:0:0:0:
192,192,103616,1,2,0:0:0:0:
320,192,103734,1,0,0:0:0:0:
64,192,103851,128,2,104085:0:0:0:0:
192,192,104085,1,2,0:0:0:0:
320,192,104202,128,2,104788:0:0:0:0:
448,192,104202,1,4,0:0:0:0:
192,192,104788,128,2,105023:0:0:0:0:
448,192,105023,128,2,105257:0:0:0:0:
64,192,105257,128,8,105491:0:0:0:0:
320,192,105491,128,0,105726:0:0:0:0:
192,192,105726,128,8,106195:0:0:0:0:
64,192,106195,128,2,106546:0:0:0:0:
448,192,106195,1,4,0:0:0:0:
320,192,106546,128,2,106898:0:0:0:0:
64,192,106898,128,2,107249:0:0:0:0:
320,192,107249,128,2,107601:0:0:0:0:
192,192,107601,1,2,0:0:0:0:
448,192,107835,1,2,0:0:0:0:
64,192,108070,1,2,0:0:0:0:
192,192,108070,128,4,108421:0:0:0:0:
448,192,108421,128,2,108773:0:0:0:0:
192,192,108773,128,2,109124:0:0:0:0:
320,192,109124,128,2,109476:0:0:0:0:
64,192,109476,1,2,0:0:0:0:
192,192,109710,1,2,0:0:0:0:
320,192,109945,1,2,0:0:0:0:
448,192,109945,128,4,110296:0:0:0:0:
64,192,110296,128,2,110648:0:0:0:0:
448,192,110648,128,2,110999:0:0:0:0:
64,192,110999,128,2,111351:0:0:0:0:
192,192,111351,1,2,0:0:0:0:
448,192,111585,1,2,0:0:0:0:
64,192,111820,1,2,0:0:0:0:
320,192,111820,128,4,112171:0:0:0:0:
192,192,112171,128,2,112523:0:0:0:0:
320,192,112523,128,2,112874:0:0:0:0:
64,192,112874,128,2,113226:0:0:0:0:
448,192,113226,1,2,0:0:0:0:
320,192,113460,1,2,0:0:0:0:
64,192,113695,1,2,0:0:0:0:
192,192,113695,1,4,0:0:0:0:
448,192,113929,1,2,0:0:0:0:
192,192,114163,1,6,0:0:0:0:
448,192,114398,1,2,0:0:0:0:
64,192,114632,1,6,0:0:0:0:
320,192,114866,1,2,0:0:0:0:
64,192,115101,1,6,0:0:0:0:
448,192,115335,128,2,115570:0:0:0:0:
64,192,115570,1,2,0:0:0:0:
192,192,115570,1,4,0:0:0:0:
320,192,115804,1,2,0:0:0:0:
192,192,116038,1,6,0:0:0:0:
320,192,116273,1,2,0:0:0:0:
64,192,116507,1,6,0:0:0:0:
448,192,116741,1,2,0:0:0:0:
64,192,116976,1,6,0:0:0:0:
448,192,117210,128,2,117445:0:0:0:0:
64,192,117445,1,2,0:0:0:0:
192,192,117445,1,4,0:0:0:0:
320,192,117679,1,6,0:0:0:0:
192,192,117913,1,2,0:0:0:0:
448,192,117913,1,4,0:0:0:0:
64,192,118148,1,6,0:0:0:0:
320,192,118382,128,2,119202:0:0:0:0:
448,192,118382,1,4,0:0:0:0:
192,192,118851,128,6,119202:0:0:0:0:
64,192,119202,1,10,0:0:0:0:
448,192,119202,1,4,0:0:0:0:
448,192,119788,1,2,0:0:0:0:
192,192,120023,1,2,0:0:0:0:
320,192,120257,128,0,121195:0:0:0:60:soft-hitwhistle.wav
64,192,121195,1,6,0:0:0:0:
448,192,121195,1,8,0:0:0:0:
