osu file format v14

[General]
AudioFilename: audio.ogg
AudioLeadIn: 0
PreviewTime: 91195
Countdown: 0
SampleSet: Soft
StackLeniency: 0.7
Mode: 3
LetterboxInBreaks: 0
SpecialStyle: 0
WidescreenStoryboard: 1

[Editor]
Bookmarks: 8695,16195,31195,46195,53695,61195,68695,74320,76195,83695,91195,106195,113695,117445
DistanceSpacing: 2
BeatDivisor: 3
GridSize: 8
TimelineZoom: 2.199998

[Metadata]
Title:Garakuta Doll Play
TitleUnicode:Garakuta Doll Play
Artist:t+pazolite
ArtistUnicode:t+pazolite
Creator:keksikosu
Version:ATing's MASTER
Source:maimai GreeN
Tags:tpz t+pz electronic instrumental video game sdvx CHUNITHM PLUS HEAVENLY 第二回天下一音ゲ祭 BANDAI NAMCO MAI-0001 CHS-0021 0022 jubeat saucer fulfill Ponko2 Girlish Garakuta Scramble! maimai SEGA Sounds Vol.5 -GreeNはじめました~!パック- 2013 comiket comic market 89 C89 ガラクタ sonota その他 GROOVE COASTER EX タイトー 太鼓の達人 キミドリ Ver. バンダイナムコ SOUND VOLTEX 譜面ボーイズ arcaea Maxim-miau Antipole Symmatrix- ATing
BeatmapID:3757496
BeatmapSetID:1830658

[Difficulty]
HPDrainRate:8
CircleSize:4
OverallDifficulty:8
ApproachRate:5
SliderMultiplier:1.4
SliderTickRate:1

[Events]
//Background and Video events
0,0,"BG.jpg",0,0
//Break Periods
//Storyboard Layer 0 (Background)
//Storyboard Layer 1 (Fail)
//Storyboard Layer 2 (Pass)
//Storyboard Layer 3 (Foreground)
//Storyboard Layer 4 (Overlay)
//Storyboard Sound Samples
Sample,14320,0,"soft-hitclap.wav",60
Sample,14788,0,"soft-hitclap.wav",40

[TimingPoints]
1195,234.375,4,2,1,70,1,0
91195,-100.0,4,2,1,70,0,1
97757,-100.0,4,2,1,70,0,0
98695,-100.0,4,2,1,70,0,1
104202,-100.0,4,2,1,70,0,0
106195,-100.0,4,2,1,70,0,1
119202,-100.0,4,2,1,70,0,0

[HitObjects]
64,192,1195,1,0,0:0:0:0:
192,192,1253,1,0,0:0:0:0:
320,192,1312,1,0,0:0:0:0:
448,192,1370,1,0,0:0:0:0:
64,192,1429,1,0,0:0:0:0:
192,192,1487,1,0,0:0:0:0:
320,192,1546,1,0,0:0:0:0:
448,192,1605,1,0,0:0:0:0:
64,192,1663,1,0,0:0:0:0:
320,192,1780,1,0,0:0:0:0:
192,192,2015,1,0,0:0:0:0:
448,192,2015,128,0,2366:0:0:0:0:
192,192,2366,1,0,0:0:0:0:
64,192,2601,1,0,0:0:0:0:
320,192,2718,1,0,0:0:0:0:
192,192,2835,1,0,0:0:0:0:
64,192,2952,1,0,0:0:0:0:
448,192,3070,1,0,0:0:0:0:
320,192,3128,1,0,0:0:0:0:
192,192,3187,1,0,0:0:0:0:
64,192,3245,1,0,0:0:0:0:
448,192,3304,1,0,0:0:0:0:
320,192,3362,1,0,0:0:0:0:
192,192,3421,1,0,0:0:0:0:
64,192,3480,1,0,0:0:0:0:
448,192,3538,1,0,0:0:0:0:
192,192,3655,1,0,0:0:0:0:
64,192,3890,128,0,4241:0:0:0:0:
448,192,3890,1,0,0:0:0:0:
448,192,4241,1,0,0:0:0:0:
64,192,4476,1,8,0:0:0:50:soft-hitclap.wav
192,192,4476,1,0,0:0:0:0:
320,192,4593,1,8,0:0:0:50:soft-hitclap.wav
448,192,4593,1,0,0:0:0:0:
64,192,4710,1,8,0:0:0:50:soft-hitclap.wav
192,192,4710,1,0,0:0:0:0:
64,192,4827,1,8,0:0:0:50:soft-hitclap.wav
192,192,4827,1,0,0:0:0:0:
448,192,4945,1,2,0:0:0:50:soft-hitwhistle.wav
320,192,5003,1,0,0:0:0:0:
192,192,5062,1,0,0:0:0:0:
64,192,5120,1,0,0:0:0:0:
448,192,5179,1,0,0:0:0:0:
320,192,5237,1,0,0:0:0:0:
192,192,5296,1,0,0:0:0:0:
64,192,5355,1,0,0:0:0:0:
320,192,5413,1,8,0:0:0:50:soft-hitclap.wav
448,192,5413,1,0,0:0:0:0:
192,192,5530,1,0,0:0:0:0:
448,192,5648,1,0,0:0:0:0:
64,192,5765,128,2,6116:0:0:0:50:soft-hitwhistle.wav
320,192,5765,1,0,0:0:0:0:
320,192,6116,1,2,0:0:0:50:soft-hitwhistle.wav
64,192,6351,1,8,0:0:0:50:soft-hitclap.wav
192,192,6351,1,0,0:0:0:0:
448,192,6468,1,0,0:0:0:0:
192,192,6585,1,0,0:0:0:0:
320,192,6702,1,0,0:0:0:0:
64,192,6820,1,0,0:0:0:50:soft-hitwhistle.wav
192,192,6878,1,0,0:0:0:0:
320,192,6937,1,0,0:0:0:0:
448,192,6995,1,0,0:0:0:0:
64,192,7054,1,0,0:0:0:0:
192,192,7112,1,0,0:0:0:0:
320,192,7171,1,0,0:0:0:0:
448,192,7230,1,0,0:0:0:0:
64,192,7288,1,0,0:0:0:50:soft-hitclap.wav
192,192,7288,1,0,0:0:0:0:
320,192,7405,1,0,0:0:0:0:
64,192,7523,1,0,0:0:0:0:
192,192,7640,1,0,0:0:0:50:soft-hitwhistle.wav
320,192,7640,128,0,7991:0:0:0:0:
64,192,7991,128,0,8050:0:0:0:0:
192,192,8050,128,0,8109:0:0:0:0:
448,192,8109,128,0,8167:0:0:0:0:
320,192,8167,128,0,8226:0:0:0:0:
64,192,8226,128,0,8460:0:0:0:0:
192,192,8460,128,0,8695:0:0:0:0:
64,192,8695,1,2,0:0:0:0:
320,192,8695,1,4,0:0:0:0:
448,192,8695,128,0,9163:0:0:0:0:
64,192,8929,1,8,0:0:0:60:soft-hitclap.wav
192,192,8929,1,0,0:0:0:0:
64,192,9163,128,8,9280:0:0:0:60:soft-hitclap.wav
192,192,9163,1,0,0:0:0:0:
320,192,9280,128,0,9398:0:0:0:0:
64,192,9398,1,8,0:0:0:60:soft-hitclap.wav
192,192,9398,1,0,0:0:0:0:
448,192,9515,128,0,10101:0:0:0:0:
64,192,9632,1,8,0:0:0:60:soft-hitclap.wav
192,192,9632,1,0,0:0:0:0:
64,192,9866,1,8,0:0:0:60:soft-hitclap.wav
192,192,9866,1,0,0:0:0:0:
64,192,10101,1,8,0:0:0:60:soft-hitclap.wav
192,192,10101,128,0,10218:0:0:0:0:
448,192,10218,128,0,10335:0:0:0:0:
64,192,10335,128,8,10452:0:0:0:60:soft-hitclap.wav
192,192,10335,1,0,0:0:0:0:
320,192,10452,128,8,10570:0:0:0:60:soft-hitclap.wav
448,192,10452,1,0,0:0:0:0:
64,192,10570,128,2,11038:0:0:0:0:
192,192,10570,1,8,0:0:0:60:soft-hitclap.wav
448,192,10570,1,0,0:0:0:0:
320,192,10804,1,0,0:0:0:60:soft-hitclap.wav
448,192,10804,1,0,0:0:0:0:
320,192,11038,1,0,0:0:0:60:soft-hitclap.wav
448,192,11038,128,0,11155:0:0:0:0:
192,192,11155,128,0,11273:0:0:0:0:
320,192,11273,1,0,0:0:0:60:soft-hitclap.wav
448,192,11273,1,0,0:0:0:0:
64,192,11390,128,0,11976:0:0:0:0:
320,192,11507,1,0,0:0:0:60:soft-hitclap.wav
448,192,11507,1,0,0:0:0:0:
320,192,11741,1,0,0:0:0:60:soft-hitclap.wav
448,192,11741,1,0,0:0:0:0:
320,192,11976,1,0,0:0:0:60:soft-hitclap.wav
448,192,11976,128,0,12093:0:0:0:0:
64,192,12093,1,0,0:0:0:60:soft-hitclap.wav
192,192,12152,1,0,0:0:0:60:soft-hitclap.wav
320,192,12210,128,0,12327:0:0:0:60:soft-hitclap.wav
448,192,12210,1,0,0:0:0:0:
64,192,12327,1,0,0:0:0:60:soft-hitclap.wav
192,192,12445,1,2,0:0:0:0:
320,192,12445,1,0,0:0:0:50:soft-hitclap.wav
448,192,12445,128,0,12562:0:0:0:0:
64,192,12562,1,0,0:0:0:50:soft-hitclap.wav
192,192,12620,1,0,0:0:0:50:soft-hitclap.wav
320,192,12679,1,0,0:0:0:50:soft-hitclap.wav
64,192,12796,1,0,0:0:0:50:soft-hitclap.wav
192,192,12796,1,0,0:0:0:0:
320,192,12913,1,0,0:0:0:50:soft-hitclap.wav
448,192,12913,1,0,0:0:0:0:
64,192,13030,1,0,0:0:0:50:soft-hitclap.wav
192,192,13030,1,0,0:0:0:0:
320,192,13148,1,0,0:0:0:50:soft-hitclap.wav
448,192,13148,1,0,0:0:0:0:
64,192,13265,1,0,0:0:0:50:soft-hitclap.wav
192,192,13382,1,2,0:0:0:0:
320,192,13382,1,0,0:0:0:50:soft-hitclap.wav
448,192,13382,1,0,0:0:0:0:
64,192,13499,1,0,0:0:0:50:soft-hitclap.wav
192,192,13558,1,0,0:0:0:50:soft-hitclap.wav
448,192,13616,1,0,0:0:0:50:soft-hitclap.wav
192,192,13734,1,0,0:0:0:50:soft-hitclap.wav
320,192,13734,1,0,0:0:0:0:
64,192,13851,1,0,0:0:0:50:soft-hitclap.wav
448,192,13851,1,0,0:0:0:0:
192,192,13968,1,0,0:0:0:50:soft-hitclap.wav
320,192,14027,1,0,0:0:0:50:soft-hitclap.wav
64,192,14085,1,0,0:0:0:50:soft-hitclap.wav
448,192,14085,1,0,0:0:0:0:
320,192,14202,1,0,0:0:0:50:soft-hitclap.wav
192,192,14261,1,0,0:0:0:50:soft-hitclap.wav
448,192,14320,1,2,0:0:0:0:
320,192,14378,1,0,0:0:0:60:soft-hitclap.wav
64,192,14437,1,0,0:0:0:60:soft-hitclap.wav
448,192,14495,1,0,0:0:0:60:soft-hitclap.wav
192,192,14554,1,0,0:0:0:60:soft-hitclap.wav
64,192,14612,1,0,0:0:0:60:soft-hitclap.wav
448,192,14671,1,0,0:0:0:60:soft-hitclap.wav
320,192,14730,1,0,0:0:0:60:soft-hitclap.wav
64,192,14788,128,2,14847:0:0:0:0:
192,192,14847,128,0,14905:0:0:0:40:soft-hitclap.wav
448,192,14905,128,0,14964:0:0:0:40:soft-hitclap.wav
64,192,14964,128,0,15023:0:0:0:40:soft-hitclap.wav
320,192,15023,128,0,15081:0:0:0:40:soft-hitclap.wav
448,192,15081,128,0,15140:0:0:0:40:soft-hitclap.wav
64,192,15140,128,0,15198:0:0:0:40:soft-hitclap.wav
192,192,15198,128,0,15257:0:0:0:40:soft-hitclap.wav
320,192,15257,128,2,15374:0:0:0:0:
448,192,15257,128,0,15374:0:0:0:40:soft-hitclap.wav
192,192,15491,128,0,15609:0:0:0:0:
320,192,15491,128,0,15609:0:0:0:0:
64,192,15726,128,0,15843:0:0:0:0:
448,192,15726,128,0,15843:0:0:0:0:
192,192,15960,128,0,16077:0:0:0:0:
320,192,15960,128,0,16077:0:0:0:0:
64,192,16195,1,2,0:0:0:0:
192,192,16195,128,4,16312:0:0:0:0:
448,192,16195,1,0,0:0:0:0:
64,192,16429,128,2,16546:0:0:0:0:
320,192,16429,1,0,0:0:0:0:
448,192,16429,1,0,0:0:0:0:
192,192,16663,1,2,0:0:0:0:
320,192,16663,1,0,0:0:0:0:
448,192,16663,128,0,16780:0:0:0:0:
64,192,16898,1,2,0:0:0:0:
192,192,16898,1,0,0:0:0:0:
320,192,16898,128,0,17015:0:0:0:0:
64,192,17132,1,2,0:0:0:0:
192,192,17132,128,0,17249:0:0:0:0:
448,192,17132,1,0,0:0:0:0:
64,192,17366,1,2,0:0:0:0:
192,192,17366,128,0,17484:0:0:0:0:
448,192,17366,1,0,0:0:0:0:
320,192,17484,128,0,17601:0:0:0:0:
64,192,17601,1,2,0:0:0:0:
192,192,17601,1,0,0:0:0:0:
448,192,17601,1,0,0:0:0:0:
64,192,17835,1,2,0:0:0:0:
320,192,17835,1,0,0:0:0:0:
448,192,17835,1,0,0:0:0:0:
320,192,17952,1,2,0:0:0:0:
64,192,18070,128,2,18187:0:0:0:0:
192,192,18070,1,0,0:0:0:0:
448,192,18070,1,0,0:0:0:0:
64,192,18304,128,2,18421:0:0:0:0:
192,192,18304,1,0,0:0:0:0:
448,192,18304,1,0,0:0:0:0:
320,192,18421,128,0,18538:0:0:0:0:
64,192,18538,128,2,18655:0:0:0:0:
192,192,18538,1,0,0:0:0:0:
448,192,18538,1,0,0:0:0:0:
64,192,18773,128,2,18890:0:0:0:0:
192,192,18773,1,0,0:0:0:0:
320,192,18773,1,0,0:0:0:0:
320,192,19007,1,2,0:0:0:0:
448,192,19007,128,0,19124:0:0:0:0:
64,192,19124,1,2,0:0:0:0:
192,192,19183,1,2,0:0:0:0:
320,192,19241,1,2,0:0:0:0:
448,192,19241,1,0,0:0:0:0:
64,192,19359,128,2,19827:0:0:0:0:
192,192,19359,128,0,19827:0:0:0:0:
320,192,19476,1,0,0:0:0:60:soft-hitwhistle.wav
448,192,19476,1,0,0:0:0:0:
320,192,19710,1,0,0:0:0:60:soft-hitwhistle.wav
448,192,19710,1,0,0:0:0:0:
64,192,19945,1,2,0:0:0:0:
192,192,19945,128,0,20062:0:0:0:0:
448,192,19945,1,0,0:0:0:0:
64,192,20179,128,2,20296:0:0:0:0:
320,192,20179,1,0,0:0:0:0:
448,192,20179,1,0,0:0:0:0:
192,192,20413,1,2,0:0:0:0:
320,192,20413,1,0,0:0:0:0:
448,192,20413,128,0,20530:0:0:0:0:
64,192,20648,1,2,0:0:0:0:
192,192,20648,1,0,0:0:0:0:
320,192,20648,128,0,20765:0:0:0:0:
64,192,20882,1,2,0:0:0:0:
192,192,20882,1,0,0:0:0:0:
448,192,20882,1,0,0:0:0:0:
320,192,20999,1,2,0:0:0:0:
192,192,21058,1,2,0:0:0:0:
64,192,21116,1,2,0:0:0:0:
448,192,21116,1,0,0:0:0:0:
192,192,21234,1,2,0:0:0:0:
320,192,21234,1,0,0:0:0:0:
64,192,21351,1,2,0:0:0:0:
448,192,21351,1,0,0:0:0:0:
64,192,21585,1,2,0:0:0:0:
192,192,21585,1,4,0:0:0:0:
448,192,21585,1,0,0:0:0:0:
64,192,21702,128,0,22054:0:0:0:0:
320,192,21820,128,0,22171:0:0:0:0:
448,192,21820,128,0,22171:0:0:0:0:
64,192,22171,1,2,0:0:0:0:
192,192,22171,1,0,0:0:0:0:
320,192,22288,1,8,0:0:0:0:
448,192,22288,1,0,0:0:0:0:
64,192,22405,1,2,0:0:0:0:
192,192,22405,1,0,0:0:0:0:
64,192,22523,1,2,0:0:0:0:
192,192,22523,1,0,0:0:0:0:
64,192,22757,1,2,0:0:0:0:
192,192,22757,1,0,0:0:0:0:
448,192,22757,128,0,23226:0:0:0:0:
64,192,22991,1,2,0:0:0:0:
192,192,22991,1,0,0:0:0:0:
64,192,23226,1,2,0:0:0:60:soft-hitwhistle.wav
192,192,23284,1,0,0:0:0:0:
320,192,23343,1,0,0:0:0:0:
64,192,23402,1,0,0:0:0:0:
448,192,23460,1,2,0:0:0:50:soft-hitwhistle.wav
320,192,23519,1,0,0:0:0:0:
192,192,23577,1,0,0:0:0:0:
64,192,23636,1,0,0:0:0:0:
320,192,23695,1,2,0:0:0:0:
448,192,23695,128,4,23929:0:0:0:0:
64,192,23812,128,0,24046:0:0:0:0:
192,192,23929,128,0,24046:0:0:0:0:
320,192,24046,1,2,0:0:0:0:
448,192,24046,1,0,0:0:0:0:
64,192,24163,128,8,24280:0:0:0:0:
192,192,24163,1,0,0:0:0:0:
448,192,24280,128,0,24515:0:0:0:0:
192,192,24398,128,2,24515:0:0:0:0:
320,192,24398,128,0,24515:0:0:0:0:
64,192,24632,128,2,24749:0:0:0:0:
192,192,24632,1,0,0:0:0:0:
448,192,24632,1,0,0:0:0:0:
64,192,24866,128,2,24984:0:0:0:0:
192,192,24866,1,0,0:0:0:0:
448,192,24866,1,0,0:0:0:0:
320,192,24984,128,0,25101:0:0:0:0:
64,192,25101,1,8,0:0:0:0:
192,192,25101,1,0,0:0:0:0:
448,192,25101,1,0,0:0:0:0:
192,192,25335,128,0,25570:0:0:0:0:
320,192,25335,1,0,0:0:0:0:
64,192,25570,1,2,0:0:0:0:
320,192,25570,1,4,0:0:0:0:
448,192,25570,128,0,25687:0:0:0:0:
64,192,25804,1,2,0:0:0:0:
320,192,25804,1,0,0:0:0:0:
448,192,25804,128,0,25921:0:0:0:0:
192,192,25921,128,0,26038:0:0:0:0:
64,192,26038,1,2,0:0:0:0:
320,192,26038,1,0,0:0:0:0:
448,192,26038,128,0,26155:0:0:0:0:
64,192,26273,1,2,0:0:0:0:
192,192,26273,1,0,0:0:0:0:
448,192,26273,128,0,26390:0:0:0:0:
64,192,26507,128,2,26624:0:0:0:0:
192,192,26507,1,0,0:0:0:0:
448,192,26624,1,2,0:0:0:0:
320,192,26683,1,2,0:0:0:0:
64,192,26741,1,2,0:0:0:0:
192,192,26741,1,0,0:0:0:0:
320,192,26859,128,2,27327:0:0:0:0:
448,192,26859,128,0,27327:0:0:0:0:
64,192,26976,1,0,0:0:0:60:soft-hitwhistle.wav
192,192,26976,1,0,0:0:0:0:
64,192,27210,1,0,0:0:0:60:soft-hitwhistle.wav
192,192,27210,1,0,0:0:0:0:
64,192,27445,1,2,0:0:0:0:
192,192,27445,1,0,0:0:0:0:
448,192,27445,128,0,27562:0:0:0:0:
64,192,27679,128,2,27796:0:0:0:0:
320,192,27679,1,0,0:0:0:0:
448,192,27679,1,0,0:0:0:0:
64,192,27913,1,2,0:0:0:0:
192,192,27913,1,0,0:0:0:0:
320,192,27913,128,0,28030:0:0:0:0:
192,192,28148,128,2,28265:0:0:0:0:
320,192,28148,1,0,0:0:0:0:
448,192,28148,1,0,0:0:0:0:
64,192,28382,1,2,0:0:0:0:
320,192,28382,1,0,0:0:0:0:
448,192,28382,1,0,0:0:0:0:
192,192,28499,1,2,0:0:0:0:
320,192,28558,1,2,0:0:0:0:
64,192,28616,1,2,0:0:0:0:
448,192,28616,1,0,0:0:0:0:
192,192,28734,1,2,0:0:0:0:
320,192,28734,1,0,0:0:0:0:
64,192,28851,1,2,0:0:0:0:
448,192,28851,1,0,0:0:0:0:
192,192,28968,1,0,0:0:0:0:
320,192,29085,1,2,0:0:0:0:
448,192,29085,1,0,0:0:0:0:
64,192,29202,128,0,29554:0:0:0:0:
448,192,29320,1,0,0:0:0:0:
448,192,29437,1,0,0:0:0:0:
448,192,29554,1,0,0:0:0:0:
64,192,29671,1,2,0:0:0:0:
192,192,29671,1,0,0:0:0:0:
320,192,29788,1,8,0:0:0:0:
448,192,29788,1,0,0:0:0:0:
64,192,29905,1,2,0:0:0:0:
192,192,29905,1,0,0:0:0:0:
64,192,30023,1,2,0:0:0:0:
192,192,30023,1,0,0:0:0:0:
64,192,30140,1,2,0:0:0:0:
192,192,30140,1,0,0:0:0:0:
448,192,30257,128,0,30491:0:0:0:0:
192,192,30374,128,0,30491:0:0:0:0:
320,192,30491,128,0,30609:0:0:0:60:soft-hitwhistle.wav
448,192,30609,128,0,30726:0:0:0:0:
64,192,30726,128,0,30960:0:0:0:0:
320,192,30843,128,0,30960:0:0:0:0:
192,192,30960,128,0,31077:0:0:0:60:soft-hitwhistle.wav
64,192,31077,128,0,31195:0:0:0:0:
192,192,31195,128,2,31312:0:0:0:0:
320,192,31195,128,4,31312:0:0:0:0:
448,192,31195,128,0,31312:0:0:0:0:
64,192,31429,128,2,31546:0:0:0:0:
192,192,31429,128,0,31546:0:0:0:0:
320,192,31429,128,0,31546:0:0:0:0:
64,192,31663,128,2,31780:0:0:0:0:
320,192,31663,128,0,31780:0:0:0:0:
448,192,31663,128,0,31780:0:0:0:0:
64,192,31898,128,2,32015:0:0:0:0:
192,192,31898,128,0,32015:0:0:0:0:
448,192,31898,128,0,32015:0:0:0:0:
64,192,32132,128,2,32249:0:0:0:0:
320,192,32132,128,0,32366:0:0:0:0:
448,192,32132,128,0,32366:0:0:0:0:
64,192,32366,1,2,0:0:0:0:
192,192,32425,1,2,0:0:0:0:
448,192,32484,1,2,0:0:0:0:
320,192,32542,1,2,0:0:0:0:
64,192,32601,128,2,32835:0:0:0:0:
192,192,32601,128,0,32835:0:0:0:0:
320,192,32835,1,2,0:0:0:0:
448,192,32835,1,0,0:0:0:0:
320,192,32952,1,2,0:0:0:0:
448,192,32952,1,0,0:0:0:0:
64,192,33070,128,2,33187:0:0:0:0:
192,192,33070,128,0,33187:0:0:0:0:
448,192,33070,128,0,33187:0:0:0:0:
64,192,33304,128,2,33421:0:0:0:0:
320,192,33304,128,0,33421:0:0:0:0:
448,192,33304,128,0,33421:0:0:0:0:
64,192,33538,128,2,33655:0:0:0:0:
192,192,33538,128,0,33655:0:0:0:0:
320,192,33538,128,0,33655:0:0:0:0:
192,192,33773,128,2,33890:0:0:0:0:
320,192,33773,128,0,33890:0:0:0:0:
448,192,33773,128,0,33890:0:0:0:0:
64,192,34007,128,2,34241:0:0:0:0:
192,192,34007,128,0,34241:0:0:0:0:
448,192,34007,128,0,34124:0:0:0:0:
320,192,34241,128,2,34359:0:0:0:0:
448,192,34241,128,0,34359:0:0:0:0:
192,192,34359,1,0,0:0:0:0:
64,192,34476,1,2,0:0:0:0:
320,192,34476,128,0,34710:0:0:0:0:
448,192,34476,128,0,34710:0:0:0:0:
64,192,34710,1,2,0:0:0:0:
192,192,34710,1,0,0:0:0:0:
64,192,34827,1,2,0:0:0:0:
192,192,34827,1,0,0:0:0:0:
64,192,34945,128,2,35062:0:0:0:0:
320,192,34945,128,0,35062:0:0:0:0:
448,192,34945,128,0,35062:0:0:0:0:
64,192,35179,128,2,35296:0:0:0:0:
192,192,35179,128,0,35296:0:0:0:0:
448,192,35179,128,0,35296:0:0:0:0:
64,192,35413,128,2,35530:0:0:0:0:
192,192,35413,128,0,35530:0:0:0:0:
320,192,35413,128,0,35530:0:0:0:0:
192,192,35648,128,2,35765:0:0:0:0:
320,192,35648,128,0,35765:0:0:0:0:
448,192,35648,128,0,35765:0:0:0:0:
64,192,35882,128,2,36116:0:0:0:0:
192,192,35882,128,0,36116:0:0:0:0:
448,192,35882,128,0,35999:0:0:0:0:
320,192,36116,1,2,0:0:0:0:
448,192,36116,1,0,0:0:0:0:
320,192,36234,1,2,0:0:0:0:
448,192,36234,1,0,0:0:0:0:
64,192,36351,128,2,36585:0:0:0:0:
192,192,36351,128,0,36585:0:0:0:0:
320,192,36585,1,2,0:0:0:0:
448,192,36585,1,4,0:0:0:0:
448,192,36702,128,0,37054:0:0:0:0:
64,192,36820,128,0,37171:0:0:0:0:
192,192,36820,128,0,37171:0:0:0:0:
320,192,37171,1,2,0:0:0:0:
448,192,37171,1,0,0:0:0:0:
64,192,37288,1,8,0:0:0:0:
192,192,37288,1,0,0:0:0:0:
320,192,37405,1,2,0:0:0:0:
448,192,37405,1,0,0:0:0:0:
320,192,37523,1,2,0:0:0:0:
448,192,37523,1,0,0:0:0:0:
192,192,37640,1,0,0:0:0:0:
64,192,37757,128,2,37874:0:0:0:60:soft-hitwhistle.wav
320,192,37757,128,0,37874:0:0:0:0:
448,192,37757,128,0,38577:0:0:0:0:
64,192,37991,128,2,38109:0:0:0:50:soft-hitwhistle.wav
192,192,37991,128,0,38109:0:0:0:0:
192,192,38226,128,2,38343:0:0:0:50:soft-hitwhistle.wav
320,192,38226,128,0,38577:0:0:0:0:
64,192,38460,128,0,38577:0:0:0:0:
192,192,38460,128,0,38577:0:0:0:0:
64,192,38695,128,2,38812:0:0:0:0:
320,192,38695,128,4,38812:0:0:0:0:
448,192,38695,128,0,38812:0:0:0:0:
192,192,38929,128,2,39046:0:0:0:0:
320,192,38929,128,0,39046:0:0:0:0:
448,192,38929,128,0,39046:0:0:0:0:
64,192,39163,128,2,39280:0:0:0:0:
192,192,39163,128,0,39280:0:0:0:0:
448,192,39163,128,0,39280:0:0:0:0:
64,192,39398,128,2,39515:0:0:0:0:
320,192,39398,128,0,39515:0:0:0:0:
448,192,39398,128,0,39515:0:0:0:0:
64,192,39632,128,2,39866:0:0:0:0:
192,192,39632,128,0,39866:0:0:0:0:
448,192,39632,128,0,39749:0:0:0:0:
448,192,39866,1,2,0:0:0:0:
320,192,39925,1,2,0:0:0:0:
64,192,39984,1,2,0:0:0:0:
192,192,40042,1,2,0:0:0:0:
320,192,40101,128,2,40335:0:0:0:0:
448,192,40101,128,0,40335:0:0:0:0:
64,192,40335,1,2,0:0:0:0:
192,192,40335,1,0,0:0:0:0:
64,192,40452,1,2,0:0:0:0:
192,192,40452,1,0,0:0:0:0:
64,192,40570,128,2,40687:0:0:0:0:
320,192,40570,128,0,40687:0:0:0:0:
448,192,40570,128,0,40687:0:0:0:0:
64,192,40804,128,2,40921:0:0:0:0:
192,192,40804,128,0,40921:0:0:0:0:
448,192,40804,128,0,40921:0:0:0:0:
192,192,41038,128,2,41155:0:0:0:0:
320,192,41038,128,0,41155:0:0:0:0:
448,192,41038,128,0,41155:0:0:0:0:
64,192,41273,128,2,41390:0:0:0:0:
192,192,41273,128,0,41390:0:0:0:0:
320,192,41273,128,0,41390:0:0:0:0:
64,192,41507,128,2,41624:0:0:0:0:
320,192,41507,128,0,41741:0:0:0:0:
448,192,41507,128,0,41741:0:0:0:0:
64,192,41741,128,2,41859:0:0:0:0:
192,192,41741,128,0,41859:0:0:0:0:
320,192,41859,1,0,0:0:0:0:
64,192,41976,128,2,42210:0:0:0:0:
192,192,41976,128,0,42210:0:0:0:0:
448,192,41976,128,0,42093:0:0:0:0:
320,192,42210,1,2,0:0:0:0:
448,192,42210,1,0,0:0:0:0:
320,192,42327,1,2,0:0:0:0:
448,192,42327,1,0,0:0:0:0:
64,192,42445,128,2,42562:0:0:0:0:
192,192,42445,128,0,42562:0:0:0:0:
448,192,42445,128,0,42913:0:0:0:0:
64,192,42679,128,2,42796:0:0:0:0:
192,192,42679,128,0,42796:0:0:0:0:
320,192,42679,128,0,42913:0:0:0:0:
64,192,42913,1,2,0:0:0:0:
192,192,42913,1,0,0:0:0:0:
320,192,43030,1,2,0:0:0:0:
448,192,43030,1,0,0:0:0:0:
64,192,43148,1,2,0:0:0:0:
192,192,43148,1,0,0:0:0:0:
64,192,43265,1,2,0:0:0:0:
192,192,43265,1,0,0:0:0:0:
64,192,43382,128,2,43851:0:0:0:0:
320,192,43382,128,0,43499:0:0:0:0:
448,192,43382,128,0,43499:0:0:0:0:
192,192,43616,128,2,43851:0:0:0:0:
320,192,43616,128,0,43734:0:0:0:0:
448,192,43616,128,0,43734:0:0:0:0:
320,192,43851,1,2,0:0:0:0:
448,192,43851,1,0,0:0:0:0:
192,192,43909,1,2,0:0:0:0:
64,192,43968,1,2,0:0:0:0:
448,192,43968,1,0,0:0:0:0:
320,192,44027,1,2,0:0:0:0:
64,192,44085,1,2,0:0:0:0:
192,192,44085,1,0,0:0:0:0:
320,192,44202,1,2,0:0:0:0:
448,192,44202,1,0,0:0:0:0:
64,192,44320,128,2,44554:0:0:0:0:
192,192,44320,128,4,44554:0:0:0:0:
448,192,44320,128,0,44554:0:0:0:0:
64,192,44671,128,2,44788:0:0:0:0:
192,192,44671,128,0,44788:0:0:0:60:LR_Cymbal.wav
448,192,44671,128,0,44788:0:0:0:0:
64,192,44905,128,2,45023:0:0:0:0:
192,192,44905,128,0,45023:0:0:0:60:LR_Cymbal.wav
448,192,44905,128,0,45023:0:0:0:0:
64,192,45140,128,2,45491:0:0:0:0:
320,192,45140,128,4,45491:0:0:0:0:
448,192,45140,128,0,45491:0:0:0:0:
192,192,45491,1,2,0:0:0:60:soft-hitwhistle.wav
192,192,45726,128,0,45960:0:0:0:0:
320,192,45960,128,0,46195:0:0:0:0:
64,192,46195,1,2,0:0:0:0:
192,192,46195,1,4,0:0:0:0:
448,192,46195,1,0,0:0:0:0:
448,192,46546,1,0,0:0:0:0:
64,192,46663,1,8,0:0:0:0:
192,192,46663,1,0,0:0:0:0:
320,192,46663,1,0,0:0:0:0:
448,192,46956,1,0,0:0:0:0:
64,192,47015,1,2,0:0:0:0:
192,192,47015,1,0,0:0:0:0:
448,192,47249,1,0,0:0:0:0:
64,192,47366,1,2,0:0:0:0:
192,192,47366,1,0,0:0:0:0:
320,192,47484,1,0,0:0:0:0:
64,192,47601,1,8,0:0:0:0:
192,192,47601,1,0,0:0:0:0:
320,192,47757,1,0,0:0:0:0:
64,192,47835,1,2,0:0:0:0:
192,192,47835,1,0,0:0:0:0:
448,192,47991,1,0,0:0:0:0:
64,192,48070,1,2,0:0:0:0:
192,192,48070,1,8,0:0:0:0:
320,192,48187,1,0,0:0:0:0:
192,192,48343,1,0,0:0:0:0:
320,192,48460,1,0,0:0:0:0:
64,192,48538,1,8,0:0:0:0:
192,192,48538,1,0,0:0:0:0:
448,192,48538,1,0,0:0:0:0:
448,192,48773,1,0,0:0:0:0:
64,192,48890,1,2,0:0:0:0:
320,192,48890,1,0,0:0:0:0:
192,192,49007,1,0,0:0:0:0:
320,192,49124,1,0,0:0:0:0:
64,192,49241,1,2,0:0:0:0:
448,192,49241,1,0,0:0:0:0:
192,192,49359,1,0,0:0:0:0:
64,192,49476,1,8,0:0:0:0:
448,192,49476,1,0,0:0:0:0:
192,192,49593,1,0,0:0:0:0:
320,192,49710,1,2,0:0:0:0:
448,192,49710,1,0,0:0:0:0:
192,192,49827,1,0,0:0:0:0:
64,192,49945,1,2,0:0:0:0:
320,192,49945,1,8,0:0:0:0:
448,192,49945,1,0,0:0:0:0:
448,192,50140,1,0,0:0:0:0:
192,192,50179,1,0,0:0:0:0:
320,192,50277,1,0,0:0:0:0:
64,192,50413,1,8,0:0:0:0:
192,192,50413,1,0,0:0:0:0:
64,192,50609,1,0,0:0:0:0:
320,192,50687,1,0,0:0:0:0:
192,192,50765,1,2,0:0:0:0:
448,192,50882,1,0,0:0:0:0:
192,192,51077,1,0,0:0:0:0:
320,192,51155,1,0,0:0:0:0:
64,192,51234,1,0,0:0:0:0:
320,192,51351,1,8,0:0:0:0:
448,192,51351,1,0,0:0:0:0:
320,192,51585,1,2,0:0:0:0:
192,192,51644,1,0,0:0:0:0:
448,192,51702,1,0,0:0:0:0:
64,192,51820,1,2,0:0:0:0:
192,192,51820,1,8,0:0:0:0:
64,192,52054,1,0,0:0:0:0:
320,192,52112,1,0,0:0:0:0:
192,192,52171,1,0,0:0:0:0:
320,192,52288,1,8,0:0:0:0:
448,192,52288,1,0,0:0:0:0:
64,192,52405,1,0,0:0:0:0:
448,192,52523,1,0,0:0:0:0:
64,192,52640,1,2,0:0:0:0:
448,192,52640,1,0,0:0:0:0:
448,192,52874,1,0,0:0:0:0:
64,192,52991,1,2,0:0:0:0:
448,192,52991,1,0,0:0:0:0:
64,192,53109,1,0,0:0:0:0:
320,192,53226,1,2,0:0:0:0:
448,192,53226,1,8,0:0:0:0:
320,192,53343,1,0,0:0:0:0:
64,192,53460,1,2,0:0:0:0:
192,192,53460,1,0,0:0:0:0:
448,192,53577,1,0,0:0:0:0:
64,192,53695,1,2,0:0:0:0:
192,192,53695,1,4,0:0:0:0:
320,192,53695,128,0,53929:0:0:0:0:
320,192,54046,128,0,54222:0:0:0:0:
320,192,54339,128,0,54515:0:0:0:0:
64,192,54632,128,2,54866:0:0:0:0:
192,192,54632,128,0,54866:0:0:0:60:LR_Cymbal.wav
448,192,54632,128,0,54866:0:0:0:0:
64,192,54984,128,2,55218:0:0:0:0:
192,192,54984,128,0,55218:0:0:0:60:LR_Cymbal.wav
448,192,54984,128,0,55218:0:0:0:0:
64,192,55335,128,2,55452:0:0:0:0:
320,192,55335,128,0,55452:0:0:0:60:LR_Cymbal.wav
448,192,55335,128,0,55452:0:0:0:0:
64,192,55570,128,2,55687:0:0:0:0:
192,192,55570,1,4,0:0:0:0:
320,192,55570,1,0,0:0:0:0:
448,192,55570,1,0,0:0:0:0:
448,192,55804,128,0,55921:0:0:0:0:
320,192,56038,128,0,56155:0:0:0:0:
64,192,56273,1,2,0:0:0:0:
192,192,56273,128,0,56390:0:0:0:0:
448,192,56273,1,0,0:0:0:0:
64,192,56507,128,2,56624:0:0:0:0:
320,192,56507,128,0,56624:0:0:0:60:LR_Cymbal.wav
448,192,56507,128,0,56624:0:0:0:0:
320,192,56741,1,0,0:0:0:0:
64,192,56859,128,2,56976:0:0:0:0:
192,192,56859,128,0,56976:0:0:0:60:LR_Cymbal.wav
448,192,56859,128,0,56976:0:0:0:0:
192,192,57093,1,0,0:0:0:0:
64,192,57210,128,2,57327:0:0:0:0:
320,192,57210,128,0,57327:0:0:0:60:LR_Cymbal.wav
448,192,57210,128,0,57327:0:0:0:0:
64,192,57445,128,4,57562:0:0:0:0:
192,192,57445,1,2,0:0:0:0:
320,192,57445,1,0,0:0:0:0:
448,192,57445,1,0,0:0:0:0:
448,192,57679,128,0,57796:0:0:0:0:
64,192,57913,1,2,0:0:0:0:
192,192,57913,128,0,58030:0:0:0:0:
320,192,57913,1,0,0:0:0:0:
320,192,58148,1,2,0:0:0:0:
448,192,58148,1,0,0:0:0:0:
64,192,58226,1,2,0:0:0:0:
192,192,58226,1,0,0:0:0:0:
320,192,58304,1,2,0:0:0:0:
64,192,58382,128,2,58499:0:0:0:0:
192,192,58382,1,4,0:0:0:0:
448,192,58382,1,0,0:0:0:0:
192,192,58675,128,0,58792:0:0:0:0:
64,192,58851,1,2,0:0:0:0:
320,192,58851,1,0,0:0:0:0:
448,192,58851,1,0,0:0:0:0:
64,192,59085,1,2,0:0:0:0:
192,192,59085,1,0,0:0:0:0:
320,192,59163,1,2,0:0:0:0:
448,192,59163,1,0,0:0:0:0:
192,192,59241,1,2,0:0:0:0:
64,192,59320,1,2,0:0:0:0:
320,192,59320,1,4,0:0:0:0:
448,192,59320,128,0,59437:0:0:0:0:
64,192,59554,128,2,59671:0:0:0:0:
192,192,59554,1,0,0:0:0:0:
192,192,59788,1,2,0:0:0:0:
320,192,59788,1,4,0:0:0:0:
448,192,59788,128,0,59905:0:0:0:0:
64,192,59905,128,0,60023:0:0:0:0:
320,192,60023,128,2,60140:0:0:0:0:
448,192,60023,1,0,0:0:0:0:
64,192,60257,128,2,60609:0:0:0:60:soft-hitwhistle.wav
192,192,60257,1,0,0:0:0:0:
320,192,60491,1,0,0:0:0:50:soft-hitwhistle.wav
448,192,60491,128,0,60843:0:0:0:0:
64,192,60726,128,0,61077:0:0:0:0:
192,192,60726,128,0,61077:0:0:0:0:
320,192,60960,128,0,61077:0:0:0:0:
448,192,60960,128,0,61077:0:0:0:0:
64,192,61195,1,2,0:0:0:0:
320,192,61195,1,4,0:0:0:0:
448,192,61195,1,0,0:0:0:0:
448,192,61312,1,0,0:0:0:0:
64,192,61429,1,2,0:0:0:0:
192,192,61429,1,0,0:0:0:0:
320,192,61546,1,0,0:0:0:0:
64,192,61663,1,2,0:0:0:0:
320,192,61663,1,0,0:0:0:0:
448,192,61663,1,0,0:0:0:0:
192,192,61780,1,0,0:0:0:0:
64,192,61898,1,2,0:0:0:0:
448,192,61898,1,0,0:0:0:0:
64,192,62015,1,0,0:0:0:0:
192,192,62132,1,2,0:0:0:0:
320,192,62132,1,0,0:0:0:0:
448,192,62132,1,0,0:0:0:0:
64,192,62249,1,0,0:0:0:0:
320,192,62366,1,2,0:0:0:0:
448,192,62366,1,0,0:0:0:0:
320,192,62484,1,0,0:0:0:0:
64,192,62601,1,2,0:0:0:0:
192,192,62601,1,0,0:0:0:0:
448,192,62601,1,0,0:0:0:0:
192,192,62718,1,0,0:0:0:0:
320,192,62835,1,2,0:0:0:0:
448,192,62835,1,0,0:0:0:0:
64,192,62952,1,2,0:0:0:0:
192,192,62952,1,0,0:0:0:0:
64,192,63070,1,2,0:0:0:0:
320,192,63070,1,0,0:0:0:0:
448,192,63070,1,0,0:0:0:0:
448,192,63187,1,0,0:0:0:0:
64,192,63304,1,2,0:0:0:0:
192,192,63304,1,0,0:0:0:0:
320,192,63421,1,0,0:0:0:0:
64,192,63538,1,2,0:0:0:0:
320,192,63538,1,0,0:0:0:0:
448,192,63538,1,0,0:0:0:0:
192,192,63655,1,0,0:0:0:0:
64,192,63773,1,2,0:0:0:0:
448,192,63773,1,0,0:0:0:0:
64,192,63890,1,0,0:0:0:0:
192,192,64007,1,2,0:0:0:0:
320,192,64007,1,0,0:0:0:0:
448,192,64007,1,0,0:0:0:0:
64,192,64124,1,2,0:0:0:0:
192,192,64183,1,2,0:0:0:0:
320,192,64241,1,2,0:0:0:0:
448,192,64241,1,0,0:0:0:0:
320,192,64359,1,2,0:0:0:0:
64,192,64476,1,0,0:0:0:60:soft-hitwhistle.wav
192,192,64476,1,0,0:0:0:0:
448,192,64476,1,0,0:0:0:0:
192,192,64593,1,0,0:0:0:0:
320,192,64710,1,2,0:0:0:60:soft-hitwhistle.wav
448,192,64710,1,0,0:0:0:0:
320,192,64827,1,0,0:0:0:0:
64,192,64945,1,2,0:0:0:0:
192,192,64945,1,0,0:0:0:0:
448,192,64945,1,0,0:0:0:0:
64,192,65062,1,0,0:0:0:0:
320,192,65179,1,2,0:0:0:0:
448,192,65179,1,0,0:0:0:0:
192,192,65296,1,0,0:0:0:0:
64,192,65413,1,2,0:0:0:0:
192,192,65413,1,0,0:0:0:0:
448,192,65413,1,0,0:0:0:0:
320,192,65530,1,0,0:0:0:0:
64,192,65648,1,2,0:0:0:0:
448,192,65648,1,0,0:0:0:0:
448,192,65765,1,0,0:0:0:0:
64,192,65882,1,2,0:0:0:0:
192,192,65882,1,0,0:0:0:0:
320,192,65882,1,0,0:0:0:0:
448,192,65999,1,2,0:0:0:0:
320,192,66058,1,2,0:0:0:0:
64,192,66116,1,2,0:0:0:0:
192,192,66116,1,0,0:0:0:0:
192,192,66234,1,2,0:0:0:0:
64,192,66351,1,2,0:0:0:0:
320,192,66351,1,0,0:0:0:0:
448,192,66351,1,0,0:0:0:0:
320,192,66468,1,0,0:0:0:0:
64,192,66585,1,2,0:0:0:0:
192,192,66644,1,2,0:0:0:0:
320,192,66702,1,2,0:0:0:0:
448,192,66761,1,2,0:0:0:0:
64,192,66820,1,2,0:0:0:0:
192,192,66820,1,0,0:0:0:0:
64,192,66937,1,0,0:0:0:0:
320,192,67054,1,2,0:0:0:0:
448,192,67054,1,0,0:0:0:0:
192,192,67171,1,0,0:0:0:0:
64,192,67288,1,2,0:0:0:0:
192,192,67288,1,0,0:0:0:0:
448,192,67288,1,0,0:0:0:0:
320,192,67405,1,0,0:0:0:0:
64,192,67523,1,0,0:0:0:60:soft-hitwhistle.wav
448,192,67523,1,0,0:0:0:0:
448,192,67640,1,0,0:0:0:0:
64,192,67757,128,0,68109:0:0:0:50:soft-hitwhistle.wav
192,192,67757,1,0,0:0:0:0:
320,192,67991,1,0,0:0:0:0:
448,192,67991,128,0,68343:0:0:0:0:
64,192,68226,128,0,68577:0:0:0:0:
192,192,68226,128,0,68577:0:0:0:0:
320,192,68460,128,0,68577:0:0:0:0:
448,192,68460,128,0,68577:0:0:0:0:
64,192,68695,128,2,68812:0:0:0:0:
320,192,68695,1,4,0:0:0:0:
448,192,68695,1,0,0:0:0:0:
448,192,68812,1,0,0:0:0:0:
64,192,68929,1,2,0:0:0:0:
192,192,68929,1,0,0:0:0:0:
320,192,69046,128,0,69163:0:0:0:0:
64,192,69163,1,2,0:0:0:0:
192,192,69163,1,0,0:0:0:0:
448,192,69163,1,0,0:0:0:0:
320,192,69280,1,0,0:0:0:0:
64,192,69398,1,2,0:0:0:0:
192,192,69398,1,0,0:0:0:0:
448,192,69398,128,0,69515:0:0:0:0:
64,192,69515,1,0,0:0:0:0:
192,192,69632,1,2,0:0:0:0:
320,192,69632,1,0,0:0:0:0:
448,192,69632,1,0,0:0:0:0:
64,192,69749,128,0,69866:0:0:0:0:
192,192,69866,1,2,0:0:0:0:
320,192,69866,1,0,0:0:0:0:
448,192,69866,1,0,0:0:0:0:
448,192,69984,1,0,0:0:0:0:
64,192,70101,1,2,0:0:0:0:
192,192,70101,1,0,0:0:0:0:
320,192,70101,1,0,0:0:0:0:
320,192,70218,1,0,0:0:0:0:
64,192,70335,1,2,0:0:0:0:
192,192,70335,1,0,0:0:0:0:
448,192,70335,1,0,0:0:0:0:
192,192,70452,1,2,0:0:0:0:
64,192,70570,128,2,70687:0:0:0:0:
320,192,70570,1,0,0:0:0:0:
448,192,70570,1,0,0:0:0:0:
448,192,70687,1,0,0:0:0:0:
64,192,70804,1,2,0:0:0:0:
192,192,70804,1,0,0:0:0:0:
320,192,70921,128,0,71038:0:0:0:0:
64,192,71038,1,2,0:0:0:0:
192,192,71038,1,0,0:0:0:0:
448,192,71038,1,0,0:0:0:0:
320,192,71155,1,0,0:0:0:0:
64,192,71273,1,2,0:0:0:0:
192,192,71273,1,0,0:0:0:0:
448,192,71273,128,0,71390:0:0:0:0:
64,192,71390,1,0,0:0:0:0:
192,192,71507,1,2,0:0:0:0:
320,192,71507,1,0,0:0:0:0:
448,192,71507,1,0,0:0:0:0:
64,192,71624,1,2,0:0:0:0:
192,192,71683,1,2,0:0:0:0:
320,192,71741,1,2,0:0:0:0:
448,192,71741,1,0,0:0:0:0:
64,192,71859,1,2,0:0:0:0:
192,192,71859,1,0,0:0:0:0:
64,192,71976,1,0,0:0:0:60:soft-hitwhistle.wav
320,192,71976,1,0,0:0:0:0:
448,192,71976,1,0,0:0:0:0:
448,192,72093,1,0,0:0:0:0:
64,192,72210,1,0,0:0:0:60:soft-hitwhistle.wav
192,192,72210,1,0,0:0:0:0:
320,192,72210,1,0,0:0:0:0:
320,192,72327,1,0,0:0:0:0:
64,192,72445,1,2,0:0:0:0:
192,192,72445,1,0,0:0:0:0:
448,192,72445,128,0,72562:0:0:0:0:
64,192,72562,1,0,0:0:0:0:
320,192,72679,1,2,0:0:0:0:
448,192,72679,1,0,0:0:0:0:
192,192,72796,128,0,72913:0:0:0:0:
64,192,72913,1,2,0:0:0:0:
320,192,72913,1,0,0:0:0:0:
448,192,72913,1,0,0:0:0:0:
192,192,73030,1,0,0:0:0:0:
64,192,73148,128,2,73265:0:0:0:0:
320,192,73148,1,0,0:0:0:0:
448,192,73148,1,0,0:0:0:0:
448,192,73265,1,0,0:0:0:0:
64,192,73382,1,2,0:0:0:0:
192,192,73382,1,0,0:0:0:0:
320,192,73382,1,0,0:0:0:0:
448,192,73499,1,2,0:0:0:0:
320,192,73558,1,2,0:0:0:0:
64,192,73616,1,2,0:0:0:0:
192,192,73616,1,0,0:0:0:0:
320,192,73734,1,2,0:0:0:0:
448,192,73734,1,0,0:0:0:0:
64,192,73851,1,2,0:0:0:0:
192,192,73851,1,4,0:0:0:0:
448,192,73851,1,0,0:0:0:0:
64,192,73968,1,2,0:0:0:0:
192,192,73968,1,0,0:0:0:0:
64,192,74085,1,2,0:0:0:0:
320,192,74085,1,4,0:0:0:0:
448,192,74085,1,0,0:0:0:0:
320,192,74202,1,2,0:0:0:0:
448,192,74202,1,0,0:0:0:0:
64,192,74320,1,0,0:0:0:60:soft-hitwhistle.wav
192,192,74320,1,0,0:0:0:0:
64,192,74437,1,0,0:0:0:60:soft-hitwhistle.wav
192,192,74437,1,0,0:0:0:0:
448,192,74554,1,0,0:0:0:0:
320,192,74601,1,0,0:0:0:0:
192,192,74648,1,0,0:0:0:0:
64,192,74695,1,0,0:0:0:0:
320,192,74741,1,0,0:0:0:0:
448,192,74788,1,0,0:0:0:0:
64,192,74835,1,0,0:0:0:0:
192,192,74882,1,0,0:0:0:0:
448,192,74929,1,0,0:0:0:0:
320,192,74976,1,0,0:0:0:0:
192,192,75023,1,0,0:0:0:0:
64,192,75062,128,0,75218:0:0:0:0:
448,192,75218,1,0,0:0:0:0:
448,192,75374,1,0,0:0:0:0:
448,192,75570,1,0,0:0:0:0:
64,192,75726,128,0,75960:0:0:0:0:
192,192,75960,128,2,76195:0:0:0:0:
64,192,76195,1,2,0:0:0:0:
320,192,76195,1,4,0:0:0:0:
448,192,76195,128,0,76663:0:0:0:0:
192,192,76663,128,0,76780:0:0:0:0:
320,192,76780,128,0,76898:0:0:0:0:
448,192,77015,128,0,77601:0:0:0:0:
320,192,77601,128,0,77718:0:0:0:0:
64,192,77718,128,0,77835:0:0:0:0:
192,192,77835,128,0,77952:0:0:0:0:
448,192,77952,128,0,78070:0:0:0:0:
320,192,78070,128,0,78538:0:0:0:0:
64,192,78538,128,0,78655:0:0:0:0:
192,192,78655,128,0,78773:0:0:0:0:
448,192,78890,128,0,79476:0:0:0:0:
64,192,79476,128,0,79710:0:0:0:0:
192,192,79710,128,0,79945:0:0:0:0:
448,192,79945,128,0,80413:0:0:0:0:
192,192,80413,128,0,80530:0:0:0:0:
320,192,80530,128,0,80648:0:0:0:0:
448,192,80765,128,0,81351:0:0:0:0:
192,192,81351,128,0,81468:0:0:0:0:
64,192,81468,128,0,81585:0:0:0:0:
320,192,81585,128,0,81702:0:0:0:0:
448,192,81702,128,0,81820:0:0:0:0:
192,192,81820,128,0,82288:0:0:0:0:
320,192,82288,128,0,82405:0:0:0:0:
448,192,82405,128,0,82523:0:0:0:0:
64,192,82640,128,0,83109:0:0:0:0:
64,192,83226,128,0,83460:0:0:0:0:
192,192,83460,128,0,83695:0:0:0:0:
64,192,83695,1,2,0:0:0:0:
320,192,83695,1,4,0:0:0:0:
448,192,83695,128,0,83812:0:0:0:0:
64,192,83929,1,0,0:0:0:60:soft-hitclap.wav
448,192,83929,128,0,84046:0:0:0:0:
64,192,84163,1,0,0:0:0:60:soft-hitclap.wav
192,192,84163,128,0,84280:0:0:0:0:
320,192,84280,128,0,84398:0:0:0:0:
64,192,84398,1,0,0:0:0:60:soft-hitclap.wav
192,192,84398,128,0,84515:0:0:0:0:
320,192,84515,128,0,84632:0:0:0:0:
64,192,84632,128,0,84866:0:0:0:60:soft-hitclap.wav
448,192,84632,1,0,0:0:0:0:
320,192,84866,128,0,84984:0:0:0:60:soft-hitclap.wav
448,192,84866,1,0,0:0:0:0:
192,192,84984,128,0,85101:0:0:0:0:
64,192,85101,1,0,0:0:0:60:soft-hitclap.wav
448,192,85101,128,0,85335:0:0:0:0:
64,192,85335,128,0,85570:0:0:0:60:soft-hitclap.wav
320,192,85335,1,0,0:0:0:0:
192,192,85570,128,2,85804:0:0:0:0:
320,192,85570,1,4,0:0:0:0:
448,192,85570,1,0,0:0:0:0:
320,192,85804,1,0,0:0:0:60:soft-hitclap.wav
448,192,85804,128,0,85921:0:0:0:0:
64,192,85921,128,0,86038:0:0:0:0:
320,192,86038,1,0,0:0:0:60:soft-hitclap.wav
448,192,86038,128,0,86155:0:0:0:0:
64,192,86155,128,0,86273:0:0:0:0:
320,192,86273,128,0,86390:0:0:0:60:soft-hitclap.wav
448,192,86273,1,0,0:0:0:0:
192,192,86390,128,0,86507:0:0:0:0:
64,192,86507,128,0,86741:0:0:0:60:soft-hitclap.wav
448,192,86507,1,0,0:0:0:0:
320,192,86741,128,0,86859:0:0:0:60:soft-hitclap.wav
448,192,86741,1,0,0:0:0:0:
192,192,86859,128,0,86976:0:0:0:0:
64,192,86976,1,0,0:0:0:60:soft-hitclap.wav
320,192,86976,128,0,87093:0:0:0:0:
448,192,87093,128,0,87327:0:0:0:60:soft-hitclap.wav
192,192,87327,1,0,0:0:0:60:soft-hitclap.wav
64,192,87445,1,2,0:0:0:0:
192,192,87445,128,4,87562:0:0:0:0:
320,192,87445,1,0,0:0:0:0:
448,192,87445,1,0,0:0:0:0:
192,192,87679,128,0,87796:0:0:0:50:soft-hitclap.wav
320,192,87679,1,0,0:0:0:0:
64,192,87913,1,0,0:0:0:50:soft-hitclap.wav
448,192,87913,1,0,0:0:0:0:
192,192,88030,1,0,0:0:0:50:soft-hitclap.wav
64,192,88148,1,2,0:0:0:0:
320,192,88148,1,0,0:0:0:50:soft-hitclap.wav
448,192,88148,1,0,0:0:0:0:
192,192,88265,1,0,0:0:0:50:soft-hitclap.wav
64,192,88382,1,2,0:0:0:0:
192,192,88382,128,4,88499:0:0:0:0:
320,192,88382,1,0,0:0:0:0:
448,192,88382,1,0,0:0:0:0:
320,192,88616,1,0,0:0:0:50:soft-hitclap.wav
448,192,88616,1,0,0:0:0:0:
64,192,88734,1,0,0:0:0:50:soft-hitclap.wav
192,192,88851,128,0,88968:0:0:0:50:soft-hitclap.wav
320,192,88851,1,0,0:0:0:0:
64,192,89085,1,0,0:0:0:50:soft-hitclap.wav
192,192,89085,1,0,0:0:0:0:
320,192,89202,1,0,0:0:0:50:soft-hitclap.wav
64,192,89320,1,2,0:0:0:0:
192,192,89320,1,4,0:0:0:0:
320,192,89320,1,0,0:0:0:0:
448,192,89320,1,0,0:0:0:0:
64,192,89437,1,0,0:0:0:50:soft-hitclap.wav
320,192,89554,1,2,0:0:0:0:
448,192,89554,1,0,0:0:0:50:soft-hitclap.wav
192,192,89671,1,0,0:0:0:50:soft-hitclap.wav
64,192,89788,1,2,0:0:0:0:
192,192,89788,1,4,0:0:0:0:
320,192,89788,1,0,0:0:0:0:
448,192,89788,1,0,0:0:0:0:
448,192,89905,1,0,0:0:0:50:soft-hitclap.wav
64,192,90023,1,2,0:0:0:0:
192,192,90023,1,0,0:0:0:50:soft-hitclap.wav
320,192,90140,1,0,0:0:0:50:soft-hitclap.wav
64,192,90257,1,2,0:0:0:0:
192,192,90257,1,0,0:0:0:0:
448,192,90257,128,0,90491:0:0:0:0:
192,192,90491,128,0,90726:0:0:0:0:
448,192,90726,128,0,90784:0:0:0:0:
320,192,90784,128,0,90843:0:0:0:0:
64,192,90843,128,0,90902:0:0:0:0:
192,192,90902,128,0,90960:0:0:0:0:
448,192,90960,128,0,91019:0:0:0:0:
64,192,91019,128,0,91077:0:0:0:0:
192,192,91077,128,0,91136:0:0:0:0:
320,192,91136,128,0,91195:0:0:0:0:
64,192,91195,128,2,91312:0:0:0:0:
192,192,91195,128,4,91312:0:0:0:0:
448,192,91195,1,0,0:0:0:0:
64,192,91429,128,2,91546:0:0:0:0:
192,192,91429,128,0,91546:0:0:0:0:
448,192,91429,1,0,0:0:0:0:
64,192,91663,1,2,0:0:0:0:
320,192,91663,1,0,0:0:0:0:
448,192,91663,1,0,0:0:0:0:
192,192,91780,1,0,0:0:0:0:
64,192,91898,1,2,0:0:0:0:
320,192,91898,1,0,0:0:0:0:
448,192,91898,1,0,0:0:0:0:
192,192,92015,1,0,0:0:0:0:
64,192,92132,128,8,92249:0:0:0:0:
192,192,92132,128,2,92249:0:0:0:0:
448,192,92132,1,0,0:0:0:0:
64,192,92366,1,2,0:0:0:0:
192,192,92366,1,0,0:0:0:0:
448,192,92366,1,0,0:0:0:0:
320,192,92484,1,0,0:0:0:0:
64,192,92601,128,2,92718:0:0:0:0:
192,192,92601,128,0,92718:0:0:0:0:
448,192,92601,1,0,0:0:0:0:
64,192,92835,1,2,0:0:0:0:
320,192,92835,1,0,0:0:0:0:
448,192,92835,1,0,0:0:0:0:
192,192,92952,1,2,0:0:0:0:
320,192,92952,1,0,0:0:0:0:
64,192,93070,128,2,93187:0:0:0:0:
192,192,93070,1,8,0:0:0:0:
448,192,93070,128,0,93187:0:0:0:0:
64,192,93304,1,2,0:0:0:0:
192,192,93304,1,0,0:0:0:0:
448,192,93304,1,0,0:0:0:0:
320,192,93421,1,0,0:0:0:0:
64,192,93538,1,2,0:0:0:0:
192,192,93538,1,0,0:0:0:0:
448,192,93538,1,0,0:0:0:0:
320,192,93655,1,0,0:0:0:0:
64,192,93773,1,2,0:0:0:0:
192,192,93773,1,0,0:0:0:0:
448,192,93773,1,0,0:0:0:0:
320,192,93890,1,0,0:0:0:0:
64,192,94007,128,2,94124:0:0:0:0:
192,192,94007,128,8,94124:0:0:0:0:
448,192,94007,1,0,0:0:0:0:
192,192,94241,1,2,0:0:0:0:
320,192,94241,1,0,0:0:0:0:
448,192,94241,1,0,0:0:0:0:
64,192,94359,1,0,0:0:0:0:
192,192,94476,1,2,0:0:0:0:
320,192,94476,128,0,94593:0:0:0:0:
448,192,94476,128,0,94593:0:0:0:0:
64,192,94710,128,2,94827:0:0:0:0:
192,192,94710,1,0,0:0:0:0:
320,192,94710,1,0,0:0:0:0:
448,192,94827,1,2,0:0:0:0:
320,192,94886,1,2,0:0:0:0:
64,192,94945,128,2,95062:0:0:0:0:
192,192,94945,128,8,95062:0:0:0:0:
64,192,95179,128,2,95296:0:0:0:0:
192,192,95179,128,0,95296:0:0:0:0:
448,192,95179,1,0,0:0:0:0:
64,192,95413,1,2,0:0:0:0:
320,192,95413,1,0,0:0:0:0:
448,192,95413,1,0,0:0:0:0:
192,192,95530,1,0,0:0:0:0:
64,192,95648,1,2,0:0:0:0:
320,192,95648,1,0,0:0:0:0:
448,192,95648,1,0,0:0:0:0:
192,192,95765,1,0,0:0:0:0:
64,192,95882,128,2,95999:0:0:0:0:
192,192,95882,128,8,95999:0:0:0:0:
448,192,95882,1,0,0:0:0:0:
64,192,96116,1,2,0:0:0:0:
192,192,96116,1,0,0:0:0:0:
448,192,96116,1,0,0:0:0:0:
320,192,96234,1,0,0:0:0:0:
64,192,96351,128,2,96468:0:0:0:0:
192,192,96351,128,0,96468:0:0:0:0:
448,192,96351,1,0,0:0:0:0:
64,192,96585,1,2,0:0:0:0:
320,192,96585,1,0,0:0:0:0:
448,192,96585,1,0,0:0:0:0:
64,192,96702,128,2,96937:0:0:0:0:
192,192,96702,1,4,0:0:0:0:
448,192,96702,1,0,0:0:0:0:
448,192,96937,128,0,97054:0:0:0:0:
320,192,97054,128,0,97171:0:0:0:0:
64,192,97171,128,0,97288:0:0:0:0:
192,192,97288,128,2,97405:0:0:0:0:
320,192,97288,1,0,0:0:0:0:
448,192,97405,128,0,97523:0:0:0:0:
192,192,97523,1,2,0:0:0:0:
320,192,97523,128,0,97640:0:0:0:0:
64,192,97640,128,0,97757:0:0:0:0:
320,192,97757,1,0,0:0:0:0:
448,192,97757,128,0,98109:0:0:0:0:
64,192,97991,128,8,98343:0:0:0:60:soft-hitclap.wav
192,192,97991,1,0,0:0:0:0:
320,192,98226,128,0,98577:0:0:0:0:
448,192,98226,128,0,98577:0:0:0:0:
64,192,98460,128,0,98577:0:0:0:0:
192,192,98460,128,0,98577:0:0:0:0:
64,192,98695,1,2,0:0:0:0:
320,192,98695,128,4,98812:0:0:0:0:
448,192,98695,128,0,98812:0:0:0:0:
64,192,98929,1,2,0:0:0:0:
320,192,98929,128,0,99046:0:0:0:0:
448,192,98929,128,0,99046:0:0:0:0:
64,192,99163,1,2,0:0:0:0:
192,192,99163,1,0,0:0:0:0:
448,192,99163,1,0,0:0:0:0:
320,192,99280,1,0,0:0:0:0:
64,192,99398,1,2,0:0:0:0:
192,192,99398,1,0,0:0:0:0:
448,192,99398,1,0,0:0:0:0:
320,192,99515,1,0,0:0:0:0:
64,192,99632,1,2,0:0:0:0:
320,192,99632,128,8,99749:0:0:0:0:
448,192,99632,128,0,99749:0:0:0:0:
64,192,99866,1,2,0:0:0:0:
320,192,99866,1,0,0:0:0:0:
448,192,99866,1,0,0:0:0:0:
192,192,99984,1,0,0:0:0:0:
64,192,100101,1,2,0:0:0:0:
320,192,100101,128,0,100218:0:0:0:0:
448,192,100101,128,0,100218:0:0:0:0:
64,192,100335,1,2,0:0:0:0:
192,192,100335,1,0,0:0:0:0:
448,192,100335,1,0,0:0:0:0:
192,192,100452,1,2,0:0:0:0:
320,192,100452,1,0,0:0:0:0:
64,192,100570,128,2,100687:0:0:0:0:
320,192,100570,1,8,0:0:0:0:
448,192,100570,128,0,100687:0:0:0:0:
64,192,100804,1,2,0:0:0:0:
320,192,100804,1,0,0:0:0:0:
448,192,100804,1,0,0:0:0:0:
192,192,100921,1,0,0:0:0:0:
64,192,101038,1,2,0:0:0:0:
320,192,101038,1,0,0:0:0:0:
448,192,101038,1,0,0:0:0:0:
192,192,101155,1,0,0:0:0:0:
64,192,101273,1,2,0:0:0:0:
320,192,101273,1,0,0:0:0:0:
448,192,101273,1,0,0:0:0:0:
192,192,101390,1,0,0:0:0:0:
64,192,101507,1,2,0:0:0:0:
320,192,101507,128,8,101624:0:0:0:0:
448,192,101507,128,0,101624:0:0:0:0:
64,192,101741,1,2,0:0:0:0:
192,192,101741,1,0,0:0:0:0:
320,192,101741,1,0,0:0:0:0:
448,192,101859,1,0,0:0:0:0:
64,192,101976,1,2,0:0:0:0:
192,192,101976,1,0,0:0:0:0:
320,192,101976,1,0,0:0:0:0:
64,192,102093,128,2,102327:0:0:0:0:
192,192,102093,1,0,0:0:0:0:
448,192,102093,128,0,102210:0:0:0:0:
448,192,102327,1,2,0:0:0:0:
320,192,102386,1,2,0:0:0:0:
64,192,102445,128,2,102562:0:0:0:0:
192,192,102445,128,8,102562:0:0:0:0:
64,192,102679,128,2,102796:0:0:0:0:
192,192,102679,128,0,102796:0:0:0:0:
448,192,102679,1,0,0:0:0:0:
64,192,102913,1,2,0:0:0:0:
320,192,102913,1,0,0:0:0:0:
448,192,102913,1,0,0:0:0:0:
192,192,103030,1,0,0:0:0:0:
64,192,103148,1,2,0:0:0:0:
320,192,103148,1,0,0:0:0:0:
448,192,103148,1,0,0:0:0:0:
192,192,103265,1,0,0:0:0:0:
64,192,103382,128,2,103499:0:0:0:0:
192,192,103382,128,8,103499:0:0:0:0:
448,192,103382,1,0,0:0:0:0:
64,192,103616,1,2,0:0:0:0:
192,192,103616,1,0,0:0:0:0:
448,192,103616,1,0,0:0:0:0:
320,192,103734,1,0,0:0:0:0:
64,192,103851,128,2,103968:0:0:0:0:
192,192,103851,128,0,103968:0:0:0:0:
448,192,103851,1,0,0:0:0:0:
64,192,104085,1,2,0:0:0:0:
320,192,104085,1,0,0:0:0:0:
448,192,104085,1,0,0:0:0:0:
64,192,104202,128,2,104671:0:0:0:0:
192,192,104202,1,4,0:0:0:0:
448,192,104202,1,0,0:0:0:0:
320,192,104437,1,0,0:0:0:0:
320,192,104554,1,0,0:0:0:0:
320,192,104671,1,0,0:0:0:0:
64,192,104788,1,2,0:0:0:0:
192,192,104788,1,0,0:0:0:0:
320,192,104905,1,0,0:0:0:0:
64,192,105023,1,2,0:0:0:0:
192,192,105023,1,0,0:0:0:0:
320,192,105140,1,0,0:0:0:0:
64,192,105257,1,8,0:0:0:0:
448,192,105257,128,0,105726:0:0:0:0:
64,192,105491,1,0,0:0:0:0:
320,192,105491,128,0,105726:0:0:0:0:
64,192,105726,1,8,0:0:0:0:
192,192,105726,1,0,0:0:0:0:
192,192,105843,1,8,0:0:0:0:
320,192,105843,1,0,0:0:0:0:
64,192,105960,1,2,0:0:0:0:
448,192,105960,1,0,0:0:0:0:
320,192,106019,1,0,0:0:0:0:
192,192,106077,1,0,0:0:0:0:
64,192,106136,1,0,0:0:0:0:
320,192,106195,1,2,0:0:0:0:
448,192,106195,1,4,0:0:0:0:
320,192,106312,1,2,0:0:0:0:
448,192,106312,1,0,0:0:0:0:
64,192,106429,1,2,0:0:0:0:
192,192,106429,1,0,0:0:0:0:
320,192,106546,1,2,0:0:0:0:
448,192,106546,1,0,0:0:0:0:
320,192,106663,1,2,0:0:0:0:
448,192,106663,1,0,0:0:0:0:
64,192,106780,1,2,0:0:0:0:
192,192,106780,1,0,0:0:0:0:
320,192,106898,1,2,0:0:0:0:
448,192,106898,1,0,0:0:0:0:
320,192,107015,1,2,0:0:0:0:
448,192,107015,1,0,0:0:0:0:
64,192,107132,1,2,0:0:0:0:
192,192,107132,1,0,0:0:0:0:
320,192,107249,1,2,0:0:0:0:
448,192,107249,1,0,0:0:0:0:
320,192,107366,1,2,0:0:0:0:
448,192,107366,1,0,0:0:0:0:
64,192,107484,1,2,0:0:0:0:
192,192,107484,1,0,0:0:0:0:
320,192,107601,1,2,0:0:0:0:
448,192,107601,1,0,0:0:0:70:Ride.wav
448,192,107718,1,0,0:0:0:0:
64,192,107835,1,2,0:0:0:0:
192,192,107835,1,0,0:0:0:70:Ride.wav
320,192,107952,1,0,0:0:0:0:
64,192,108070,1,2,0:0:0:0:
192,192,108070,1,4,0:0:0:0:
64,192,108187,1,2,0:0:0:0:
192,192,108187,1,0,0:0:0:0:
320,192,108304,1,2,0:0:0:0:
448,192,108304,1,0,0:0:0:0:
64,192,108421,1,2,0:0:0:0:
192,192,108421,1,0,0:0:0:0:
64,192,108538,1,2,0:0:0:0:
192,192,108538,1,0,0:0:0:0:
320,192,108655,1,2,0:0:0:0:
448,192,108655,1,0,0:0:0:0:
64,192,108773,1,2,0:0:0:0:
192,192,108773,1,0,0:0:0:0:
64,192,108890,1,2,0:0:0:0:
192,192,108890,1,0,0:0:0:0:
320,192,109007,1,2,0:0:0:0:
448,192,109007,1,0,0:0:0:0:
64,192,109124,1,2,0:0:0:0:
192,192,109124,1,0,0:0:0:0:
64,192,109241,1,2,0:0:0:0:
192,192,109241,1,0,0:0:0:0:
320,192,109359,1,2,0:0:0:0:
448,192,109359,1,0,0:0:0:0:
64,192,109476,1,2,0:0:0:0:
192,192,109476,1,0,0:0:0:70:Ride.wav
64,192,109593,1,0,0:0:0:0:
320,192,109710,1,2,0:0:0:0:
448,192,109710,1,0,0:0:0:70:Ride.wav
64,192,109827,1,2,0:0:0:0:
192,192,109886,1,2,0:0:0:0:
320,192,109945,1,2,0:0:0:0:
448,192,109945,1,4,0:0:0:0:
64,192,110062,1,2,0:0:0:0:
448,192,110062,1,0,0:0:0:0:
64,192,110179,1,2,0:0:0:0:
192,192,110179,1,0,0:0:0:0:
320,192,110296,1,2,0:0:0:0:
448,192,110296,1,0,0:0:0:0:
64,192,110413,1,2,0:0:0:0:
448,192,110413,1,0,0:0:0:0:
64,192,110530,1,2,0:0:0:0:
192,192,110530,1,0,0:0:0:0:
320,192,110648,1,2,0:0:0:0:
448,192,110648,1,0,0:0:0:0:
64,192,110765,1,2,0:0:0:0:
448,192,110765,1,0,0:0:0:0:
64,192,110882,1,2,0:0:0:0:
192,192,110882,1,0,0:0:0:0:
320,192,110999,1,2,0:0:0:0:
448,192,110999,1,0,0:0:0:0:
64,192,111116,1,2,0:0:0:0:
448,192,111116,1,0,0:0:0:0:
64,192,111234,1,2,0:0:0:0:
192,192,111234,1,0,0:0:0:0:
320,192,111351,1,2,0:0:0:0:
448,192,111351,1,0,0:0:0:70:Ride.wav
448,192,111468,1,0,0:0:0:0:
64,192,111585,1,2,0:0:0:0:
192,192,111585,1,0,0:0:0:70:Ride.wav
320,192,111702,1,0,0:0:0:0:
64,192,111820,1,2,0:0:0:0:
192,192,111820,1,4,0:0:0:0:
64,192,111937,1,2,0:0:0:0:
448,192,111937,1,0,0:0:0:0:
320,192,112054,1,2,0:0:0:0:
448,192,112054,1,0,0:0:0:0:
64,192,112171,1,2,0:0:0:0:
192,192,112171,1,0,0:0:0:0:
64,192,112288,1,2,0:0:0:0:
448,192,112288,1,0,0:0:0:0:
320,192,112405,1,2,0:0:0:0:
448,192,112405,1,0,0:0:0:0:
64,192,112523,1,2,0:0:0:0:
192,192,112523,1,0,0:0:0:0:
64,192,112640,1,2,0:0:0:0:
448,192,112640,1,0,0:0:0:0:
320,192,112757,1,2,0:0:0:0:
448,192,112757,1,0,0:0:0:0:
64,192,112874,1,2,0:0:0:0:
192,192,112874,1,0,0:0:0:0:
64,192,112991,1,2,0:0:0:0:
448,192,112991,1,0,0:0:0:0:
320,192,113109,1,2,0:0:0:0:
448,192,113109,1,0,0:0:0:0:
64,192,113226,1,2,0:0:0:0:
192,192,113226,1,0,0:0:0:70:Ride.wav
192,192,113343,1,0,0:0:0:0:
320,192,113460,1,2,0:0:0:0:
448,192,113460,1,0,0:0:0:70:Ride.wav
320,192,113577,1,0,0:0:0:0:
64,192,113695,1,2,0:0:0:0:
192,192,113695,1,4,0:0:0:0:
448,192,113695,1,0,0:0:0:0:
64,192,113812,1,2,0:0:0:0:
192,192,113812,1,0,0:0:0:0:
320,192,113929,1,2,0:0:0:0:
448,192,113929,1,0,0:0:0:0:
64,192,114046,1,2,0:0:0:0:
192,192,114046,1,0,0:0:0:0:
64,192,114163,1,2,0:0:0:0:
192,192,114163,1,4,0:0:0:0:
448,192,114163,1,0,0:0:0:0:
320,192,114280,1,2,0:0:0:0:
448,192,114280,1,0,0:0:0:0:
64,192,114398,1,2,0:0:0:0:
192,192,114398,1,0,0:0:0:0:
64,192,114515,1,2,0:0:0:0:
192,192,114515,1,0,0:0:0:0:
320,192,114632,1,2,0:0:0:0:
448,192,114632,1,4,0:0:0:0:
64,192,114749,1,2,0:0:0:0:
192,192,114749,1,0,0:0:0:0:
64,192,114866,1,2,0:0:0:0:
192,192,114866,1,0,0:0:0:0:
320,192,114984,1,2,0:0:0:0:
448,192,114984,1,0,0:0:0:0:
64,192,115101,1,2,0:0:0:0:
192,192,115101,1,4,0:0:0:0:
448,192,115101,1,0,0:0:0:0:
64,192,115218,1,2,0:0:0:0:
192,192,115218,1,0,0:0:0:0:
448,192,115335,1,2,0:0:0:0:
320,192,115394,1,2,0:0:0:0:
64,192,115452,1,2,0:0:0:0:
192,192,115511,1,2,0:0:0:0:
64,192,115570,1,2,0:0:0:0:
320,192,115570,1,4,0:0:0:0:
448,192,115570,1,0,0:0:0:0:
320,192,115687,1,2,0:0:0:0:
448,192,115687,1,0,0:0:0:0:
64,192,115804,1,2,0:0:0:0:
192,192,115804,1,0,0:0:0:0:
320,192,115921,1,2,0:0:0:0:
448,192,115921,1,0,0:0:0:0:
64,192,116038,1,2,0:0:0:0:
320,192,116038,1,4,0:0:0:0:
448,192,116038,1,0,0:0:0:0:
64,192,116155,1,2,0:0:0:0:
192,192,116155,1,0,0:0:0:0:
320,192,116273,1,2,0:0:0:0:
448,192,116273,1,0,0:0:0:0:
320,192,116390,1,2,0:0:0:0:
448,192,116390,1,0,0:0:0:0:
64,192,116507,1,2,0:0:0:0:
192,192,116507,1,4,0:0:0:0:
320,192,116624,1,2,0:0:0:0:
448,192,116624,1,0,0:0:0:0:
320,192,116741,1,2,0:0:0:0:
448,192,116741,1,0,0:0:0:0:
64,192,116859,1,2,0:0:0:0:
192,192,116859,1,0,0:0:0:0:
64,192,116976,1,2,0:0:0:0:
320,192,116976,1,4,0:0:0:0:
448,192,116976,1,0,0:0:0:0:
320,192,117093,1,2,0:0:0:0:
448,192,117093,1,0,0:0:0:0:
64,192,117210,1,2,0:0:0:0:
192,192,117210,1,0,0:0:0:0:
448,192,117269,1,2,0:0:0:0:
320,192,117327,1,2,0:0:0:0:
192,192,117386,1,2,0:0:0:0:
64,192,117445,1,2,0:0:0:0:
320,192,117445,1,4,0:0:0:0:
448,192,117445,1,0,0:0:0:0:
64,192,117562,1,2,0:0:0:0:
192,192,117562,1,0,0:0:0:0:
192,192,117679,1,2,0:0:0:0:
320,192,117679,1,4,0:0:0:0:
448,192,117679,1,0,0:0:0:0:
64,192,117796,1,2,0:0:0:0:
320,192,117796,1,0,0:0:0:0:
64,192,117913,1,2,0:0:0:0:
192,192,117913,1,4,0:0:0:0:
448,192,117913,1,0,0:0:0:0:
192,192,118030,1,2,0:0:0:0:
320,192,118030,1,0,0:0:0:0:
64,192,118148,1,2,0:0:0:0:
320,192,118148,1,4,0:0:0:0:
448,192,118148,1,0,0:0:0:0:
192,192,118265,1,2,0:0:0:0:
448,192,118265,1,0,0:0:0:0:
64,192,118382,1,2,0:0:0:0:
192,192,118382,1,4,0:0:0:0:
320,192,118441,1,2,0:0:0:0:
64,192,118499,1,2,0:0:0:0:
448,192,118499,1,0,0:0:0:0:
192,192,118558,1,2,0:0:0:0:
320,192,118616,1,2,0:0:0:0:
448,192,118616,1,4,0:0:0:0:
64,192,118675,1,2,0:0:0:0:
192,192,118734,1,2,0:0:0:0:
320,192,118734,1,0,0:0:0:0:
448,192,118792,1,2,0:0:0:0:
64,192,118851,1,2,0:0:0:0:
192,192,118851,1,4,0:0:0:0:
320,192,118909,1,2,0:0:0:0:
448,192,118909,1,0,0:0:0:0:
64,192,118968,1,2,0:0:0:0:
192,192,118968,1,0,0:0:0:0:
320,192,119027,1,2,0:0:0:0:
448,192,119027,1,0,0:0:0:0:
64,192,119085,1,2,0:0:0:0:
192,192,119085,1,4,0:0:0:0:
320,192,119144,1,2,0:0:0:0:
448,192,119144,1,0,0:0:0:0:
64,192,119202,128,14,119437:0:0:0:0:
448,192,119437,128,0,119554:0:0:0:0:
320,192,119554,128,0,119671:0:0:0:0:
64,192,119671,128,0,119788:0:0:0:0:
192,192,119788,128,2,119905:0:0:0:0:
320,192,119788,1,0,0:0:0:0:
448,192,119905,128,0,120023:0:0:0:0:
192,192,120023,1,2,0:0:0:0:
320,192,120023,128,0,120140:0:0:0:0:
64,192,120140,128,0,120257:0:0:0:0:
320,192,120257,128,0,121077:0:0:0:60:soft-hitwhistle.wav
448,192,120257,128,0,121077:0:0:0:0:
64,192,121195,1,2,0:0:0:0:
192,192,121195,1,4,0:0:0:0:
320,192,121195,1,8,0:0:0:0:
448,192,121195,1,0,0:0:0:0:
