osu file format v14

[General]
AudioFilename: audio.ogg
AudioLeadIn: 0
PreviewTime: 91195
Countdown: 0
SampleSet: Soft
StackLeniency: 0.7
Mode: 3
LetterboxInBreaks: 0
SpecialStyle: 0
WidescreenStoryboard: 0

[Editor]
Bookmarks: 8695,16195,31195,46195,53695,61195,68695,74320,76195,83695,91195,106195,113695,117445
DistanceSpacing: 2
BeatDivisor: 4
GridSize: 8
TimelineZoom: 1.999999

[Metadata]
Title:Garakuta Doll Play
TitleUnicode:Garakuta Doll Play
Artist:t+pazolite
ArtistUnicode:t+pazolite
Creator:keksikosu
Version:ARMAGEDDON
Source:maimai GreeN
Tags:tpz t+pz electronic instrumental video game sdvx CHUNITHM PLUS HEAVENLY 第二回天下一音ゲ祭 BANDAI NAMCO MAI-0001 CHS-0021 0022 jubeat saucer fulfill Ponko2 Girlish Garakuta Scramble! maimai SEGA Sounds Vol.5 -GreeNはじめました~!パック- 2013 comiket comic market 89 C89 ガラクタ sonota その他 GROOVE COASTER EX タイトー 太鼓の達人 キミドリ Ver. バンダイナムコ SOUND VOLTEX 譜面ボーイズ arcaea Maxim-miau Antipole Symmatrix- ATing
BeatmapID:3757494
BeatmapSetID:1830658

[Difficulty]
HPDrainRate:8.5
CircleSize:4
OverallDifficulty:8
ApproachRate:5
SliderMultiplier:1.4
SliderTickRate:1

[Events]
//Background and Video events
0,0,"BG.jpg",0,0
//Break Periods
//Storyboard Layer 0 (Background)
//Storyboard Layer 1 (Fail)
//Storyboard Layer 2 (Pass)
//Storyboard Layer 3 (Foreground)
//Storyboard Layer 4 (Overlay)
//Storyboard Sound Samples
Sample,15257,0,"soft-hitclap.wav",40

[TimingPoints]
1195,234.375,4,2,1,70,1,0
91195,-100,4,2,1,70,0,1
97757,-100,4,2,1,70,0,0
98695,-100,4,2,1,70,0,1
104202,-100,4,2,1,70,0,0
106195,-100,4,2,1,70,0,1
119202,-100,4,2,1,70,0,0

[HitObjects]
64,192,1195,5,0,0:0:0:0:
448,192,1195,1,0,0:0:0:0:
320,192,1253,1,0,0:0:0:0:
64,192,1312,1,0,0:0:0:0:
192,192,1341,1,0,0:0:0:0:
448,192,1370,1,0,0:0:0:0:
320,192,1429,1,0,0:0:0:0:
192,192,1487,1,0,0:0:0:0:
64,192,1546,1,0,0:0:0:0:
448,192,1546,1,0,0:0:0:0:
320,192,1605,1,0,0:0:0:0:
64,192,1663,1,0,0:0:0:0:
192,192,1663,128,0,1780:0:0:0:0:
320,192,1780,128,0,1898:0:0:0:0:
64,192,2015,128,0,2601:0:0:0:0:
448,192,2015,1,0,0:0:0:0:
192,192,2366,128,0,2601:0:0:0:0:
320,192,2366,1,0,0:0:0:0:
320,192,2601,1,0,0:0:0:0:
448,192,2601,128,0,2718:0:0:0:0:
192,192,2718,128,0,2835:0:0:0:0:
320,192,2835,128,0,2952:0:0:0:0:
448,192,2835,1,0,0:0:0:0:
64,192,2952,128,0,3070:0:0:0:0:
192,192,3070,1,0,0:0:0:0:
448,192,3070,1,0,0:0:0:0:
320,192,3128,1,0,0:0:0:0:
64,192,3187,1,0,0:0:0:0:
448,192,3216,1,0,0:0:0:0:
192,192,3245,1,0,0:0:0:0:
320,192,3304,1,0,0:0:0:0:
64,192,3362,1,0,0:0:0:0:
192,192,3421,1,0,0:0:0:0:
448,192,3421,1,0,0:0:0:0:
320,192,3480,1,0,0:0:0:0:
64,192,3538,1,0,0:0:0:0:
192,192,3538,128,0,3655:0:0:0:0:
320,192,3655,128,0,3773:0:0:0:0:
64,192,3890,1,0,0:0:0:0:
448,192,3890,128,0,4476:0:0:0:0:
192,192,4241,1,0,0:0:0:0:
320,192,4241,128,0,4476:0:0:0:0:
64,192,4476,1,8,0:0:0:50:soft-hitclap.wav
192,192,4476,1,0,0:0:0:0:
192,192,4593,1,8,0:0:0:50:soft-hitclap.wav
448,192,4593,1,0,0:0:0:0:
64,192,4710,1,8,0:0:0:50:soft-hitclap.wav
320,192,4710,1,0,0:0:0:0:
192,192,4827,1,8,0:0:0:50:soft-hitclap.wav
320,192,4827,1,0,0:0:0:0:
64,192,4945,1,2,0:0:0:50:soft-hitwhistle.wav
448,192,4945,1,0,0:0:0:0:
192,192,5003,1,0,0:0:0:0:
320,192,5062,1,0,0:0:0:0:
64,192,5091,1,0,0:0:0:0:
448,192,5120,1,0,0:0:0:0:
192,192,5179,1,0,0:0:0:0:
320,192,5237,1,0,0:0:0:0:
64,192,5296,1,0,0:0:0:0:
448,192,5296,1,0,0:0:0:0:
192,192,5355,1,0,0:0:0:0:
320,192,5413,128,8,5530:0:0:0:50:soft-hitclap.wav
448,192,5413,1,0,0:0:0:0:
192,192,5530,128,0,5648:0:0:0:0:
448,192,5648,1,0,0:0:0:0:
64,192,5765,128,2,6351:0:0:0:50:soft-hitwhistle.wav
320,192,5765,1,0,0:0:0:0:
192,192,6116,128,2,6351:0:0:0:50:soft-hitwhistle.wav
320,192,6116,1,0,0:0:0:0:
320,192,6351,1,8,0:0:0:50:soft-hitclap.wav
448,192,6351,128,0,6468:0:0:0:0:
192,192,6468,128,0,6585:0:0:0:0:
320,192,6585,128,0,6702:0:0:0:0:
448,192,6585,1,0,0:0:0:0:
64,192,6702,128,0,6820:0:0:0:0:
192,192,6820,1,0,0:0:0:50:soft-hitwhistle.wav
448,192,6820,1,0,0:0:0:0:
320,192,6878,1,0,0:0:0:0:
192,192,6937,1,0,0:0:0:0:
448,192,6966,1,0,0:0:0:0:
64,192,6995,1,0,0:0:0:0:
320,192,7054,1,0,0:0:0:0:
192,192,7112,1,0,0:0:0:0:
64,192,7171,1,0,0:0:0:0:
448,192,7171,1,0,0:0:0:0:
320,192,7230,1,0,0:0:0:0:
64,192,7288,1,0,0:0:0:50:soft-hitclap.wav
192,192,7288,128,0,7405:0:0:0:0:
320,192,7405,128,0,7523:0:0:0:0:
64,192,7523,1,0,0:0:0:0:
192,192,7640,1,0,0:0:0:50:soft-hitwhistle.wav
448,192,7640,128,0,7874:0:0:0:0:
64,192,7874,128,0,7952:0:0:0:0:
448,192,7991,1,0,0:0:0:0:
320,192,8021,1,0,0:0:0:0:
192,192,8050,1,0,0:0:0:0:
64,192,8079,1,0,0:0:0:0:
448,192,8109,1,0,0:0:0:0:
320,192,8138,1,0,0:0:0:0:
192,192,8167,1,0,0:0:0:0:
64,192,8196,1,0,0:0:0:0:
448,192,8226,128,0,8460:0:0:0:0:
192,192,8460,128,0,8695:0:0:0:0:
64,192,8695,128,2,9163:0:0:0:0:
320,192,8695,1,4,0:0:0:0:
448,192,8695,1,0,0:0:0:0:
192,192,8812,1,0,0:0:0:0:
448,192,8929,1,8,0:0:0:60:soft-hitclap.wav
192,192,9046,1,0,0:0:0:0:
320,192,9163,128,8,9241:0:0:0:60:soft-hitclap.wav
448,192,9163,1,0,0:0:0:0:
64,192,9280,1,0,0:0:0:0:
192,192,9280,128,0,9359:0:0:0:0:
448,192,9398,1,8,0:0:0:60:soft-hitclap.wav
64,192,9515,128,0,10101:0:0:0:0:
192,192,9515,1,0,0:0:0:0:
448,192,9632,1,8,0:0:0:60:soft-hitclap.wav
192,192,9749,1,0,0:0:0:0:
448,192,9866,1,8,0:0:0:60:soft-hitclap.wav
192,192,9984,1,0,0:0:0:0:
320,192,10101,1,8,0:0:0:60:soft-hitclap.wav
448,192,10101,128,0,10218:0:0:0:0:
64,192,10218,1,0,0:0:0:0:
192,192,10218,128,0,10335:0:0:0:0:
320,192,10335,128,8,10452:0:0:0:60:soft-hitclap.wav
448,192,10335,1,0,0:0:0:0:
64,192,10452,128,8,10570:0:0:0:60:soft-hitclap.wav
192,192,10452,1,0,0:0:0:0:
192,192,10570,1,2,0:0:0:0:
320,192,10570,1,8,0:0:0:60:soft-hitclap.wav
448,192,10570,128,0,11038:0:0:0:0:
64,192,10687,1,0,0:0:0:0:
320,192,10804,1,0,0:0:0:60:soft-hitclap.wav
64,192,10921,1,0,0:0:0:0:
192,192,11038,128,0,11116:0:0:0:60:soft-hitclap.wav
320,192,11038,1,0,0:0:0:0:
64,192,11155,128,0,11234:0:0:0:0:
448,192,11155,1,0,0:0:0:0:
192,192,11273,1,0,0:0:0:60:soft-hitclap.wav
320,192,11390,1,0,0:0:0:0:
448,192,11390,128,0,11859:0:0:0:0:
64,192,11507,1,0,0:0:0:60:soft-hitclap.wav
320,192,11624,1,0,0:0:0:0:
64,192,11741,1,0,0:0:0:60:soft-hitclap.wav
320,192,11859,1,0,0:0:0:0:
64,192,11976,128,0,12093:0:0:0:60:soft-hitclap.wav
192,192,11976,1,0,0:0:0:0:
448,192,12093,1,0,0:0:0:60:soft-hitclap.wav
320,192,12152,1,0,0:0:0:60:soft-hitclap.wav
64,192,12210,1,0,0:0:0:60:soft-hitclap.wav
192,192,12210,128,0,12327:0:0:0:0:
448,192,12327,1,0,0:0:0:60:soft-hitclap.wav
64,192,12445,1,2,0:0:0:0:
192,192,12445,1,0,0:0:0:50:soft-hitclap.wav
320,192,12445,128,0,12913:0:0:0:0:
448,192,12562,1,0,0:0:0:50:soft-hitclap.wav
192,192,12620,1,0,0:0:0:50:soft-hitclap.wav
64,192,12679,1,0,0:0:0:50:soft-hitclap.wav
448,192,12796,1,0,0:0:0:50:soft-hitclap.wav
64,192,12913,128,0,12991:0:0:0:50:soft-hitclap.wav
192,192,12913,1,0,0:0:0:0:
320,192,13030,1,0,0:0:0:50:soft-hitclap.wav
448,192,13030,128,0,13109:0:0:0:0:
192,192,13148,1,0,0:0:0:50:soft-hitclap.wav
64,192,13265,1,0,0:0:0:50:soft-hitclap.wav
320,192,13265,128,0,13851:0:0:0:0:
64,192,13382,1,2,0:0:0:0:
192,192,13382,1,0,0:0:0:50:soft-hitclap.wav
448,192,13382,1,0,0:0:0:0:
448,192,13499,1,0,0:0:0:50:soft-hitclap.wav
192,192,13558,1,0,0:0:0:50:soft-hitclap.wav
64,192,13616,1,0,0:0:0:50:soft-hitclap.wav
192,192,13734,1,0,0:0:0:50:soft-hitclap.wav
64,192,13851,1,0,0:0:0:50:soft-hitclap.wav
448,192,13851,1,0,0:0:0:0:
192,192,13968,1,0,0:0:0:50:soft-hitclap.wav
320,192,13968,1,0,0:0:0:0:
448,192,14027,1,0,0:0:0:50:soft-hitclap.wav
64,192,14085,1,0,0:0:0:50:soft-hitclap.wav
192,192,14085,1,0,0:0:0:0:
320,192,14202,1,0,0:0:0:50:soft-hitclap.wav
448,192,14202,1,0,0:0:0:0:
192,192,14261,1,0,0:0:0:50:soft-hitclap.wav
64,192,14320,1,2,0:0:0:0:
320,192,14320,1,0,0:0:0:60:soft-hitclap.wav
448,192,14320,1,0,0:0:0:0:
192,192,14378,1,0,0:0:0:60:soft-hitclap.wav
64,192,14437,1,0,0:0:0:60:soft-hitclap.wav
320,192,14495,1,0,0:0:0:60:soft-hitclap.wav
192,192,14554,1,0,0:0:0:60:soft-hitclap.wav
448,192,14612,1,0,0:0:0:60:soft-hitclap.wav
64,192,14671,1,0,0:0:0:60:soft-hitclap.wav
192,192,14730,1,0,0:0:0:60:soft-hitclap.wav
320,192,14788,1,2,0:0:0:0:
448,192,14788,1,0,0:0:0:40:soft-hitclap.wav
64,192,14818,1,0,0:0:0:40:soft-hitclap.wav
192,192,14847,1,0,0:0:0:40:soft-hitclap.wav
320,192,14876,1,0,0:0:0:40:soft-hitclap.wav
448,192,14905,1,0,0:0:0:40:soft-hitclap.wav
64,192,14935,1,0,0:0:0:40:soft-hitclap.wav
192,192,14964,1,0,0:0:0:40:soft-hitclap.wav
320,192,14993,1,0,0:0:0:40:soft-hitclap.wav
448,192,15023,1,0,0:0:0:40:soft-hitclap.wav
64,192,15052,1,0,0:0:0:40:soft-hitclap.wav
192,192,15081,1,0,0:0:0:40:soft-hitclap.wav
320,192,15111,1,0,0:0:0:40:soft-hitclap.wav
448,192,15140,1,0,0:0:0:40:soft-hitclap.wav
64,192,15169,1,0,0:0:0:40:soft-hitclap.wav
192,192,15198,1,0,0:0:0:40:soft-hitclap.wav
320,192,15228,1,0,0:0:0:40:soft-hitclap.wav
448,192,15257,128,2,15960:0:0:0:0:
64,192,15374,128,0,15491:0:0:0:0:
320,192,15491,128,0,15726:0:0:0:0:
192,192,15609,128,0,15726:0:0:0:0:
64,192,15726,128,0,16136:0:0:0:0:
320,192,15843,128,0,15960:0:0:0:0:
192,192,15960,128,0,16136:0:0:0:0:
448,192,16077,128,0,16136:0:0:0:0:
64,192,16195,1,2,0:0:0:0:
192,192,16195,1,4,0:0:0:0:
320,192,16195,1,0,0:0:0:0:
448,192,16195,1,0,0:0:0:0:
64,192,16312,1,0,0:0:0:0:
192,192,16429,1,2,0:0:0:0:
320,192,16429,1,0,0:0:0:0:
448,192,16429,1,0,0:0:0:0:
320,192,16546,1,0,0:0:0:0:
64,192,16663,1,2,0:0:0:0:
192,192,16663,1,0,0:0:0:0:
448,192,16663,1,0,0:0:0:0:
192,192,16780,1,0,0:0:0:0:
64,192,16898,1,2,0:0:0:0:
320,192,16898,1,0,0:0:0:0:
448,192,16898,1,0,0:0:0:0:
448,192,17015,1,0,0:0:0:0:
64,192,17132,1,2,0:0:0:0:
192,192,17132,1,0,0:0:0:0:
320,192,17132,1,0,0:0:0:0:
64,192,17249,1,0,0:0:0:0:
192,192,17366,1,2,0:0:0:0:
320,192,17366,1,0,0:0:0:0:
448,192,17366,1,0,0:0:0:0:
192,192,17484,1,0,0:0:0:0:
64,192,17601,1,2,0:0:0:0:
320,192,17601,1,0,0:0:0:0:
448,192,17601,1,0,0:0:0:0:
448,192,17718,1,0,0:0:0:0:
64,192,17835,1,2,0:0:0:0:
192,192,17835,1,0,0:0:0:0:
320,192,17835,1,0,0:0:0:0:
64,192,17952,1,2,0:0:0:0:
192,192,17952,1,0,0:0:0:0:
448,192,17952,1,0,0:0:0:0:
192,192,18070,1,2,0:0:0:0:
320,192,18070,1,0,0:0:0:0:
448,192,18070,1,0,0:0:0:0:
320,192,18187,1,0,0:0:0:0:
64,192,18304,1,2,0:0:0:0:
192,192,18304,1,0,0:0:0:0:
448,192,18304,1,0,0:0:0:0:
192,192,18421,1,0,0:0:0:0:
64,192,18538,1,2,0:0:0:0:
320,192,18538,1,0,0:0:0:0:
448,192,18538,1,0,0:0:0:0:
64,192,18655,1,0,0:0:0:0:
192,192,18773,1,2,0:0:0:0:
320,192,18773,1,0,0:0:0:0:
448,192,18773,1,0,0:0:0:0:
448,192,18890,1,0,0:0:0:0:
64,192,19007,1,2,0:0:0:0:
192,192,19007,1,0,0:0:0:0:
320,192,19007,1,0,0:0:0:0:
64,192,19124,1,2,0:0:0:0:
448,192,19124,1,0,0:0:0:0:
192,192,19183,1,2,0:0:0:0:
320,192,19183,1,0,0:0:0:0:
64,192,19241,1,2,0:0:0:0:
448,192,19241,1,0,0:0:0:0:
192,192,19359,1,2,0:0:0:0:
320,192,19359,1,0,0:0:0:0:
64,192,19476,1,0,0:0:0:60:soft-hitwhistle.wav
192,192,19476,1,0,0:0:0:0:
448,192,19476,1,0,0:0:0:0:
64,192,19593,1,0,0:0:0:0:
192,192,19710,1,0,0:0:0:60:soft-hitwhistle.wav
320,192,19710,1,0,0:0:0:0:
448,192,19710,1,0,0:0:0:0:
448,192,19827,1,0,0:0:0:0:
64,192,19945,1,2,0:0:0:0:
192,192,19945,1,0,0:0:0:0:
320,192,19945,1,0,0:0:0:0:
192,192,20062,1,0,0:0:0:0:
64,192,20179,1,2,0:0:0:0:
320,192,20179,1,0,0:0:0:0:
448,192,20179,1,0,0:0:0:0:
448,192,20296,1,0,0:0:0:0:
64,192,20413,1,2,0:0:0:0:
192,192,20413,1,0,0:0:0:0:
320,192,20413,1,0,0:0:0:0:
320,192,20530,1,0,0:0:0:0:
64,192,20648,1,2,0:0:0:0:
192,192,20648,1,0,0:0:0:0:
448,192,20648,1,0,0:0:0:0:
192,192,20765,1,0,0:0:0:0:
64,192,20882,1,2,0:0:0:0:
320,192,20882,1,0,0:0:0:0:
448,192,20882,1,0,0:0:0:0:
64,192,20999,1,2,0:0:0:0:
192,192,20999,1,0,0:0:0:0:
320,192,21058,1,2,0:0:0:0:
448,192,21058,1,0,0:0:0:0:
64,192,21116,1,2,0:0:0:0:
192,192,21116,1,0,0:0:0:0:
320,192,21234,1,2,0:0:0:0:
448,192,21234,1,0,0:0:0:0:
64,192,21351,1,2,0:0:0:0:
192,192,21351,1,0,0:0:0:0:
448,192,21351,1,0,0:0:0:0:
64,192,21468,1,0,0:0:0:0:
192,192,21585,1,2,0:0:0:0:
320,192,21585,1,4,0:0:0:0:
448,192,21585,1,0,0:0:0:0:
64,192,21702,128,0,22054:0:0:0:0:
448,192,21702,128,0,22171:0:0:0:0:
320,192,21820,128,0,22054:0:0:0:0:
192,192,21878,128,0,22171:0:0:0:0:
64,192,22171,1,2,0:0:0:0:
320,192,22171,1,0,0:0:0:0:
64,192,22288,1,8,0:0:0:0:
192,192,22288,1,0,0:0:0:0:
448,192,22288,1,0,0:0:0:0:
192,192,22405,1,2,0:0:0:0:
320,192,22405,1,0,0:0:0:0:
64,192,22523,1,2,0:0:0:0:
320,192,22523,1,0,0:0:0:0:
448,192,22523,1,0,0:0:0:0:
64,192,22640,1,0,0:0:0:0:
192,192,22757,1,2,0:0:0:0:
320,192,22757,1,0,0:0:0:0:
448,192,22757,1,0,0:0:0:0:
448,192,22874,1,0,0:0:0:0:
64,192,22991,1,2,0:0:0:0:
192,192,22991,1,0,0:0:0:0:
320,192,22991,1,0,0:0:0:0:
192,192,23109,1,0,0:0:0:0:
64,192,23226,1,2,0:0:0:60:soft-hitwhistle.wav
448,192,23226,1,0,0:0:0:0:
320,192,23284,1,0,0:0:0:0:
192,192,23343,1,0,0:0:0:0:
320,192,23402,1,0,0:0:0:0:
64,192,23460,1,2,0:0:0:50:soft-hitwhistle.wav
448,192,23460,1,0,0:0:0:0:
192,192,23519,1,0,0:0:0:0:
320,192,23577,1,0,0:0:0:0:
64,192,23695,128,2,24339:0:0:0:0:
192,192,23695,128,4,23870:0:0:0:0:
320,192,23695,128,0,23812:0:0:0:0:
448,192,23695,128,0,23753:0:0:0:0:
192,192,24046,1,2,0:0:0:0:
320,192,24046,1,0,0:0:0:0:
192,192,24163,128,8,24339:0:0:0:0:
448,192,24163,1,0,0:0:0:0:
320,192,24222,128,0,24339:0:0:0:0:
448,192,24280,128,0,24339:0:0:0:0:
64,192,24398,1,2,0:0:0:0:
192,192,24398,1,0,0:0:0:0:
320,192,24398,1,0,0:0:0:0:
192,192,24515,1,0,0:0:0:0:
64,192,24632,1,2,0:0:0:0:
320,192,24632,1,0,0:0:0:0:
448,192,24632,1,0,0:0:0:0:
320,192,24749,1,0,0:0:0:0:
64,192,24866,1,2,0:0:0:0:
192,192,24866,1,0,0:0:0:0:
448,192,24866,1,0,0:0:0:0:
64,192,24984,1,0,0:0:0:0:
192,192,25101,1,8,0:0:0:0:
320,192,25101,1,0,0:0:0:0:
448,192,25101,1,0,0:0:0:0:
448,192,25218,1,0,0:0:0:0:
64,192,25335,1,0,0:0:0:0:
192,192,25335,128,0,25570:0:0:0:0:
64,192,25570,1,2,0:0:0:0:
320,192,25570,1,4,0:0:0:0:
448,192,25570,1,0,0:0:0:0:
320,192,25687,1,0,0:0:0:0:
64,192,25804,1,2,0:0:0:0:
192,192,25804,1,0,0:0:0:0:
448,192,25804,1,0,0:0:0:0:
192,192,25921,1,0,0:0:0:0:
64,192,26038,1,2,0:0:0:0:
320,192,26038,1,0,0:0:0:0:
448,192,26038,1,0,0:0:0:0:
64,192,26155,1,0,0:0:0:0:
192,192,26273,1,2,0:0:0:0:
320,192,26273,1,0,0:0:0:0:
448,192,26273,1,0,0:0:0:0:
320,192,26390,1,0,0:0:0:0:
64,192,26507,1,2,0:0:0:0:
192,192,26507,1,0,0:0:0:0:
448,192,26507,1,0,0:0:0:0:
320,192,26624,1,2,0:0:0:0:
448,192,26624,1,0,0:0:0:0:
64,192,26683,1,2,0:0:0:0:
192,192,26683,1,0,0:0:0:0:
320,192,26741,1,2,0:0:0:0:
448,192,26741,1,0,0:0:0:0:
64,192,26859,1,2,0:0:0:0:
192,192,26859,1,0,0:0:0:0:
64,192,26976,1,0,0:0:0:60:soft-hitwhistle.wav
320,192,26976,1,0,0:0:0:0:
448,192,26976,1,0,0:0:0:0:
448,192,27093,1,0,0:0:0:0:
64,192,27210,1,0,0:0:0:60:soft-hitwhistle.wav
192,192,27210,1,0,0:0:0:0:
320,192,27210,1,0,0:0:0:0:
64,192,27327,1,0,0:0:0:0:
192,192,27445,1,2,0:0:0:0:
320,192,27445,1,0,0:0:0:0:
448,192,27445,1,0,0:0:0:0:
320,192,27562,1,0,0:0:0:0:
64,192,27679,1,2,0:0:0:0:
192,192,27679,1,0,0:0:0:0:
448,192,27679,1,0,0:0:0:0:
192,192,27796,1,0,0:0:0:0:
64,192,27913,1,2,0:0:0:0:
320,192,27913,1,0,0:0:0:0:
448,192,27913,1,0,0:0:0:0:
448,192,28030,1,0,0:0:0:0:
64,192,28148,1,2,0:0:0:0:
192,192,28148,1,0,0:0:0:0:
320,192,28148,1,0,0:0:0:0:
64,192,28265,1,0,0:0:0:0:
192,192,28382,1,2,0:0:0:0:
320,192,28382,1,0,0:0:0:0:
448,192,28382,1,0,0:0:0:0:
64,192,28499,1,2,0:0:0:0:
448,192,28499,1,0,0:0:0:0:
192,192,28558,1,2,0:0:0:0:
320,192,28558,1,0,0:0:0:0:
64,192,28616,1,2,0:0:0:0:
448,192,28616,1,0,0:0:0:0:
192,192,28734,1,2,0:0:0:0:
320,192,28734,1,0,0:0:0:0:
64,192,28851,1,2,0:0:0:0:
192,192,28851,1,0,0:0:0:0:
448,192,28851,1,0,0:0:0:0:
448,192,28968,1,0,0:0:0:0:
64,192,29085,1,2,0:0:0:0:
192,192,29085,1,0,0:0:0:0:
320,192,29085,1,0,0:0:0:0:
64,192,29202,128,0,29671:0:0:0:0:
192,192,29202,128,0,29671:0:0:0:0:
448,192,29320,128,0,29378:0:0:0:0:
448,192,29437,128,0,29495:0:0:0:0:
448,192,29554,128,0,29612:0:0:0:0:
320,192,29671,1,2,0:0:0:0:
448,192,29671,128,0,29730:0:0:0:0:
64,192,29788,128,8,29847:0:0:0:0:
192,192,29788,1,0,0:0:0:0:
448,192,29788,1,0,0:0:0:0:
64,192,29905,128,2,29964:0:0:0:0:
320,192,29905,1,0,0:0:0:0:
64,192,30023,128,2,30081:0:0:0:0:
192,192,30023,1,0,0:0:0:0:
64,192,30140,128,2,30198:0:0:0:0:
320,192,30140,1,0,0:0:0:0:
320,192,30257,128,0,30433:0:0:0:0:
448,192,30257,128,0,30316:0:0:0:0:
192,192,30374,128,0,30433:0:0:0:0:
64,192,30491,128,0,30550:0:0:0:60:soft-hitwhistle.wav
448,192,30491,128,0,30667:0:0:0:0:
320,192,30609,128,0,30667:0:0:0:0:
64,192,30726,128,0,30902:0:0:0:0:
192,192,30726,128,0,30784:0:0:0:0:
448,192,30843,128,0,30902:0:0:0:0:
192,192,30960,128,0,31136:0:0:0:60:soft-hitwhistle.wav
320,192,30960,128,0,31019:0:0:0:0:
64,192,31077,128,0,31136:0:0:0:0:
64,192,31195,1,2,0:0:0:0:
192,192,31195,1,4,0:0:0:0:
320,192,31195,1,0,0:0:0:0:
448,192,31195,1,0,0:0:0:0:
320,192,31312,1,0,0:0:0:0:
64,192,31429,1,2,0:0:0:0:
192,192,31429,1,0,0:0:0:0:
448,192,31429,1,0,0:0:0:0:
64,192,31546,1,0,0:0:0:0:
192,192,31663,1,2,0:0:0:0:
320,192,31663,1,0,0:0:0:0:
448,192,31663,1,0,0:0:0:0:
448,192,31780,1,0,0:0:0:0:
64,192,31898,1,2,0:0:0:0:
192,192,31898,1,0,0:0:0:0:
320,192,31898,1,0,0:0:0:0:
192,192,32015,1,0,0:0:0:0:
64,192,32132,1,2,0:0:0:0:
320,192,32132,1,0,0:0:0:0:
448,192,32132,1,0,0:0:0:0:
64,192,32249,1,0,0:0:0:0:
320,192,32366,1,2,0:0:0:0:
448,192,32366,1,0,0:0:0:0:
64,192,32425,1,2,0:0:0:0:
192,192,32425,1,0,0:0:0:0:
320,192,32484,1,2,0:0:0:0:
448,192,32484,1,0,0:0:0:0:
64,192,32542,1,2,0:0:0:0:
192,192,32542,1,0,0:0:0:0:
320,192,32601,1,2,0:0:0:0:
448,192,32601,1,0,0:0:0:0:
192,192,32718,1,0,0:0:0:0:
64,192,32835,1,2,0:0:0:0:
320,192,32835,1,0,0:0:0:0:
448,192,32835,1,0,0:0:0:0:
64,192,32952,1,2,0:0:0:0:
192,192,32952,1,0,0:0:0:0:
448,192,32952,1,0,0:0:0:0:
64,192,33070,1,2,0:0:0:0:
192,192,33070,1,0,0:0:0:0:
320,192,33070,1,0,0:0:0:0:
320,192,33187,1,0,0:0:0:0:
64,192,33304,1,2,0:0:0:0:
192,192,33304,1,0,0:0:0:0:
448,192,33304,1,0,0:0:0:0:
64,192,33421,1,0,0:0:0:0:
192,192,33538,1,2,0:0:0:0:
320,192,33538,1,0,0:0:0:0:
448,192,33538,1,0,0:0:0:0:
192,192,33655,1,0,0:0:0:0:
64,192,33773,1,2,0:0:0:0:
320,192,33773,1,0,0:0:0:0:
448,192,33773,1,0,0:0:0:0:
448,192,33890,1,0,0:0:0:0:
64,192,34007,1,2,0:0:0:0:
192,192,34007,1,0,0:0:0:0:
320,192,34007,1,0,0:0:0:0:
320,192,34124,1,0,0:0:0:0:
64,192,34241,1,2,0:0:0:0:
192,192,34241,1,0,0:0:0:0:
448,192,34241,1,0,0:0:0:0:
192,192,34359,1,0,0:0:0:0:
320,192,34359,1,0,0:0:0:0:
64,192,34476,1,2,0:0:0:0:
320,192,34476,1,0,0:0:0:0:
448,192,34476,1,0,0:0:0:0:
64,192,34593,1,0,0:0:0:0:
192,192,34710,1,2,0:0:0:0:
320,192,34710,1,0,0:0:0:0:
448,192,34710,1,0,0:0:0:0:
64,192,34827,1,2,0:0:0:0:
320,192,34827,1,0,0:0:0:0:
448,192,34827,1,0,0:0:0:0:
64,192,34945,1,2,0:0:0:0:
192,192,34945,1,0,0:0:0:0:
320,192,34945,1,0,0:0:0:0:
192,192,35062,1,0,0:0:0:0:
64,192,35179,1,2,0:0:0:0:
320,192,35179,1,0,0:0:0:0:
448,192,35179,1,0,0:0:0:0:
448,192,35296,1,0,0:0:0:0:
64,192,35413,1,2,0:0:0:0:
192,192,35413,1,0,0:0:0:0:
320,192,35413,1,0,0:0:0:0:
320,192,35530,1,0,0:0:0:0:
64,192,35648,1,2,0:0:0:0:
192,192,35648,1,0,0:0:0:0:
448,192,35648,1,0,0:0:0:0:
192,192,35765,1,0,0:0:0:0:
64,192,35882,1,2,0:0:0:0:
320,192,35882,1,0,0:0:0:0:
448,192,35882,1,0,0:0:0:0:
64,192,35999,1,0,0:0:0:0:
192,192,36116,1,2,0:0:0:0:
320,192,36116,1,0,0:0:0:0:
448,192,36116,1,0,0:0:0:0:
64,192,36234,1,2,0:0:0:0:
320,192,36234,1,0,0:0:0:0:
448,192,36234,1,0,0:0:0:0:
64,192,36351,1,2,0:0:0:0:
192,192,36351,1,0,0:0:0:0:
448,192,36351,1,0,0:0:0:0:
192,192,36468,1,0,0:0:0:0:
64,192,36585,1,2,0:0:0:0:
320,192,36585,1,4,0:0:0:0:
448,192,36585,1,0,0:0:0:0:
192,192,36702,128,0,37171:0:0:0:0:
448,192,36702,128,0,37054:0:0:0:0:
64,192,36820,128,0,37054:0:0:0:0:
320,192,36878,128,0,37171:0:0:0:0:
64,192,37171,1,2,0:0:0:0:
448,192,37171,1,0,0:0:0:0:
192,192,37288,1,8,0:0:0:0:
320,192,37288,1,0,0:0:0:0:
448,192,37288,1,0,0:0:0:0:
64,192,37405,1,2,0:0:0:0:
320,192,37405,1,0,0:0:0:0:
64,192,37523,1,2,0:0:0:0:
192,192,37523,1,0,0:0:0:0:
448,192,37523,1,0,0:0:0:0:
192,192,37640,1,0,0:0:0:0:
64,192,37757,1,2,0:0:0:60:soft-hitwhistle.wav
320,192,37757,1,0,0:0:0:0:
448,192,37757,128,0,38460:0:0:0:0:
64,192,37874,1,0,0:0:0:0:
192,192,37991,1,2,0:0:0:50:soft-hitwhistle.wav
320,192,37991,1,0,0:0:0:0:
192,192,38109,1,0,0:0:0:0:
64,192,38226,1,2,0:0:0:50:soft-hitwhistle.wav
320,192,38226,1,0,0:0:0:0:
64,192,38343,1,0,0:0:0:0:
192,192,38343,1,0,0:0:0:0:
192,192,38460,1,0,0:0:0:0:
320,192,38460,1,0,0:0:0:0:
64,192,38519,1,0,0:0:0:0:
448,192,38577,1,0,0:0:0:0:
320,192,38636,1,0,0:0:0:0:
64,192,38695,1,2,0:0:0:0:
192,192,38695,1,4,0:0:0:0:
448,192,38695,1,0,0:0:0:0:
192,192,38812,1,0,0:0:0:0:
64,192,38929,1,2,0:0:0:0:
320,192,38929,1,0,0:0:0:0:
448,192,38929,1,0,0:0:0:0:
448,192,39046,1,0,0:0:0:0:
64,192,39163,1,2,0:0:0:0:
192,192,39163,1,0,0:0:0:0:
320,192,39163,1,0,0:0:0:0:
64,192,39280,1,0,0:0:0:0:
192,192,39398,1,2,0:0:0:0:
320,192,39398,1,0,0:0:0:0:
448,192,39398,1,0,0:0:0:0:
320,192,39515,1,0,0:0:0:0:
64,192,39632,1,2,0:0:0:0:
192,192,39632,1,0,0:0:0:0:
448,192,39632,1,0,0:0:0:0:
192,192,39749,1,0,0:0:0:0:
64,192,39866,1,2,0:0:0:0:
448,192,39866,1,0,0:0:0:0:
192,192,39925,1,2,0:0:0:0:
320,192,39925,1,0,0:0:0:0:
64,192,39984,1,2,0:0:0:0:
448,192,39984,1,0,0:0:0:0:
192,192,40042,1,2,0:0:0:0:
320,192,40042,1,0,0:0:0:0:
64,192,40101,1,2,0:0:0:0:
448,192,40101,1,0,0:0:0:0:
320,192,40218,1,0,0:0:0:0:
64,192,40335,1,2,0:0:0:0:
192,192,40335,1,0,0:0:0:0:
448,192,40335,1,0,0:0:0:0:
64,192,40452,1,2,0:0:0:0:
320,192,40452,1,0,0:0:0:0:
448,192,40452,1,0,0:0:0:0:
64,192,40570,1,2,0:0:0:0:
192,192,40570,1,0,0:0:0:0:
320,192,40570,1,0,0:0:0:0:
192,192,40687,1,0,0:0:0:0:
64,192,40804,1,2,0:0:0:0:
320,192,40804,1,0,0:0:0:0:
448,192,40804,1,0,0:0:0:0:
320,192,40921,1,0,0:0:0:0:
64,192,41038,1,2,0:0:0:0:
192,192,41038,1,0,0:0:0:0:
448,192,41038,1,0,0:0:0:0:
64,192,41155,1,0,0:0:0:0:
192,192,41273,1,2,0:0:0:0:
320,192,41273,1,0,0:0:0:0:
448,192,41273,1,0,0:0:0:0:
448,192,41390,1,0,0:0:0:0:
64,192,41507,1,2,0:0:0:0:
192,192,41507,1,0,0:0:0:0:
320,192,41507,1,0,0:0:0:0:
192,192,41624,1,0,0:0:0:0:
64,192,41741,1,2,0:0:0:0:
320,192,41741,1,0,0:0:0:0:
448,192,41741,1,0,0:0:0:0:
192,192,41859,1,0,0:0:0:0:
320,192,41859,1,0,0:0:0:0:
64,192,41976,1,2,0:0:0:0:
192,192,41976,1,0,0:0:0:0:
448,192,41976,1,0,0:0:0:0:
448,192,42093,1,0,0:0:0:0:
64,192,42210,1,2,0:0:0:0:
192,192,42210,1,0,0:0:0:0:
320,192,42210,1,0,0:0:0:0:
64,192,42327,1,2,0:0:0:0:
192,192,42327,1,0,0:0:0:0:
448,192,42327,1,0,0:0:0:0:
64,192,42445,1,2,0:0:0:0:
320,192,42445,1,0,0:0:0:0:
448,192,42445,1,0,0:0:0:0:
320,192,42562,1,0,0:0:0:0:
64,192,42679,1,2,0:0:0:0:
192,192,42679,1,0,0:0:0:0:
448,192,42679,1,0,0:0:0:0:
64,192,42796,1,0,0:0:0:0:
192,192,42913,1,2,0:0:0:0:
320,192,42913,1,0,0:0:0:0:
448,192,42913,1,0,0:0:0:0:
64,192,43030,1,2,0:0:0:0:
320,192,43030,1,0,0:0:0:0:
448,192,43030,1,0,0:0:0:0:
64,192,43148,1,2,0:0:0:0:
192,192,43148,1,0,0:0:0:0:
448,192,43148,1,0,0:0:0:0:
64,192,43265,1,2,0:0:0:0:
192,192,43265,1,0,0:0:0:0:
320,192,43265,1,0,0:0:0:0:
192,192,43382,1,2,0:0:0:0:
320,192,43382,1,0,0:0:0:0:
448,192,43382,1,0,0:0:0:0:
320,192,43499,1,0,0:0:0:0:
64,192,43616,1,2,0:0:0:0:
192,192,43616,1,0,0:0:0:0:
448,192,43616,1,0,0:0:0:0:
448,192,43734,1,0,0:0:0:0:
64,192,43851,1,2,0:0:0:0:
192,192,43851,1,0,0:0:0:0:
320,192,43909,1,2,0:0:0:0:
448,192,43909,1,0,0:0:0:0:
64,192,43968,1,2,0:0:0:0:
192,192,43968,1,0,0:0:0:0:
320,192,44027,1,2,0:0:0:0:
448,192,44027,1,0,0:0:0:0:
64,192,44085,1,2,0:0:0:0:
192,192,44085,1,0,0:0:0:0:
192,192,44202,1,2,0:0:0:0:
320,192,44202,1,0,0:0:0:0:
64,192,44320,128,2,44554:0:0:0:0:
320,192,44320,128,4,44554:0:0:0:0:
448,192,44320,128,0,44554:0:0:0:0:
64,192,44671,128,2,44759:0:0:0:0:
192,192,44671,128,0,44759:0:0:0:60:LR_Cymbal.wav
448,192,44671,128,0,44759:0:0:0:0:
64,192,44905,128,2,44993:0:0:0:0:
192,192,44905,128,0,44993:0:0:0:60:LR_Cymbal.wav
448,192,44905,128,0,44993:0:0:0:0:
192,192,45140,128,2,45374:0:0:0:0:
320,192,45140,128,4,45433:0:0:0:0:
448,192,45140,128,0,45491:0:0:0:0:
64,192,45491,1,2,0:0:0:60:soft-hitwhistle.wav
192,192,45491,1,0,0:0:0:0:
448,192,45609,1,0,0:0:0:0:
320,192,45726,128,0,45960:0:0:0:0:
64,192,45843,1,0,0:0:0:0:
192,192,45960,128,0,46195:0:0:0:0:
448,192,46077,1,0,0:0:0:0:
64,192,46195,128,2,46312:0:0:0:0:
320,192,46195,1,4,0:0:0:0:
448,192,46195,1,0,0:0:0:0:
320,192,46546,128,0,46663:0:0:0:0:
64,192,46663,1,8,0:0:0:0:
192,192,46663,1,0,0:0:0:0:
448,192,46663,1,0,0:0:0:0:
192,192,46898,128,0,47015:0:0:0:0:
64,192,47015,1,2,0:0:0:0:
320,192,47015,1,0,0:0:0:0:
448,192,47015,1,0,0:0:0:0:
64,192,47249,128,0,47308:0:0:0:0:
64,192,47366,1,2,0:0:0:0:
320,192,47366,128,0,47425:0:0:0:0:
448,192,47366,1,0,0:0:0:0:
192,192,47484,128,0,47542:0:0:0:0:
64,192,47601,1,8,0:0:0:0:
192,192,47601,1,0,0:0:0:0:
448,192,47601,128,0,47659:0:0:0:0:
320,192,47757,128,0,47835:0:0:0:0:
64,192,47835,1,2,0:0:0:0:
192,192,47835,1,0,0:0:0:0:
448,192,47835,1,0,0:0:0:0:
64,192,48070,1,2,0:0:0:0:
320,192,48070,1,8,0:0:0:0:
448,192,48070,128,0,48128:0:0:0:0:
192,192,48187,128,0,48245:0:0:0:0:
320,192,48343,128,0,48402:0:0:0:0:
64,192,48421,128,0,48480:0:0:0:0:
64,192,48538,1,8,0:0:0:0:
320,192,48538,1,0,0:0:0:0:
448,192,48538,1,0,0:0:0:0:
192,192,48597,1,0,0:0:0:0:
320,192,48655,1,0,0:0:0:0:
64,192,48714,1,0,0:0:0:0:
448,192,48773,128,0,48831:0:0:0:0:
64,192,48890,1,2,0:0:0:0:
192,192,48890,128,0,48948:0:0:0:0:
448,192,48890,1,0,0:0:0:0:
320,192,49007,128,0,49066:0:0:0:0:
64,192,49124,128,0,49183:0:0:0:0:
64,192,49241,1,2,0:0:0:0:
320,192,49241,1,0,0:0:0:0:
448,192,49241,128,0,49300:0:0:0:0:
192,192,49359,128,0,49417:0:0:0:0:
64,192,49476,1,8,0:0:0:0:
192,192,49476,1,0,0:0:0:0:
448,192,49476,128,0,49534:0:0:0:0:
320,192,49593,128,0,49710:0:0:0:0:
64,192,49710,1,2,0:0:0:0:
192,192,49710,128,0,49769:0:0:0:0:
448,192,49710,1,0,0:0:0:0:
320,192,49827,128,0,49886:0:0:0:0:
64,192,49945,128,2,50062:0:0:0:0:
192,192,49945,1,8,0:0:0:0:
320,192,49945,1,0,0:0:0:0:
192,192,50140,128,0,50198:0:0:0:0:
448,192,50179,128,0,50237:0:0:0:0:
320,192,50277,128,0,50335:0:0:0:0:
64,192,50413,128,8,50530:0:0:0:0:
320,192,50413,1,0,0:0:0:0:
448,192,50413,1,0,0:0:0:0:
448,192,50609,128,0,50667:0:0:0:0:
192,192,50687,128,0,50745:0:0:0:0:
64,192,50765,1,2,0:0:0:0:
320,192,50765,128,0,50823:0:0:0:0:
448,192,50765,1,0,0:0:0:0:
64,192,50882,128,0,50999:0:0:0:0:
192,192,51077,128,0,51136:0:0:0:0:
64,192,51116,1,2,0:0:0:0:
320,192,51116,1,0,0:0:0:0:
448,192,51155,128,0,51214:0:0:0:0:
320,192,51234,128,0,51292:0:0:0:0:
64,192,51351,128,8,51468:0:0:0:0:
192,192,51351,1,0,0:0:0:0:
448,192,51351,1,0,0:0:0:0:
64,192,51585,1,2,0:0:0:0:
320,192,51585,128,0,51644:0:0:0:0:
448,192,51585,1,0,0:0:0:0:
192,192,51644,128,0,51702:0:0:0:0:
448,192,51702,128,0,51761:0:0:0:0:
64,192,51820,128,2,51937:0:0:0:0:
192,192,51820,1,8,0:0:0:0:
320,192,51820,1,0,0:0:0:0:
320,192,52054,128,0,52112:0:0:0:0:
192,192,52112,128,0,52171:0:0:0:0:
448,192,52171,128,0,52230:0:0:0:0:
64,192,52288,1,8,0:0:0:0:
320,192,52288,128,0,52405:0:0:0:0:
448,192,52288,1,0,0:0:0:0:
192,192,52405,128,0,52464:0:0:0:0:
64,192,52523,128,0,52581:0:0:0:0:
64,192,52640,128,2,52757:0:0:0:0:
192,192,52640,1,0,0:0:0:0:
320,192,52640,1,0,0:0:0:0:
64,192,52874,128,0,52991:0:0:0:0:
192,192,52991,128,2,53050:0:0:0:0:
320,192,52991,1,0,0:0:0:0:
448,192,52991,1,0,0:0:0:0:
192,192,53109,128,0,53226:0:0:0:0:
64,192,53226,1,2,0:0:0:0:
320,192,53226,128,8,53284:0:0:0:0:
448,192,53226,1,0,0:0:0:0:
320,192,53343,128,0,53460:0:0:0:0:
64,192,53460,1,2,0:0:0:0:
192,192,53460,1,0,0:0:0:0:
448,192,53460,128,0,53519:0:0:0:0:
448,192,53577,128,0,53636:0:0:0:0:
64,192,53695,1,2,0:0:0:0:
192,192,53695,1,4,0:0:0:0:
320,192,53695,1,0,0:0:0:0:
448,192,53695,1,0,0:0:0:0:
320,192,54046,1,0,0:0:0:0:
64,192,54398,1,2,0:0:0:0:
192,192,54398,1,0,0:0:0:0:
448,192,54398,1,0,0:0:0:0:
64,192,54632,1,2,0:0:0:0:
192,192,54632,1,0,0:0:0:60:LR_Cymbal.wav
320,192,54632,1,0,0:0:0:0:
448,192,54632,1,0,0:0:0:0:
64,192,54984,1,2,0:0:0:0:
192,192,54984,1,0,0:0:0:60:LR_Cymbal.wav
320,192,54984,1,0,0:0:0:0:
448,192,54984,1,0,0:0:0:0:
64,192,55335,1,2,0:0:0:0:
192,192,55335,1,0,0:0:0:60:LR_Cymbal.wav
320,192,55335,1,0,0:0:0:0:
448,192,55335,1,0,0:0:0:0:
64,192,55570,1,2,0:0:0:0:
192,192,55570,1,4,0:0:0:0:
320,192,55570,1,0,0:0:0:0:
448,192,55570,1,0,0:0:0:0:
192,192,55804,1,0,0:0:0:0:
320,192,56038,1,0,0:0:0:0:
64,192,56273,1,2,0:0:0:0:
192,192,56273,1,0,0:0:0:0:
448,192,56273,1,0,0:0:0:0:
64,192,56507,1,2,0:0:0:0:
192,192,56507,1,0,0:0:0:60:LR_Cymbal.wav
320,192,56507,1,0,0:0:0:0:
448,192,56507,1,0,0:0:0:0:
64,192,56859,1,2,0:0:0:0:
192,192,56859,1,0,0:0:0:60:LR_Cymbal.wav
320,192,56859,1,0,0:0:0:0:
448,192,56859,1,0,0:0:0:0:
64,192,57210,1,2,0:0:0:0:
192,192,57210,1,0,0:0:0:60:LR_Cymbal.wav
320,192,57210,1,0,0:0:0:0:
448,192,57210,1,0,0:0:0:0:
64,192,57445,1,4,0:0:0:0:
192,192,57445,1,2,0:0:0:0:
320,192,57445,1,0,0:0:0:0:
448,192,57445,1,0,0:0:0:0:
64,192,57679,1,0,0:0:0:0:
192,192,57913,1,2,0:0:0:0:
320,192,57913,1,0,0:0:0:0:
448,192,57913,1,0,0:0:0:0:
64,192,58148,1,2,0:0:0:0:
192,192,58148,1,0,0:0:0:0:
448,192,58148,1,0,0:0:0:0:
64,192,58226,1,2,0:0:0:0:
192,192,58226,1,0,0:0:0:0:
320,192,58304,1,2,0:0:0:0:
448,192,58304,1,0,0:0:0:0:
64,192,58382,1,2,0:0:0:0:
320,192,58382,1,4,0:0:0:0:
448,192,58382,1,0,0:0:0:0:
64,192,58851,1,2,0:0:0:0:
192,192,58851,1,0,0:0:0:0:
448,192,58851,1,0,0:0:0:0:
64,192,59085,1,2,0:0:0:0:
320,192,59085,1,0,0:0:0:0:
448,192,59085,1,0,0:0:0:0:
320,192,59163,1,2,0:0:0:0:
448,192,59163,1,0,0:0:0:0:
64,192,59241,1,2,0:0:0:0:
192,192,59241,1,0,0:0:0:0:
64,192,59320,1,2,0:0:0:0:
192,192,59320,1,4,0:0:0:0:
448,192,59320,1,0,0:0:0:0:
192,192,59554,1,2,0:0:0:0:
320,192,59554,1,0,0:0:0:0:
448,192,59554,1,0,0:0:0:0:
64,192,59788,1,2,0:0:0:0:
192,192,59788,1,4,0:0:0:0:
320,192,59788,1,0,0:0:0:0:
320,192,59905,1,0,0:0:0:0:
64,192,60023,1,2,0:0:0:0:
192,192,60023,1,0,0:0:0:0:
448,192,60023,1,0,0:0:0:0:
64,192,60257,1,2,0:0:0:60:soft-hitwhistle.wav
320,192,60257,128,0,60609:0:0:0:0:
448,192,60257,1,0,0:0:0:0:
192,192,60374,1,0,0:0:0:0:
64,192,60491,128,0,60843:0:0:0:50:soft-hitwhistle.wav
448,192,60491,1,0,0:0:0:0:
192,192,60609,128,0,60902:0:0:0:0:
448,192,60726,128,0,61136:0:0:0:0:
320,192,60784,128,0,61136:0:0:0:0:
64,192,60960,128,0,61136:0:0:0:0:
192,192,61019,128,0,61136:0:0:0:0:
64,192,61195,1,2,0:0:0:0:
192,192,61195,1,4,0:0:0:0:
320,192,61195,1,0,0:0:0:0:
448,192,61195,1,0,0:0:0:0:
320,192,61312,1,0,0:0:0:0:
64,192,61429,1,2,0:0:0:0:
192,192,61429,1,0,0:0:0:0:
448,192,61429,1,0,0:0:0:0:
192,192,61546,1,0,0:0:0:0:
320,192,61546,1,0,0:0:0:0:
64,192,61663,1,2,0:0:0:0:
320,192,61663,1,0,0:0:0:0:
448,192,61663,1,0,0:0:0:0:
64,192,61780,1,0,0:0:0:0:
192,192,61898,1,2,0:0:0:0:
320,192,61898,1,0,0:0:0:0:
448,192,61898,1,0,0:0:0:0:
192,192,62015,1,0,0:0:0:0:
64,192,62132,1,2,0:0:0:0:
320,192,62132,1,0,0:0:0:0:
448,192,62132,1,0,0:0:0:0:
192,192,62249,1,0,0:0:0:0:
448,192,62249,1,0,0:0:0:0:
64,192,62366,1,2,0:0:0:0:
192,192,62366,1,0,0:0:0:0:
320,192,62366,1,0,0:0:0:0:
320,192,62484,1,0,0:0:0:0:
64,192,62601,1,2,0:0:0:0:
192,192,62601,1,0,0:0:0:0:
448,192,62601,1,0,0:0:0:0:
64,192,62718,1,0,0:0:0:0:
192,192,62835,1,2,0:0:0:0:
320,192,62835,1,0,0:0:0:0:
448,192,62835,1,0,0:0:0:0:
192,192,62952,1,2,0:0:0:0:
320,192,62952,1,0,0:0:0:0:
448,192,62952,1,0,0:0:0:0:
64,192,63070,1,2,0:0:0:0:
320,192,63070,1,0,0:0:0:0:
448,192,63070,1,0,0:0:0:0:
64,192,63187,1,0,0:0:0:0:
192,192,63304,1,2,0:0:0:0:
320,192,63304,1,0,0:0:0:0:
448,192,63304,1,0,0:0:0:0:
64,192,63421,1,0,0:0:0:0:
448,192,63421,1,0,0:0:0:0:
64,192,63538,1,2,0:0:0:0:
192,192,63538,1,0,0:0:0:0:
320,192,63538,1,0,0:0:0:0:
320,192,63655,1,0,0:0:0:0:
64,192,63773,1,2,0:0:0:0:
192,192,63773,1,0,0:0:0:0:
448,192,63773,1,0,0:0:0:0:
192,192,63890,1,0,0:0:0:0:
64,192,64007,1,2,0:0:0:0:
320,192,64007,1,0,0:0:0:0:
448,192,64007,1,0,0:0:0:0:
64,192,64124,1,2,0:0:0:0:
192,192,64124,1,0,0:0:0:0:
320,192,64183,1,2,0:0:0:0:
448,192,64183,1,0,0:0:0:0:
64,192,64241,1,2,0:0:0:0:
192,192,64241,1,0,0:0:0:0:
192,192,64359,1,2,0:0:0:0:
320,192,64359,1,0,0:0:0:0:
64,192,64476,1,0,0:0:0:60:soft-hitwhistle.wav
320,192,64476,1,0,0:0:0:0:
448,192,64476,1,0,0:0:0:0:
448,192,64593,1,0,0:0:0:0:
64,192,64710,1,2,0:0:0:60:soft-hitwhistle.wav
192,192,64710,1,0,0:0:0:0:
320,192,64710,1,0,0:0:0:0:
192,192,64827,1,0,0:0:0:0:
64,192,64945,1,2,0:0:0:0:
320,192,64945,1,0,0:0:0:0:
448,192,64945,1,0,0:0:0:0:
320,192,65062,1,0,0:0:0:0:
64,192,65179,1,2,0:0:0:0:
192,192,65179,1,0,0:0:0:0:
448,192,65179,1,0,0:0:0:0:
192,192,65296,1,0,0:0:0:0:
320,192,65296,1,0,0:0:0:0:
64,192,65413,1,2,0:0:0:0:
320,192,65413,1,0,0:0:0:0:
448,192,65413,1,0,0:0:0:0:
64,192,65530,1,0,0:0:0:0:
192,192,65648,1,2,0:0:0:0:
320,192,65648,1,0,0:0:0:0:
448,192,65648,1,0,0:0:0:0:
192,192,65765,1,0,0:0:0:0:
64,192,65882,1,2,0:0:0:0:
320,192,65882,1,0,0:0:0:0:
448,192,65882,1,0,0:0:0:0:
192,192,65999,1,2,0:0:0:0:
320,192,65999,1,0,0:0:0:0:
64,192,66058,1,2,0:0:0:0:
448,192,66058,1,0,0:0:0:0:
192,192,66116,1,2,0:0:0:0:
320,192,66116,1,0,0:0:0:0:
192,192,66234,1,2,0:0:0:0:
448,192,66234,1,0,0:0:0:0:
64,192,66351,1,2,0:0:0:0:
320,192,66351,1,0,0:0:0:0:
448,192,66351,1,0,0:0:0:0:
64,192,66468,1,0,0:0:0:0:
320,192,66585,1,2,0:0:0:0:
448,192,66585,1,0,0:0:0:0:
64,192,66644,1,2,0:0:0:0:
192,192,66644,1,0,0:0:0:0:
320,192,66702,1,2,0:0:0:0:
448,192,66702,1,0,0:0:0:0:
64,192,66761,1,2,0:0:0:0:
192,192,66820,1,2,0:0:0:0:
320,192,66820,1,0,0:0:0:0:
448,192,66820,1,0,0:0:0:0:
192,192,66937,1,0,0:0:0:0:
64,192,67054,1,2,0:0:0:0:
320,192,67054,1,0,0:0:0:0:
448,192,67054,1,0,0:0:0:0:
192,192,67171,1,0,0:0:0:0:
320,192,67171,1,0,0:0:0:0:
64,192,67288,1,2,0:0:0:0:
192,192,67288,1,0,0:0:0:0:
448,192,67288,1,0,0:0:0:0:
448,192,67405,1,0,0:0:0:0:
64,192,67523,1,0,0:0:0:60:soft-hitwhistle.wav
192,192,67523,1,0,0:0:0:0:
320,192,67523,1,0,0:0:0:0:
320,192,67640,1,0,0:0:0:0:
64,192,67757,1,0,0:0:0:50:soft-hitwhistle.wav
192,192,67757,128,0,68636:0:0:0:0:
448,192,67757,1,0,0:0:0:0:
320,192,67991,128,0,68636:0:0:0:0:
64,192,68226,128,0,68636:0:0:0:0:
448,192,68460,128,0,68636:0:0:0:0:
64,192,68695,1,2,0:0:0:0:
192,192,68695,128,4,69046:0:0:0:0:
320,192,68695,1,0,0:0:0:0:
448,192,68695,1,0,0:0:0:0:
320,192,68812,1,0,0:0:0:0:
64,192,68929,1,2,0:0:0:0:
448,192,68929,1,0,0:0:0:0:
320,192,69046,1,0,0:0:0:0:
448,192,69046,128,0,69398:0:0:0:0:
64,192,69163,1,2,0:0:0:0:
192,192,69163,1,0,0:0:0:0:
192,192,69280,1,0,0:0:0:0:
64,192,69398,128,2,69749:0:0:0:0:
320,192,69398,1,0,0:0:0:0:
320,192,69515,1,0,0:0:0:0:
192,192,69632,1,2,0:0:0:0:
448,192,69632,1,0,0:0:0:0:
192,192,69749,1,0,0:0:0:0:
320,192,69749,1,0,0:0:0:0:
64,192,69866,1,2,0:0:0:0:
320,192,69866,1,0,0:0:0:0:
448,192,69866,1,0,0:0:0:0:
64,192,69984,1,0,0:0:0:0:
192,192,70101,1,2,0:0:0:0:
320,192,70101,1,0,0:0:0:0:
448,192,70101,1,0,0:0:0:0:
192,192,70218,1,0,0:0:0:0:
64,192,70335,1,2,0:0:0:0:
320,192,70335,1,0,0:0:0:0:
448,192,70335,1,0,0:0:0:0:
64,192,70452,1,2,0:0:0:0:
320,192,70452,1,0,0:0:0:0:
448,192,70452,1,0,0:0:0:0:
64,192,70570,1,2,0:0:0:0:
192,192,70570,1,0,0:0:0:0:
320,192,70570,128,0,70921:0:0:0:0:
192,192,70687,1,0,0:0:0:0:
64,192,70804,1,2,0:0:0:0:
448,192,70804,1,0,0:0:0:0:
192,192,70921,1,0,0:0:0:0:
448,192,70921,128,0,71273:0:0:0:0:
64,192,71038,1,2,0:0:0:0:
320,192,71038,1,0,0:0:0:0:
64,192,71155,1,0,0:0:0:0:
192,192,71273,128,2,71624:0:0:0:0:
320,192,71273,1,0,0:0:0:0:
320,192,71390,1,0,0:0:0:0:
64,192,71507,1,2,0:0:0:0:
448,192,71507,1,0,0:0:0:0:
320,192,71624,1,2,0:0:0:0:
448,192,71624,1,0,0:0:0:0:
64,192,71683,1,2,0:0:0:0:
192,192,71683,1,0,0:0:0:0:
320,192,71741,1,2,0:0:0:0:
448,192,71741,1,0,0:0:0:0:
192,192,71859,1,2,0:0:0:0:
320,192,71859,1,0,0:0:0:0:
64,192,71976,1,0,0:0:0:60:soft-hitwhistle.wav
192,192,71976,1,0,0:0:0:0:
448,192,71976,1,0,0:0:0:0:
64,192,72093,1,0,0:0:0:0:
192,192,72210,1,0,0:0:0:60:soft-hitwhistle.wav
320,192,72210,1,0,0:0:0:0:
448,192,72210,1,0,0:0:0:0:
192,192,72327,1,0,0:0:0:0:
64,192,72445,128,2,72796:0:0:0:0:
320,192,72445,1,0,0:0:0:0:
448,192,72445,1,0,0:0:0:0:
320,192,72562,1,0,0:0:0:0:
192,192,72679,1,2,0:0:0:0:
448,192,72679,1,0,0:0:0:0:
320,192,72796,128,0,73148:0:0:0:0:
448,192,72796,1,0,0:0:0:0:
64,192,72913,1,2,0:0:0:0:
192,192,72913,1,0,0:0:0:0:
192,192,73030,1,0,0:0:0:0:
64,192,73148,1,2,0:0:0:0:
448,192,73148,128,0,73499:0:0:0:0:
64,192,73265,1,0,0:0:0:0:
192,192,73382,1,2,0:0:0:0:
320,192,73382,1,0,0:0:0:0:
64,192,73499,1,2,0:0:0:0:
192,192,73499,1,0,0:0:0:0:
320,192,73558,1,2,0:0:0:0:
448,192,73558,1,0,0:0:0:0:
64,192,73616,1,2,0:0:0:0:
192,192,73616,1,0,0:0:0:0:
64,192,73734,1,2,0:0:0:0:
448,192,73734,1,0,0:0:0:0:
192,192,73851,1,2,0:0:0:0:
320,192,73851,1,4,0:0:0:0:
448,192,73851,1,0,0:0:0:0:
64,192,73968,1,2,0:0:0:0:
192,192,73968,1,0,0:0:0:0:
320,192,73968,1,0,0:0:0:0:
192,192,74085,1,2,0:0:0:0:
320,192,74085,1,4,0:0:0:0:
448,192,74085,1,0,0:0:0:0:
64,192,74202,1,2,0:0:0:0:
192,192,74202,1,0,0:0:0:0:
320,192,74202,1,0,0:0:0:0:
64,192,74320,128,0,74378:0:0:0:60:soft-hitwhistle.wav
448,192,74320,128,0,74378:0:0:0:0:
64,192,74437,128,0,74495:0:0:0:60:soft-hitwhistle.wav
448,192,74437,128,0,74495:0:0:0:0:
320,192,74554,1,0,0:0:0:0:
448,192,74601,1,0,0:0:0:0:
192,192,74648,1,0,0:0:0:0:
320,192,74695,1,0,0:0:0:0:
448,192,74741,1,0,0:0:0:0:
64,192,74788,1,0,0:0:0:0:
320,192,74835,1,0,0:0:0:0:
192,192,74882,1,0,0:0:0:0:
64,192,74929,1,0,0:0:0:0:
320,192,74976,1,0,0:0:0:0:
192,192,75023,1,0,0:0:0:0:
448,192,75081,128,0,75218:0:0:0:0:
64,192,75218,128,0,75296:0:0:0:0:
64,192,75374,128,0,75452:0:0:0:0:
64,192,75570,128,0,75622:0:0:0:0:
320,192,75726,128,0,75960:0:0:0:0:
448,192,75726,1,0,0:0:0:0:
64,192,75960,1,2,0:0:0:0:
192,192,75960,128,0,76195:0:0:0:0:
64,192,76195,128,2,76663:0:0:0:0:
320,192,76195,1,4,0:0:0:0:
448,192,76195,1,0,0:0:0:0:
192,192,76663,128,0,76722:0:0:0:0:
320,192,76780,128,0,76839:0:0:0:0:
320,192,77015,128,0,77601:0:0:0:0:
448,192,77015,1,0,0:0:0:0:
192,192,77601,128,0,77718:0:0:0:0:
64,192,77718,128,0,77835:0:0:0:0:
448,192,77835,128,0,77952:0:0:0:0:
320,192,77952,128,0,78070:0:0:0:0:
64,192,78070,1,0,0:0:0:0:
192,192,78070,128,0,78538:0:0:0:0:
448,192,78538,128,0,78597:0:0:0:0:
64,192,78655,128,0,78714:0:0:0:0:
64,192,78890,128,0,79417:0:0:0:0:
192,192,78890,1,0,0:0:0:0:
64,192,79476,1,0,0:0:0:0:
192,192,79476,128,0,79710:0:0:0:0:
320,192,79710,128,0,79945:0:0:0:0:
448,192,79710,1,0,0:0:0:0:
64,192,79945,1,0,0:0:0:0:
448,192,79945,128,0,80413:0:0:0:0:
64,192,80413,128,0,80472:0:0:0:0:
192,192,80530,128,0,80589:0:0:0:0:
64,192,80765,1,0,0:0:0:0:
192,192,80765,128,0,81351:0:0:0:0:
320,192,81351,128,0,81468:0:0:0:0:
448,192,81468,128,0,81585:0:0:0:0:
64,192,81585,128,0,81702:0:0:0:0:
192,192,81702,128,0,81820:0:0:0:0:
320,192,81820,128,0,82288:0:0:0:0:
448,192,81820,1,0,0:0:0:0:
64,192,82288,128,0,82347:0:0:0:0:
448,192,82405,128,0,82464:0:0:0:0:
320,192,82640,1,0,0:0:0:0:
448,192,82640,128,0,83167:0:0:0:0:
320,192,83226,128,0,83460:0:0:0:0:
448,192,83226,1,0,0:0:0:0:
64,192,83460,1,0,0:0:0:0:
192,192,83460,128,0,83695:0:0:0:0:
64,192,83695,128,2,83870:0:0:0:0:
320,192,83695,1,4,0:0:0:0:
448,192,83695,1,0,0:0:0:0:
192,192,83812,1,0,0:0:0:0:
64,192,83929,128,0,84163:0:0:0:60:soft-hitclap.wav
448,192,83929,1,0,0:0:0:0:
192,192,84046,1,0,0:0:0:0:
320,192,84163,128,0,84280:0:0:0:60:soft-hitclap.wav
448,192,84163,1,0,0:0:0:0:
64,192,84280,1,0,0:0:0:0:
192,192,84280,128,0,84398:0:0:0:0:
320,192,84398,128,0,84515:0:0:0:60:soft-hitclap.wav
448,192,84398,1,0,0:0:0:0:
64,192,84515,1,0,0:0:0:0:
192,192,84515,128,0,84632:0:0:0:0:
320,192,84632,1,0,0:0:0:60:soft-hitclap.wav
448,192,84632,128,0,84866:0:0:0:0:
64,192,84749,1,0,0:0:0:0:
192,192,84866,128,0,84984:0:0:0:60:soft-hitclap.wav
320,192,84866,1,0,0:0:0:0:
64,192,84984,1,0,0:0:0:0:
320,192,84984,128,0,85101:0:0:0:0:
192,192,85101,1,0,0:0:0:60:soft-hitclap.wav
448,192,85101,128,0,85335:0:0:0:0:
64,192,85218,1,0,0:0:0:60:soft-hitclap.wav
192,192,85277,1,0,0:0:0:60:soft-hitclap.wav
64,192,85335,128,0,85570:0:0:0:60:soft-hitclap.wav
320,192,85335,1,0,0:0:0:0:
448,192,85452,1,0,0:0:0:60:soft-hitclap.wav
192,192,85570,128,2,85804:0:0:0:0:
320,192,85570,1,4,0:0:0:0:
448,192,85570,1,0,0:0:0:0:
320,192,85804,1,0,0:0:0:60:soft-hitclap.wav
448,192,85804,128,0,85921:0:0:0:0:
64,192,85921,128,0,86038:0:0:0:0:
192,192,85921,1,0,0:0:0:0:
320,192,86038,1,0,0:0:0:60:soft-hitclap.wav
448,192,86038,128,0,86155:0:0:0:0:
64,192,86155,128,0,86273:0:0:0:0:
192,192,86155,1,0,0:0:0:0:
320,192,86273,128,0,86390:0:0:0:60:soft-hitclap.wav
448,192,86273,1,0,0:0:0:0:
64,192,86390,1,0,0:0:0:0:
192,192,86390,128,0,86507:0:0:0:0:
320,192,86507,1,0,0:0:0:60:soft-hitclap.wav
448,192,86507,128,0,86741:0:0:0:0:
64,192,86624,1,0,0:0:0:0:
192,192,86741,1,0,0:0:0:60:soft-hitclap.wav
320,192,86741,128,0,86859:0:0:0:0:
64,192,86859,128,0,86976:0:0:0:0:
448,192,86859,1,0,0:0:0:0:
192,192,86976,1,0,0:0:0:60:soft-hitclap.wav
320,192,86976,128,0,87093:0:0:0:0:
64,192,87093,1,0,0:0:0:60:soft-hitclap.wav
448,192,87093,1,0,0:0:0:0:
192,192,87152,1,0,0:0:0:60:soft-hitclap.wav
320,192,87210,1,0,0:0:0:60:soft-hitclap.wav
64,192,87327,1,0,0:0:0:60:soft-hitclap.wav
448,192,87327,1,0,0:0:0:0:
64,192,87445,1,2,0:0:0:0:
192,192,87445,1,4,0:0:0:0:
320,192,87445,1,0,0:0:0:0:
448,192,87445,1,0,0:0:0:0:
192,192,87562,1,0,0:0:0:50:soft-hitclap.wav
64,192,87679,1,0,0:0:0:50:soft-hitclap.wav
320,192,87679,1,0,0:0:0:0:
192,192,87796,1,0,0:0:0:50:soft-hitclap.wav
320,192,87913,1,0,0:0:0:50:soft-hitclap.wav
448,192,87913,1,0,0:0:0:0:
64,192,88030,1,0,0:0:0:50:soft-hitclap.wav
192,192,88030,1,0,0:0:0:0:
320,192,88148,1,2,0:0:0:0:
448,192,88148,1,0,0:0:0:50:soft-hitclap.wav
64,192,88265,1,0,0:0:0:50:soft-hitclap.wav
192,192,88265,1,0,0:0:0:0:
64,192,88382,1,2,0:0:0:0:
192,192,88382,1,4,0:0:0:0:
320,192,88382,1,0,0:0:0:0:
448,192,88382,1,0,0:0:0:0:
448,192,88499,1,0,0:0:0:50:soft-hitclap.wav
64,192,88616,1,0,0:0:0:50:soft-hitclap.wav
192,192,88616,1,0,0:0:0:0:
192,192,88734,1,0,0:0:0:50:soft-hitclap.wav
320,192,88734,1,0,0:0:0:0:
64,192,88851,1,0,0:0:0:50:soft-hitclap.wav
448,192,88851,1,0,0:0:0:0:
320,192,88968,1,0,0:0:0:50:soft-hitclap.wav
192,192,89085,1,0,0:0:0:50:soft-hitclap.wav
448,192,89085,1,0,0:0:0:0:
64,192,89202,1,0,0:0:0:50:soft-hitclap.wav
320,192,89202,1,0,0:0:0:0:
64,192,89320,1,2,0:0:0:0:
192,192,89320,1,4,0:0:0:0:
320,192,89320,1,0,0:0:0:0:
448,192,89320,1,0,0:0:0:0:
320,192,89437,1,0,0:0:0:50:soft-hitclap.wav
448,192,89437,1,0,0:0:0:0:
64,192,89554,1,2,0:0:0:0:
192,192,89554,1,0,0:0:0:50:soft-hitclap.wav
320,192,89671,1,0,0:0:0:50:soft-hitclap.wav
448,192,89671,1,0,0:0:0:0:
64,192,89788,1,2,0:0:0:0:
192,192,89788,1,4,0:0:0:0:
320,192,89788,1,0,0:0:0:0:
448,192,89788,1,0,0:0:0:0:
64,192,89905,1,0,0:0:0:50:soft-hitclap.wav
192,192,89905,1,0,0:0:0:0:
192,192,90023,1,2,0:0:0:0:
320,192,90023,1,0,0:0:0:50:soft-hitclap.wav
320,192,90140,1,0,0:0:0:50:soft-hitclap.wav
448,192,90140,1,0,0:0:0:0:
64,192,90257,128,2,90726:0:0:0:0:
192,192,90257,1,0,0:0:0:0:
320,192,90257,1,0,0:0:0:0:
448,192,90257,1,0,0:0:0:0:
192,192,90491,128,0,90726:0:0:0:0:
448,192,90726,1,0,0:0:0:0:
320,192,90755,1,0,0:0:0:0:
64,192,90784,1,0,0:0:0:0:
192,192,90814,1,0,0:0:0:0:
448,192,90843,1,0,0:0:0:0:
320,192,90872,1,0,0:0:0:0:
64,192,90902,1,0,0:0:0:0:
192,192,90931,1,0,0:0:0:0:
448,192,90960,1,0,0:0:0:0:
320,192,90989,1,0,0:0:0:0:
64,192,91019,1,0,0:0:0:0:
192,192,91048,1,0,0:0:0:0:
448,192,91077,1,0,0:0:0:0:
320,192,91107,1,0,0:0:0:0:
64,192,91136,1,0,0:0:0:0:
192,192,91165,1,0,0:0:0:0:
320,192,91195,1,2,0:0:0:0:
448,192,91195,1,4,0:0:0:0:
448,192,91312,1,0,0:0:0:0:
64,192,91429,1,2,0:0:0:0:
192,192,91429,1,0,0:0:0:0:
320,192,91429,1,0,0:0:0:0:
192,192,91546,1,0,0:0:0:0:
64,192,91663,1,2,0:0:0:0:
320,192,91663,1,0,0:0:0:0:
448,192,91663,1,0,0:0:0:0:
64,192,91780,1,0,0:0:0:0:
192,192,91780,1,0,0:0:0:0:
64,192,91898,1,2,0:0:0:0:
192,192,91898,1,0,0:0:0:0:
448,192,91898,1,0,0:0:0:0:
320,192,92015,1,0,0:0:0:0:
448,192,92015,1,0,0:0:0:0:
64,192,92132,1,8,0:0:0:0:
320,192,92132,1,2,0:0:0:0:
448,192,92132,1,0,0:0:0:0:
192,192,92249,1,0,0:0:0:0:
64,192,92366,1,2,0:0:0:0:
320,192,92366,1,0,0:0:0:0:
448,192,92366,1,0,0:0:0:0:
192,192,92484,1,0,0:0:0:0:
320,192,92484,1,0,0:0:0:0:
64,192,92601,1,2,0:0:0:0:
192,192,92601,1,0,0:0:0:0:
448,192,92601,1,0,0:0:0:0:
320,192,92718,1,0,0:0:0:0:
64,192,92835,1,2,0:0:0:0:
192,192,92835,1,0,0:0:0:0:
448,192,92835,1,0,0:0:0:0:
64,192,92952,1,2,0:0:0:0:
192,192,92952,1,0,0:0:0:0:
448,192,92952,1,0,0:0:0:0:
64,192,93070,1,2,0:0:0:0:
320,192,93070,1,8,0:0:0:0:
448,192,93070,1,0,0:0:0:0:
320,192,93187,1,0,0:0:0:0:
64,192,93304,1,2,0:0:0:0:
192,192,93304,1,0,0:0:0:0:
448,192,93304,1,0,0:0:0:0:
192,192,93421,1,0,0:0:0:0:
320,192,93421,1,0,0:0:0:0:
64,192,93538,1,2,0:0:0:0:
320,192,93538,1,0,0:0:0:0:
448,192,93538,1,0,0:0:0:0:
192,192,93655,1,0,0:0:0:0:
320,192,93655,1,0,0:0:0:0:
64,192,93773,1,2,0:0:0:0:
192,192,93773,1,0,0:0:0:0:
448,192,93773,1,0,0:0:0:0:
64,192,93890,1,0,0:0:0:0:
320,192,93890,1,0,0:0:0:0:
192,192,94007,1,2,0:0:0:0:
320,192,94007,1,8,0:0:0:0:
448,192,94007,1,0,0:0:0:0:
64,192,94124,1,0,0:0:0:0:
192,192,94241,1,2,0:0:0:0:
320,192,94241,1,0,0:0:0:0:
448,192,94241,1,0,0:0:0:0:
64,192,94359,1,0,0:0:0:0:
448,192,94359,1,0,0:0:0:0:
64,192,94476,1,2,0:0:0:0:
192,192,94476,1,0,0:0:0:0:
320,192,94476,1,0,0:0:0:0:
448,192,94593,1,0,0:0:0:0:
64,192,94710,1,2,0:0:0:0:
192,192,94710,1,0,0:0:0:0:
320,192,94710,1,0,0:0:0:0:
64,192,94827,1,2,0:0:0:0:
448,192,94827,1,0,0:0:0:0:
192,192,94886,1,2,0:0:0:0:
320,192,94886,1,0,0:0:0:0:
64,192,94945,1,2,0:0:0:0:
448,192,94945,1,8,0:0:0:0:
448,192,95062,1,0,0:0:0:0:
64,192,95179,1,2,0:0:0:0:
192,192,95179,1,0,0:0:0:0:
320,192,95179,1,0,0:0:0:0:
320,192,95296,1,0,0:0:0:0:
64,192,95413,1,2,0:0:0:0:
192,192,95413,1,0,0:0:0:0:
448,192,95413,1,0,0:0:0:0:
320,192,95530,1,0,0:0:0:0:
448,192,95530,1,0,0:0:0:0:
64,192,95648,1,2,0:0:0:0:
320,192,95648,1,0,0:0:0:0:
448,192,95648,1,0,0:0:0:0:
64,192,95765,1,0,0:0:0:0:
192,192,95765,1,0,0:0:0:0:
64,192,95882,1,2,0:0:0:0:
192,192,95882,1,8,0:0:0:0:
448,192,95882,1,0,0:0:0:0:
320,192,95999,1,0,0:0:0:0:
64,192,96116,1,2,0:0:0:0:
192,192,96116,1,0,0:0:0:0:
448,192,96116,1,0,0:0:0:0:
192,192,96234,1,0,0:0:0:0:
320,192,96234,1,0,0:0:0:0:
64,192,96351,1,2,0:0:0:0:
320,192,96351,1,0,0:0:0:0:
448,192,96351,1,0,0:0:0:0:
192,192,96468,1,0,0:0:0:0:
64,192,96585,1,2,0:0:0:0:
320,192,96585,1,0,0:0:0:0:
448,192,96585,1,0,0:0:0:0:
64,192,96702,1,2,0:0:0:0:
192,192,96702,128,4,96937:0:0:0:0:
320,192,96702,1,0,0:0:0:0:
448,192,96702,1,0,0:0:0:0:
320,192,96937,128,0,97054:0:0:0:0:
448,192,97054,128,0,97171:0:0:0:0:
64,192,97171,128,0,97288:0:0:0:0:
192,192,97288,128,2,97405:0:0:0:0:
320,192,97288,1,0,0:0:0:0:
448,192,97288,1,0,0:0:0:0:
320,192,97405,128,0,97523:0:0:0:0:
64,192,97523,1,2,0:0:0:0:
192,192,97523,1,0,0:0:0:0:
448,192,97523,128,0,97640:0:0:0:0:
64,192,97640,128,0,97757:0:0:0:0:
320,192,97757,128,0,98343:0:0:0:0:
448,192,97757,1,0,0:0:0:0:
192,192,97874,128,0,98109:0:0:0:0:
64,192,97991,128,8,98109:0:0:0:60:soft-hitclap.wav
448,192,97991,128,0,98343:0:0:0:0:
64,192,98226,128,0,98636:0:0:0:0:
192,192,98226,128,0,98636:0:0:0:0:
320,192,98460,128,0,98636:0:0:0:0:
448,192,98460,128,0,98636:0:0:0:0:
64,192,98695,1,2,0:0:0:0:
192,192,98695,1,4,0:0:0:0:
320,192,98695,1,0,0:0:0:0:
448,192,98695,1,0,0:0:0:0:
192,192,98812,1,0,0:0:0:0:
64,192,98929,1,2,0:0:0:0:
320,192,98929,1,0,0:0:0:0:
448,192,98929,1,0,0:0:0:0:
320,192,99046,1,0,0:0:0:0:
64,192,99163,1,2,0:0:0:0:
192,192,99163,1,0,0:0:0:0:
448,192,99163,1,0,0:0:0:0:
320,192,99280,1,0,0:0:0:0:
448,192,99280,1,0,0:0:0:0:
64,192,99398,1,2,0:0:0:0:
320,192,99398,1,0,0:0:0:0:
448,192,99398,1,0,0:0:0:0:
64,192,99515,1,0,0:0:0:0:
192,192,99515,1,0,0:0:0:0:
64,192,99632,1,2,0:0:0:0:
192,192,99632,1,8,0:0:0:0:
448,192,99632,1,0,0:0:0:0:
320,192,99749,1,0,0:0:0:0:
64,192,99866,1,2,0:0:0:0:
192,192,99866,1,0,0:0:0:0:
448,192,99866,1,0,0:0:0:0:
192,192,99984,1,0,0:0:0:0:
320,192,99984,1,0,0:0:0:0:
64,192,100101,1,2,0:0:0:0:
320,192,100101,1,0,0:0:0:0:
448,192,100101,1,0,0:0:0:0:
192,192,100218,1,0,0:0:0:0:
64,192,100335,1,2,0:0:0:0:
320,192,100335,1,0,0:0:0:0:
448,192,100335,1,0,0:0:0:0:
64,192,100452,1,2,0:0:0:0:
320,192,100452,1,0,0:0:0:0:
448,192,100452,1,0,0:0:0:0:
64,192,100570,1,2,0:0:0:0:
192,192,100570,1,8,0:0:0:0:
448,192,100570,1,0,0:0:0:0:
192,192,100687,1,0,0:0:0:0:
64,192,100804,1,2,0:0:0:0:
320,192,100804,1,0,0:0:0:0:
448,192,100804,1,0,0:0:0:0:
192,192,100921,1,0,0:0:0:0:
320,192,100921,1,0,0:0:0:0:
64,192,101038,1,2,0:0:0:0:
192,192,101038,1,0,0:0:0:0:
448,192,101038,1,0,0:0:0:0:
192,192,101155,1,0,0:0:0:0:
320,192,101155,1,0,0:0:0:0:
64,192,101273,1,2,0:0:0:0:
320,192,101273,1,0,0:0:0:0:
448,192,101273,1,0,0:0:0:0:
192,192,101390,1,0,0:0:0:0:
448,192,101390,1,0,0:0:0:0:
64,192,101507,1,2,0:0:0:0:
192,192,101507,1,8,0:0:0:0:
320,192,101507,1,0,0:0:0:0:
448,192,101624,1,0,0:0:0:0:
64,192,101741,1,2,0:0:0:0:
192,192,101741,1,0,0:0:0:0:
320,192,101741,1,0,0:0:0:0:
64,192,101859,1,0,0:0:0:0:
448,192,101859,1,0,0:0:0:0:
192,192,101976,1,2,0:0:0:0:
320,192,101976,1,0,0:0:0:0:
448,192,101976,1,0,0:0:0:0:
64,192,102093,1,2,0:0:0:0:
192,192,102093,128,0,102327:0:0:0:0:
320,192,102093,1,0,0:0:0:0:
320,192,102327,1,2,0:0:0:0:
448,192,102327,1,0,0:0:0:0:
64,192,102386,1,2,0:0:0:0:
192,192,102386,1,0,0:0:0:0:
320,192,102445,1,2,0:0:0:0:
448,192,102445,1,8,0:0:0:0:
320,192,102562,1,0,0:0:0:0:
64,192,102679,1,2,0:0:0:0:
192,192,102679,1,0,0:0:0:0:
448,192,102679,1,0,0:0:0:0:
192,192,102796,1,0,0:0:0:0:
64,192,102913,1,2,0:0:0:0:
320,192,102913,1,0,0:0:0:0:
448,192,102913,1,0,0:0:0:0:
64,192,103030,1,0,0:0:0:0:
320,192,103030,1,0,0:0:0:0:
64,192,103148,1,2,0:0:0:0:
192,192,103148,1,0,0:0:0:0:
448,192,103148,1,0,0:0:0:0:
192,192,103265,1,0,0:0:0:0:
448,192,103265,1,0,0:0:0:0:
64,192,103382,1,2,0:0:0:0:
320,192,103382,1,8,0:0:0:0:
448,192,103382,1,0,0:0:0:0:
192,192,103499,1,0,0:0:0:0:
64,192,103616,1,2,0:0:0:0:
320,192,103616,1,0,0:0:0:0:
448,192,103616,1,0,0:0:0:0:
192,192,103734,1,0,0:0:0:0:
320,192,103734,1,0,0:0:0:0:
64,192,103851,1,2,0:0:0:0:
192,192,103851,1,0,0:0:0:0:
448,192,103851,1,0,0:0:0:0:
320,192,103968,1,0,0:0:0:0:
64,192,104085,1,2,0:0:0:0:
192,192,104085,1,0,0:0:0:0:
448,192,104085,1,0,0:0:0:0:
64,192,104202,1,2,0:0:0:0:
192,192,104202,1,4,0:0:0:0:
320,192,104202,1,0,0:0:0:0:
448,192,104202,1,0,0:0:0:0:
320,192,104320,128,0,104378:0:0:0:0:
320,192,104437,128,0,104495:0:0:0:0:
320,192,104554,128,0,104612:0:0:0:0:
320,192,104671,128,0,104730:0:0:0:0:
64,192,104788,1,2,0:0:0:0:
192,192,104788,128,0,104847:0:0:0:0:
448,192,104788,1,0,0:0:0:0:
192,192,104905,128,0,104964:0:0:0:0:
64,192,105023,1,2,0:0:0:0:
320,192,105023,1,0,0:0:0:0:
448,192,105023,128,0,105081:0:0:0:0:
448,192,105140,128,0,105198:0:0:0:0:
64,192,105257,1,8,0:0:0:0:
192,192,105257,128,0,105726:0:0:0:0:
320,192,105257,1,0,0:0:0:0:
448,192,105257,1,0,0:0:0:0:
64,192,105491,128,0,105726:0:0:0:0:
448,192,105726,1,8,0:0:0:0:
320,192,105755,1,0,0:0:0:0:
64,192,105784,1,0,0:0:0:0:
192,192,105814,1,0,0:0:0:0:
448,192,105843,1,8,0:0:0:0:
320,192,105872,1,0,0:0:0:0:
64,192,105902,1,0,0:0:0:0:
192,192,105931,1,0,0:0:0:0:
448,192,105960,1,2,0:0:0:0:
320,192,105989,1,0,0:0:0:0:
64,192,106019,1,0,0:0:0:0:
192,192,106048,1,0,0:0:0:0:
448,192,106077,1,0,0:0:0:0:
320,192,106107,1,0,0:0:0:0:
64,192,106136,1,0,0:0:0:0:
192,192,106165,1,0,0:0:0:0:
320,192,106195,128,2,106253:0:0:0:0:
448,192,106195,128,4,106253:0:0:0:0:
192,192,106312,128,2,106370:0:0:0:0:
320,192,106312,128,0,106370:0:0:0:0:
64,192,106429,128,2,106487:0:0:0:0:
192,192,106429,128,0,106487:0:0:0:0:
320,192,106546,128,2,106605:0:0:0:0:
448,192,106546,128,0,106605:0:0:0:0:
192,192,106663,128,2,106722:0:0:0:0:
320,192,106663,128,0,106722:0:0:0:0:
64,192,106780,128,2,106839:0:0:0:0:
192,192,106780,128,0,106839:0:0:0:0:
320,192,106898,128,2,106956:0:0:0:0:
448,192,106898,128,0,106956:0:0:0:0:
192,192,107015,128,2,107073:0:0:0:0:
320,192,107015,128,0,107073:0:0:0:0:
64,192,107132,128,2,107191:0:0:0:0:
192,192,107132,128,0,107191:0:0:0:0:
320,192,107249,128,2,107308:0:0:0:0:
448,192,107249,128,0,107308:0:0:0:0:
192,192,107366,128,2,107425:0:0:0:0:
320,192,107366,128,0,107425:0:0:0:0:
64,192,107484,128,2,107542:0:0:0:0:
192,192,107484,128,0,107542:0:0:0:0:
320,192,107601,128,2,107659:0:0:0:0:
448,192,107601,128,0,107659:0:0:0:70:Ride.wav
320,192,107718,128,0,107777:0:0:0:0:
64,192,107835,128,2,107894:0:0:0:0:
192,192,107835,128,0,107894:0:0:0:70:Ride.wav
448,192,107952,128,0,108011:0:0:0:0:
64,192,108070,128,2,108128:0:0:0:0:
192,192,108070,128,4,108128:0:0:0:0:
448,192,108070,128,0,108128:0:0:0:0:
192,192,108187,128,2,108245:0:0:0:0:
320,192,108187,128,0,108245:0:0:0:0:
320,192,108304,128,2,108362:0:0:0:0:
448,192,108304,128,0,108362:0:0:0:0:
64,192,108421,128,2,108480:0:0:0:0:
192,192,108421,128,0,108480:0:0:0:0:
192,192,108538,128,2,108597:0:0:0:0:
320,192,108538,128,0,108597:0:0:0:0:
320,192,108655,128,2,108714:0:0:0:0:
448,192,108655,128,0,108714:0:0:0:0:
64,192,108773,128,2,108831:0:0:0:0:
192,192,108773,128,0,108831:0:0:0:0:
192,192,108890,128,2,108948:0:0:0:0:
320,192,108890,128,0,108948:0:0:0:0:
320,192,109007,128,2,109066:0:0:0:0:
448,192,109007,128,0,109066:0:0:0:0:
64,192,109124,128,2,109183:0:0:0:0:
448,192,109124,128,0,109183:0:0:0:0:
192,192,109241,128,2,109300:0:0:0:0:
320,192,109241,128,0,109300:0:0:0:0:
64,192,109359,128,2,109417:0:0:0:0:
192,192,109359,128,0,109417:0:0:0:0:
320,192,109476,128,2,109534:0:0:0:0:
448,192,109476,128,0,109534:0:0:0:70:Ride.wav
320,192,109593,128,0,109652:0:0:0:0:
64,192,109710,128,2,109769:0:0:0:0:
192,192,109710,128,0,109769:0:0:0:70:Ride.wav
320,192,109827,128,2,109886:0:0:0:0:
448,192,109827,128,0,109886:0:0:0:0:
192,192,109886,1,2,0:0:0:0:
64,192,109945,128,2,110003:0:0:0:0:
320,192,109945,128,4,110003:0:0:0:0:
448,192,109945,128,0,110003:0:0:0:0:
192,192,110062,128,2,110120:0:0:0:0:
320,192,110062,128,0,110120:0:0:0:0:
64,192,110179,128,2,110237:0:0:0:0:
192,192,110179,128,0,110237:0:0:0:0:
320,192,110296,128,2,110355:0:0:0:0:
448,192,110296,128,0,110355:0:0:0:0:
192,192,110413,128,2,110472:0:0:0:0:
320,192,110413,128,0,110472:0:0:0:0:
64,192,110530,128,2,110589:0:0:0:0:
192,192,110530,128,0,110589:0:0:0:0:
320,192,110648,128,2,110706:0:0:0:0:
448,192,110648,128,0,110706:0:0:0:0:
192,192,110765,128,2,110823:0:0:0:0:
320,192,110765,128,0,110823:0:0:0:0:
64,192,110882,128,2,110941:0:0:0:0:
192,192,110882,128,0,110941:0:0:0:0:
320,192,110999,128,2,111058:0:0:0:0:
448,192,110999,128,0,111058:0:0:0:0:
192,192,111116,128,2,111175:0:0:0:0:
320,192,111116,128,0,111175:0:0:0:0:
64,192,111234,128,2,111292:0:0:0:0:
192,192,111234,128,0,111292:0:0:0:0:
320,192,111351,128,2,111409:0:0:0:0:
448,192,111351,128,0,111409:0:0:0:70:Ride.wav
320,192,111468,128,0,111527:0:0:0:0:
64,192,111585,128,2,111644:0:0:0:0:
192,192,111585,128,0,111644:0:0:0:70:Ride.wav
448,192,111702,128,0,111761:0:0:0:0:
64,192,111820,128,2,111878:0:0:0:0:
192,192,111820,128,4,111878:0:0:0:0:
448,192,111820,128,0,111878:0:0:0:0:
192,192,111937,128,2,111995:0:0:0:0:
320,192,111937,128,0,111995:0:0:0:0:
320,192,112054,128,2,112112:0:0:0:0:
448,192,112054,128,0,112112:0:0:0:0:
64,192,112171,128,2,112230:0:0:0:0:
192,192,112171,128,0,112230:0:0:0:0:
192,192,112288,128,2,112347:0:0:0:0:
320,192,112288,128,0,112347:0:0:0:0:
320,192,112405,128,2,112464:0:0:0:0:
448,192,112405,128,0,112464:0:0:0:0:
64,192,112523,128,2,112581:0:0:0:0:
192,192,112523,128,0,112581:0:0:0:0:
192,192,112640,128,2,112698:0:0:0:0:
320,192,112640,128,0,112698:0:0:0:0:
320,192,112757,128,2,112816:0:0:0:0:
448,192,112757,128,0,112816:0:0:0:0:
64,192,112874,128,2,112933:0:0:0:0:
448,192,112874,128,0,112933:0:0:0:0:
192,192,112991,128,2,113050:0:0:0:0:
320,192,112991,128,0,113050:0:0:0:0:
64,192,113109,128,2,113167:0:0:0:0:
192,192,113109,128,0,113167:0:0:0:0:
320,192,113226,128,2,113284:0:0:0:0:
448,192,113226,128,0,113284:0:0:0:70:Ride.wav
320,192,113343,128,0,113402:0:0:0:0:
64,192,113460,128,2,113519:0:0:0:0:
192,192,113460,128,0,113519:0:0:0:70:Ride.wav
192,192,113577,128,0,113636:0:0:0:0:
64,192,113695,128,2,113753:0:0:0:0:
320,192,113695,128,4,113753:0:0:0:0:
448,192,113695,128,0,113753:0:0:0:0:
192,192,113812,128,2,113870:0:0:0:0:
320,192,113812,128,0,113870:0:0:0:0:
64,192,113929,128,2,113987:0:0:0:0:
192,192,113929,128,0,113987:0:0:0:0:
320,192,114046,128,2,114105:0:0:0:0:
448,192,114046,128,0,114105:0:0:0:0:
64,192,114163,128,2,114222:0:0:0:0:
192,192,114163,128,4,114222:0:0:0:0:
448,192,114163,128,0,114222:0:0:0:0:
192,192,114280,128,2,114339:0:0:0:0:
320,192,114280,128,0,114339:0:0:0:0:
64,192,114398,128,2,114456:0:0:0:0:
448,192,114398,128,0,114456:0:0:0:0:
320,192,114515,128,2,114573:0:0:0:0:
448,192,114515,128,0,114573:0:0:0:0:
64,192,114632,128,2,114691:0:0:0:0:
192,192,114632,128,4,114691:0:0:0:0:
320,192,114632,128,0,114691:0:0:0:0:
192,192,114749,128,2,114808:0:0:0:0:
448,192,114749,128,0,114808:0:0:0:0:
64,192,114866,128,2,114925:0:0:0:0:
448,192,114866,128,0,114925:0:0:0:0:
64,192,114984,128,2,115042:0:0:0:0:
320,192,114984,128,0,115042:0:0:0:0:
192,192,115101,128,2,115159:0:0:0:0:
320,192,115101,128,4,115159:0:0:0:0:
448,192,115101,128,0,115159:0:0:0:0:
64,192,115218,128,2,115277:0:0:0:0:
192,192,115218,128,0,115277:0:0:0:0:
320,192,115335,128,2,115394:0:0:0:0:
448,192,115335,128,0,115394:0:0:0:0:
192,192,115394,1,2,0:0:0:0:
64,192,115452,128,2,115511:0:0:0:0:
448,192,115452,128,0,115511:0:0:0:0:
320,192,115511,1,2,0:0:0:0:
64,192,115570,128,2,115628:0:0:0:0:
192,192,115570,128,4,115628:0:0:0:0:
448,192,115570,128,0,115628:0:0:0:0:
192,192,115687,128,2,115745:0:0:0:0:
320,192,115687,128,0,115745:0:0:0:0:
320,192,115804,128,2,115862:0:0:0:0:
448,192,115804,128,0,115862:0:0:0:0:
64,192,115921,128,2,115980:0:0:0:0:
192,192,115921,128,0,115980:0:0:0:0:
64,192,116038,128,2,116097:0:0:0:0:
320,192,116038,128,4,116097:0:0:0:0:
448,192,116038,128,0,116097:0:0:0:0:
192,192,116155,128,2,116214:0:0:0:0:
320,192,116155,128,0,116214:0:0:0:0:
64,192,116273,128,2,116331:0:0:0:0:
448,192,116273,128,0,116331:0:0:0:0:
192,192,116390,128,2,116448:0:0:0:0:
448,192,116390,128,0,116448:0:0:0:0:
64,192,116507,128,2,116566:0:0:0:0:
192,192,116507,128,4,116566:0:0:0:0:
320,192,116507,128,0,116566:0:0:0:0:
320,192,116624,128,2,116683:0:0:0:0:
448,192,116624,128,0,116683:0:0:0:0:
64,192,116741,128,2,116800:0:0:0:0:
448,192,116741,128,0,116800:0:0:0:0:
64,192,116859,128,2,116917:0:0:0:0:
192,192,116859,128,0,116917:0:0:0:0:
192,192,116976,128,2,117034:0:0:0:0:
320,192,116976,128,4,117034:0:0:0:0:
448,192,116976,128,0,117034:0:0:0:0:
64,192,117093,128,2,117152:0:0:0:0:
320,192,117093,128,0,117152:0:0:0:0:
192,192,117210,128,2,117269:0:0:0:0:
448,192,117210,128,0,117269:0:0:0:0:
320,192,117269,1,2,0:0:0:0:
64,192,117327,128,2,117386:0:0:0:0:
192,192,117327,128,0,117386:0:0:0:0:
448,192,117386,1,2,0:0:0:0:
64,192,117445,128,2,117503:0:0:0:0:
192,192,117445,128,4,117503:0:0:0:0:
320,192,117445,128,0,117503:0:0:0:0:
320,192,117562,128,2,117620:0:0:0:0:
448,192,117562,128,0,117620:0:0:0:0:
64,192,117679,128,2,117737:0:0:0:0:
192,192,117679,128,4,117737:0:0:0:0:
448,192,117679,128,0,117737:0:0:0:0:
192,192,117796,128,2,117855:0:0:0:0:
320,192,117796,128,0,117855:0:0:0:0:
64,192,117913,128,2,117972:0:0:0:0:
320,192,117913,128,4,117972:0:0:0:0:
448,192,117913,128,0,117972:0:0:0:0:
64,192,118030,128,2,118089:0:0:0:0:
192,192,118030,128,0,118089:0:0:0:0:
192,192,118148,128,2,118206:0:0:0:0:
320,192,118148,128,4,118206:0:0:0:0:
448,192,118148,128,0,118206:0:0:0:0:
64,192,118265,128,2,118323:0:0:0:0:
448,192,118265,128,0,118323:0:0:0:0:
64,192,118382,1,2,0:0:0:0:
192,192,118382,1,4,0:0:0:0:
320,192,118441,1,2,0:0:0:0:
448,192,118441,1,0,0:0:0:0:
64,192,118499,1,2,0:0:0:0:
192,192,118499,1,0,0:0:0:0:
320,192,118558,1,2,0:0:0:0:
448,192,118558,1,0,0:0:0:0:
64,192,118616,1,2,0:0:0:0:
192,192,118616,1,4,0:0:0:0:
320,192,118675,1,2,0:0:0:0:
448,192,118675,1,0,0:0:0:0:
64,192,118734,1,2,0:0:0:0:
192,192,118734,1,0,0:0:0:0:
320,192,118792,1,2,0:0:0:0:
448,192,118792,1,0,0:0:0:0:
64,192,118851,1,6,0:0:0:0:
192,192,118880,1,2,0:0:0:0:
448,192,118909,1,2,0:0:0:0:
320,192,118939,1,2,0:0:0:0:
64,192,118968,1,2,0:0:0:0:
192,192,118997,1,2,0:0:0:0:
448,192,119027,1,2,0:0:0:0:
320,192,119056,1,2,0:0:0:0:
64,192,119085,1,6,0:0:0:0:
192,192,119114,1,2,0:0:0:0:
448,192,119144,1,2,0:0:0:0:
320,192,119173,1,2,0:0:0:0:
64,192,119202,1,10,0:0:0:0:
192,192,119202,128,4,119437:0:0:0:0:
448,192,119437,128,0,119554:0:0:0:0:
64,192,119554,128,0,119671:0:0:0:0:
320,192,119671,128,0,119788:0:0:0:0:
64,192,119788,1,2,0:0:0:0:
192,192,119788,128,0,119905:0:0:0:0:
448,192,119788,1,0,0:0:0:0:
448,192,119905,128,0,120023:0:0:0:0:
64,192,120023,1,2,0:0:0:0:
192,192,120023,1,0,0:0:0:0:
320,192,120023,128,0,120140:0:0:0:0:
64,192,120140,128,0,120257:0:0:0:0:
192,192,120257,128,0,120726:0:0:0:60:soft-hitwhistle.wav
320,192,120257,128,0,120374:0:0:0:0:
448,192,120257,128,0,120491:0:0:0:0:
64,192,120374,128,0,121136:0:0:0:0:
320,192,120491,128,0,121136:0:0:0:60:soft-hitwhistle.wav
448,192,120609,128,0,121136:0:0:0:0:
192,192,120843,128,0,121136:0:0:0:0:
64,192,121195,1,2,0:0:0:0:
192,192,121195,1,4,0:0:0:0:
320,192,121195,1,8,0:0:0:0:
448,192,121195,1,0,0:0:0:0:
