osu file format v14

[General]
AudioFilename: Garakuta_Doll_Play_.mp3
AudioLeadIn: 0
PreviewTime: -1
Countdown: 1
SampleSet: Soft
StackLeniency: 0.7
Mode: 0
LetterboxInBreaks: 0
WidescreenStoryboard: 0

[Editor]
DistanceSpacing: 1.1
BeatDivisor: 4
GridSize: 4
TimelineZoom: 8

[Metadata]
Title:Garakuta Doll Play
TitleUnicode:Garakuta Doll Play音源_高音質
Artist:t+pazolite
ArtistUnicode:t+pazolite
Creator:_GoldenStar_
Version:Doll
Source:
Tags:T+pazolite, GoldenStar, Fun, Hardcore, Crazy
BeatmapID:890039
BeatmapSetID:410084

[Difficulty]
HPDrainRate:4
CircleSize:4
OverallDifficulty:9.5
ApproachRate:10
SliderMultiplier:1.9
SliderTickRate:1

[Events]
//Background and Video events
0,0,"maxresdefault (3).jpg",0,0
//Break Periods
2,53240,60080
//Storyboard Layer 0 (Background)
//Storyboard Layer 1 (Fail)
//Storyboard Layer 2 (Pass)
//Storyboard Layer 3 (Foreground)
//Storyboard Sound Samples

[TimingPoints]
178.834569421872,235.290012924451,4,1,0,100,1,0
531,-200,4,1,0,50,0,0
3821,-200,4,2,0,30,0,0
4408,-133.333333333333,4,2,0,40,0,0
4878,-133.333333333333,4,2,0,50,0,0
6288,-200,4,2,0,40,0,0
8021,-117.647058823529,4,2,0,30,0,0
9904,-117.647058823529,4,2,0,50,0,0
10374,-117.647058823529,4,2,0,40,0,0
11438,-117.647058823529,4,2,0,60,0,0
11904,-117.647058823529,4,2,0,80,0,0
12021,-117.647058823529,4,2,0,60,0,0
12609,-117.647058823529,4,2,0,80,0,0
12962,-117.647058823529,4,2,0,20,0,0
13184,-100,4,2,0,60,0,0
13649,-133.333333333333,4,2,0,80,0,0
14119,-117.647058823529,4,2,0,60,0,0
14590,-117.647058823529,4,2,0,20,0,0
14649,-117.647058823529,4,2,0,50,0,0
14707,-117.647058823529,4,2,0,20,0,0
14825,-117.647058823529,4,2,0,50,0,0
14943,-117.647058823529,4,2,0,20,0,0
15119,-117.647058823529,4,2,0,30,0,0
15355,-117.647058823529,4,2,0,50,0,0
15413,-117.647058823529,4,2,0,30,0,0
15531,-100,4,2,0,10,0,0
16472,-100,4,2,0,40,0,0
17649,-100,4,2,0,30,0,0
18296,-100,4,2,0,50,0,0
18590,-100,4,2,0,30,0,0
19296,-100,4,2,0,50,0,0
19531,-100,4,2,0,30,0,0
21472,-100,4,2,0,40,0,0
22060,-100,4,2,0,30,0,0
22531,-100,4,2,0,20,0,0
23041,-100,4,2,0,10,0,0
23354,-100,4,2,0,40,0,0
23943,-100,4,2,0,30,0,0
24620,-100,4,2,0,60,0,0
24855,-100,4,2,0,50,0,0
26296,-100,4,3,0,30,0,0
26531,-100,4,3,0,50,0,0
26738,-100,4,3,0,40,0,0
28413,-133.333333333333,4,1,0,50,0,0
29119,-133.333333333333,4,1,0,40,0,0
29472,-133.333333333333,4,1,0,60,0,0
30531,-100,4,1,0,50,0,0
30590,-100,4,1,0,50,0,1
31001,-100,4,3,0,70,0,1
31413,-100,4,3,0,50,0,1
32531,-100,4,3,0,70,0,1
32884,-100,4,3,0,50,0,1
33354,-100,4,3,0,70,0,1
33825,-100,4,3,0,60,0,1
35884,-100,4,3,0,60,0,1
35942,-133.333333333333,4,3,0,70,0,0
36648,-133.333333333333,4,1,0,40,0,0
37119,-133.333333333333,4,2,0,60,0,0
37825,-133.333333333333,4,2,0,30,0,0
38060,-100,4,2,0,50,0,0
38295,-100,4,2,0,60,0,1
38413,-100,4,2,0,50,0,1
38531,-66.6666666666667,4,2,0,50,0,1
38766,-100,4,2,0,50,0,1
38884,-100,4,2,0,30,0,1
39001,-100,4,2,0,40,0,1
39707,-100,4,2,0,30,0,1
39825,-100,4,2,0,45,0,1
40413,-100,4,2,0,45,0,1
41589,-100,4,2,0,35,0,1
41707,-100,4,2,0,45,0,1
42021,-100,4,2,0,25,0,1
42256,-100,4,2,0,45,0,1
42491,-100,4,2,0,25,0,1
42727,-100,4,2,0,45,0,1
42962,-100,4,2,0,25,0,1
43648,-100,4,2,0,25,0,0
45080,-100,4,2,0,65,0,0
45315,-100,4,2,0,45,0,0
45550,-100,4,2,0,55,0,0
46609,-100,4,2,0,65,0,0
46844,-100,4,2,0,45,0,0
46962,-100,4,2,0,55,0,0
47785,-133.333333333333,4,2,0,55,0,0
48687,-133.333333333333,4,2,0,65,0,0
48962,-133.333333333333,4,2,0,35,0,0
49393,-133.333333333333,4,2,0,15,0,0
49511,-133.333333333333,4,2,0,40,0,0
49942,-133.333333333333,4,2,0,30,0,0
50413,-133.333333333333,4,2,0,40,0,0
51393,-133.333333333333,4,2,0,30,0,0
51942,-133.333333333333,4,2,0,20,0,0
52177,-133.333333333333,4,2,0,40,0,0
52413,-133.333333333333,4,2,0,45,0,0
52766,-133.333333333333,4,2,0,55,0,0
53040,-133.333333333333,4,2,0,40,0,0
60530,-133.333333333333,4,2,0,35,0,0
61354,-100,4,2,0,45,0,0
61707,-100,4,2,0,55,0,0
61942,-100,4,2,0,50,0,0
62413,-100,4,2,0,65,0,0
63471,-100,4,2,0,55,0,0
63824,-100,4,2,0,35,0,0
64295,-100,4,2,0,55,0,0
64765,-100,4,2,0,65,0,0
65354,-100,4,2,0,45,0,0
65589,-100,4,2,0,55,0,0
66530,-100,4,2,0,45,0,0
68060,-100,4,2,0,20,0,0
68295,-100,4,2,0,30,0,0
69118,-100,4,2,0,50,0,0
69471,-100,4,2,0,20,0,0
69589,-66.6666666666667,4,2,0,30,0,0
69942,-50,4,2,0,55,0,0
70412,-100,4,2,0,40,0,0
70648,-100,4,2,0,50,0,0
71236,-100,4,2,0,40,0,0
71824,-100,4,2,0,55,0,0
72530,-100,4,2,0,45,0,0
72922,-100,4,2,0,30,0,0
74569,-100,4,2,0,55,0,0
75079,-100,4,2,0,55,0,0
75550,-100,4,2,0,65,0,0
76927,-100,4,2,0,50,0,0
77412,-100,4,2,0,70,0,0
77883,-100,4,2,0,55,0,0
78824,-100,4,2,0,75,0,0
79059,-100,4,2,0,40,0,0
79295,-100,4,2,0,55,0,0
80687,-100,4,2,0,65,0,0
83510,-100,4,2,0,75,0,0
84687,-100,4,2,0,20,0,0
84706,-100,4,2,0,25,0,0
84726,-100,4,2,0,30,0,0
84745,-100,4,2,0,35,0,0
84765,-100,4,2,0,40,0,0
84785,-100,4,2,0,45,0,0
84804,-100,4,2,0,50,0,0
85981,-100,4,2,0,25,0,0
86098,-100,4,2,0,20,0,0
86451,-100,4,2,0,50,0,0
86804,-100,4,2,0,40,0,0
87275,-100,4,2,0,45,0,0
87745,-100,4,2,0,40,0,0
88334,-100,4,2,0,30,0,0
90059,-133.333333333333,4,2,0,20,0,0
90530,-66.6666666666667,4,2,0,20,0,1
91000,-66.6666666666667,4,2,0,55,0,1
91941,-66.6666666666667,4,2,0,40,0,1
92059,-66.6666666666667,4,2,0,5,0,1
92177,-66.6666666666667,4,2,0,45,0,1
92765,-66.6666666666667,4,2,0,60,0,1
93588,-66.6666666666667,4,2,0,50,0,1
93824,-66.6666666666667,4,2,0,70,0,1
94059,-66.6666666666667,4,2,0,55,0,1
94177,-100,4,2,0,75,0,1
94294,-100,4,2,0,60,0,1
94530,-66.6666666666667,4,2,0,60,0,1
95235,-66.6666666666667,4,2,0,50,0,1
96294,-66.6666666666667,4,2,0,65,0,1
96765,-66.6666666666667,4,2,0,75,0,1
97588,-66.6666666666667,4,2,0,85,0,1
97824,-66.6666666666667,4,2,0,20,0,1
98020,-66.6666666666667,4,2,0,55,0,1
99000,-66.6666666666667,4,2,0,80,0,1
99706,-66.6666666666667,4,2,0,70,0,1
100177,-66.6666666666667,4,2,0,75,0,1
101000,-66.6666666666667,4,2,0,5,0,1
101118,-66.6666666666667,4,2,0,70,0,1
101706,-66.6666666666667,4,2,0,55,0,1
102726,-66.6666666666667,4,2,0,20,0,1
102961,-66.6666666666667,4,2,0,60,0,1
103667,-100,4,2,0,70,0,1
104726,-50,4,2,0,60,0,0
104843,-50,4,2,0,20,0,0
104922,-50,4,2,0,60,0,0
105039,-50,4,2,0,20,0,0
105118,-100,4,2,0,30,0,0
105235,-50,4,2,0,40,0,0
105353,-50,4,2,0,50,0,0
105471,-50,4,2,0,60,0,0
105588,-50,4,2,0,50,0,0
105667,-50,4,2,0,70,0,1
106490,-50,4,2,0,80,0,1
107078,-50,4,2,0,70,0,1
107431,-50,4,2,0,75,0,1
108137,-50,4,2,0,85,0,1
108843,-50,4,2,0,85,0,1
109294,-50,4,2,0,75,0,1
109765,-50,4,2,0,65,0,1
110706,-50,4,2,0,75,0,1
111176,-50,4,2,0,70,0,1
112353,-50,4,2,0,80,0,1
112470,-50,4,2,0,65,0,1
112823,-50,4,2,0,55,0,1
113059,-50,4,2,0,75,0,1
113882,-50,4,2,0,85,0,1
114353,-50,4,2,0,80,0,1
114686,-50,4,2,0,70,0,1
114745,-50,4,2,0,75,0,1
114804,-50,4,2,0,80,0,1
114863,-50,4,2,0,85,0,1
115510,-50,4,2,0,75,0,1
115980,-50,4,2,0,85,0,1
117706,-100,4,2,0,15,0,1
117912,-100,4,2,0,25,0,0
118088,-100,4,2,0,35,0,0
118265,-100,4,2,0,45,0,0
118441,-100,4,2,0,55,0,0
118529,-100,4,2,0,50,0,0
118794,-66.6666666666667,4,2,0,50,0,0
119647,-66.6666666666667,4,2,0,55,0,0
119794,-66.6666666666667,4,2,0,60,0,0
119941,-66.6666666666667,4,2,0,65,0,0
120088,-66.6666666666667,4,2,0,70,0,0
120235,-66.6666666666667,4,2,0,75,0,0
120382,-66.6666666666667,4,2,0,80,0,0
120529,-133.333333333333,4,2,0,5,0,0

[Colours]
Combo1 : 202,202,202
Combo2 : 202,86,0
Combo3 : 0,53,53
Combo4 : 73,73,73

[HitObjects]
384,128,531,6,0,P|304:128|208:208,1,190
160,256,1119,1,0,0:0:0:0:
160,112,1355,1,0,0:0:0:0:
432,64,1943,1,0,0:0:0:0:
288,144,2061,1,0,0:0:0:0:
336,336,2178,1,0,0:0:0:0:
128,224,2296,5,0,0:0:0:0:
128,224,2414,6,0,P|96:208|48:112,1,142.5
256,32,2884,1,0,0:0:0:0:
256,256,3002,1,0,0:0:0:0:
432,128,3237,1,4,0:0:0:0:
112,112,3825,5,8,0:0:0:0:
112,112,3943,1,8,0:0:0:0:
112,112,4061,1,8,0:0:0:0:
112,112,4178,1,8,0:0:0:0:
112,112,4296,1,8,0:0:0:0:
368,176,4414,6,0,P|336:208|224:256,1,142.500005435944
256,64,4884,1,0,0:0:0:0:
256,64,5002,1,0,0:0:0:0:
64,192,5119,1,0,0:0:0:0:
64,192,5237,1,0,0:0:0:0:
256,352,5355,1,0,0:0:0:0:
256,352,5472,1,0,0:0:0:0:
256,192,5590,5,0,0:0:0:0:
256,192,5708,2,0,P|288:208|336:256,1,71.2500027179719
464,144,5943,2,0,P|432:112|384:96,1,71.2500027179719
256,288,6178,1,0,0:0:0:0:
80,192,6296,2,0,P|96:160|192:112,1,142.5
192,256,6766,1,0,0:0:0:0:
176,48,7002,1,0,0:0:0:0:
368,128,7237,1,0,0:0:0:0:
96,304,7551,6,0,P|144:288|176:256,1,95
384,48,8021,2,0,P|368:96|384:208,1,161.500003080368
128,336,8374,2,0,P|144:288|144:176,1,161.500003080368
400,96,8845,1,0,0:0:0:0:
96,240,9433,1,0,0:0:0:0:
272,128,9551,1,0,0:0:0:0:
272,320,9668,1,0,0:0:0:0:
224,48,9786,6,0,P|224:112|208:160,1,80.750001540184
112,128,10374,1,0,0:0:0:0:
320,272,10492,1,0,0:0:0:0:
464,112,10727,2,0,P|448:160|224:352,1,323.000006160736
128,192,11413,5,0,0:0:0:0:
128,192,11472,1,0,0:0:0:0:
128,192,11531,1,0,0:0:0:0:
384,96,11678,1,0,0:0:0:0:
256,208,11786,1,0,0:0:0:0:
384,96,11904,1,2,0:0:0:0:
256,208,12021,1,0,0:0:0:0:
304,64,12139,5,0,0:0:0:0:
480,192,12257,1,0,0:0:0:0:
368,304,12374,1,0,0:0:0:0:
224,304,12492,1,0,0:0:0:0:
320,32,12609,2,2,P|320:80|192:208,1,242.250004620552
128,80,13198,2,0,P|192:112|224:144,1,95
448,304,13433,6,0,P|400:256|336:240,1,95
64,304,13649,2,0,B|112:304|112:304|128:272|128:272|192:288|192:288|208:224|208:224|304:224|304:224|304:224|304:224|304:224,1,285.000010871888
464,144,14237,1,0,0:0:0:0:
256,48,14472,1,0,0:0:0:0:
96,144,14590,1,8,0:0:0:0:
112,176,14649,1,2,0:0:0:0:
144,208,14707,1,8,0:0:0:0:
176,240,14766,1,8,0:0:0:0:
208,256,14825,1,2,0:0:0:0:
256,256,14884,5,8,0:0:0:0:
304,224,14943,1,8,0:0:0:0:
336,176,15002,1,2,0:0:0:0:
384,128,15060,1,8,0:0:0:0:
448,128,15119,1,8,0:0:0:0:
496,176,15178,1,2,0:0:0:0:
480,240,15237,1,8,0:0:0:0:
432,288,15296,1,8,0:0:0:0:
368,288,15355,1,2,0:0:0:0:
304,320,15413,1,0,0:0:0:0:
272,128,15531,6,0,P|256:144|144:176,1,142.5
192,320,15766,2,0,P|240:304|336:256,1,142.5
352,32,16002,2,0,L|224:144,1,142.5
96,336,16237,2,0,L|240:256,1,142.5
144,80,16472,1,0,0:0:0:0:
272,144,16590,1,0,0:0:0:0:
144,224,16707,1,0,0:0:0:0:
432,144,16825,6,0,P|416:208|368:256,1,95
80,288,17060,2,0,P|48:224|64:176,1,95
272,32,17296,1,0,0:0:0:0:
368,176,17413,1,0,0:0:0:0:
160,176,17531,1,0,0:0:0:0:
368,128,17649,5,0,0:0:0:0:
208,256,17766,1,0,0:0:0:0:
320,32,17884,1,0,0:0:0:0:
112,144,18002,1,0,0:0:0:0:
192,64,18119,6,0,P|240:80|288:128,1,95
320,192,18296,1,0,0:0:0:0:
320,192,18354,1,0,0:0:0:0:
320,192,18413,1,0,0:0:0:0:
320,192,18472,6,0,P|368:224|416:272,1,95
128,272,18707,1,0,0:0:0:0:
192,144,18825,1,0,0:0:0:0:
128,272,18943,1,0,0:0:0:0:
192,144,19060,1,0,0:0:0:0:
448,176,19296,6,0,P|448:224|336:304,1,190
192,128,19766,1,0,0:0:0:0:
192,128,20002,1,0,0:0:0:0:
192,128,20237,1,0,0:0:0:0:
384,144,20354,5,0,0:0:0:0:
368,176,20413,1,0,0:0:0:0:
336,208,20472,1,0,0:0:0:0:
288,208,20531,1,0,0:0:0:0:
256,176,20590,1,0,0:0:0:0:
208,176,20649,1,0,0:0:0:0:
176,208,20707,1,0,0:0:0:0:
160,240,20766,1,0,0:0:0:0:
176,272,20825,2,0,P|224:304|288:304,1,95
256,192,21002,12,0,23041,0:0:0:0:
144,80,23394,5,0,0:0:0:0:
256,256,23511,1,0,0:0:0:0:
352,80,23747,1,0,0:0:0:0:
112,256,23982,2,0,B|112:192|128:160|128:160|112:128|112:128|160:80|176:80|208:112|208:112|192:96,1,237.5
256,336,24452,1,0,0:0:0:0:
352,176,24688,2,0,P|416:208|432:256,1,95
96,48,24923,1,0,0:0:0:0:
256,192,25041,1,0,0:0:0:0:
48,240,25158,1,0,0:0:0:0:
400,288,25276,6,0,P|432:240|432:192,1,95
160,48,25511,2,0,P|144:96|144:144,1,95
448,48,25707,1,0,0:0:0:0:
320,144,25864,1,0,0:0:0:0:
288,176,25923,1,0,0:0:0:0:
256,208,25982,1,0,0:0:0:0:
208,208,26040,1,0,0:0:0:0:
160,192,26099,1,0,0:0:0:0:
144,144,26158,1,0,0:0:0:0:
96,144,26217,5,0,0:0:0:0:
64,176,26276,1,0,0:0:0:0:
192,320,26335,6,0,P|240:320|336:208,1,190
92,228,26805,2,0,P|92:168|108:132,1,95
392,88,27041,2,0,P|416:132|416:200,1,95
272,340,27276,2,0,P|212:328|180:296,1,95
128,160,27511,2,0,P|176:160|224:176,1,95
288,368,27766,1,0,0:0:0:0:
272,352,27825,1,0,0:0:0:0:
256,336,27884,1,0,0:0:0:0:
240,320,27943,1,0,0:0:0:0:
224,304,28001,2,0,B|192:272|128:240|128:256|144:208|144:208|112:176|112:176,1,142.5
448,64,28413,6,0,B|416:112|416:112|352:112|352:112|400:144|416:160|368:192|336:192|320:192|272:144|272:144|224:192,1,380
160,288,29119,1,0,0:0:0:0:
272,112,29237,1,0,0:0:0:0:
32,96,29354,1,0,0:0:0:0:
400,96,29472,1,0,0:0:0:0:
80,240,29590,6,0,P|96:192|160:112,1,142.500005435944
400,96,29943,2,0,P|384:144|304:208,1,142.500005435944
112,176,30295,2,0,P|144:128|208:64,1,142.500005435944
192,160,30648,1,0,0:0:0:0:
400,64,30766,5,0,0:0:0:0:
512,224,30884,1,0,0:0:0:0:
112,272,31001,2,0,P|160:272|240:224,1,142.5
288,64,31237,2,0,P|224:80|160:128,1,142.5
304,208,31590,5,0,0:0:0:0:
432,80,31707,1,0,0:0:0:0:
176,320,31825,1,0,0:0:0:0:
208,288,31884,1,0,0:0:0:0:
240,256,31942,2,0,P|288:208|304:160,1,95
64,32,32178,1,0,0:0:0:0:
256,80,32295,5,0,0:0:0:0:
96,256,32413,1,0,0:0:0:0:
368,304,32531,1,0,0:0:0:0:
368,304,32648,2,0,P|416:256|464:112,1,190
128,96,33001,1,0,0:0:0:0:
128,96,33119,1,0,0:0:0:0:
128,96,33237,1,0,0:0:0:0:
384,112,33354,6,0,P|368:160|320:208,1,95
176,208,33590,2,0,P|192:144|240:112,1,95
464,128,33825,2,0,P|464:192|352:304,1,190
390,289,34178,1,0,0:0:0:0:
390,289,34295,1,0,0:0:0:0:
96,80,34413,6,0,P|144:80|208:128,1,95
336,320,34648,2,0,P|288:304|256:272,1,95
416,112,34884,1,0,0:0:0:0:
112,192,35001,1,0,0:0:0:0:
368,368,35119,1,0,0:0:0:0:
272,64,35237,5,0,0:0:0:0:
96,256,35354,1,0,0:0:0:0:
320,112,35472,1,0,0:0:0:0:
80,192,35589,1,0,0:0:0:0:
320,176,35707,1,0,0:0:0:0:
96,128,35825,1,0,0:0:0:0:
304,240,35942,2,2,B|288:272|224:256|224:256|208:320|208:320|128:272|144:208|144:208|64:240,1,356.25001358986
288,112,36648,5,0,0:0:0:0:
288,112,36766,1,0,0:0:0:0:
256,272,36884,1,0,0:0:0:0:
256,272,37001,1,0,0:0:0:0:
48,128,37119,2,0,B|96:128|96:128|64:192|64:192|128:176|144:256|144:256|192:304,1,285.000010871888
368,192,37825,2,0,B|320:192|256:176|256:176|208:176,1,142.500005435944
80,320,38295,6,0,P|144:320|176:288,1,95
384,80,38531,2,0,B|304:96|304:96|240:64|240:64|176:128|176:128|112:144,1,285.000010871888
384,304,38884,1,0,0:0:0:0:
368,304,38942,1,0,0:0:0:0:
352,304,39001,2,0,P|304:304|256:288,1,95
128,80,39236,5,0,0:0:0:0:
128,80,39295,1,0,0:0:0:0:
128,80,39354,1,0,0:0:0:0:
128,80,39413,1,0,0:0:0:0:
128,80,39472,2,0,B|192:96|192:96|192:144|192:144|272:128,1,190
336,320,39785,5,0,0:0:0:0:
324,112,39903,1,0,0:0:0:0:
160,36,40021,1,0,0:0:0:0:
48,160,40138,1,0,0:0:0:0:
72,296,40256,1,0,0:0:0:0:
192,352,40374,2,0,B|208:288|208:288|256:256|256:256|208:192,1,190
352,96,40727,1,0,0:0:0:0:
436,216,40844,1,0,0:0:0:0:
336,344,40962,1,0,0:0:0:0:
176,48,41080,5,0,0:0:0:0:
176,48,41197,1,0,0:0:0:0:
176,48,41315,2,0,B|256:64|256:64|272:128|272:128|320:128,1,190
80,336,41785,2,0,P|128:320|232:192,1,221.666666666667
464,32,42256,2,0,P|416:96|384:248,1,221.666666666667
80,48,42727,2,0,P|112:64|256:216,1,221.666666666667
76,284,43197,5,0,0:0:0:0:
100,268,43236,1,0,0:0:0:0:
116,240,43276,1,0,0:0:0:0:
128,216,43315,1,0,0:0:0:0:
128,184,43354,1,0,0:0:0:0:
124,156,43393,1,0,0:0:0:0:
124,120,43432,1,0,0:0:0:0:
132,96,43472,1,0,0:0:0:0:
236,60,43550,5,0,0:0:0:0:
340,80,43668,2,0,P|396:100|440:140,1,95
328,340,44021,2,0,P|276:336|232:304,1,95
120,168,44256,1,0,0:0:0:0:
120,168,44491,1,0,0:0:0:0:
384,80,45080,6,0,P|336:80|224:160,1,190
144,304,45550,1,0,0:0:0:0:
360,240,45903,1,0,0:0:0:0:
192,112,46256,1,0,0:0:0:0:
160,208,46609,2,0,L|96:296,2,95
344,96,46962,5,0,0:0:0:0:
344,96,47119,5,0,0:0:0:0:
96,100,47432,1,0,0:0:0:0:
184,216,47550,1,0,0:0:0:0:
84,336,47668,1,0,0:0:0:0:
424,336,47785,2,0,B|424:296|424:296|392:248|392:248|440:200|432:128,1,213.750008153916
248,88,48334,5,0,0:0:0:0:
160,216,48452,1,0,0:0:0:0:
320,320,48570,1,0,0:0:0:0:
433,143,48687,2,0,P|425:183|393:223,1,71.2500027179719
112,48,48962,2,0,P|136:64|216:128,1,118.750004529953
200,312,49276,2,0,P|168:304|136:256,1,71.2500027179719
120,176,49511,5,0,0:0:0:0:
120,176,49628,1,0,0:0:0:0:
120,176,49746,1,0,0:0:0:0:
344,192,49942,5,0,0:0:0:0:
344,192,50021,1,0,0:0:0:0:
344,192,50099,2,0,P|352:240|336:288,1,71.2500027179719
88,112,50413,5,0,0:0:0:0:
88,112,50491,1,0,0:0:0:0:
88,112,50570,2,0,P|88:160|96:208,1,71.2500027179719
384,304,50883,5,0,0:0:0:0:
384,304,50962,1,0,0:0:0:0:
384,304,51040,2,0,P|384:256|368:224,1,71.2500027179719
120,208,51393,5,0,0:0:0:0:
152,176,51472,1,0,0:0:0:0:
184,144,51550,1,0,0:0:0:0:
216,120,51628,1,0,0:0:0:0:
288,176,51707,5,0,0:0:0:0:
256,208,51786,1,0,0:0:0:0:
224,240,51864,1,0,0:0:0:0:
192,264,51942,1,0,0:0:0:0:
256,192,52021,12,6,53040,0:0:0:0:
136,56,60530,6,0,P|192:56|232:72,1,71.2500027179719
360,216,60766,2,0,P|312:240|272:240,1,71.2500027179719
296,64,61001,1,0,0:0:0:0:
136,168,61118,1,0,0:0:0:0:
336,248,61236,1,0,0:0:0:0:
408,72,61354,2,0,B|336:88|336:88|328:136,1,95
312,336,61589,1,0,0:0:0:0:
68,260,61707,6,0,B|128:228|128:228|140:188,1,95
160,136,61942,2,0,B|208:96|224:80|224:80|256:88|256:88|280:128,1,142.5
336,144,62177,2,0,P|408:160|448:208,1,95
304,320,62413,5,0,0:0:0:0:
160,216,62530,1,0,0:0:0:0:
272,48,62648,1,0,0:0:0:0:
64,80,62765,5,0,0:0:0:0:
160,216,62883,1,0,0:0:0:0:
272,48,63001,1,0,0:0:0:0:
432,80,63118,2,0,B|432:128|416:184|416:184|344:240,1,190
112,64,63471,2,0,L|112:104,3,31.6666666666667
384,64,63707,1,0,0:0:0:0:
384,64,63824,6,8,P|352:112|336:200,1,142.5
320,256,64060,2,8,B|280:304|280:304|224:304|224:304|192:264,1,142.5
176,104,64295,1,0,0:0:0:0:
348,228,64413,1,0,0:0:0:0:
160,280,64530,1,0,0:0:0:0:
320,104,64648,1,0,0:0:0:0:
232,56,64765,6,0,P|184:72|144:112,1,95
280,328,65001,2,0,P|320:288|352:224,1,95
256,64,65236,1,0,0:0:0:0:
256,64,65354,2,0,L|256:104,3,31.6666666666667
80,296,65589,1,0,0:0:0:0:
80,296,65707,2,0,B|136:248|144:248|152:184|152:184|184:176,1,142.5
224,160,65942,2,0,B|280:160|280:160|328:200|328:200|304:240,1,142.5
184,84,66177,5,0,0:0:0:0:
356,236,66295,1,0,0:0:0:0:
128,296,66412,1,0,0:0:0:0:
384,80,66530,2,0,P|384:136|368:176,1,95
208,288,66765,1,0,0:0:0:0:
104,148,66883,1,0,0:0:0:0:
216,24,67001,1,0,0:0:0:0:
196,60,68060,5,0,0:0:0:0:
376,60,68177,1,0,0:0:0:0:
192,188,68295,1,0,0:0:0:0:
372,188,68412,1,0,0:0:0:0:
188,312,68530,1,0,0:0:0:0:
372,312,68648,1,0,0:0:0:0:
256,24,68765,6,0,B|256:144|320:200|296:240,1,190
120,248,69118,1,0,0:0:0:0:
388,248,69236,1,0,0:0:0:0:
256,32,69471,2,0,L|256:140,1,95
196,196,69667,2,0,P|252:260|304:176,1,190.000007247925
116,112,69942,5,0,0:0:0:0:
308,276,70059,1,0,0:0:0:0:
304,104,70177,1,0,0:0:0:0:
104,268,70295,1,0,0:0:0:0:
448,80,70412,2,0,P|448:136|416:176,1,95
128,64,70648,6,0,B|176:88|176:88|168:136|168:136|232:144|232:144|256:184|256:184|288:184|288:184|312:232,1,285
312,224,71059,1,0,0:0:0:0:
312,224,71118,1,0,0:0:0:0:
312,224,71177,1,0,0:0:0:0:
176,328,71236,2,0,P|136:296|120:248,1,95
368,56,71471,2,0,P|392:96|400:160,1,95
176,224,71824,5,0,0:0:0:0:
376,312,71942,1,0,0:0:0:0:
240,96,72059,1,0,0:0:0:0:
412,184,72177,1,0,0:0:0:0:
252,40,72295,1,0,0:0:0:0:
96,132,72412,1,0,0:0:0:0:
112,304,72530,2,0,B|160:328|160:328|208:304|208:304|248:344|248:344|296:304|264:216,1,285
216,120,72922,6,0,L|232:168,2,31.6666666666667
72,144,73197,1,0,0:0:0:0:
176,280,73314,1,0,0:0:0:0:
72,144,73432,1,0,0:0:0:0:
176,280,73550,1,0,0:0:0:0:
288,32,73667,6,0,P|304:72|312:112,1,63.3333333333333
188,128,73785,2,0,P|164:96|148:56,1,63.3333333333333
388,236,73903,2,0,B|380:180|380:180|336:168,1,95
184,220,74059,2,0,B|188:264|188:264|212:256|212:256|224:292,1,95
364,308,74216,2,0,B|332:336|304:344|304:344|292:332|292:332|260:332,1,95
148,324,74569,5,0,0:0:0:0:
216,240,74687,1,0,0:0:0:0:
280,160,74804,1,0,0:0:0:0:
348,76,74922,1,0,0:0:0:0:
104,48,75079,6,0,P|96:88|152:240,1,190
408,56,75550,1,0,0:0:0:0:
256,192,76020,1,0,0:0:0:0:
152,80,76138,1,0,0:0:0:0:
352,308,76373,1,0,0:0:0:0:
152,140,76942,5,10,0:0:0:0:
352,64,77059,1,10,0:0:0:0:
416,264,77177,1,10,0:0:0:0:
144,296,77295,2,2,P|192:304|264:280,1,95
256,24,77883,2,0,L|256:120,1,95
256,192,78236,1,0,0:0:0:0:
160,56,78824,6,0,B|104:80|88:112|88:112|128:160|128:160|112:208,1,190
360,256,79295,1,0,0:0:0:0:
160,40,79765,1,0,0:0:0:0:
160,216,79883,1,0,0:0:0:0:
320,136,80118,1,0,0:0:0:0:
104,296,80687,6,0,B|120:240|120:240|160:208,1,95
408,88,80922,6,0,B|392:144|392:144|363:166,1,95
104,80,81197,1,0,0:0:0:0:
408,320,81628,2,0,P|432:272|424:216,1,95
152,112,81981,5,0,0:0:0:0:
424,120,82569,2,0,P|408:168|288:272,1,190
72,48,83040,2,0,B|72:104|80:128|80:128|120:152|120:152|160:216,1,190
368,88,83510,1,0,0:0:0:0:
160,248,83628,1,0,0:0:0:0:
368,88,83746,1,0,0:0:0:0:
160,248,83863,1,0,0:0:0:0:
112,40,83981,6,0,B|160:80|160:80|176:128|176:128|232:136|232:136|256:176,1,190
456,320,84334,1,0,0:0:0:0:
242,153,84451,1,0,0:0:0:0:
242,153,84687,2,0,L|256:168,6,15.8333333333333
112,56,84922,5,0,0:0:0:0:
352,104,85157,1,0,0:0:0:0:
120,296,85275,1,0,0:0:0:0:
352,104,85393,1,0,0:0:0:0:
120,296,85510,1,0,0:0:0:0:
376,312,85628,2,0,B|328:272|328:272|312:232,1,95
160,64,85863,2,0,B|160:120|160:120|176:160,1,95
360,72,86098,6,0,L|360:128,1,47.5
288,200,86216,2,0,L|288:136,1,47.5
216,72,86334,2,0,L|216:136,1,47.5
80,304,86451,2,0,B|80:248|80:248|128:208|168:240|168:240|208:240,1,190
424,240,86804,1,0,0:0:0:0:
136,48,87040,5,0,0:0:0:0:
96,312,87275,1,0,0:0:0:0:
120,288,87392,1,0,0:0:0:0:
144,256,87510,1,0,0:0:0:0:
168,232,87628,1,0,0:0:0:0:
416,72,87745,6,6,B|408:128|408:128|344:200|344:200|384:248,1,190
128,72,88098,1,0,0:0:0:0:
328,256,88216,2,0,B|360:264|360:264|376:304|376:304|424:296|424:296|448:312|448:312|480:336|480:336|480:336,1,190
477,333,88569,1,0,0:0:0:0:
256,80,88687,5,0,0:0:0:0:
256,120,88922,1,0,0:0:0:0:
256,160,89157,1,0,0:0:0:0:
256,200,89392,1,0,0:0:0:0:
336,136,89589,6,0,P|368:96|432:56,1,126.666666666667
424,264,89824,2,0,P|408:296|344:368,1,126.666666666667
200,232,90059,2,0,L|184:216,15,17.812500679493
304,76,90569,2,0,B|352:88|352:88|380:136|380:136|420:108|420:108|444:168,1,190
336,328,90804,2,0,B|308:272|308:272|268:284|268:284|256:240|256:240|200:240,1,190
136,52,91000,2,0,B|72:124|72:124|96:228,1,190
336,272,91236,2,0,B|404:204|404:204|400:96,1,190
64,276,91471,2,0,B|104:240|104:240|132:272|132:272|140:232|140:232|172:292|176:292|200:232|200:232|232:276|232:276,1,285.000010871888
300,120,91824,5,0,0:0:0:0:
56,200,91941,2,0,B|96:160|96:160|120:196|120:196|168:144|236:148,1,190
288,328,92177,1,0,0:0:0:0:
316,24,92412,2,0,B|232:80|288:92|284:92|292:160|380:156|380:156|320:232,1,285.000010871888
376,176,92765,5,0,0:0:0:0:
88,184,92883,1,0,0:0:0:0:
340,248,93000,1,0,0:0:0:0:
128,112,93118,1,0,0:0:0:0:
272,296,93236,2,0,B|308:240|312:240|228:172|228:172,1,142.500005435944
256,40,93588,5,0,0:0:0:0:
256,260,93706,1,0,0:0:0:0:
496,136,93824,2,0,B|472:164|472:164|432:136|432:136|432:216|432:216|488:228|492:228|452:316|452:320,1,285.000010871888
144,112,94177,2,0,L|212:132,2,47.5
136,300,94412,1,0,0:0:0:0:
384,224,94530,2,0,B|428:132|428:132|404:116|404:116|352:128,1,142.500005435944
156,156,94765,5,0,0:0:0:0:
440,60,94883,1,0,0:0:0:0:
152,56,95000,1,0,0:0:0:0:
444,152,95118,1,0,0:0:0:0:
324,352,95235,2,0,B|316:320|316:320|336:272|336:272|272:240|272:240|244:264|244:264|148:232|148:232,1,285.000010871888
392,72,95588,1,0,0:0:0:0:
120,68,95706,1,0,0:0:0:0:
256,348,95941,6,0,B|256:280|256:280|304:224|304:224,1,142.500005435944
356,152,96294,1,0,0:0:0:0:
168,152,96412,1,0,0:0:0:0:
360,260,96530,1,0,0:0:0:0:
164,260,96647,1,0,0:0:0:0:
215,31,96765,6,0,B|248:96|248:96|283:20,1,142.500005435944
297,353,97000,6,0,B|264:288|264:288|234:351,1,142.500005435944
128,128,97353,1,0,0:0:0:0:
356,88,97588,2,0,B|388:128|380:136|380:136|368:188|368:188|316:168|316:168|340:216|316:260|316:260,1,213.750008153916
216,308,97824,2,0,B|152:312|152:312|152:280|152:280|96:272|56:284|56:284|48:204|48:204,1,237.500009059906
296,92,98177,1,0,0:0:0:0:
464,216,98294,1,0,0:0:0:0:
288,332,98412,1,0,0:0:0:0:
136,208,98530,5,0,0:0:0:0:
460,132,98647,1,0,0:0:0:0:
136,208,98765,1,0,0:0:0:0:
460,132,98882,1,0,0:0:0:0:
256,28,99000,2,0,B|260:76|260:76|280:96|280:96|256:128|256:128|316:184|316:184|248:176|248:176|256:220|288:236|288:236,1,285.000010871888
112,112,99353,5,0,0:0:0:0:
376,104,99471,1,0,0:0:0:0:
152,328,99706,2,0,B|164:216|280:280|280:280,1,142.500005435944
256,28,99941,1,0,0:0:0:0:
388,196,100177,1,0,0:0:0:0:
104,196,100294,1,0,0:0:0:0:
388,196,100412,1,0,0:0:0:0:
104,196,100530,1,0,0:0:0:0:
320,52,100647,6,0,B|376:84|376:84|348:112|348:112|368:152|368:152|336:168,1,142.500005435944
192,332,100882,2,0,B|136:300|136:300|164:272|164:272|144:232|144:232|180:216,1,142.500005435944
288,116,101118,1,0,0:0:0:0:
88,324,101235,1,0,0:0:0:0:
288,116,101353,1,0,0:0:0:0:
288,116,101471,6,0,B|384:120|384:120|312:204|312:204|416:256|416:256,1,285.000010871888
348,304,101765,1,0,0:0:0:0:
280,304,101824,1,0,0:0:0:0:
40,104,102059,2,0,B|108:108|108:108|136:132|136:132|164:124|164:124|180:156|180:156|216:164|216:164|224:200|184:216|184:216,1,237.500009059906
472,272,102373,1,0,0:0:0:0:
232,68,102490,1,0,0:0:0:0:
88,312,102608,1,0,0:0:0:0:
88,312,102726,6,0,B|152:268|152:268|96:216|96:216|120:204,1,142.500005435944
424,72,102961,2,0,B|360:116|360:116|416:168|416:168|392:172,1,142.500005435944
96,124,103196,1,0,0:0:0:0:
328,224,103431,1,0,0:0:0:0:
136,312,103549,1,0,0:0:0:0:
176,144,103667,6,0,B|224:136|224:136|248:184|248:184|272:136|272:136|312:160|324:160|324:160|328:164,1,190
96,352,104020,1,0,0:0:0:0:
176,144,104137,1,0,0:0:0:0:
316,356,104255,1,0,0:0:0:0:
176,144,104373,1,0,0:0:0:0:
96,352,104490,1,0,0:0:0:0:
176,144,104608,1,0,0:0:0:0:
320,360,104726,6,0,B|352:292|300:268|300:268|300:168,1,190
192,24,104922,2,0,B|160:92|212:116|212:116|212:216,1,190
116,360,105118,2,0,L|116:324,16,23.75
268,192,105667,1,0,0:0:0:0:
76,148,105784,1,0,0:0:0:0:
80,316,105902,1,0,0:0:0:0:
396,76,106020,5,0,0:0:0:0:
232,140,106137,1,0,0:0:0:0:
320,304,106255,1,0,0:0:0:0:
480,280,106373,1,0,0:0:0:0:
188,80,106490,2,0,B|252:108|252:108|200:172|200:172|220:232,1,190
416,328,106725,2,0,B|416:272|416:272|368:260|368:260|388:224|388:224|372:176,1,190
84,104,106961,2,0,B|108:144|108:144|160:140|160:140|140:200|140:200|188:224,1,190
316,312,107196,1,0,0:0:0:0:
376,80,107431,6,0,B|296:100|296:100|304:156|228:188,1,190
120,344,107667,2,0,B|196:308|196:308|152:264|152:264|204:236,1,190
120,48,107902,2,0,B|196:64|196:64|188:100|188:100|240:104|240:104|264:148,1,190
412,280,108137,1,0,0:0:0:0:
152,252,108255,1,0,0:0:0:0:
208,84,108373,1,0,0:0:0:0:
416,112,108490,1,0,0:0:0:0:
136,216,108608,5,0,0:0:0:0:
376,312,108725,1,0,0:0:0:0:
220,140,108843,2,0,B|220:88|220:88|160:80|160:80|168:48|168:48|108:16|108:16|84:80|84:80|0:40|0:40|28:8,1,380
104,268,109176,5,0,0:0:0:0:
104,268,109235,1,0,0:0:0:0:
104,268,109294,5,0,0:0:0:0:
396,148,109412,1,0,0:0:0:0:
168,116,109529,1,0,0:0:0:0:
312,312,109647,1,0,0:0:0:0:
56,120,109765,6,0,B|96:108|96:108|104:136|104:136|136:120|136:120|160:152|160:152|204:136,1,190
456,328,110000,2,0,B|420:292|420:292|388:316|388:316|376:272|376:272|312:292,1,190
380,56,110255,2,0,B|288:60|296:104|296:104|236:104|236:104|180:148,1,190
124,308,110490,1,0,0:0:0:0:
356,204,110608,1,0,0:0:0:0:
120,72,110706,2,0,B|180:40|180:40|136:116|136:116|220:76,1,190
256,316,110941,1,0,0:0:0:0:
464,156,111176,6,0,B|428:160|432:160|416:208|416:208|356:184|356:184|328:232,1,190
76,248,111412,2,0,B|144:168|144:168|180:272,1,190
380,76,111647,2,0,B|336:88|336:88|348:132|348:132|312:120|312:120|316:204,1,190
84,152,111882,1,0,0:0:0:0:
316,304,112000,1,0,0:0:0:0:
144,120,112118,1,0,0:0:0:0:
256,344,112235,1,0,0:0:0:0:
208,96,112353,6,0,B|312:36|312:36|400:68,1,190
64,340,112588,2,0,B|88:316|88:316|72:288|72:288|128:308|128:308|120:276|120:276|112:240|112:240|204:268|204:268|144:180,1,380
312,32,113059,1,0,0:0:0:0:
128,112,113176,1,0,0:0:0:0:
208,276,113294,1,0,0:0:0:0:
412,176,113412,1,0,0:0:0:0:
140,120,113529,5,0,0:0:0:0:
336,240,113647,1,0,0:0:0:0:
136,324,113765,1,0,0:0:0:0:
352,76,113882,2,0,B|404:104|404:104|352:144|352:144|416:156|464:204|464:204|456:220,1,190
116,236,114118,2,0,B|172:176|172:176|240:292,1,190
400,140,114353,5,0,0:0:0:0:
188,72,114470,1,0,0:0:0:0:
32,228,114588,1,0,0:0:0:0:
128,372,114686,1,0,0:0:0:0:
204,372,114745,1,0,0:0:0:0:
280,372,114804,1,0,0:0:0:0:
348,328,114863,1,0,0:0:0:0:
400,272,114921,6,0,B|420:216|420:216|368:196|368:196|352:120,1,190
220,68,115157,1,0,0:0:0:0:
76,244,115274,1,0,0:0:0:0:
348,252,115392,1,0,0:0:0:0:
32,72,115510,2,0,B|116:120|116:120|32:180,1,190
480,72,115745,2,0,B|396:120|396:120|480:180,1,190
256,108,115980,5,0,0:0:0:0:
140,276,116098,1,0,0:0:0:0:
256,108,116216,1,0,0:0:0:0:
372,276,116333,1,0,0:0:0:0:
76,104,116451,2,0,B|160:120|160:120|208:88|208:88|268:136,1,190
244,117,116627,1,0,0:0:0:0:
244,117,116686,1,0,0:0:0:0:
244,117,116745,1,0,0:0:0:0:
244,117,116804,1,0,0:0:0:0:
128,260,116921,6,0,B|208:220|252:248|252:248|176:300,1,190
384,124,117157,2,0,B|304:164|260:136|260:136|336:84,1,190
140,128,117392,1,0,0:0:0:0:
280,264,117510,1,0,0:0:0:0:
76,348,117627,1,0,0:0:0:0:
200,232,117745,6,0,L|184:216,20,17.812500679493
240,312,118220,2,0,L|224:328,22,11.875
320,196,118794,5,0,0:0:0:0:
112,248,118912,1,0,0:0:0:0:
276,140,119029,1,0,0:0:0:0:
128,328,119147,1,0,0:0:0:0:
212,108,119264,1,0,0:0:0:0:
200,348,119382,1,0,0:0:0:0:
84,184,119500,1,0,0:0:0:0:
328,272,119617,1,0,0:0:0:0:
256,192,119647,12,0,120529,0:0:0:0:
