osu file format v14

[General]
AudioFilename: Garakuta Doll Play.mp3
AudioLeadIn: 0
PreviewTime: 76190
Countdown: 0
SampleSet: None
StackLeniency: 0.7
Mode: 1
LetterboxInBreaks: 0
WidescreenStoryboard: 1

[Editor]
DistanceSpacing: 0.6
BeatDivisor: 2
GridSize: 32
TimelineZoom: 3.619998

[Metadata]
Title:Garakuta Doll Play
TitleUnicode:Garakuta Doll Play
Artist:t+pazolite
ArtistUnicode:t+pazolite
Creator:Firce777
Version:Ura Oni
Source:maimai
Tags:GDP
BeatmapID:4048039
BeatmapSetID:409872

[Difficulty]
HPDrainRate:5
CircleSize:5
OverallDifficulty:6
ApproachRate:5
SliderMultiplier:1.4
SliderTickRate:1

[Events]
//Background and Video events
0,0,"BG.png",0,0
//Break Periods
//Storyboard Layer 0 (Background)
//Storyboard Layer 1 (Fail)
//Storyboard Layer 2 (Pass)
//Storyboard Layer 3 (Foreground)
//Storyboard Layer 4 (Overlay)
//Storyboard Sound Samples

[TimingPoints]
1189,234.375,4,1,0,100,1,0
8689,-100,4,1,0,100,0,1
15251,-100,4,1,0,100,0,0
16189,-100,4,1,0,100,0,1
19001,-100,4,1,0,100,0,0
19939,-100,4,1,0,100,0,1
23689,-100,4,1,0,100,0,0
25564,-100,4,1,0,100,0,1
26501,-100,4,1,0,100,0,0
27439,-100,4,1,0,100,0,1
29314,-100,4,1,0,100,0,0
31189,-100,4,1,0,100,0,1
32126,-100,4,1,0,100,0,0
33064,-100,4,1,0,100,0,1
34001,-100,4,1,0,100,0,0
34939,-100,4,1,0,100,0,1
35876,-100,4,1,0,100,0,0
36815,-100,4,1,0,100,0,0
38689,-100,4,1,0,100,0,1
39626,-100,4,1,0,100,0,0
40564,-100,4,1,0,100,0,1
41501,-100,4,1,0,100,0,0
42439,-100,4,1,0,100,0,1
44314,-100,4,1,0,100,0,0
46189,-133.333333333333,4,1,0,100,0,0
53689,-133.333333333333,4,1,0,100,0,1
54626,-133.333333333333,4,1,0,100,0,0
55564,-133.333333333333,4,1,0,100,0,1
56501,-133.333333333333,4,1,0,100,0,0
57439,-133.333333333333,4,1,0,100,0,1
60251,-133.333333333333,4,1,0,100,0,0
61189,-90.9090909090909,4,1,0,100,0,1
67751,-90.9090909090909,4,1,0,100,0,0
68689,-90.9090909090909,4,1,0,100,0,1
76189,-100,4,1,0,100,0,0
91189,-86.9565217391304,4,1,0,100,0,1
97751,-86.9565217391304,4,1,0,100,0,0
98689,-86.9565217391304,4,1,0,100,0,1
105251,-86.9565217391304,4,1,0,100,0,0
106189,-83.3333333333333,4,1,0,100,0,1
109940,-83.3333333333333,4,1,0,100,0,1
121189,-83.3333333333333,4,1,0,100,0,0

[HitObjects]
256,192,4470,5,8,0:0:0:0:
256,192,4587,1,8,0:0:0:0:
256,192,4704,1,8,0:0:0:0:
256,192,4821,1,8,0:0:0:0:
256,192,4939,1,4,0:0:0:0:
256,192,5173,1,8,0:0:0:0:
256,192,5407,1,8,0:0:0:0:
256,192,5524,1,8,0:0:0:0:
256,192,5759,1,8,0:0:0:0:
256,192,6110,1,8,0:0:0:0:
256,192,6345,1,8,0:0:0:0:
256,192,6462,1,8,0:0:0:0:
256,192,6579,1,8,0:0:0:0:
256,192,6696,1,8,0:0:0:0:
256,192,6814,1,0,0:0:0:0:
256,192,7048,1,8,0:0:0:0:
256,192,7282,1,8,0:0:0:0:
256,192,7399,1,8,0:0:0:0:
256,192,7634,1,8,0:0:0:0:
256,192,8220,1,8,0:0:0:0:
256,192,8454,1,8,0:0:0:0:
256,192,8689,1,4,0:0:0:0:
256,192,8923,1,0,0:0:0:0:
256,192,9157,1,8,0:0:0:0:
256,192,9274,1,8,0:0:0:0:
256,192,9392,1,0,0:0:0:0:
256,192,9509,1,8,0:0:0:0:
256,192,9626,1,0,0:0:0:0:
256,192,9860,1,0,0:0:0:0:
256,192,10095,1,0,0:0:0:0:
256,192,10212,1,8,0:0:0:0:
256,192,10329,1,0,0:0:0:0:
256,192,10446,1,8,0:0:0:0:
256,192,10564,1,4,0:0:0:0:
256,192,10798,1,0,0:0:0:0:
256,192,11032,1,8,0:0:0:0:
256,192,11149,1,8,0:0:0:0:
256,192,11267,1,0,0:0:0:0:
256,192,11384,1,8,0:0:0:0:
256,192,11501,1,0,0:0:0:0:
256,192,11735,1,0,0:0:0:0:
256,192,11970,1,8,0:0:0:0:
256,192,12087,1,0,0:0:0:0:
256,192,12146,1,0,0:0:0:0:
256,192,12204,1,8,0:0:0:0:
256,192,12321,1,0,0:0:0:0:
256,192,12439,1,4,0:0:0:0:
256,192,12556,1,0,0:0:0:0:
256,192,12614,1,0,0:0:0:0:
256,192,12673,1,0,0:0:0:0:
256,192,12790,1,0,0:0:0:0:
256,192,12907,1,8,0:0:0:0:
256,192,13024,1,8,0:0:0:0:
256,192,13142,1,0,0:0:0:0:
256,192,13259,1,8,0:0:0:0:
256,192,13376,1,4,0:0:0:0:
256,192,13493,1,0,0:0:0:0:
256,192,13552,1,0,0:0:0:0:
256,192,13610,1,0,0:0:0:0:
256,192,13728,1,0,0:0:0:0:
256,192,13845,1,8,0:0:0:0:
256,192,13962,1,8,0:0:0:0:
256,192,14079,1,8,0:0:0:0:
256,192,14138,1,0,0:0:0:0:
256,192,14196,1,8,0:0:0:0:
256,192,14314,1,4,0:0:0:0:
256,192,14431,1,0,0:0:0:0:
256,192,14489,1,0,0:0:0:0:
256,192,14548,1,0,0:0:0:0:
256,192,14665,1,0,0:0:0:0:
256,192,14782,1,8,0:0:0:0:
256,192,14899,1,8,0:0:0:0:
256,192,14958,1,0,0:0:0:0:
256,192,15017,1,0,0:0:0:0:
256,192,15134,1,8,0:0:0:0:
192,96,15251,2,0,L|288:96,1,70
192,96,15485,2,0,L|288:96,1,70
192,96,15720,2,0,L|288:96,1,70
192,96,15954,2,0,L|288:96,1,70
256,192,16189,1,4,0:0:0:0:
256,192,16423,1,4,0:0:0:0:
256,192,16657,1,4,0:0:0:0:
256,192,16892,1,4,0:0:0:0:
256,192,17126,1,4,0:0:0:0:
256,192,17360,1,4,0:0:0:0:
256,192,17478,1,8,0:0:0:0:
256,192,17595,1,4,0:0:0:0:
256,192,17829,1,0,0:0:0:0:
256,192,17946,1,0,0:0:0:0:
256,192,18064,1,4,0:0:0:0:
256,192,18298,1,4,0:0:0:0:
256,192,18415,1,8,0:0:0:0:
256,192,18532,1,4,0:0:0:0:
256,192,18767,1,4,0:0:0:0:
256,192,19001,1,0,0:0:0:0:
256,192,19060,1,0,0:0:0:0:
256,192,19118,1,0,0:0:0:0:
256,192,19235,1,4,0:0:0:0:
256,192,19470,12,0,19587,0:0:0:0:
256,192,19704,5,4,0:0:0:0:
256,192,19939,1,4,0:0:0:0:
256,192,20173,1,4,0:0:0:0:
256,192,20407,1,4,0:0:0:0:
256,192,20642,1,4,0:0:0:0:
256,192,20876,1,4,0:0:0:0:
256,192,20993,1,0,0:0:0:0:
256,192,21052,1,8,0:0:0:0:
256,192,21110,1,0,0:0:0:0:
256,192,21228,1,8,0:0:0:0:
256,192,21345,1,4,0:0:0:0:
128,64,21579,2,0,P|320:32|320:320,1,560
256,192,22751,1,8,0:0:0:0:
160,64,22985,2,0,L|256:64,1,70
160,64,23220,2,0,L|256:64,1,70
160,64,23454,2,0,L|256:64,1,70
256,192,23689,12,0,23806,0:0:0:0:
256,192,24040,5,4,0:0:0:0:
256,192,24157,1,12,0:0:0:0:
256,192,24392,1,4,0:0:0:0:
256,192,24626,1,4,0:0:0:0:
256,192,24860,1,4,0:0:0:0:
256,192,24978,1,8,0:0:0:0:
256,192,25095,1,12,0:0:0:0:
256,192,25329,1,4,0:0:0:0:
256,192,25564,1,4,0:0:0:0:
256,192,25798,1,4,0:0:0:0:
256,192,25915,1,8,0:0:0:0:
256,192,26032,1,4,0:0:0:0:
256,192,26267,1,4,0:0:0:0:
256,192,26501,1,0,0:0:0:0:
256,192,26618,1,0,0:0:0:0:
256,192,26677,1,0,0:0:0:0:
256,192,26735,1,0,0:0:0:0:
256,192,26970,12,0,27087,0:0:0:0:
256,192,27204,5,4,0:0:0:0:
256,192,27439,1,4,0:0:0:0:
256,192,27673,1,4,0:0:0:0:
256,192,27907,1,4,0:0:0:0:
256,192,28142,1,4,0:0:0:0:
256,192,28376,1,4,0:0:0:0:
256,192,28493,1,0,0:0:0:0:
256,192,28552,1,0,0:0:0:0:
256,192,28610,1,8,0:0:0:0:
256,192,28728,1,0,0:0:0:0:
256,192,28845,1,4,0:0:0:0:
256,192,29079,1,8,0:0:0:0:
128,64,29196,2,0,L|352:64,1,210
256,192,29665,1,0,0:0:0:0:
256,192,29782,1,8,0:0:0:0:
256,192,29899,1,0,0:0:0:0:
256,192,30017,1,0,0:0:0:0:
256,192,30134,1,0,0:0:0:0:
256,192,30251,1,8,0:0:0:0:
256,192,30368,1,0,0:0:0:0:
192,96,30485,2,0,L|288:64,1,70
256,192,30720,1,8,0:0:0:0:
256,192,30837,1,0,0:0:0:0:
160,128,30954,2,0,L|256:128,1,70
256,192,31189,1,4,0:0:0:0:
256,192,31423,1,4,0:0:0:0:
256,192,31657,12,0,31774,0:0:0:0:
256,192,31892,5,4,0:0:0:0:
256,192,32126,1,4,0:0:0:0:
256,192,32360,1,0,0:0:0:0:
256,192,32419,1,0,0:0:0:0:
256,192,32478,1,0,0:0:0:0:
256,192,32595,1,4,0:0:0:0:
256,192,32829,1,0,0:0:0:0:
256,192,32946,1,0,0:0:0:0:
256,192,33064,1,4,0:0:0:0:
256,192,33298,1,4,0:0:0:0:
256,192,33532,12,0,33649,0:0:0:0:
256,192,33767,5,4,0:0:0:0:
256,192,34001,1,4,0:0:0:0:
256,192,34235,1,4,0:0:0:0:
256,192,34353,1,8,0:0:0:0:
256,192,34470,1,4,0:0:0:0:
256,192,34704,1,0,0:0:0:0:
256,192,34821,1,0,0:0:0:0:
256,192,34939,1,4,0:0:0:0:
256,192,35173,1,4,0:0:0:0:
256,192,35407,12,0,35524,0:0:0:0:
256,192,35642,5,4,0:0:0:0:
256,192,35876,1,4,0:0:0:0:
256,192,36110,1,0,0:0:0:0:
256,192,36228,1,0,0:0:0:0:
256,192,36345,1,4,0:0:0:0:
256,192,36579,1,8,0:0:0:0:
96,0,36696,2,0,L|320:32,1,210
256,192,37165,1,8,0:0:0:0:
256,192,37282,1,0,0:0:0:0:
256,192,37399,1,8,0:0:0:0:
256,192,37517,1,0,0:0:0:0:
256,192,37751,1,4,0:0:0:0:
256,192,37985,1,4,0:0:0:0:
160,64,38220,2,0,L|256:64,1,70
256,192,38454,1,12,0:0:0:0:
256,192,38689,1,4,0:0:0:0:
256,192,38923,1,4,0:0:0:0:
256,192,39157,12,0,39274,0:0:0:0:
256,192,39392,5,4,0:0:0:0:
256,192,39626,1,4,0:0:0:0:
256,192,39860,1,0,0:0:0:0:
256,192,39919,1,0,0:0:0:0:
256,192,39978,1,0,0:0:0:0:
256,192,40095,1,4,0:0:0:0:
256,192,40329,1,0,0:0:0:0:
256,192,40446,1,0,0:0:0:0:
256,192,40564,1,4,0:0:0:0:
256,192,40798,1,4,0:0:0:0:
256,192,41032,12,0,41149,0:0:0:0:
256,192,41267,5,4,0:0:0:0:
256,192,41501,1,4,0:0:0:0:
256,192,41735,1,4,0:0:0:0:
256,192,41853,1,8,0:0:0:0:
256,192,41970,1,4,0:0:0:0:
256,192,42204,1,0,0:0:0:0:
256,192,42321,1,0,0:0:0:0:
256,192,42439,1,4,0:0:0:0:
256,192,42673,1,4,0:0:0:0:
256,192,42907,1,0,0:0:0:0:
256,192,43024,1,0,0:0:0:0:
256,192,43142,1,0,0:0:0:0:
256,192,43259,1,0,0:0:0:0:
256,192,43376,1,4,0:0:0:0:
256,192,43610,1,4,0:0:0:0:
256,192,43845,1,0,0:0:0:0:
256,192,43903,1,0,0:0:0:0:
256,192,43962,1,0,0:0:0:0:
256,192,44021,1,0,0:0:0:0:
256,192,44079,1,0,0:0:0:0:
256,192,44196,1,0,0:0:0:0:
256,192,44314,1,12,0:0:0:0:
256,192,44665,1,12,0:0:0:0:
256,192,44899,1,12,0:0:0:0:
256,192,45134,1,4,0:0:0:0:
256,192,45485,1,0,0:0:0:0:
256,192,45720,1,8,0:0:0:0:
256,192,45954,1,8,0:0:0:0:
256,192,46189,1,0,0:0:0:0:
256,192,46247,1,8,0:0:0:0:
256,192,46540,1,8,0:0:0:0:
256,192,46599,1,8,0:0:0:0:
256,192,46657,1,8,0:0:0:0:
256,192,46892,1,8,0:0:0:0:
256,192,46950,1,8,0:0:0:0:
256,192,47009,1,0,0:0:0:0:
256,192,47243,1,8,0:0:0:0:
256,192,47360,1,0,0:0:0:0:
256,192,47478,1,8,0:0:0:0:
256,192,47595,1,0,0:0:0:0:
256,192,47712,1,8,0:0:0:0:
256,192,47771,1,0,0:0:0:0:
256,192,47829,1,0,0:0:0:0:
256,192,48064,1,4,0:0:0:0:
256,192,48181,1,8,0:0:0:0:
256,192,48298,1,8,0:0:0:0:
256,192,48415,1,0,0:0:0:0:
256,192,48532,1,8,0:0:0:0:
256,192,48767,1,0,0:0:0:0:
256,192,48884,1,0,0:0:0:0:
256,192,49001,1,0,0:0:0:0:
256,192,49118,1,8,0:0:0:0:
256,192,49235,1,0,0:0:0:0:
256,192,49353,1,8,0:0:0:0:
256,192,49411,1,0,0:0:0:0:
256,192,49470,1,8,0:0:0:0:
256,192,49704,1,0,0:0:0:0:
256,192,49763,1,8,0:0:0:0:
256,192,49821,1,8,0:0:0:0:
256,192,49939,1,4,0:0:0:0:
256,192,50056,1,0,0:0:0:0:
256,192,50173,1,8,0:0:0:0:
256,192,50231,1,8,0:0:0:0:
256,192,50290,1,8,0:0:0:0:
256,192,50407,1,8,0:0:0:0:
256,192,50524,1,0,0:0:0:0:
256,192,50642,1,8,0:0:0:0:
256,192,50700,1,8,0:0:0:0:
256,192,50759,1,0,0:0:0:0:
256,192,50876,1,0,0:0:0:0:
256,192,50993,1,0,0:0:0:0:
256,192,51110,1,0,0:0:0:0:
256,192,51169,1,8,0:0:0:0:
256,192,51228,1,8,0:0:0:0:
256,192,51345,1,8,0:0:0:0:
256,192,51462,1,0,0:0:0:0:
256,192,51579,1,0,0:0:0:0:
256,192,51638,1,8,0:0:0:0:
256,192,51696,1,8,0:0:0:0:
256,192,51814,1,0,0:0:0:0:
256,192,52048,1,8,0:0:0:0:
256,192,52106,1,8,0:0:0:0:
256,192,52165,1,8,0:0:0:0:
256,192,52282,1,8,0:0:0:0:
256,192,52399,1,8,0:0:0:0:
256,192,52517,1,0,0:0:0:0:
256,192,52634,1,0,0:0:0:0:
256,192,52868,1,8,0:0:0:0:
256,192,52985,1,0,0:0:0:0:
256,192,53103,1,8,0:0:0:0:
256,192,53220,1,0,0:0:0:0:
256,192,53337,1,8,0:0:0:0:
256,192,53454,1,0,0:0:0:0:
256,192,53689,1,4,0:0:0:0:
256,192,54040,1,8,0:0:0:0:
256,192,54392,1,4,0:0:0:0:
256,192,54626,1,4,0:0:0:0:
256,192,54978,1,4,0:0:0:0:
256,192,55329,1,4,0:0:0:0:
256,192,55564,1,4,0:0:0:0:
256,192,55798,1,8,0:0:0:0:
256,192,56032,1,8,0:0:0:0:
256,192,56267,1,8,0:0:0:0:
256,192,56501,1,0,0:0:0:0:
256,192,56560,1,8,0:0:0:0:
256,192,56853,1,0,0:0:0:0:
256,192,56911,1,8,0:0:0:0:
256,192,57204,1,0,0:0:0:0:
256,192,57439,1,4,0:0:0:0:
256,192,57673,1,8,0:0:0:0:
256,192,57731,1,8,0:0:0:0:
256,192,57907,1,4,0:0:0:0:
256,192,58142,1,0,0:0:0:0:
256,192,58259,1,0,0:0:0:0:
256,192,58376,1,4,0:0:0:0:
256,192,58610,1,8,0:0:0:0:
256,192,58845,1,4,0:0:0:0:
256,192,59079,1,0,0:0:0:0:
256,192,59196,1,0,0:0:0:0:
256,192,59314,1,4,0:0:0:0:
256,192,59548,1,4,0:0:0:0:
256,192,59782,1,4,0:0:0:0:
256,192,60017,1,4,0:0:0:0:
128,64,60251,2,0,L|192:64,1,52.5000020027161
128,64,60485,2,0,L|192:64,1,52.5000020027161
128,64,60720,2,0,L|192:64,1,52.5000020027161
128,64,60954,2,0,L|192:64,1,52.5000020027161
256,192,61189,1,4,0:0:0:0:
256,192,61423,1,4,0:0:0:0:
256,192,61540,1,8,0:0:0:0:
256,192,61657,1,4,0:0:0:0:
256,192,61892,1,4,0:0:0:0:
256,192,62126,1,4,0:0:0:0:
256,192,62243,1,8,0:0:0:0:
256,192,62360,1,4,0:0:0:0:
256,192,62595,1,0,0:0:0:0:
256,192,62712,1,8,0:0:0:0:
256,192,62829,1,4,0:0:0:0:
256,192,63064,1,4,0:0:0:0:
256,192,63298,1,4,0:0:0:0:
256,192,63415,1,8,0:0:0:0:
256,192,63532,1,4,0:0:0:0:
256,192,63767,1,4,0:0:0:0:
256,192,64001,1,0,0:0:0:0:
256,192,64060,1,0,0:0:0:0:
256,192,64118,1,0,0:0:0:0:
256,192,64235,1,0,0:0:0:0:
256,192,64353,1,0,0:0:0:0:
256,192,64470,1,4,0:0:0:0:
256,192,64704,1,4,0:0:0:0:
256,192,64939,1,4,0:0:0:0:
256,192,65173,1,4,0:0:0:0:
256,192,65290,1,8,0:0:0:0:
256,192,65407,1,4,0:0:0:0:
256,192,65642,1,4,0:0:0:0:
256,192,65876,1,0,0:0:0:0:
256,192,65935,1,0,0:0:0:0:
256,192,65993,1,0,0:0:0:0:
256,192,66110,1,0,0:0:0:0:
256,192,66228,1,0,0:0:0:0:
256,192,66345,1,4,0:0:0:0:
256,192,66579,1,0,0:0:0:0:
256,192,66696,1,0,0:0:0:0:
256,192,66755,1,0,0:0:0:0:
256,192,66814,1,0,0:0:0:0:
256,192,67048,1,4,0:0:0:0:
256,192,67165,1,8,0:0:0:0:
256,192,67282,1,4,0:0:0:0:
256,192,67517,1,4,0:0:0:0:
128,64,67751,2,0,L|224:64,1,77.0000023498536
128,32,67985,2,0,L|256:32,1,77.0000023498536
128,64,68220,2,0,L|256:64,1,77.0000023498536
128,96,68454,2,0,L|256:64,1,77.0000023498536
256,192,68689,1,4,0:0:0:0:
256,192,68923,1,4,0:0:0:0:
256,192,69040,1,8,0:0:0:0:
256,192,69157,1,4,0:0:0:0:
256,192,69392,1,4,0:0:0:0:
256,192,69626,1,4,0:0:0:0:
256,192,69743,1,8,0:0:0:0:
256,192,69860,1,4,0:0:0:0:
256,192,70095,1,4,0:0:0:0:
256,192,70329,1,0,0:0:0:0:
256,192,70446,1,0,0:0:0:0:
256,192,70564,1,4,0:0:0:0:
256,192,70798,1,4,0:0:0:0:
256,192,70915,1,8,0:0:0:0:
256,192,71032,1,4,0:0:0:0:
256,192,71267,1,4,0:0:0:0:
256,192,71501,1,0,0:0:0:0:
256,192,71618,1,0,0:0:0:0:
256,192,71677,1,0,0:0:0:0:
256,192,71735,1,0,0:0:0:0:
256,192,71853,1,0,0:0:0:0:
256,192,71970,1,4,0:0:0:0:
256,192,72204,1,4,0:0:0:0:
256,192,72439,1,4,0:0:0:0:
256,192,72673,1,4,0:0:0:0:
256,192,72790,1,8,0:0:0:0:
256,192,72907,1,4,0:0:0:0:
256,192,73142,1,4,0:0:0:0:
256,192,73376,1,0,0:0:0:0:
256,192,73493,1,0,0:0:0:0:
256,192,73552,1,0,0:0:0:0:
256,192,73610,1,0,0:0:0:0:
256,192,73728,1,0,0:0:0:0:
256,192,73845,1,0,0:0:0:0:
256,192,73962,1,8,0:0:0:0:
256,192,74079,1,0,0:0:0:0:
256,192,74196,1,8,0:0:0:0:
256,192,74314,1,0,0:0:0:0:
256,192,74431,1,0,0:0:0:0:
256,192,74548,1,8,0:0:0:0:
256,192,74606,1,8,0:0:0:0:
256,192,74665,1,8,0:0:0:0:
256,192,74782,1,0,0:0:0:0:
256,192,74841,1,0,0:0:0:0:
256,192,74899,1,8,0:0:0:0:
256,192,74958,1,8,0:0:0:0:
256,192,75017,1,8,0:0:0:0:
256,192,75075,1,0,0:0:0:0:
256,192,75134,1,0,0:0:0:0:
256,192,75192,1,8,0:0:0:0:
256,192,75251,1,0,0:0:0:0:
256,192,75310,1,8,0:0:0:0:
256,192,75368,1,0,0:0:0:0:
256,192,75427,1,8,0:0:0:0:
256,192,75485,1,0,0:0:0:0:
256,192,75544,1,8,0:0:0:0:
256,192,75603,1,0,0:0:0:0:
256,192,75720,1,8,0:0:0:0:
256,192,75954,1,8,0:0:0:0:
256,192,76189,1,4,0:0:0:0:
256,192,76657,1,8,0:0:0:0:
256,192,76774,1,8,0:0:0:0:
256,192,77009,1,8,0:0:0:0:
256,192,77595,1,8,0:0:0:0:
256,192,77712,1,8,0:0:0:0:
256,192,77829,1,8,0:0:0:0:
256,192,77946,1,8,0:0:0:0:
256,192,78064,1,8,0:0:0:0:
256,192,78532,1,8,0:0:0:0:
256,192,78649,1,8,0:0:0:0:
256,192,78884,1,8,0:0:0:0:
256,192,79470,1,8,0:0:0:0:
256,192,79704,1,8,0:0:0:0:
256,192,79939,1,8,0:0:0:0:
256,192,80407,1,8,0:0:0:0:
256,192,80524,1,8,0:0:0:0:
256,192,80759,1,8,0:0:0:0:
256,192,81345,1,8,0:0:0:0:
256,192,81462,1,8,0:0:0:0:
256,192,81579,1,8,0:0:0:0:
256,192,81696,1,8,0:0:0:0:
256,192,81814,1,8,0:0:0:0:
256,192,82282,1,8,0:0:0:0:
256,192,82399,1,8,0:0:0:0:
256,192,82634,1,8,0:0:0:0:
256,192,83220,1,8,0:0:0:0:
256,192,83454,1,8,0:0:0:0:
256,192,83689,1,4,0:0:0:0:
256,192,83923,1,0,0:0:0:0:
256,192,84157,1,0,0:0:0:0:
256,192,84274,1,8,0:0:0:0:
256,192,84392,1,0,0:0:0:0:
256,192,84509,1,8,0:0:0:0:
256,192,84626,1,0,0:0:0:0:
256,192,84860,1,0,0:0:0:0:
256,192,84978,1,8,0:0:0:0:
256,192,85095,1,0,0:0:0:0:
256,192,85329,1,0,0:0:0:0:
256,192,85564,1,4,0:0:0:0:
256,192,85798,1,0,0:0:0:0:
256,192,85915,1,8,0:0:0:0:
256,192,86032,1,0,0:0:0:0:
256,192,86149,1,8,0:0:0:0:
256,192,86267,1,0,0:0:0:0:
256,192,86384,1,8,0:0:0:0:
256,192,86501,1,0,0:0:0:0:
256,192,86735,1,0,0:0:0:0:
256,192,86853,1,8,0:0:0:0:
256,192,86970,1,0,0:0:0:0:
256,192,87087,1,8,0:0:0:0:
256,192,87321,1,8,0:0:0:0:
256,192,87439,1,4,0:0:0:0:
256,192,87673,1,0,0:0:0:0:
256,192,87907,1,0,0:0:0:0:
256,192,88024,1,8,0:0:0:0:
256,192,88142,1,0,0:0:0:0:
256,192,88259,1,8,0:0:0:0:
256,192,88376,1,4,0:0:0:0:
256,192,88610,1,0,0:0:0:0:
256,192,88728,1,8,0:0:0:0:
256,192,88845,1,0,0:0:0:0:
256,192,89079,1,0,0:0:0:0:
256,192,89196,1,8,0:0:0:0:
256,192,89314,1,4,0:0:0:0:
256,192,89431,1,8,0:0:0:0:
256,192,89548,1,0,0:0:0:0:
256,192,89665,1,8,0:0:0:0:
256,192,89782,1,4,0:0:0:0:
256,192,89899,1,8,0:0:0:0:
256,192,90017,1,0,0:0:0:0:
256,192,90134,1,8,0:0:0:0:
256,192,90251,1,4,0:0:0:0:
256,192,90485,1,4,0:0:0:0:
256,192,90720,1,12,0:0:0:0:
256,192,91189,1,4,0:0:0:0:
256,192,91423,1,4,0:0:0:0:
256,192,91657,1,4,0:0:0:0:
256,192,91774,1,8,0:0:0:0:
256,192,91892,1,4,0:0:0:0:
256,192,92009,1,8,0:0:0:0:
256,192,92126,1,4,0:0:0:0:
256,192,92360,1,4,0:0:0:0:
256,192,92478,1,8,0:0:0:0:
256,192,92595,1,4,0:0:0:0:
256,192,92829,1,0,0:0:0:0:
256,192,92946,1,0,0:0:0:0:
256,192,93064,1,4,0:0:0:0:
256,192,93298,1,4,0:0:0:0:
256,192,93415,1,8,0:0:0:0:
256,192,93532,1,4,0:0:0:0:
256,192,93649,1,8,0:0:0:0:
256,192,93767,1,4,0:0:0:0:
256,192,93884,1,8,0:0:0:0:
256,192,94001,1,4,0:0:0:0:
256,192,94235,1,4,0:0:0:0:
256,192,94353,1,8,0:0:0:0:
256,192,94470,1,4,0:0:0:0:
256,192,94704,1,0,0:0:0:0:
256,192,94763,1,0,0:0:0:0:
256,192,94821,1,0,0:0:0:0:
256,192,94939,1,4,0:0:0:0:
256,192,95173,1,4,0:0:0:0:
256,192,95407,1,4,0:0:0:0:
256,192,95524,1,8,0:0:0:0:
256,192,95642,1,4,0:0:0:0:
256,192,95759,1,8,0:0:0:0:
256,192,95876,1,4,0:0:0:0:
256,192,96110,1,4,0:0:0:0:
256,192,96228,1,8,0:0:0:0:
256,192,96345,1,4,0:0:0:0:
256,192,96579,1,4,0:0:0:0:
256,192,96696,1,4,0:0:0:0:
256,192,96931,1,8,0:0:0:0:
256,192,97048,1,8,0:0:0:0:
256,192,97165,1,8,0:0:0:0:
256,192,97282,1,4,0:0:0:0:
256,192,97399,1,8,0:0:0:0:
256,192,97517,1,4,0:0:0:0:
256,192,97634,1,8,0:0:0:0:
256,192,97751,1,4,0:0:0:0:
256,192,97985,1,12,0:0:0:0:
256,192,98220,1,12,0:0:0:0:
256,192,98454,1,12,0:0:0:0:
256,192,98689,1,4,0:0:0:0:
256,192,98923,1,4,0:0:0:0:
256,192,99157,1,4,0:0:0:0:
256,192,99274,1,8,0:0:0:0:
256,192,99392,1,4,0:0:0:0:
256,192,99509,1,8,0:0:0:0:
256,192,99626,1,4,0:0:0:0:
256,192,99860,1,4,0:0:0:0:
256,192,99978,1,8,0:0:0:0:
256,192,100095,1,4,0:0:0:0:
256,192,100329,1,4,0:0:0:0:
256,192,100564,1,4,0:0:0:0:
256,192,100798,1,4,0:0:0:0:
256,192,100915,1,8,0:0:0:0:
256,192,101032,1,4,0:0:0:0:
256,192,101149,1,8,0:0:0:0:
256,192,101267,1,4,0:0:0:0:
256,192,101384,1,8,0:0:0:0:
256,192,101501,1,4,0:0:0:0:
256,192,101735,1,4,0:0:0:0:
256,192,101853,1,8,0:0:0:0:
256,192,101970,1,0,0:0:0:0:
256,192,102087,1,0,0:0:0:0:
256,192,102321,1,0,0:0:0:0:
256,192,102380,1,0,0:0:0:0:
256,192,102439,1,0,0:0:0:0:
256,192,102673,1,4,0:0:0:0:
256,192,102907,1,4,0:0:0:0:
256,192,103024,1,8,0:0:0:0:
256,192,103142,1,4,0:0:0:0:
256,192,103259,1,8,0:0:0:0:
256,192,103376,1,4,0:0:0:0:
256,192,103610,1,4,0:0:0:0:
256,192,103728,1,8,0:0:0:0:
256,192,103845,1,4,0:0:0:0:
256,192,104079,1,4,0:0:0:0:
256,192,104196,1,0,0:0:0:0:
256,192,104431,1,8,0:0:0:0:
256,192,104548,1,8,0:0:0:0:
256,192,104665,1,8,0:0:0:0:
256,192,104782,1,4,0:0:0:0:
256,192,104899,1,8,0:0:0:0:
256,192,105017,1,4,0:0:0:0:
256,192,105134,1,8,0:0:0:0:
256,192,105251,1,4,0:0:0:0:
256,192,105485,1,4,0:0:0:0:
256,192,105720,1,12,0:0:0:0:
256,192,106189,1,4,0:0:0:0:
256,192,106306,1,8,0:0:0:0:
256,192,106423,1,8,0:0:0:0:
256,192,106540,1,4,0:0:0:0:
256,192,106657,1,8,0:0:0:0:
256,192,106774,1,8,0:0:0:0:
256,192,106892,1,4,0:0:0:0:
256,192,107009,1,8,0:0:0:0:
256,192,107126,1,8,0:0:0:0:
256,192,107243,1,4,0:0:0:0:
256,192,107360,1,8,0:0:0:0:
256,192,107478,1,8,0:0:0:0:
256,192,107595,1,4,0:0:0:0:
256,192,107712,1,8,0:0:0:0:
256,192,107829,1,4,0:0:0:0:
256,192,107946,1,8,0:0:0:0:
256,192,108064,1,4,0:0:0:0:
256,192,108181,1,8,0:0:0:0:
256,192,108298,1,8,0:0:0:0:
256,192,108415,1,4,0:0:0:0:
256,192,108532,1,8,0:0:0:0:
256,192,108649,1,8,0:0:0:0:
256,192,108767,1,4,0:0:0:0:
256,192,108884,1,8,0:0:0:0:
256,192,109001,1,8,0:0:0:0:
256,192,109118,1,4,0:0:0:0:
256,192,109235,1,8,0:0:0:0:
256,192,109353,1,8,0:0:0:0:
256,192,109470,1,4,0:0:0:0:
256,192,109587,1,8,0:0:0:0:
256,192,109704,1,8,0:0:0:0:
256,192,109821,1,0,0:0:0:0:
256,192,109880,1,0,0:0:0:0:
256,192,109939,1,0,0:0:0:0:
256,192,110056,1,8,0:0:0:0:
256,192,110173,1,8,0:0:0:0:
256,192,110290,1,4,0:0:0:0:
256,192,110407,1,8,0:0:0:0:
256,192,110524,1,8,0:0:0:0:
256,192,110642,1,4,0:0:0:0:
256,192,110759,1,8,0:0:0:0:
256,192,110876,1,8,0:0:0:0:
256,192,110993,1,4,0:0:0:0:
256,192,111110,1,8,0:0:0:0:
256,192,111228,1,8,0:0:0:0:
256,192,111345,1,4,0:0:0:0:
256,192,111462,1,8,0:0:0:0:
256,192,111579,1,4,0:0:0:0:
256,192,111696,1,8,0:0:0:0:
256,192,111814,1,4,0:0:0:0:
256,192,111931,1,8,0:0:0:0:
256,192,112048,1,8,0:0:0:0:
256,192,112165,1,4,0:0:0:0:
256,192,112282,1,8,0:0:0:0:
256,192,112399,1,8,0:0:0:0:
256,192,112517,1,4,0:0:0:0:
256,192,112634,1,8,0:0:0:0:
256,192,112751,1,8,0:0:0:0:
256,192,112868,1,4,0:0:0:0:
256,192,112985,1,8,0:0:0:0:
256,192,113103,1,8,0:0:0:0:
256,192,113220,1,4,0:0:0:0:
256,192,113454,1,4,0:0:0:0:
256,192,113689,1,4,0:0:0:0:
256,192,113806,1,4,0:0:0:0:
256,192,113923,1,12,0:0:0:0:
256,192,114040,1,4,0:0:0:0:
256,192,114157,1,4,0:0:0:0:
256,192,114274,1,4,0:0:0:0:
256,192,114392,1,12,0:0:0:0:
256,192,114509,1,4,0:0:0:0:
256,192,114626,1,4,0:0:0:0:
256,192,114743,1,4,0:0:0:0:
256,192,114860,1,12,0:0:0:0:
256,192,114978,1,4,0:0:0:0:
256,192,115095,1,4,0:0:0:0:
256,192,115212,1,0,0:0:0:0:
256,192,115271,1,0,0:0:0:0:
256,192,115329,1,0,0:0:0:0:
256,192,115388,1,0,0:0:0:0:
256,192,115446,1,0,0:0:0:0:
256,192,115564,1,4,0:0:0:0:
256,192,115681,1,4,0:0:0:0:
256,192,115798,1,12,0:0:0:0:
256,192,115915,1,4,0:0:0:0:
256,192,116032,1,4,0:0:0:0:
256,192,116149,1,4,0:0:0:0:
256,192,116267,1,12,0:0:0:0:
256,192,116384,1,4,0:0:0:0:
256,192,116501,1,4,0:0:0:0:
256,192,116618,1,4,0:0:0:0:
256,192,116735,1,12,0:0:0:0:
256,192,116853,1,4,0:0:0:0:
256,192,116970,1,4,0:0:0:0:
256,192,117087,1,0,0:0:0:0:
256,192,117146,1,0,0:0:0:0:
256,192,117204,1,0,0:0:0:0:
256,192,117263,1,0,0:0:0:0:
256,192,117321,1,0,0:0:0:0:
256,192,117439,1,4,0:0:0:0:
256,192,117556,1,4,0:0:0:0:
256,192,117673,1,12,0:0:0:0:
256,192,117790,1,4,0:0:0:0:
256,192,117907,1,4,0:0:0:0:
256,192,118024,1,4,0:0:0:0:
256,192,118142,1,12,0:0:0:0:
256,192,118259,1,4,0:0:0:0:
256,192,118376,1,0,0:0:0:0:
256,192,118435,1,0,0:0:0:0:
256,192,118493,1,0,0:0:0:0:
256,192,118552,1,0,0:0:0:0:
256,192,118610,1,8,0:0:0:0:
256,192,118669,1,0,0:0:0:0:
256,192,118728,1,0,0:0:0:0:
256,192,118786,1,0,0:0:0:0:
256,192,118845,1,8,0:0:0:0:
256,192,118903,1,8,0:0:0:0:
256,192,118962,1,0,0:0:0:0:
256,192,119021,1,0,0:0:0:0:
256,192,119079,1,8,0:0:0:0:
256,192,119138,1,8,0:0:0:0:
256,192,119196,1,0,0:0:0:0:
256,192,119431,1,8,0:0:0:0:
256,192,119548,1,8,0:0:0:0:
256,192,119665,1,8,0:0:0:0:
256,192,119782,1,0,0:0:0:0:
256,192,119899,1,8,0:0:0:0:
256,192,120017,1,0,0:0:0:0:
256,192,120134,1,8,0:0:0:0:
160,64,120251,2,0,L|256:64,1,83.9999974365235
160,64,120485,2,0,L|256:64,1,83.9999974365235
160,64,120720,2,0,L|256:64,1,83.9999974365235
160,64,120954,2,0,L|256:64,1,83.9999974365235
256,192,121189,1,4,0:0:0:0:
