osu file format v14

[General]
AudioFilename: garakuta.mp3
AudioLeadIn: 0
PreviewTime: 75490
Countdown: 1
SampleSet: Normal
StackLeniency: 0.7
Mode: 0
LetterboxInBreaks: 1
WidescreenStoryboard: 1

[Editor]
Bookmarks: 490,4240,7990,15490,30490,45490,60490,86388
DistanceSpacing: 0.5
BeatDivisor: 4
GridSize: 4
TimelineZoom: 4.399998

[Metadata]
Title:Garakuta Doll Play
TitleUnicode:Garakuta Doll Play
Artist:t+pazolite
ArtistUnicode:t+pazolite
Creator:BluOxy
Version:Re:MASTER
Source:maimai
Tags:SEGA 天下一音ゲ祭 jubeat saucer fulfill taiko no tatsujin kimidori groove coster Chunithm
BeatmapID:998411
BeatmapSetID:466538

[Difficulty]
HPDrainRate:7
CircleSize:4.5
OverallDifficulty:8.6
ApproachRate:10
SliderMultiplier:1.6
SliderTickRate:1

[Events]
//Background and Video events
0,0,"29469868_p0.jpg",0,0
//Break Periods
//Storyboard Layer 0 (Background)
//Storyboard Layer 1 (Fail)
//Storyboard Layer 2 (Pass)
//Storyboard Layer 3 (Foreground)
//Storyboard Sound Samples

[TimingPoints]
490,234.375,4,2,1,60,1,0
490,-200,4,2,1,60,0,0
3771,-200,4,1,1,60,0,0
4240,-200,4,2,1,60,0,0
7286,-50,4,1,2,45,0,0
7521,-149.253731343284,4,2,1,60,0,0
7697,-149.253731343284,4,2,1,5,0,0
7755,-119.047619047619,4,2,1,60,0,0
7931,-119.047619047619,4,2,1,5,0,0
7990,-100,4,1,4,60,0,0
8048,-100,4,2,1,60,0,0
9865,-100,4,1,4,60,0,0
9923,-100,4,2,1,60,0,0
11271,-149.253731343284,4,2,1,60,0,0
11388,-100,4,1,1,60,0,0
11505,-119.047619047619,4,1,1,60,0,0
11740,-100,4,1,4,60,0,0
11798,-100,4,1,1,60,0,0
12677,-100,4,1,4,60,0,0
12736,-100,4,1,1,60,0,0
13615,-100,4,1,4,60,0,0
13673,-100,4,1,1,60,0,0
14083,-66.6666666666667,4,1,4,60,0,0
14113,-66.6666666666667,4,1,1,60,0,0
14552,-100,4,1,2,60,0,0
14786,-85.4700854700855,4,1,2,60,0,0
15021,-74.6268656716418,4,1,2,60,0,0
15255,-66.6666666666667,4,1,2,60,0,0
15490,-100,4,1,4,60,0,0
16368,-100,4,1,4,5,0,0
16427,-100,4,1,4,60,0,0
16954,-100,4,1,4,5,0,0
17013,-100,4,1,4,60,0,0
17130,-66.6666666666667,4,1,4,60,0,0
17189,-66.6666666666667,4,1,4,5,0,0
17247,-66.6666666666667,4,1,4,60,0,0
17306,-66.6666666666667,4,1,4,5,0,0
17365,-100,4,1,4,60,0,0
18302,-100,4,1,2,60,0,0
18771,-66.6666666666667,4,1,2,60,0,0
19240,-100,4,1,4,60,0,0
20118,-100,4,1,4,5,0,0
20177,-100,4,1,2,60,0,0
20880,-100,4,1,4,60,0,0
21115,-100,4,1,2,45,0,0
22755,-75.187969924812,4,1,2,45,0,0
22931,-75.187969924812,4,1,4,5,0,0
22990,-100,4,1,4,60,0,0
23341,-100,4,1,2,45,0,0
23693,-100,4,1,4,60,0,0
24396,-100,4,1,2,45,0,0
24630,-66.6666666666667,4,1,4,60,0,0
24865,-100,4,1,4,60,0,0
25802,-100,4,1,2,60,0,0
26271,-66.6666666666667,4,1,2,60,0,0
26740,-100,4,1,4,60,0,0
27618,-100,4,1,4,5,0,0
27677,-100,4,1,2,60,0,0
28380,-100,4,1,4,60,0,0
28615,-200,4,2,1,60,0,0
29552,-100,4,2,1,45,0,0
29786,-85.4700854700855,4,2,1,45,0,0
30021,-74.6268656716418,4,2,1,45,0,0
30255,-66.6666666666667,4,2,1,45,0,0
30490,-100,4,1,4,60,0,0
30665,-100,4,1,4,5,0,0
30724,-100,4,1,4,60,0,0
31134,-100,4,1,4,5,0,0
31193,-100,4,1,4,60,0,0
31603,-100,4,1,4,5,0,0
31661,-100,4,1,2,60,0,0
32130,-100,4,1,4,60,0,0
32540,-100,4,1,4,5,0,0
32599,-100,4,1,4,60,0,0
33009,-100,4,1,4,5,0,0
33068,-100,4,1,4,60,0,0
34415,-100,4,1,4,5,0,0
34474,-100,4,1,4,60,0,0
34884,-100,4,1,4,5,0,0
34943,-100,4,1,4,60,0,0
35880,-66.6666666666667,4,1,4,60,0,0
36115,-100,4,1,2,60,0,0
37755,-75.187969924812,4,2,1,60,0,0
37990,-100,4,1,4,60,0,0
39161,-100,4,1,2,60,0,0
39630,-100,4,1,4,60,0,0
43146,-100,4,1,2,60,0,0
43615,-100,4,1,2,45,0,0
44786,-100,4,1,2,45,0,0
45021,-74.6268656716418,4,2,1,60,0,0
45255,-119.047619047619,4,2,1,60,0,0
45490,-200,4,2,4,60,0,0
49240,-133.333333333333,4,2,4,60,0,0
52990,-200,4,1,4,60,0,0
53927,-100,4,1,4,60,0,0
54865,-200,4,1,4,60,0,0
55099,-158.730158730159,4,1,4,60,0,0
55333,-133.333333333333,4,1,4,60,0,0
55568,-113.636363636364,4,1,4,60,0,0
55802,-100,4,1,4,60,0,0
56740,-200,4,1,4,60,0,0
57443,-133.333333333333,4,1,4,60,0,0
57677,-200,4,1,4,60,0,0
58380,-133.333333333333,4,1,4,60,0,0
58615,-100,4,1,4,60,0,0
58849,-85.4700854700855,4,1,4,60,0,0
59083,-74.6268656716418,4,1,4,60,0,0
59318,-66.6666666666667,4,1,4,60,0,0
59552,-100,4,1,2,30,0,0
59786,-85.4700854700855,4,1,2,30,0,0
60021,-74.6268656716418,4,1,2,30,0,0
60255,-66.6666666666667,4,1,2,30,0,0
60490,-100,4,1,4,60,0,0
63302,-100,4,1,2,60,0,0
63771,-66.6666666666667,4,1,4,60,0,0
64240,-100,4,1,4,60,0,0
65177,-100,4,1,2,60,0,0
65646,-100,4,1,4,60,0,0
65880,-100,4,1,2,60,0,0
66115,-100,4,1,4,60,0,0
67052,-100,4,1,2,45,0,0
67286,-85.4700854700855,4,1,2,45,0,0
67521,-74.6268656716418,4,1,2,45,0,0
67755,-66.6666666666667,4,1,2,45,0,0
67990,-100,4,1,4,60,0,0
70802,-100,4,1,2,60,0,0
71271,-66.6666666666667,4,1,2,60,0,0
71740,-100,4,1,4,60,0,0
72677,-100,4,1,2,60,0,0
73146,-66.6666666666667,4,1,2,60,0,0
73615,-50,4,1,2,60,0,0
73849,-50,4,1,2,30,0,0
74552,-100,4,1,2,60,0,0
75021,-85.4700854700855,4,1,2,60,0,0
75197,-85.4700854700855,4,1,2,5,0,0
75255,-74.6268656716418,4,1,2,60,0,0
75431,-74.6268656716418,4,1,2,5,0,0
75490,-200,4,2,1,60,0,0
78771,-149.253731343284,4,2,1,60,0,0
78947,-149.253731343284,4,2,1,5,0,0
79005,-119.047619047619,4,2,1,60,0,0
79181,-119.047619047619,4,2,1,5,0,0
79240,-200,4,2,1,60,0,0
82521,-149.253731343284,4,2,1,60,0,0
82697,-149.253731343284,4,2,1,5,0,0
82755,-119.047619047619,4,2,1,60,0,0
82931,-119.047619047619,4,2,1,5,0,0
82990,-100,4,1,4,60,0,0
83165,-100,4,1,4,5,0,0
83224,-100,4,1,3,45,0,0
84103,-100,4,1,3,5,0,0
84161,-100,4,1,3,45,0,0
84572,-100,4,1,3,5,0,0
84630,-100,4,1,3,45,0,0
84865,-100,4,1,4,60,0,0
85040,-100,4,1,3,5,0,0
85099,-100,4,1,3,45,0,0
85978,-100,4,1,3,5,0,0
86036,-100,4,1,3,45,0,0
86388,-100,4,1,2,60,0,0
86740,-100,4,1,4,60,0,0
86857,-100,4,1,3,45,0,0
87677,-100,4,1,4,60,0,0
87853,-100,4,1,3,5,0,0
87911,-100,4,1,3,45,0,0
88322,-100,4,1,3,5,0,0
88380,-100,4,1,3,45,0,0
88615,-100,4,1,4,60,0,0
88732,-100,4,1,3,45,0,0
89083,-100,4,1,4,60,0,0
89200,-100,4,1,3,45,0,0
89552,-100,4,1,4,60,0,0
90021,-100,4,1,2,30,0,0
90050,-66.6666666666667,4,1,2,30,0,0
90490,-90.9090909090909,4,1,4,60,0,1
90665,-90.9090909090909,4,1,4,5,0,1
90724,-90.9090909090909,4,1,4,60,0,1
90958,-90.9090909090909,4,1,4,60,0,0
91603,-90.9090909090909,4,1,4,5,0,0
91661,-90.9090909090909,4,1,4,60,0,0
92072,-90.9090909090909,4,1,4,5,0,0
92130,-90.9090909090909,4,1,4,60,0,0
92540,-90.9090909090909,4,1,4,5,0,0
92599,-90.9090909090909,4,1,4,60,0,0
93478,-90.9090909090909,4,1,4,5,0,0
93536,-90.9090909090909,4,1,4,60,0,0
93947,-90.9090909090909,4,1,4,5,0,0
94005,-90.9090909090909,4,1,2,60,0,0
94240,-90.9090909090909,4,1,4,60,0,0
94415,-90.9090909090909,4,1,4,5,0,0
94474,-90.9090909090909,4,1,4,60,0,0
95353,-90.9090909090909,4,1,4,5,0,0
95411,-90.9090909090909,4,1,4,60,0,0
96173,-90.9090909090909,4,1,4,5,0,0
96232,-90.9090909090909,4,1,4,60,0,0
97052,-100,4,1,2,60,0,0
97286,-85.4700854700855,4,1,2,60,0,0
97521,-74.6268656716418,4,1,2,60,0,0
97755,-66.6666666666667,4,1,2,60,0,0
97990,-90.9090909090909,4,1,4,60,0,1
98165,-90.9090909090909,4,1,4,5,0,1
98224,-90.9090909090909,4,1,4,60,0,1
98458,-90.9090909090909,4,1,4,60,0,0
99103,-90.9090909090909,4,1,4,5,0,0
99161,-90.9090909090909,4,1,4,60,0,0
99572,-90.9090909090909,4,1,4,5,0,0
99630,-90.9090909090909,4,1,4,60,0,0
100040,-90.9090909090909,4,1,4,5,0,0
100099,-90.9090909090909,4,1,4,60,0,0
100802,-60.6060606060606,4,1,2,60,0,0
101271,-90.9090909090909,4,1,4,60,0,0
101564,-90.9090909090909,4,1,4,5,0,0
101622,-90.9090909090909,4,1,2,60,0,0
101740,-90.9090909090909,4,1,4,60,0,0
102853,-90.9090909090909,4,1,4,5,0,0
102911,-90.9090909090909,4,1,4,60,0,0
103322,-90.9090909090909,4,1,4,5,0,0
103380,-90.9090909090909,4,1,4,60,0,0
104552,-50,4,1,2,60,0,0
104962,-50,4,1,2,5,0,0
105021,-50,4,1,2,45,0,0
105490,-83.3333333333333,4,1,4,60,0,1
108947,-83.3333333333333,4,1,4,5,0,1
109005,-83.3333333333333,4,1,4,60,0,1
109064,-83.3333333333333,4,1,2,60,0,1
109240,-83.3333333333333,4,1,4,60,0,1
114630,-83.3333333333333,4,1,2,60,0,1
114865,-83.3333333333333,4,1,4,60,0,1
116505,-83.3333333333333,4,1,2,60,0,1
116740,-83.3333333333333,4,1,4,60,0,1
117677,-83.3333333333333,4,1,2,45,0,1
118146,-50,4,1,2,45,0,1
118497,-100,4,1,4,60,0,0
118673,-100,4,1,4,5,0,0
118732,-100,4,1,4,60,0,0
119552,-66.6666666666667,4,1,2,60,0,0
120021,-100,4,1,2,60,0,0
120490,-66.6666666666667,4,1,4,60,0,0
120607,-200,4,1,4,5,0,0

[Colours]
Combo1 : 255,128,128
Combo2 : 255,128,64
Combo3 : 255,128,0
Combo4 : 255,0,0

[HitObjects]
26,129,490,6,0,P|80:158|150:154,1,120,2|0,0:0|0:0,0:0:0:0:
206,118,958,2,0,L|198:70,1,40,2|0,0:0|0:0,0:0:0:0:
230,276,1310,2,0,L|216:195,1,80,2|0,0:0|0:0,0:0:0:0:
310,311,1661,1,2,0:0:0:0:
158,335,1896,2,0,P|132:347|111:367,1,40,2|0,0:0|0:0,0:0:0:0:
304,210,2130,2,0,P|323:225|342:232,1,40
461,83,2365,6,0,P|413:52|343:55,1,120,2|0,0:0|0:0,0:0:0:0:
285,96,2833,2,0,L|293:139,1,40,2|0,0:0|0:0,0:0:0:0:
462,240,3185,2,0,L|448:161,1,80,2|0,0:0|0:0,0:0:0:0:
392,288,3536,1,2,0:0:0:0:
392,288,3771,5,10,0:0:0:0:
368,157,3888,1,8,0:0:0:0:
471,319,4005,1,8,0:0:0:0:
322,342,4122,1,8,0:0:0:0:
385,251,4240,5,2,0:1:0:0:
388,269,4474,1,0,0:0:0:0:
392,288,4708,2,0,L|399:333,1,40,10|0,0:1|0:0,0:0:0:0:
304,210,4943,2,0,L|297:165,1,40
229,268,5177,5,2,0:0:0:0:
309,311,5411,1,0,0:0:0:0:
68,376,5646,2,0,P|75:344|83:328,1,40,10|0,0:1|0:0,0:0:0:0:
51,222,5880,2,0,P|75:243|84:259,1,40
229,268,6115,6,0,P|185:288|151:288,1,80,2|0,0:0|0:0,0:0:0:0:
304,224,6583,1,10,0:1:0:0:
304,224,6700,2,0,L|311:263,1,40
22,91,6935,2,0,P|55:71|102:65,1,80,2|0,0:0|0:0,0:0:0:0:
251,98,7286,6,8,L|262:55,6,40
164,128,7521,6,0,L|143:213,1,80.3999961968996,2|0,0:0|0:0,0:0:0:0:
332,267,7755,6,0,L|357:161,1,100.799996923828,2|0,0:0|0:0,0:0:0:0:
261,60,7990,6,0,P|260:104|279:143,1,80,14|0,0:0|0:0,0:0:0:0:
435,109,8224,2,0,P|436:65|417:26,1,80,2|0,0:0|0:0,0:0:0:0:
360,152,8458,1,2,0:0:0:0:
507,173,8575,2,0,P|462:180|433:199,1,80,2|0,0:0|0:0,0:0:0:0:
232,224,8810,2,0,P|310:228|378:276,1,160,2|0,0:0|0:0,0:0:0:0:
433,345,9161,1,2,0:0:0:0:
160,264,9396,5,2,0:0:0:0:
216,140,9513,1,2,0:0:0:0:
222,333,9630,1,2,0:0:0:0:
71,269,9747,1,2,0:0:0:0:
146,186,9865,6,0,L|161:268,1,80,14|0,0:1|0:0,0:0:0:0:
131,106,10099,2,0,L|116:27,1,80,2|0,0:0|0:0,0:0:0:0:
62,164,10333,1,2,0:0:0:0:
215,140,10450,2,0,P|250:123|290:118,1,80,2|0,0:0|0:0,0:0:0:0:
509,167,10685,2,0,B|477:177|451:169|451:169|408:194|408:194|383:184|353:191,1,160,2|0,0:0|0:0,0:0:0:0:
344,329,11036,1,2,0:0:0:0:
344,329,11271,6,0,P|330:292|334:259,1,53.5999974645997,2|0,0:0|0:0,0:0:0:0:
497,102,11505,6,0,P|508:140|508:183,1,67.1999979492188,2|0,0:2|0:0,0:0:0:0:
165,92,11740,6,0,L|244:79,1,80,14|0,0:0|0:0,0:0:0:0:
344,144,11974,1,10,0:0:0:0:
364,33,12091,1,0,0:0:0:0:
240,190,12208,1,2,0:0:0:0:
430,217,12325,2,0,L|474:249,2,40,2|0|8,0:0|0:0|0:0,0:0:0:0:
258,76,12560,1,2,0:0:0:0:
433,305,12677,5,14,0:0:0:0:
207,384,12794,1,0,0:0:0:0:
207,384,12853,1,0,0:0:0:0:
207,384,12911,2,0,P|191:338|192:302,1,80,10|0,0:0|0:0,0:0:0:0:
462,148,13146,1,2,0:0:0:0:
121,67,13263,1,2,0:0:0:0:
121,67,13322,1,0,0:0:0:0:
121,67,13380,2,0,P|105:113|106:149,1,80,10|2,0:0|0:0,0:0:0:0:
249,243,13615,5,14,0:0:0:0:
227,225,13673,1,0,0:0:0:0:
200,215,13732,1,0,0:0:0:0:
172,217,13790,1,0,0:0:0:0:
146,228,13849,1,2,0:0:0:0:
120,239,13907,1,0,0:0:0:0:
91,240,13966,1,0,0:0:0:0:
64,229,14025,1,0,0:0:0:0:
40,208,14083,6,0,L|32:164,14,30.0000011444092,14|0|0|0|2|0|0|0|0|0|0|0|2|0|0,0:0|0:0|0:0|0:0|0:0|0:0|0:0|0:0|0:0|0:0|0:0|0:0|0:0|0:0|0:0,0:0:0:0:
43,221,14552,6,0,L|57:314,1,80,8|0,0:0|0:0,0:0:0:0:
172,336,14786,6,0,L|186:226,1,93.6000003570557,8|0,0:0|0:0,0:0:0:0:
300,178,15021,6,0,L|314:290,1,107.199994929199,8|0,0:0|0:0,0:0:0:0:
426,344,15255,6,0,L|446:214,1,120.000004577637,8|0,0:0|0:0,0:0:0:0:
493,88,15490,6,0,P|511:123|511:162,1,80,14|0,0:0|0:0,0:0:0:0:
360,196,15724,2,0,P|341:160|341:121,1,80,10|0,0:0|0:0,0:0:0:0:
402,64,15958,1,10,0:0:0:0:
402,64,16075,1,0,0:0:0:0:
231,0,16193,2,0,P|258:52|258:111,1,120,10|0,0:0|0:0,0:0:0:0:
206,173,16427,2,0,P|159:157|108:165,1,80,10|0,0:0|0:0,0:0:0:0:
58,196,16661,1,10,0:0:0:0:
188,350,16779,2,0,P|201:292|241:248,1,120,2|0,0:0|0:0,0:0:0:0:
324,232,17013,1,0,0:0:0:0:
310,372,17130,6,0,P|308:343|300:314,1,60.0000022888184,12|0,0:0|0:0,0:0:0:0:
206,173,17247,2,0,P|213:135|226:114,1,60.0000022888184,8|0,0:0|0:0,0:0:0:0:
501,122,17365,6,0,P|465:138|420:137,1,80,10|0,0:0|0:0,0:0:0:0:
313,22,17599,2,0,P|344:45|366:84,1,80,10|0,0:0|0:0,0:0:0:0:
324,232,17833,2,0,P|328:192|351:154,1,80,10|0,0:0|0:0,0:0:0:0:
448,55,18068,1,10,0:0:0:0:
448,55,18185,1,0,0:0:0:0:
410,220,18302,5,10,0:0:0:0:
290,104,18419,2,8,L|250:93,2,40,10|8|10,0:0|0:0|0:0,0:0:0:0:
479,278,18654,1,10,0:0:0:0:
279,312,18771,6,0,P|356:330|384:360,1,120.000004577637,8|0,0:0|0:0,0:0:0:0:
142,192,19005,2,0,P|64:173|36:143,1,120.000004577637,8|0,0:0|0:0,0:0:0:0:
206,251,19240,6,0,L|190:329,1,80,10|0,0:0|0:0,0:0:0:0:
224,168,19474,2,0,L|240:90,1,80,10|0,0:0|0:0,0:0:0:0:
293,231,19708,1,10,0:0:0:0:
293,231,19825,1,0,0:0:0:0:
398,92,19943,2,0,L|372:215,1,120,10|0,0:0|0:0,0:0:0:0:
417,12,20177,5,10,0:0:0:0:
450,269,20294,1,10,0:0:0:0:
450,269,20353,1,8,0:0:0:0:
450,269,20411,1,8,0:0:0:0:
325,46,20529,1,2,0:0:0:0:
466,178,20646,2,0,L|448:262,1,80,10|0,0:0|0:0,0:0:0:0:
359,294,20880,1,10,0:0:0:0:
476,352,20997,1,2,0:0:0:0:
373,209,21115,6,0,P|328:218|227:175,1,160,2|0,0:0|0:0,0:0:0:0:
172,100,21466,1,8,0:0:0:0:
90,136,21583,1,8,0:0:0:0:
90,136,21700,1,8,0:0:0:0:
90,136,21818,2,0,L|99:228,1,80,8|0,0:0|0:0,0:0:0:0:
16,262,22052,2,0,L|-1:86,1,160,8|8,0:0|0:0,0:0:0:0:
179,178,22404,1,0,0:0:0:0:
163,20,22521,2,0,L|173:116,1,80,8|0,0:0|0:0,0:0:0:0:
97,215,22755,6,0,P|179:204|239:249,1,159.599993424683,14|0,0:0|0:0,0:0:0:0:
285,326,22990,6,0,B|333:290|327:234|327:234|357:227|372:203,1,160,14|0,0:0|0:0,0:0:0:0:
385,112,23341,1,8,0:0:0:0:
441,246,23458,2,0,P|458:211|455:171,1,80,8|0,0:0|0:0,0:0:0:0:
311,65,23693,2,0,P|296:101|302:141,1,80,10|0,0:0|0:0,0:0:0:0:
480,21,23927,6,0,L|400:36,1,80,10|0,0:0|0:0,0:0:0:0:
292,220,24161,2,0,L|371:204,1,80,10|2,0:0|0:0,0:0:0:0:
499,334,24396,1,8,0:0:0:0:
499,334,24630,6,0,L|375:359,1,120.000004577637,4|0,0:0|0:0,0:0:0:0:
210,304,24865,6,0,P|249:307|285:326,1,80,14|0,0:0|0:0,0:0:0:0:
127,326,25099,2,0,P|104:358|70:379,1,80,10|0,0:0|0:0,0:0:0:0:
149,243,25333,2,0,P|132:207|130:167,1,80,10|0,0:0|0:0,0:0:0:0:
228,223,25568,1,10,0:0:0:0:
228,223,25685,1,0,0:0:0:0:
186,380,25802,5,10,0:0:0:0:
69,268,25919,2,8,L|24:256,2,40,10|8|10,0:0|0:0|0:0,0:0:0:0:
307,195,26154,1,2,0:0:0:0:
133,112,26271,6,0,P|181:141|254:134,1,120.000004577637,8|0,0:0|0:0,0:0:0:0:
480,283,26505,2,0,P|432:254|359:261,1,120.000004577637,8|0,0:0|0:0,0:0:0:0:
277,359,26740,6,0,L|292:281,1,80,10|0,0:0|0:0,0:0:0:0:
342,31,26974,2,0,L|327:109,1,80,10|0,0:0|0:0,0:0:0:0:
307,195,27208,1,10,0:0:0:0:
307,195,27325,1,0,0:0:0:0:
393,138,27443,2,0,L|369:256,1,120,10|0,0:0|0:0,0:0:0:0:
355,338,27677,5,8,0:0:0:0:
479,103,27794,1,8,0:0:0:0:
479,103,27852,1,8,0:0:0:0:
479,103,27911,1,8,0:0:0:0:
307,195,28029,1,8,0:0:0:0:
438,320,28146,2,0,L|454:240,1,80
500,376,28380,5,10,0:0:0:0:
292,273,28497,1,0,0:0:0:0:
404,81,28615,5,2,0:0:0:0:
404,84,28732,1,2,0:0:0:0:
403,87,28849,1,2,0:0:0:0:
402,90,28966,1,2,0:0:0:0:
497,22,29083,1,2,0:0:0:0:
323,74,29200,1,2,0:0:0:0:
467,174,29318,1,2,0:0:0:0:
413,3,29435,1,2,0:0:0:0:
308,155,29552,6,2,L|323:238,1,80
231,120,29786,6,2,L|250:23,1,93.6000003570557
187,198,30021,6,2,L|215:316,1,107.199994929199
124,142,30255,6,2,L|146:20,1,120.000004577637
25,287,30490,6,0,P|103:284|134:311,1,120,14|0,0:0|0:0,0:0:0:0:
198,354,30724,2,0,L|311:367,1,80,10|0,0:0|0:0,0:0:0:0:
512,157,30958,2,0,P|434:154|403:181,1,120,10|0,0:0|0:0,0:0:0:0:
341,225,31193,2,0,L|228:238,1,80,10|0,0:0|0:0,0:0:0:0:
0,41,31427,6,0,P|78:38|109:65,1,120,10|0,0:0|0:0,0:0:0:0:
175,114,31661,1,10,0:0:0:0:
175,114,31720,1,8,0:0:0:0:
175,114,31779,2,0,L|165:167,1,40,8|8,0:0|0:0,0:0:0:0:
250,80,31896,2,0,L|236:-4,1,80,8|0,0:0|0:0,0:0:0:0:
316,133,32130,1,10,0:0:0:0:
316,133,32247,1,8,0:0:0:0:
436,75,32365,6,0,P|409:129|419:192,1,120,10|0,0:0|0:0,0:0:0:0:
484,230,32599,2,0,L|468:318,1,80,10|0,0:0|0:0,0:0:0:0:
206,384,32833,2,0,P|179:330|189:267,1,120,10|0,0:0|0:0,0:0:0:0:
259,236,33067,2,0,L|243:148,1,80,10|0,0:0|0:0,0:0:0:0:
34,83,33302,5,10,0:0:0:0:
103,220,33419,1,2,0:0:0:0:
120,69,33537,1,10,0:0:0:0:
18,180,33654,1,2,0:0:0:0:
167,151,33771,2,0,P|192:121|204:75,1,80,10|0,0:0|0:0,0:0:0:0:
65,5,34005,1,10,0:0:0:0:
26,269,34122,1,8,0:0:0:0:
174,4,34240,6,0,P|219:40|278:42,1,120,10|0,0:0|0:0,0:0:0:0:
353,8,34474,2,0,B|432:18,1,80,10|0,0:0|0:0,0:0:0:0:
511,207,34708,2,0,P|466:171|407:169,1,120,10|0,0:0|0:0,0:0:0:0:
333,205,34942,2,0,B|253:194,1,80,10|0,0:0|0:0,0:0:0:0:
177,180,35177,6,0,L|165:91,1,80,10|2,0:0|0:0,0:0:0:0:
101,222,35411,2,0,L|89:311,1,80,10|10,0:0|0:0,0:0:0:0:
23,204,35646,1,10,0:0:0:0:
23,204,35880,6,0,B|35:170|0:137|0:137|14:124|43:128,1,120.000004577637
194,327,36115,6,0,P|257:280|337:292,1,160,2|0,0:0|0:0,0:0:0:0:
400,353,36466,1,10,0:0:0:0:
486,329,36583,1,8,0:0:0:0:
486,329,36700,1,8,0:0:0:0:
486,329,36818,2,0,L|503:250,1,80,10|0,0:0|0:0,0:0:0:0:
448,108,37052,2,0,B|413:270,1,160,10|10,0:0|0:0,0:0:0:0:
375,53,37404,1,2,0:0:0:0:
345,211,37521,2,0,L|361:128,1,80,8|2,0:0|0:0,0:0:0:0:
456,25,37755,6,0,P|389:38|304:-4,1,159.599993424683,6|0,0:0|0:0,0:0:0:0:
225,26,37990,6,0,P|251:102|240:140,1,120,14|0,0:0|0:0,0:0:0:0:
92,108,38224,2,0,L|170:95,1,80,10|0,0:0|0:0,0:0:0:0:
17,144,38458,2,0,P|-9:220|2:258,1,120,10|0,0:0|0:0,0:0:0:0:
153,221,38692,2,0,L|73:211,1,80,10|0,0:0|0:0,0:0:0:0:
228,260,38927,6,0,P|254:336|243:374,1,120,10|0,0:0|0:0,0:0:0:0:
133,334,39161,1,10,0:0:0:0:
133,334,39220,1,8,0:0:0:0:
133,334,39279,2,8,L|173:328,1,40,10|8,0:0|0:0,0:0:0:0:
380,296,39396,2,0,L|300:306,1,80,10|0,0:0|0:0,0:0:0:0:
435,227,39630,1,10,0:0:0:0:
453,354,39747,1,10,0:0:0:0:
499,173,39865,6,0,P|440:184|392:154,1,120,10|0,0:0|0:0,0:0:0:0:
466,26,40099,2,0,L|456:106,1,80,10|0,0:0|0:0,0:0:0:0:
302,186,40333,2,0,P|244:174|194:205,1,120,10|0,0:0|0:0,0:0:0:0:
271,335,40567,2,0,L|261:255,1,80,10|0,0:0|0:0,0:0:0:0:
135,113,40802,5,10,0:0:0:0:
135,113,40919,1,2,0:0:0:0:
89,202,41036,1,10,0:0:0:0:
233,96,41153,1,2,0:0:0:0:
73,25,41271,2,0,P|45:55|34:100,1,80,10|0,0:0|0:0,0:0:0:0:
194,204,41505,1,10,0:0:0:0:
177,12,41623,1,8,0:0:0:0:
24,134,41740,6,0,P|50:180|31:252,1,120,10|0,0:0|0:0,0:0:0:0:
6,270,41974,2,0,L|84:257,1,80,10|0,0:0|0:0,0:0:0:0:
275,299,42208,1,10,0:0:0:0:
150,143,42325,1,10,0:0:0:0:
171,343,42443,1,10,0:0:0:0:
270,173,42560,1,10,0:0:0:0:
198,244,42677,5,10,0:0:0:0:
198,244,42911,1,10,0:0:0:0:
372,306,43146,1,8,0:0:0:0:
372,306,43204,1,8,0:0:0:0:
372,306,43263,2,8,L|375:258,1,40
385,186,43380,1,8,0:0:0:0:
362,384,43497,1,8,0:0:0:0:
468,134,43615,6,0,P|398:149|316:114,1,160,12|0,0:0|0:0,0:0:0:0:
252,67,43966,2,0,B|238:104|238:104|244:143,1,80,12|0,0:0|0:0,0:0:0:0:
462,299,44200,2,0,B|477:260|477:260|467:211,1,80,12|0,0:0|0:0,0:0:0:0:
244,143,44435,2,0,B|228:181|228:181|237:219|237:219|220:255|220:255|228:295|228:295,1,160,12|0,0:0|0:0,0:0:0:0:
482,384,44786,6,0,P|438:380|396:359,1,80
41,344,45021,6,0,P|87:341|146:314,1,107.199994929199,2|0,0:0|0:0,0:0:0:0:
399,254,45255,6,0,P|355:238|311:196,1,100.799996923828,2|0,0:0|0:0,0:0:0:0:
131,99,45490,6,0,B|166:90|180:65|180:65|171:93|178:123,1,120,12|0,0:1|0:0,0:0:0:0:
244,186,45958,1,8,0:3:0:0:
244,186,46193,1,0,0:0:0:0:
305,244,46310,1,8,0:1:0:0:
218,309,46427,6,0,L|224:269,1,40
265,59,46661,2,0,L|258:98,1,40,8|0,0:1|0:0,0:0:0:0:
244,186,46896,1,8,0:3:0:0:
397,125,47013,2,0,L|322:153,1,80
123,229,47365,6,0,L|170:212,1,40,8|0,0:1|0:0,0:0:0:0:
335,270,47599,2,0,L|296:237,1,40
265,59,47833,2,0,L|258:98,1,40,8|0,0:3|0:0,0:0:0:0:
217,310,48068,2,0,L|224:271,1,40,0|8,0:0|0:1,0:0:0:0:
244,186,48302,5,0,0:0:0:0:
322,153,48419,1,0,0:0:0:0:
175,127,48536,1,8,0:1:0:0:
225,271,48654,1,0,0:0:0:0:
258,98,48771,1,8,0:3:0:0:
85,243,48888,2,0,L|160:215,1,80
398,123,49240,6,0,P|379:161|384:214,1,90.0000034332277,8|0,0:1|0:0,0:0:0:0:
443,272,49474,1,0,0:0:0:0:
443,272,49532,1,0,0:0:0:0:
443,272,49591,2,0,L|437:301,1,30.0000011444092,0|0,0:0|1:0,0:0:0:0:
356,337,49708,6,0,P|318:318|265:323,1,90.0000034332277,8|0,0:3|0:0,0:0:0:0:
188,357,49943,1,0,0:0:0:0:
188,357,50001,1,0,0:0:0:0:
188,357,50060,2,0,L|158:351,1,30.0000011444092,0|8,0:0|0:1,0:0:0:0:
96,293,50177,6,0,P|115:255|110:202,1,90.0000034332277
51,144,50411,1,8,0:1:0:0:
51,144,50470,1,0,0:0:0:0:
51,144,50529,2,0,L|56:114,1,30.0000011444092
138,77,50646,6,0,P|176:96|229:91,1,90.0000034332277,8|0,0:3|0:0,0:0:0:0:
306,57,50880,1,8,0:1:0:0:
306,57,50939,1,0,0:0:0:0:
306,57,50997,2,0,L|335:62,1,30.0000011444092
398,123,51115,6,0,P|379:161|384:214,1,90.0000034332277,8|0,0:1|0:0,0:0:0:0:
436,300,51349,1,0,0:0:0:0:
436,300,51407,1,0,0:0:0:0:
436,300,51466,2,0,L|442:271,1,30.0000011444092
356,337,51583,5,8,0:3:0:0:
460,194,51700,1,0,0:0:0:0:
498,364,51818,1,0,0:0:0:0:
356,337,51935,2,0,L|233:352,1,120.000004577637,8|0,0:1|0:0,0:0:0:0:
117,291,52286,2,0,L|178:283,1,60.0000022888184,8|0,0:1|0:0,0:0:0:0:
260,241,52521,1,8,0:3:0:0:
97,372,52755,1,8,0:1:0:0:
22,185,52990,6,0,P|74:148|133:151,2,120,14|2|2,0:0|0:0|0:0,0:0:0:0:
185,211,53927,6,0,B|206:177|206:177|203:125,1,80,14|0,0:0|0:0,0:0:0:0:
102,233,54161,1,0,0:0:0:0:
63,92,54279,2,0,B|42:126|42:126|45:178,1,80,14|0,0:0|0:0,0:0:0:0:
150,65,54513,1,0,0:0:0:0:
158,291,54630,1,14,0:0:0:0:
124,152,54747,1,0,0:0:0:0:
24,252,54865,6,0,L|105:232,1,80,14|0,0:0|0:0,0:0:0:0:
300,179,55333,6,0,L|184:210,1,120.000004577637,2|0,0:0|0:0,0:0:0:0:
449,92,55802,6,0,B|470:126|470:126|467:178,1,80,14|0,0:0|0:0,0:0:0:0:
362,65,56036,1,0,0:0:0:0:
327,211,56154,2,0,B|306:177|306:177|309:125,1,80,14|0,0:0|0:0,0:0:0:0:
412,229,56388,1,0,0:0:0:0:
430,0,56505,1,14,0:0:0:0:
388,152,56622,1,0,0:0:0:0:
258,23,56740,6,0,P|318:26|363:67,1,120,14|0,0:0|0:0,0:0:0:0:
181,65,57208,2,0,L|176:25,1,40,10|0,0:0|0:0,0:0:0:0:
196,150,57443,1,10,0:0:0:0:
196,150,57521,1,8,0:0:0:0:
196,150,57599,1,8,0:0:0:0:
109,114,57677,6,0,L|121:237,1,120,14|0,0:0|0:0,0:0:0:0:
308,141,58146,2,0,L|313:101,1,40,10|0,0:0|0:0,0:0:0:0:
296,227,58381,1,10,0:0:0:0:
296,227,58459,1,8,0:0:0:0:
296,227,58537,1,8,0:0:0:0:
378,200,58615,6,0,L|367:285,1,80,14|0,0:0|0:0,0:0:0:0:
137,364,58849,6,0,L|128:271,1,93.6000003570557,10|0,0:0|0:0,0:0:0:0:
431,23,59083,6,0,L|419:129,1,107.199994929199,14|0,0:0|0:0,0:0:0:0:
85,205,59318,6,0,L|74:83,1,120.000004577637,10|0,0:0|0:0,0:0:0:0:
318,82,59552,6,8,L|315:104,6,20,12|8|8|8|8|8|8,0:0|0:0|0:0|0:0|0:0|0:0|0:0,0:0:0:0:
203,39,59786,6,8,L|198:8,6,23.4000000892639
340,221,60021,6,8,L|332:248,6,26.7999987322999
102,157,60255,6,8,L|98:125,6,30.0000011444092
186,300,60490,6,0,P|221:284|266:285,1,80,14|0,0:0|0:0,0:0:0:0:
381,384,60724,2,0,P|349:361|328:322,1,80,8|2,0:0|0:0,0:0:0:0:
358,174,60958,2,0,P|354:212|330:250,1,80,8|0,0:0|0:0,0:0:0:0:
256,365,61193,1,10,0:0:0:0:
256,365,61310,1,0,0:0:0:0:
400,295,61427,5,8,0:0:0:0:
262,203,61544,1,2,0:0:0:0:
432,140,61661,2,0,B|438:182|438:182|417:227,1,80,10|0,0:0|0:0,0:0:0:0:
199,165,61896,2,0,B|193:123|193:123|214:78,1,80,10|0,0:0|0:0,0:0:0:0:
325,41,62130,1,10,0:0:0:0:
285,284,62247,1,10,0:0:0:0:
45,215,62365,6,0,P|83:203|123:198,1,80,10|0,0:0|0:0,0:0:0:0:
353,145,62599,2,0,P|313:141|274:129,1,80,8|2,0:0|0:0,0:0:0:0:
155,78,62833,1,8,0:0:0:0:
262,203,62950,1,0,0:0:0:0:
87,280,63067,1,10,0:0:0:0:
87,280,63185,1,0,0:0:0:0:
199,165,63302,5,10,0:0:0:0:
263,306,63419,2,8,L|309:297,2,40
106,202,63654,1,8,0:0:0:0:
170,355,63771,6,0,P|198:303|188:245,1,120.000004577637,8|0,0:0|0:0,0:0:0:0:
28,98,64005,2,0,P|-1:149|9:207,1,120.000004577637,8|0,0:0|0:0,0:0:0:0:
210,58,64240,6,0,L|127:33,1,80,10|0,0:0|0:0,0:0:0:0:
289,75,64474,2,0,L|352:15,1,80,8|2,0:0|0:0,0:0:0:0:
234,139,64708,2,0,L|253:223,1,80,8|0,0:0|0:0,0:0:0:0:
155,123,64943,1,10,0:0:0:0:
155,123,65060,1,0,0:0:0:0:
264,0,65177,5,8,0:0:0:0:
321,159,65294,1,10,0:0:0:0:
321,159,65353,1,8,0:0:0:0:
321,159,65411,1,10,0:0:0:0:
166,204,65529,1,8,0:0:0:0:
289,307,65646,2,0,P|271:272|270:229,1,80,10|0,0:0|0:0,0:0:0:0:
379,96,65880,1,10,0:0:0:0:
379,96,65939,1,8,0:0:0:0:
379,96,65997,2,8,L|393:149,1,40
411,211,66115,5,10,0:0:0:0:
434,33,66232,1,0,0:0:0:0:
291,79,66349,2,0,L|206:67,1,80,8|2,0:0|0:0,0:0:0:0:
482,142,66583,1,8,0:0:0:0:
349,15,66700,1,0,0:0:0:0:
321,192,66818,1,10,0:0:0:0:
321,192,66935,1,0,0:0:0:0:
504,276,67052,6,0,L|491:357,1,80,8|0,0:0|0:0,0:0:0:0:
336,284,67286,6,0,L|319:185,1,93.6000003570557,8|0,0:0|0:0,0:0:0:0:
180,227,67521,6,0,L|160:342,1,107.199994929199,8|0,0:0|0:0,0:0:0:0:
24,257,67755,6,0,L|-1:134,1,120.000004577637,8|0,0:0|0:0,0:0:0:0:
58,70,67990,6,0,P|92:88|134:93,1,80,10|0,0:0|0:0,0:0:0:0:
270,10,68224,2,0,P|237:30|212:64,1,80,8|2,0:0|0:0,0:0:0:0:
219,226,68458,2,0,P|217:187|200:148,1,80,8|0,0:0|0:0,0:0:0:0:
146,10,68693,1,10,0:0:0:0:
146,10,68810,1,0,0:0:0:0:
121,178,68927,5,8,0:0:0:0:
278,120,69044,1,2,0:0:0:0:
286,278,69161,2,0,B|303:239|303:239|297:201,1,80,10|0,0:0|0:0,0:0:0:0:
53,128,69396,2,0,B|36:167|36:167|42:205,1,80,10|0,0:0|0:0,0:0:0:0:
129,321,69630,1,10,0:0:0:0:
209,72,69747,1,10,0:0:0:0:
364,251,69865,6,0,P|403:259|449:263,1,80,10|0,0:0|0:0,0:0:0:0:
206,304,70099,2,0,P|165:308|127:323,1,80,8|2,0:0|0:0,0:0:0:0:
349,333,70333,1,8,0:0:0:0:
297,202,70450,1,0,0:0:0:0:
273,361,70568,1,10,0:0:0:0:
273,361,70685,1,0,0:0:0:0:
381,159,70802,5,8,0:0:0:0:
236,139,70919,2,8,L|195:147,2,40,10|8|10,0:0|0:0|0:0,0:0:0:0:
395,51,71154,1,8,0:0:0:0:
297,202,71271,6,0,P|287:144|315:88,1,120.000004577637,10|0,0:0|0:0,0:0:0:0:
468,118,71505,2,0,P|478:176|450:232,1,120.000004577637,10|0,0:0|0:0,0:0:0:0:
369,262,71740,5,10,0:0:0:0:
490,35,71857,1,0,0:0:0:0:
381,159,71974,1,8,0:0:0:0:
381,159,72091,1,2,0:0:0:0:
319,12,72208,1,8,0:0:0:0:
446,324,72325,1,0,0:0:0:0:
272,300,72443,2,0,L|186:320,1,80,10|0,0:0|0:0,0:0:0:0:
452,229,72677,5,8,0:0:0:0:
354,360,72794,1,10,0:0:0:0:
354,360,72853,1,8,0:0:0:0:
354,360,72911,1,10,0:0:0:0:
297,202,73029,1,8,0:0:0:0:
369,262,73146,6,0,L|383:142,1,120.000004577637,10|2,0:0|0:0,0:0:0:0:
143,262,73380,2,0,L|128:142,1,120.000004577637,10|2,0:0|0:0,0:0:0:0:
320,1,73615,6,0,B|328:40|328:40|320:80,1,80,2|0,0:0|0:0,0:0:0:0:
192,80,73732,2,0,B|184:40|184:40|192:0,1,80,2|0,0:0|0:0,0:0:0:0:
256,144,73849,1,8,0:0:0:0:
256,144,73907,1,8,0:0:0:0:
256,144,73966,2,8,B|261:167|261:167|252:202|252:202|256:224,1,80
304,319,74083,2,8,L|312:255,6,40
358,185,74318,2,8,L|366:249,6,40
417,326,74552,5,2,0:0:0:0:
510,204,74669,2,0,B|516:241|516:241|505:280,1,80,2|0,0:0|0:0,0:0:0:0:
430,147,74904,1,2,0:0:0:0:
509,99,75021,6,0,B|434:129|376:72,1,140.400000535584,2|0,0:0|0:0,0:0:0:0:
150,75,75255,6,0,B|214:47|266:103|266:103|278:90|277:65,1,160.799992393799,2|0,0:0|0:0,0:0:0:0:
91,20,75490,6,0,P|70:61|73:99,1,80,4|0,0:0|0:0,0:0:0:0:
181,193,75958,2,0,L|189:153,1,40,2|0,0:0|0:0,0:0:0:0:
285,257,76310,2,0,P|284:296|265:331,1,80,2|0,0:0|0:0,0:0:0:0:
20,266,76661,1,2,0:0:0:0:
20,266,76896,2,0,P|26:241|35:223,1,40,2|0,0:0|0:0,0:0:0:0:
199,115,77130,2,0,P|195:134|188:153,1,40,2|0,0:0|0:0,0:0:0:0:
264,331,77365,6,0,P|297:303|377:293,1,120,2|0,0:0|0:0,0:0:0:0:
450,333,77833,2,0,L|441:377,1,40,2|0,0:0|0:0,0:0:0:0:
488,150,78185,2,0,L|473:230,1,80,2|0,0:0|0:0,0:0:0:0:
415,101,78536,1,2,0:0:0:0:
301,129,78771,6,0,P|304:88|288:49,1,80.3999961968996,2|0,0:0|0:0,0:0:0:0:
139,64,79005,6,0,P|134:114|161:166,1,100.799996923828,2|0,0:0|0:0,0:0:0:0:
250,271,79240,6,0,P|253:230|237:191,1,80.3999961968996,2|0,0:0|0:0,0:0:0:0:
137,249,79708,2,0,L|185:241,1,40,2|0,0:0|0:0,0:0:0:0:
63,222,80060,2,0,P|60:263|76:302,1,80.3999961968996,2|0,0:0|0:0,0:0:0:0:
125,370,80411,1,2,0:0:0:0:
125,370,80646,2,0,L|140:323,1,40,2|0,0:0|0:0,0:0:0:0:
13,134,80880,2,0,L|0:172,1,40,2|0,0:0|0:0,0:0:0:0:
0,111,81115,6,0,P|47:146|106:150,1,120,2|0,0:0|0:0,0:0:0:0:
216,144,81583,2,0,L|176:136,1,40,2|0,0:0|0:0,0:0:0:0:
364,176,81935,2,0,L|286:161,1,80,2|0,0:0|0:0,0:0:0:0:
450,118,82286,1,2,0:0:0:0:
450,118,82521,6,0,L|438:198,1,80.3999961968996,2|0,0:0|0:0,0:0:0:0:
512,360,82755,6,0,L|456:277,1,100.799996923828,2|0,0:0|0:0,0:0:0:0:
259,275,82990,6,0,L|377:252,1,120,14|0,0:0|0:0,0:0:0:0:
103,311,83224,2,0,L|182:294,1,80,10|0,0:0|0:0,0:0:0:0:
312,337,83458,1,10,0:0:0:0:
206,216,83575,1,2,0:0:0:0:
234,351,83692,1,10,0:0:0:0:
282,199,83810,1,2,0:0:0:0:
48,131,83927,6,0,P|89:86|149:74,1,120,10|0,0:0|0:0,0:0:0:0:
220,100,84161,2,0,P|228:67|231:20,1,80,10|2,0:0|0:0,0:0:0:0:
464,201,84396,2,0,P|423:246|363:258,1,120,10|0,0:0|0:0,0:0:0:0:
281,234,84630,2,0,P|289:267|292:313,1,80,10|0,0:0|0:0,0:0:0:0:
107,382,84865,6,0,B|82:349|82:349|103:274,1,120,12|0,0:0|0:0,0:0:0:0:
125,194,85099,1,10,0:0:0:0:
177,334,85216,1,2,0:0:0:0:
10,284,85333,1,10,0:0:0:0:
158,77,85450,1,2,0:0:0:0:
104,274,85568,1,10,0:0:0:0:
14,112,85685,1,2,0:0:0:0:
244,32,85802,6,0,B|219:65|219:65|236:141,1,120,10|0,0:0|0:0,0:0:0:0:
258,219,86036,2,0,L|242:297,1,80,8|2,0:0|0:0,0:0:0:0:
171,182,86271,1,10,0:0:0:0:
241,373,86388,2,0,P|281:333|383:328,1,160,10|8,0:0|0:0,0:0:0:0:
446,371,86740,6,0,B|462:336|462:336|454:293,1,80,14|0,0:0|0:0,0:0:0:0:
224,261,86974,2,0,B|208:296|208:296|216:339,1,80,10|0,0:0|0:0,0:0:0:0:
398,178,87208,1,10,0:0:0:0:
300,313,87325,1,2,0:0:0:0:
246,120,87443,1,10,0:0:0:0:
318,224,87560,1,2,0:0:0:0:
487,51,87677,6,0,P|449:91|384:99,1,120,14|0,0:0|0:0,0:0:0:0:
313,67,87911,1,10,0:0:0:0:
386,269,88029,1,2,0:0:0:0:
152,205,88146,2,0,B|180:165|180:165|165:89,1,120,10|0,0:0|0:0,0:0:0:0:
154,15,88380,1,10,0:0:0:0:
64,227,88497,1,2,0:0:0:0:
219,275,88615,6,0,P|254:266|299:261,1,80,14|2,0:0|0:0,0:0:0:0:
85,136,88849,2,0,P|45:131|6:122,1,80,10|2,0:0|0:0,0:0:0:0:
242,25,89083,1,14,0:0:0:0:
131,291,89200,1,2,0:0:0:0:
54,52,89318,1,10,0:0:0:0:
252,183,89435,1,2,0:0:0:0:
58,342,89552,6,2,B|28:288|56:227|98:214|98:214|81:209|81:209|140:211|173:160|152:103,1,320,10|2,0:0|0:0,0:0:0:0:
149,86,90050,6,8,L|143:56,13,30.0000011444092
355,138,90490,6,0,P|289:141|233:108,1,132.00000402832,10|0,0:0|0:0,0:0:0:0:
3,114,90724,2,0,P|49:115|87:137,1,88.000002685547,10|0,0:0|0:0,0:0:0:0:
168,183,90958,1,10,0:0:0:0:
35,306,91075,1,2,0:0:0:0:
65,35,91193,1,10,0:0:0:0:
267,192,91310,1,2,0:0:0:0:
100,354,91427,6,0,P|68:302|79:232,1,132.00000402832,10|0,0:0|0:0,0:0:0:0:
232,266,91661,2,0,L|144:284,1,88.000002685547,10|2,0:0|0:0,0:0:0:0:
400,238,91896,2,0,P|432:186|421:116,1,132.00000402832,10|0,0:0|0:0,0:0:0:0:
346,167,92130,1,10,0:0:0:0:
473,289,92247,1,0,0:0:0:0:
497,76,92365,6,0,P|432:85|365:41,1,132.00000402832,10|0,0:0|0:0,0:0:0:0:
366,34,92599,1,10,0:0:0:0:
467,185,92716,1,2,0:0:0:0:
319,275,92833,2,0,P|306:321|302:360,1,88.000002685547,10|2,0:0|0:0,0:0:0:0:
483,161,93068,2,0,P|495:118|496:75,1,88.000002685547,10|2,0:0|0:0,0:0:0:0:
457,382,93302,6,0,P|464:314|486:248,1,132.00000402832,10|0,0:0|0:0,0:0:0:0:
334,140,93536,2,0,P|333:96|322:54,1,88.000002685547,10|2,0:0|0:0,0:0:0:0:
7,310,93771,2,0,P|42:256|113:221,1,132.00000402832,10|0,0:0|0:0,0:0:0:0:
197,247,94005,1,8,0:0:0:0:
197,247,94064,1,8,0:0:0:0:
197,247,94122,2,8,L|252:257,1,44.0000013427735
322,54,94240,6,0,P|277:101|214:118,1,132.00000402832,10|0,0:0|0:0,0:0:0:0:
131,149,94474,2,0,B|124:103|124:103|146:68,1,88.000002685547,10|0,0:0|0:0,0:0:0:0:
334,177,94708,1,10,0:0:0:0:
314,346,94825,1,2,0:0:0:0:
405,275,94943,1,10,0:0:0:0:
240,254,95060,1,2,0:0:0:0:
492,160,95177,6,0,B|511:245|511:245|489:293,1,132.00000402832,10|0,0:0|0:0,0:0:0:0:
452,359,95411,1,10,0:0:0:0:
322,265,95529,1,2,0:0:0:0:
401,103,95646,2,0,L|417:189,1,88.000002685547,10|0,0:0|0:0,0:0:0:0:
472,69,95880,1,2,0:0:0:0:
343,225,95997,6,0,L|316:84,1,132.00000402832,6|0,0:0|0:0,0:0:0:0:
303,6,96232,1,2,0:0:0:0:
423,232,96349,1,2,0:0:0:0:
208,163,96466,1,2,0:0:0:0:
386,23,96583,1,10,0:0:0:0:
349,266,96700,1,2,0:0:0:0:
229,52,96818,1,10,0:0:0:0:
446,124,96935,1,2,0:0:0:0:
271,260,97052,6,0,P|244:232|206:220,1,80,8|0,0:0|0:0,0:0:0:0:
2,142,97286,6,0,P|34:172|83:182,1,93.6000003570557,8|0,0:0|0:0,0:0:0:0:
82,356,97521,6,0,P|110:329|127:263,1,107.199994929199,8|0,0:0|0:0,0:0:0:0:
215,31,97755,6,0,P|186:58|162:140,1,120.000004577637,8|0,0:0|0:0,0:0:0:0:
437,363,97990,6,0,P|465:335|494:235,1,132.00000402832,14|0,0:0|0:0,0:0:0:0:
479,161,98224,2,0,L|459:68,1,88.000002685547,10|0,0:0|0:0,0:0:0:0:
279,158,98458,1,10,0:0:0:0:
312,330,98575,1,2,0:0:0:0:
414,221,98693,2,0,P|375:236|328:243,1,88.000002685547,10|2,0:0|0:0,0:0:0:0:
28,308,98927,6,0,B|50:314|67:334|67:334|98:297|148:301,1,132.00000402832,10|0,0:0|0:0,0:0:0:0:
225,315,99161,2,0,L|313:330,1,88.000002685547,10|2,0:0|0:0,0:0:0:0:
481,93,99396,2,0,B|458:86|441:66|441:66|410:103|360:99,1,132.00000402832,10|0,0:0|0:0,0:0:0:0:
279,84,99630,1,10,0:0:0:0:
190,176,99747,1,10,0:0:0:0:
106,15,99865,6,0,B|61:49|61:49|71:131,1,132.00000402832,10|0,0:0|0:0,0:0:0:0:
82,213,100099,1,10,0:0:0:0:
19,46,100216,1,2,0:0:0:0:
229,54,100333,2,0,P|191:75|148:88,1,88.000002685547,10|2,0:0|0:0,0:0:0:0:
0,185,100568,2,0,P|41:192|82:213,1,88.000002685547,10|2,0:0|0:0,0:0:0:0:
75,343,100802,6,0,P|113:286|177:257,1,132.00000125885,10|0,0:0|0:0,0:0:0:0:
437,343,101036,2,0,P|399:286|335:257,1,132.00000125885,10|0,0:0|0:0,0:0:0:0:
256,276,101271,5,10,0:0:0:0:
481,64,101388,2,0,B|469:110|421:136|378:126,1,132.00000402832,2|0,0:0|0:0,0:0:0:0:
305,68,101622,1,10,0:0:0:0:
305,68,101681,1,8,0:0:0:0:
305,68,101740,6,0,B|285:109|285:109|293:155,1,88.000002685547,10|0,0:0|0:0,0:0:0:0:
486,271,101974,2,0,B|506:230|506:230|498:184,1,88.000002685547,10|0,0:0|0:0,0:0:0:0:
395,37,102208,1,10,0:0:0:0:
281,242,102325,1,2,0:0:0:0:
181,95,102443,1,10,0:0:0:0:
376,217,102560,1,2,0:0:0:0:
253,351,102677,6,0,P|199:318|123:323,1,132.00000402832,10|0,0:0|0:0,0:0:0:0:
49,351,102911,2,0,L|19:255,1,88.000002685547,10|2,0:0|0:0,0:0:0:0:
256,224,103146,6,0,P|310:191|386:196,1,132.00000402832,10|0,0:0|0:0,0:0:0:0:
460,224,103380,2,0,L|490:128,1,88.000002685547,10|6,0:0|0:0,0:0:0:0:
272,83,103615,5,0,0:0:0:0:
264,104,103673,1,0,0:0:0:0:
256,124,103732,1,0,0:0:0:0:
214,30,103849,5,2,0:0:0:0:
307,178,103966,1,2,0:0:0:0:
172,124,104083,5,10,0:0:0:0:
353,84,104200,1,2,0:0:0:0:
215,205,104318,5,10,0:0:0:0:
309,1,104435,1,2,0:0:0:0:
510,294,104552,6,2,B|502:279|502:279|483:291|483:291|477:273|477:273|460:283|460:283|430:258|386:271|386:271|394:264|394:264|359:282|322:273|322:273|330:280|330:280|313:245|281:239|281:239|265:253|265:253|258:233|258:233|242:246|242:246|228:232|228:232|192:250|151:235|151:235|160:244|160:244|135:218|101:222,1,560
26,252,105021,6,8,L|34:309,15,40
100,333,105490,5,10,0:0:0:0:
48,89,105607,2,8,P|50:133|70:192,1,95.9999970703126
247,14,105841,1,10,0:0:0:0:
306,251,105958,2,8,P|304:207|284:148,1,95.9999970703126
376,308,106193,1,10,0:0:0:0:
376,308,106310,1,8,0:0:0:0:
178,168,106427,5,8,0:0:0:0:
427,227,106544,1,10,0:0:0:0:
264,325,106661,1,8,0:0:0:0:
336,78,106779,1,8,0:0:0:0:
482,334,106896,5,10,0:0:0:0:
425,16,107130,1,10,0:0:0:0:
263,158,107365,5,10,0:0:0:0:
0,191,107482,2,8,L|97:180,1,95.9999970703126
140,248,107716,1,10,0:0:0:0:
249,4,107833,2,8,L|210:92,1,95.9999970703126
285,314,108068,2,8,L|227:236,1,95.9999970703126,10|8,0:0|0:0,0:0:0:0:
103,77,108302,5,8,0:0:0:0:
289,151,108419,1,10,0:0:0:0:
125,280,108536,1,8,0:0:0:0:
374,135,108654,1,8,0:0:0:0:
51,9,108771,6,0,P|90:51|179:62,1,143.999995605469,10|0,0:0|0:0,0:0:0:0:
265,24,109005,2,0,L|274:76,1,47.9999985351563,8|0,0:0|0:0,0:0:0:0:
289,151,109122,1,8,0:0:0:0:
289,151,109181,1,8,0:0:0:0:
289,151,109240,5,10,0:0:0:0:
413,383,109357,2,8,L|395:274,1,95.9999970703126
478,249,109591,1,10,0:0:0:0:
355,11,109708,2,8,L|370:106,1,95.9999970703126
386,201,109943,1,10,0:0:0:0:
386,201,110060,1,8,0:0:0:0:
463,111,110177,5,8,0:0:0:0:
310,289,110294,1,10,0:0:0:0:
362,59,110411,1,8,0:0:0:0:
407,346,110529,1,8,0:0:0:0:
222,228,110646,6,8,L|123:238,1,95.9999970703126,10|0,0:0|0:0,0:0:0:0:
30,71,110880,2,8,L|125:61,1,95.9999970703126,10|0,0:0|0:0,0:0:0:0:
97,325,111115,5,10,0:0:0:0:
9,157,111232,2,8,P|16:207|43:254,1,95.9999970703126
221,49,111466,1,10,0:0:0:0:
312,216,111583,2,8,P|305:166|278:119,1,95.9999970703126
229,268,111818,1,10,0:0:0:0:
229,268,111935,1,8,0:0:0:0:
397,175,112052,5,8,0:0:0:0:
187,140,112169,1,10,0:0:0:0:
319,23,112286,1,8,0:0:0:0:
272,280,112404,1,8,0:0:0:0:
221,49,112521,6,8,P|191:59|115:68,1,95.9999970703126,10|2,0:0|0:0,0:0:0:0:
397,175,112755,2,8,P|444:180|490:194,1,95.9999970703126,10|2,0:0|0:0,0:0:0:0:
187,257,112990,5,10,0:0:0:0:
385,384,113107,2,8,P|399:331|401:288,1,95.9999970703126
378,113,113341,1,10,0:0:0:0:
180,240,113458,2,8,P|166:187|164:144,1,95.9999970703126
383,99,113693,2,8,P|390:47|389:2,1,95.9999970703126,10|8,0:0|0:0,0:0:0:0:
298,190,113927,5,8,0:0:0:0:
483,229,114044,1,10,0:0:0:0:
244,382,114161,1,8,0:0:0:0:
205,49,114279,1,8,0:0:0:0:
391,209,114396,2,8,P|345:194|297:189,1,95.9999970703126,10|10,0:0|0:0,0:0:0:0:
0,133,114630,1,10,0:0:0:0:
18,134,114689,1,8,0:0:0:0:
41,132,114747,2,8,P|64:125|86:115,1,47.9999985351563
216,36,114865,5,10,0:0:0:0:
411,102,114982,2,8,P|407:149|394:195,1,95.9999970703126
403,83,115216,1,10,0:0:0:0:
177,144,115333,2,8,P|180:191|193:237,1,95.9999970703126
400,290,115568,2,8,P|392:345|379:386,1,95.9999970703126,10|8,0:0|0:0,0:0:0:0:
188,122,115802,5,8,0:0:0:0:
429,33,115919,1,10,0:0:0:0:
392,273,116036,1,8,0:0:0:0:
186,0,116154,1,8,0:0:0:0:
377,151,116271,1,10,0:0:0:0:
146,230,116388,1,10,0:0:0:0:
305,0,116505,1,10,0:0:0:0:
299,23,116564,1,8,0:0:0:0:
296,47,116622,2,8,L|286:100,1,47.9999985351563
256,327,116740,5,10,0:0:0:0:
446,358,116857,2,8,L|369:294,1,95.9999970703126
188,122,117091,1,10,0:0:0:0:
62,298,117208,2,8,L|154:263,1,95.9999970703126
377,151,117443,1,10,0:0:0:0:
304,0,117560,2,0,L|293:61,1,47.9999985351563,8|0,0:0|0:0,0:0:0:0:
134,339,117677,5,8,0:0:0:0:
128,315,117735,1,8,0:0:0:0:
124,291,117794,1,10,0:0:0:0:
119,267,117852,1,8,0:0:0:0:
114,243,117911,1,8,0:0:0:0:
109,221,117969,1,8,0:0:0:0:
106,197,118028,1,8,0:0:0:0:
101,173,118087,1,8,0:0:0:0:
96,149,118146,6,8,L|86:106,10,40,10|8|8|8|8|8|8|8|8|8|8,0:0|0:0|0:0|0:0|0:0|0:0|0:0|0:0|0:0|0:0|0:0,0:0:0:0:
25,33,118497,6,0,P|72:73|134:78,1,120,10|0,0:0|0:0,0:0:0:0:
221,57,118732,1,2,0:0:0:0:
18,171,118849,1,2,0:0:0:0:
215,215,118966,1,2,0:0:0:0:
24,340,119083,2,0,P|11:302|11:250,1,80,10|2,0:0|0:0,0:0:0:0:
298,156,119318,2,0,P|310:193|311:246,1,80,10|2,0:0|0:0,0:0:0:0:
103,238,119552,6,0,B|131:233|152:211|152:211|176:223|214:214,1,120.000004577637,8|0,0:0|0:0,0:0:0:0:
488,14,119786,2,0,B|460:19|438:40|438:40|415:29|376:38,1,120.000004577637,8|0,0:0|0:0,0:0:0:0:
272,0,120021,5,8,0:0:0:0:
172,304,120138,2,0,P|241:338|321:326,1,160,8|8,0:0|0:0,0:0:0:0:
427,253,120490,6,0,B|424:251|424:251|429:250|429:250|421:248|421:248|428:247|428:247|423:245|423:245|427:244|427:244|420:240|420:240|426:240|426:240|421:241|421:241|426:237|426:237|421:237|421:237|426:234|426:234|418:233|418:233|426:230|426:230|419:230|419:230|425:227|425:227|417:227|417:227|425:213|425:213|410:203|410:203|419:189|419:189|405:172|405:172|415:145|415:145|405:116,1,240.000009155274,14|0,0:0|0:0,0:0:0:0:
