osu file format v14

[General]
AudioFilename: garakuta.mp3
AudioLeadIn: 0
PreviewTime: 75490
Countdown: 1
SampleSet: Normal
StackLeniency: 0.7
Mode: 0
LetterboxInBreaks: 1
WidescreenStoryboard: 1

[Editor]
Bookmarks: 490,4240,7990,15490,30490,45490,60490,86388
DistanceSpacing: 1
BeatDivisor: 4
GridSize: 4
TimelineZoom: 4.399998

[Metadata]
Title:Garakuta Doll Play
TitleUnicode:Garakuta Doll Play
Artist:t+pazolite
ArtistUnicode:t+pazolite
Creator:BluOxy
Version:Re:ADVANCED
Source:maimai
Tags:SEGA 天下一音ゲ祭 jubeat saucer fulfill taiko no tatsujin kimidori groove coster Chunithm
BeatmapID:1719243
BeatmapSetID:466538

[Difficulty]
HPDrainRate:6
CircleSize:3
OverallDifficulty:6
ApproachRate:6.3
SliderMultiplier:1
SliderTickRate:1

[Events]
//Background and Video events
0,0,"29469868_p0.jpg",0,0
//Break Periods
2,75690,81940
//Storyboard Layer 0 (Background)
//Storyboard Layer 1 (Fail)
//Storyboard Layer 2 (Pass)
//Storyboard Layer 3 (Foreground)
//Storyboard Sound Samples

[TimingPoints]
490,234.375,4,2,1,60,1,0
3771,-100,4,1,1,60,0,0
7286,-100,4,1,2,45,0,0
7521,-100,4,2,1,60,0,0
7990,-100,4,1,4,60,0,0
14552,-100,4,1,2,60,0,0
15490,-100,4,1,4,60,0,0
18302,-100,4,1,2,60,0,0
19240,-100,4,1,4,60,0,0
20177,-100,4,1,2,60,0,0
21115,-100,4,1,2,45,0,0
22990,-100,4,1,4,60,0,0
23341,-100,4,1,2,45,0,0
23693,-100,4,1,4,60,0,0
24396,-100,4,1,2,45,0,0
24865,-100,4,1,4,60,0,0
25802,-100,4,1,2,60,0,0
26740,-100,4,1,4,60,0,0
27677,-100,4,1,2,60,0,0
28615,-100,4,2,1,60,0,0
29552,-100,4,2,1,45,0,0
30490,-100,4,1,4,60,0,0
31661,-100,4,1,2,60,0,0
32130,-100,4,1,4,60,0,0
36115,-100,4,1,2,60,0,0
37990,-100,4,1,4,60,0,0
39161,-100,4,1,2,60,0,0
39630,-100,4,1,4,60,0,0
43146,-100,4,1,2,60,0,0
43615,-100,4,1,2,45,0,0
45021,-100,4,2,1,60,0,0
45490,-100,4,2,4,60,0,0
52990,-100,4,1,4,60,0,0
59552,-100,4,1,2,30,0,0
60490,-100,4,1,4,60,0,0
63302,-100,4,1,2,60,0,0
63771,-100,4,1,4,60,0,0
65177,-100,4,1,2,60,0,0
65646,-100,4,1,4,60,0,0
67052,-100,4,1,2,45,0,0
67990,-100,4,1,4,60,0,0
70802,-100,4,1,2,60,0,0
71740,-100,4,1,4,60,0,0
73146,-100,4,1,2,60,0,0
73849,-100,4,1,2,30,0,0
74552,-100,4,1,2,60,0,0
75490,-100,4,2,1,60,0,0
82990,-100,4,1,4,60,0,0
90021,-100,4,1,2,60,0,0
90490,-100,4,1,4,60,0,1
90958,-100,4,1,4,60,0,0
97052,-100,4,1,2,60,0,0
97990,-100,4,1,4,60,0,1
98458,-100,4,1,4,60,0,0
100802,-100,4,1,2,60,0,0
101271,-100,4,1,4,60,0,0
101740,-100,4,1,4,60,0,0
104552,-100,4,1,2,60,0,0
105021,-100,4,1,2,45,0,0
105490,-100,4,1,4,60,0,1
117677,-100,4,1,2,60,0,1
118497,-100,4,1,4,60,0,0
119552,-100,4,1,2,60,0,0
120490,-100,4,1,4,60,0,0

[Colours]
Combo1 : 255,128,128
Combo2 : 255,128,64
Combo3 : 255,128,0
Combo4 : 255,0,0

[HitObjects]
304,98,490,6,0,P|324:150|335:202,1,100,2|0,0:0|0:0,0:0:0:0:
276,315,958,2,0,P|264:290|255:269,1,50,2|0,0:0|0:0,0:0:0:0:
426,288,1310,2,0,P|439:247|451:172,1,100,2|0,0:0|0:0,0:0:0:0:
436,169,1661,1,2,0:0:0:0:
92,23,1896,2,0,P|101:47|109:72,3,50,2|0|0|0,0:0|0:0|0:0|0:0,0:0:0:0:
207,98,2365,6,0,P|187:150|176:202,1,100,2|0,0:0|0:0,0:0:0:0:
235,315,2833,2,0,P|246:290|255:269,1,50,2|0,0:0|0:0,0:0:0:0:
85,288,3185,2,0,P|72:247|60:172,1,100,2|0,0:0|0:0,0:0:0:0:
75,169,3536,1,2,0:0:0:0:
428,23,3771,1,10,0:0:0:0:
428,23,3888,1,8,0:0:0:0:
428,23,4005,2,0,P|419:47|411:72,1,50,8|8,0:0|0:0,0:0:0:0:
489,145,4240,5,2,0:1:0:0:
393,174,4474,1,0,0:0:0:0:
465,243,4708,2,0,P|452:291|435:348,1,100,10|0,0:1|0:0,0:0:0:0:
214,384,5177,1,2,0:0:0:0:
178,290,5411,1,0,0:0:0:0:
276,308,5646,2,0,P|294:254|305:204,1,100,10|0,0:1|0:0,0:0:0:0:
79,269,6115,5,2,0:0:0:0:
111,174,6349,1,0,0:0:0:0:
40,103,6583,1,10,0:1:0:0:
40,103,6700,1,0,0:0:0:0:
134,69,6935,2,0,B|167:73|167:73|188:97|188:97|225:103,1,100,2|0,0:0|0:0,0:0:0:0:
269,86,7286,1,8,0:0:0:0:
364,115,7521,6,0,P|364:73|329:6,1,100,2|2,0:0|0:0,0:0:0:0:
111,174,7990,6,0,P|111:216|146:283,1,100,14|2,0:0|0:0,0:0:0:0:
226,304,8458,1,2,0:0:0:0:
226,304,8575,1,2,0:0:0:0:
147,366,8810,2,0,P|215:353|289:382,1,150,2|2,0:0|0:0,0:0:0:0:
374,287,9396,2,0,L|381:336,1,50,2|2,0:0|0:0,0:0:0:0:
487,355,9630,2,0,L|480:306,1,50,2|2,0:0|0:0,0:0:0:0:
463,200,9865,6,0,P|413:202|369:179,1,100,14|2,0:1|0:0,0:0:0:0:
354,84,10333,1,2,0:0:0:0:
354,84,10450,1,0,0:0:0:0:
277,148,10685,2,0,B|256:132|253:102|253:102|206:136|161:122,1,150,2|2,0:0|0:0,0:0:0:0:
64,28,11271,2,0,L|72:77,1,50,2|0,0:0|0:0,0:0:0:0:
0,138,11505,2,0,L|8:187,1,50,2|0,0:2|0:0,0:0:0:0:
99,241,11740,6,0,B|120:257|122:283|122:283|143:268|170:271,1,100,14|2,0:0|0:0,0:0:0:0:
256,324,12208,1,2,0:0:0:0:
256,324,12325,1,2,0:0:0:0:
345,279,12560,5,2,0:0:0:0:
345,279,12677,2,0,P|357:231|364:179,1,100,14|2,0:0|0:0,0:0:0:0:
307,98,13146,2,0,P|315:63|316:48,1,50,2|2,0:0|0:0,0:0:0:0:
196,49,13380,2,0,P|198:73|204:98,1,50,2|2,0:0|0:0,0:0:0:0:
256,180,13615,6,0,L|256:216,6,25,14|0|0|0|2|0|0,0:0|0:0|0:0|0:0|0:0|0:0|0:0,0:0:0:0:
256,296,14083,6,0,L|256:312,12,12.5,14|0|0|0|2|0|0|0|0|0|0|0|2,0:0|0:0|0:0|0:0|0:0|0:0|0:0|0:0|0:0|0:0|0:0|0:0|0:0,0:0:0:0:
169,258,14552,5,8,0:0:0:0:
70,275,14786,1,8,0:0:0:0:
105,181,15021,1,8,0:0:0:0:
6,195,15255,1,8,0:0:0:0:
40,101,15490,6,0,P|29:71|28:2,1,100,14|10,0:0|0:0,0:0:0:0:
335,49,15958,2,0,P|346:79|347:148,1,100,10|10,0:0|0:0,0:0:0:0:
155,172,16427,2,0,P|144:142|143:73,1,100,10|10,0:0|0:0,0:0:0:0:
450,120,16895,2,0,P|461:150|462:219,1,100,8|12,0:0|0:0,0:0:0:0:
438,261,17247,1,8,0:0:0:0:
466,302,17365,6,0,L|361:316,1,100,10|10,0:0|0:0,0:0:0:0:
217,343,17833,2,0,L|257:245,1,100,10|10,0:0|0:0,0:0:0:0:
286,98,18302,2,0,L|315:161,2,50,10|10|10,0:0|0:0|0:0,0:0:0:0:
209,33,18771,1,8,0:0:0:0:
197,132,19005,1,8,0:0:0:0:
118,70,19240,6,0,P|102:121|111:176,1,100,10|10,0:0|0:0,0:0:0:0:
419,309,19708,2,0,P|435:258|426:203,1,100,10|10,0:0|0:0,0:0:0:0:
286,98,20177,2,0,L|293:23,2,75,10|8|2,0:0|0:0|0:0,0:0:0:0:
250,133,20646,1,10,0:0:0:0:
268,231,20880,1,10,0:0:0:0:
171,257,21115,6,0,P|92:268|16:233,2,150,2|8|8,0:0|0:0|0:0,0:0:0:0:
268,231,22052,2,0,L|283:331,1,100,8|8,0:0|0:0,0:0:0:0:
374,371,22521,2,0,L|389:265,1,100,8|14,0:0|0:0,0:0:0:0:
477,225,22990,6,0,P|475:176|456:130,1,100,14|0,0:0|0:0,0:0:0:0:
414,103,23341,1,8,0:0:0:0:
391,58,23458,2,0,P|339:33|294:29,1,100,8|10,0:0|0:0,0:0:0:0:
207,72,23927,5,10,0:0:0:0:
229,169,24161,1,10,0:0:0:0:
132,141,24396,1,8,0:0:0:0:
152,238,24630,1,4,0:0:0:0:
55,211,24865,6,0,P|55:260|81:317,1,100,14|10,0:0|0:0,0:0:0:0:
269,358,25333,2,0,P|269:309|243:252,1,100,10|10,0:0|0:0,0:0:0:0:
132,141,25802,2,0,L|120:82,2,50,10|10|10,0:0|0:0|0:0,0:0:0:0:
152,238,26271,1,8,0:0:0:0:
229,169,26505,1,8,0:0:0:0:
324,198,26740,6,0,B|346:188|373:200|373:200|390:176|413:172,1,100,10|10,0:0|0:0,0:0:0:0:
269,358,27208,2,0,B|247:368|220:356|220:356|203:380|179:383,1,100,10|10,0:0|0:0,0:0:0:0:
82,363,27677,1,8,0:0:0:0:
142,283,27911,2,0,L|151:229,2,50,8|8|0,0:0|0:0|0:0,0:0:0:0:
180,383,28380,1,10,0:0:0:0:
49,213,28615,6,0,L|42:162,6,50,2|2|2|2|2|2|2,0:0|0:0|0:0|0:0|0:0|0:0|0:0,0:0:0:0:
137,120,29552,5,2,0:0:0:0:
55,63,29786,1,2,0:0:0:0:
145,20,30021,1,2,0:0:0:0:
226,77,30255,1,2,0:0:0:0:
318,38,30490,6,0,P|323:90|302:147,1,100,14|10,0:0|0:0,0:0:0:0:
128,217,30958,2,0,P|123:165|144:108,1,100,10|10,0:0|0:0,0:0:0:0:
293,243,31427,2,0,P|298:295|277:352,1,100,10|10,0:0|0:0,0:0:0:0:
246,372,31779,1,8,0:0:0:0:
196,376,31896,2,0,L|89:356,1,100,8|10,0:0|0:0,0:0:0:0:
17,296,32365,6,0,P|10:245|29:190,1,100,10|10,0:0|0:0,0:0:0:0:
309,135,32833,2,0,P|316:186|297:241,1,100,10|10,0:0|0:0,0:0:0:0:
136,119,33302,2,0,P|129:68|148:13,1,100,10|10,0:0|0:0,0:0:0:0:
474,51,33770,2,0,P|481:102|462:157,1,100,10|10,0:0|0:0,0:0:0:0:
437,188,34122,1,8,0:0:0:0:
456,234,34240,6,0,L|351:254,1,100,10|10,0:0|0:0,0:0:0:0:
89,311,34708,2,0,L|187:292,1,100,10|10,0:0|0:0,0:0:0:0:
284,316,35177,1,10,0:0:0:0:
262,218,35411,2,0,L|252:168,2,50,10|10|10,0:0|0:0|0:0,0:0:0:0:
381,347,35880,1,0,0:0:0:0:
187,292,36115,6,0,P|103:283|46:237,2,150,2|10|10,0:0|0:0|0:0,0:0:0:0:
279,316,37052,2,0,L|261:217,1,100,10|10,0:0|0:0,0:0:0:0:
357,252,37521,2,0,L|374:153,1,100,8|6,0:0|0:0,0:0:0:0:
455,94,37990,6,0,P|413:64|362:57,1,100,14|10,0:0|0:0,0:0:0:0:
279,316,38458,2,0,P|321:346|372:353,1,100,10|10,0:0|0:0,0:0:0:0:
279,128,38927,2,0,P|237:98|186:91,1,100,10|10,0:0|0:0,0:0:0:0:
144,111,39279,1,10,0:0:0:0:
113,150,39396,2,0,L|135:247,1,100,10|10,0:0|0:0,0:0:0:0:
57,328,39865,6,0,P|36:283|35:234,1,100,10|10,0:0|0:0,0:0:0:0:
279,128,40333,2,0,P|299:173|301:222,1,100,10|10,0:0|0:0,0:0:0:0:
180,250,40802,2,0,P|159:204|157:155,1,100,10|10,0:0|0:0,0:0:0:0:
400,42,41271,2,0,P|420:87|422:136,1,100,10|10,0:0|0:0,0:0:0:0:
402,182,41622,1,8,0:0:0:0:
435,219,41740,6,0,L|422:327,1,100,10|10,0:0|0:0,0:0:0:0:
296,382,42208,2,0,L|305:327,1,50,10|10,0:0|0:0,0:0:0:0:
200,264,42443,2,0,L|191:214,1,50,10|10,0:0|0:0,0:0:0:0:
289,140,42677,5,10,0:0:0:0:
53,58,43146,2,0,L|57:16,4,25,8|8|8|8|8,0:0|0:0|0:0|0:0|0:0,0:0:0:0:
26,100,43497,1,8,0:0:0:0:
45,146,43615,6,0,P|55:190|62:254,1,100,12|0,0:0|0:0,0:0:0:0:
106,265,43966,2,0,P|89:312|82:371,2,100,12|12|12,0:0|0:0|0:0,0:0:0:0:
207,35,45021,1,2,0:0:0:0:
256,121,45255,1,2,0:0:0:0:
308,35,45490,6,0,P|385:36|475:129,1,200,12|8,0:1|0:3,0:0:0:0:
414,320,46310,2,0,L|386:209,1,100,8|0,0:1|0:0,0:0:0:0:
343,204,46661,1,8,0:1:0:0:
309,298,46896,1,8,0:3:0:0:
240,225,47130,1,0,0:0:0:0:
211,321,47365,6,0,B|161:339|118:314|118:314|138:263|104:214,1,200,8|8,0:1|0:3,0:0:0:0:
0,24,48185,2,0,P|11:89|36:126,1,100,8|0,0:1|0:0,0:0:0:0:
77,124,48536,1,8,0:1:0:0:
140,46,48771,1,8,0:3:0:0:
172,140,49005,1,0,0:0:0:0:
246,63,49240,6,0,B|321:61|351:117|351:117|382:88|425:93,1,200,8|8,0:1|0:3,0:0:0:0:
437,324,50060,2,0,P|454:275|455:222,1,100,8|0,0:1|0:0,0:0:0:0:
423,189,50411,1,8,0:1:0:0:
360,267,50646,1,8,0:3:0:0:
268,228,50880,1,8,0:1:0:0:
205,306,51115,6,0,B|173:282|170:243|170:243|108:285|52:245,1,200,8|8,0:1|0:3,0:0:0:0:
35,53,51935,2,0,P|44:106|65:154,1,100,8|0,0:1|0:0,0:0:0:0:
108,167,52286,1,8,0:1:0:0:
142,72,52521,1,8,0:3:0:0:
207,147,52755,1,8,0:1:0:0:
244,53,52990,6,0,B|298:73|306:121|306:121|326:102|355:107,2,150,14|2|2,0:0|0:0|0:0,0:0:0:0:
207,147,53927,1,14,0:0:0:0:
342,12,54279,1,14,0:0:0:0:
363,197,54630,1,14,0:0:0:0:
440,40,54865,6,0,P|456:87|452:143,1,100,14|0,0:0|0:0,0:0:0:0:
363,197,55333,2,0,P|360:246|376:293,1,100,2|0,0:0|0:0,0:0:0:0:
471,341,55802,1,14,0:0:0:0:
281,257,56154,1,14,0:0:0:0:
453,136,56505,1,14,0:0:0:0:
325,359,56740,6,0,P|222:346|164:261,1,200,14|10,0:0|0:0,0:0:0:0:
288,61,57443,1,10,0:0:0:0:
288,61,57677,2,0,P|390:73|448:158,1,200,14|10,0:0|0:0,0:0:0:0:
185,128,58380,1,10,0:0:0:0:
185,128,58615,6,0,L|173:26,1,100,14|10,0:0|0:0,0:0:0:0:
90,85,59083,2,0,L|78:184,1,100,14|10,0:0|0:0,0:0:0:0:
3,251,59552,5,12,0:0:0:0:
26,348,59786,1,8,0:0:0:0:
103,284,60021,1,8,0:0:0:0:
126,381,60255,1,8,0:0:0:0:
203,316,60490,6,0,P|256:285|310:291,1,100,14|8,0:0|0:0,0:0:0:0:
339,305,60841,1,2,0:0:0:0:
378,335,60958,2,0,L|368:384,2,50,8|0|10,0:0|0:0|0:0,0:0:0:0:
446,177,61427,2,0,L|436:128,2,50,8|2|10,0:0|0:0|0:0,0:0:0:0:
470,274,61896,1,10,0:0:0:0:
339,156,62130,1,10,0:0:0:0:
502,47,62365,6,0,P|454:26|396:29,1,100,10|8,0:0|0:0,0:0:0:0:
363,50,62716,1,2,0:0:0:0:
321,22,62833,2,0,L|240:12,2,50,8|0|10,0:0|0:0|0:0,0:0:0:0:
446,177,63302,2,0,L|527:167,2,50,10|8|8,0:0|0:0|0:0,0:0:0:0:
401,152,63654,1,8,0:0:0:0:
354,170,63771,2,0,P|337:226|341:280,1,100,8|8,0:0|0:0,0:0:0:0:
467,356,64240,6,0,P|484:300|480:246,1,100,10|8,0:0|0:0,0:0:0:0:
467,211,64591,1,2,0:0:0:0:
495,170,64708,2,0,L|498:116,2,50,8|0|10,0:0|0:0|0:0,0:0:0:0:
338,266,65177,2,0,L|341:320,2,50,8|10|10,0:0|0:0|0:0,0:0:0:0:
325,217,65529,1,8,0:0:0:0:
278,199,65646,2,0,P|277:149|293:102,1,100,10|10,0:0|0:0,0:0:0:0:
331,69,65997,1,8,0:0:0:0:
381,73,66115,5,10,0:0:0:0:
477,96,66349,1,8,0:0:0:0:
408,168,66583,1,8,0:0:0:0:
504,195,66818,1,10,0:0:0:0:
434,266,67052,6,0,B|385:280|348:248|348:248|314:368|186:354,1,300,8|8,0:0|0:0,0:0:0:0:
97,323,67990,6,0,P|88:268|76:198,1,100,10|8,0:0|0:0,0:0:0:0:
42,191,68341,1,2,0:0:0:0:
64,146,68458,2,0,L|54:92,2,50,8|0|10,0:0|0:0|0:0,0:0:0:0:
171,215,68927,2,0,L|181:272,2,50,8|2|10,0:0|0:0|0:0,0:0:0:0:
151,112,69396,1,10,0:0:0:0:
0,294,69630,1,10,0:0:0:0:
192,354,69865,6,0,P|243:348|301:338,1,100,10|8,0:0|0:0,0:0:0:0:
331,310,70216,1,2,0:0:0:0:
378,326,70333,2,0,L|390:376,2,50,8|0|10,0:0|0:0|0:0,0:0:0:0:
262,174,70802,2,0,L|250:125,2,50,8|10|10,0:0|0:0|0:0,0:0:0:0:
353,216,71271,1,10,0:0:0:0:
162,160,71505,1,10,0:0:0:0:
314,26,71740,6,0,P|354:38|422:48,1,100,10|8,0:0|0:0,0:0:0:0:
458,31,72091,1,2,0:0:0:0:
492,66,72208,2,0,L|485:142,2,50,8|0|10,0:0|0:0|0:0,0:0:0:0:
353,216,72677,2,0,L|348:166,2,50,8|10|10,0:0|0:0|0:0,0:0:0:0:
447,188,73146,1,10,0:0:0:0:
261,235,73380,1,10,0:0:0:0:
420,338,73615,6,0,P|414:359|400:389,1,50,2|2,0:0|0:0,0:0:0:0:
256,192,73849,12,2,74552,0:0:0:0:
202,120,75021,5,2,0:0:0:0:
340,176,75255,1,2,0:0:0:0:
225,272,75490,1,4,0:0:0:0:
22,80,82990,6,0,P|63:52|112:46,1,100,14|10,0:0|0:0,0:0:0:0:
305,96,83458,2,0,L|318:156,1,50,10|2,0:0|0:0,0:0:0:0:
232,190,83693,2,0,L|221:246,1,50,10|2,0:0|0:0,0:0:0:0:
311,291,83927,2,0,P|360:285|401:257,1,100,10|10,0:0|0:0,0:0:0:0:
430,216,84279,1,2,0:0:0:0:
479,219,84396,2,0,P|495:265|509:323,1,100,10|10,0:0|0:0,0:0:0:0:
136,266,84865,6,0,P|119:219|106:162,1,100,12|10,0:0|0:0,0:0:0:0:
133,128,85216,1,2,0:0:0:0:
182,135,85333,2,0,P|191:157|199:185,1,50,10|2,0:0|0:0,0:0:0:0:
265,265,85568,2,0,P|256:287|248:315,1,50,10|2,0:0|0:0,0:0:0:0:
160,357,85802,6,0,P|107:355|67:331,1,100,10|8,0:0|0:0,0:0:0:0:
12,242,86271,1,10,0:0:0:0:
55,217,86388,2,0,P|72:170|85:113,1,100,10|8,0:0|0:0,0:0:0:0:
16,50,86740,6,0,P|58:25|108:24,1,100,14|10,0:0|0:0,0:0:0:0:
294,96,87208,2,0,L|283:152,1,50,10|2,0:0|0:0,0:0:0:0:
380,174,87443,2,0,L|391:230,1,50,10|2,0:0|0:0,0:0:0:0:
319,294,87677,2,0,P|371:323|419:320,1,100,14|10,0:0|0:0,0:0:0:0:
456,303,88029,1,2,0:0:0:0:
483,261,88146,2,0,L|463:151,1,100,10|10,0:0|0:0,0:0:0:0:
231,20,88615,5,14,0:0:0:0:
294,96,88849,1,10,0:0:0:0:
195,114,89083,1,14,0:0:0:0:
257,192,89318,1,10,0:0:0:0:
158,210,89552,6,0,P|160:272|184:314,1,100,10|0,0:0|0:0,0:0:0:0:
262,356,90021,2,0,L|257:389,4,25,2|8|8|8|8,0:0|0:0|0:0|0:0|0:0,0:0:0:0:
361,345,90490,5,10,0:0:0:0:
336,248,90724,1,10,0:0:0:0:
431,276,90958,2,0,L|441:211,1,50,10|2,0:0|0:0,0:0:0:0:
368,154,91193,2,0,L|353:91,1,50,10|2,0:0|0:0,0:0:0:0:
424,32,91427,6,0,P|378:9|314:15,1,100,10|10,0:0|0:0,0:0:0:0:
286,35,91779,1,2,0:0:0:0:
257,76,91896,2,0,L|281:183,1,100,10|10,0:0|0:0,0:0:0:0:
318,204,92247,1,0,0:0:0:0:
307,253,92365,5,10,0:0:0:0:
401,284,92599,2,0,P|394:311|389:342,1,50,10|2,0:0|0:0,0:0:0:0:
304,383,92833,2,0,P|297:356|292:325,1,50,10|2,0:0|0:0,0:0:0:0:
214,257,93068,2,0,P|207:284|202:315,1,50,10|2,0:0|0:0,0:0:0:0:
119,363,93302,6,0,P|103:313|110:261,1,100,10|10,0:0|0:0,0:0:0:0:
133,222,93654,1,2,0:0:0:0:
102,183,93771,2,0,P|104:129|89:82,1,100,10|8,0:0|0:0,0:0:0:0:
0,43,94240,5,10,0:0:0:0:
91,86,94474,1,10,0:0:0:0:
167,22,94708,2,0,L|225:15,1,50,10|2,0:0|0:0,0:0:0:0:
270,101,94943,2,0,L|328:108,1,50,10|2,0:0|0:0,0:0:0:0:
405,55,95177,6,0,P|421:105|410:159,1,100,10|10,0:0|0:0,0:0:0:0:
385,192,95529,1,2,0:0:0:0:
350,228,95646,2,0,P|342:277|358:324,1,100,10|2,0:0|0:0,0:0:0:0:
452,353,95997,5,6,0:0:0:0:
263,286,96232,1,2,0:0:0:0:
263,286,96349,2,0,L|207:296,1,50,2|2,0:0|0:0,0:0:0:0:
226,190,96583,2,0,L|170:179,1,50,10|2,0:0|0:0,0:0:0:0:
293,121,96817,2,0,L|252:90,1,50,10|2,0:0|0:0,0:0:0:0:
212,0,97052,6,0,P|171:29|148:72,1,100,8|8,0:0|0:0,0:0:0:0:
327,215,97521,2,0,P|367:185|390:142,1,100,8|8,0:0|0:0,0:0:0:0:
365,44,97990,5,14,0:0:0:0:
462,65,98224,1,10,0:0:0:0:
390,142,98458,2,0,L|399:221,1,50,10|2,0:0|0:0,0:0:0:0:
491,221,98693,2,0,L|482:300,1,50,10|2,0:0|0:0,0:0:0:0:
421,346,98927,6,0,P|376:369|327:371,1,100,10|10,0:0|0:0,0:0:0:0:
281,351,99279,1,2,0:0:0:0:
247,313,99396,2,0,L|225:196,1,100,10|10,0:0|0:0,0:0:0:0:
246,168,99747,1,10,0:0:0:0:
214,128,99865,5,10,0:0:0:0:
308,94,100099,2,0,P|301:65|294:45,1,50,10|2,0:0|0:0,0:0:0:0:
203,6,100333,2,0,P|196:35|189:54,1,50,10|2,0:0|0:0,0:0:0:0:
115,150,100568,2,0,P|108:121|101:101,1,50,10|2,0:0|0:0,0:0:0:0:
4,68,100802,5,10,0:0:0:0:
214,128,101036,1,10,0:0:0:0:
50,298,101271,1,10,0:0:0:0:
93,273,101388,2,0,P|138:287|196:316,1,100,2|10,0:0|0:0,0:0:0:0:
262,378,101740,5,10,0:0:0:0:
357,349,101974,1,10,0:0:0:0:
284,280,102208,2,0,L|274:226,1,50,10|2,0:0|0:0,0:0:0:0:
387,251,102443,2,0,L|397:197,1,50,10|2,0:0|0:0,0:0:0:0:
462,127,102677,6,0,P|410:103|354:108,1,100,10|10,0:0|0:0,0:0:0:0:
325,130,103029,1,2,0:0:0:0:
276,119,103146,2,0,L|255:17,1,100,10|10,0:0|0:0,0:0:0:0:
207,7,103497,5,6,0:0:0:0:
20,84,103732,1,0,0:0:0:0:
20,84,103849,2,0,P|27:112|33:149,1,50,2|2,0:0|0:0,0:0:0:0:
128,156,104083,2,0,P|121:183|115:221,1,50,10|2,0:0|0:0,0:0:0:0:
22,235,104317,2,0,P|29:263|35:300,1,50,10|2,0:0|0:0,0:0:0:0:
114,342,104552,6,0,B|132:321|133:296|133:296|156:293|176:274|176:274|195:289|222:289|222:289|230:315|252:329,1,200,2|8,0:0|0:0,0:0:0:0:
334,271,105255,1,8,0:0:0:0:
424,314,105490,6,0,L|412:365,1,50,10|8,0:0|0:0,0:0:0:0:
304,133,105841,2,0,L|316:184,1,50,10|8,0:0|0:0,0:0:0:0:
512,208,106193,2,0,L|500:259,1,50,10|8,0:0|0:0,0:0:0:0:
233,245,106544,2,0,L|245:296,1,50,10|8,0:0|0:0,0:0:0:0:
386,37,106896,1,10,0:0:0:0:
211,159,107130,1,10,0:0:0:0:
403,265,107365,6,0,L|414:201,1,50,10|8,0:0|0:0,0:0:0:0:
211,159,107716,2,0,L|190:97,1,50,10|8,0:0|0:0,0:0:0:0:
459,131,108068,2,0,L|470:67,1,50,10|8,0:0|0:0,0:0:0:0:
299,281,108419,2,0,L|278:221,1,50,10|8,0:0|0:0,0:0:0:0:
363,354,108771,1,10,0:0:0:0:
334,158,109005,1,8,0:0:0:0:
188,288,109240,6,0,L|135:301,1,50,10|8,0:0|0:0,0:0:0:0:
109,96,109591,2,0,L|56:83,1,50,10|8,0:0|0:0,0:0:0:0:
306,351,109943,2,0,L|253:364,1,50,10|8,0:0|0:0,0:0:0:0:
249,49,110294,2,0,L|196:36,1,50,10|8,0:0|0:0,0:0:0:0:
388,274,110646,1,10,0:0:0:0:
367,92,110880,1,10,0:0:0:0:
492,246,111115,6,0,L|483:306,1,50,10|8,0:0|0:0,0:0:0:0:
271,111,111466,2,0,L|280:174,1,50,10|8,0:0|0:0,0:0:0:0:
512,92,111818,2,0,L|503:152,1,50,10|8,0:0|0:0,0:0:0:0:
293,258,112169,2,0,L|302:318,1,50,10|8,0:0|0:0,0:0:0:0:
389,177,112521,1,10,0:0:0:0:
198,295,112755,1,10,0:0:0:0:
406,372,112990,6,0,L|396:292,1,50,10|8,0:0|0:0,0:0:0:0:
101,280,113341,2,0,L|111:200,1,50,10|8,0:0|0:0,0:0:0:0:
486,292,113693,2,0,L|476:212,1,50,10|8,0:0|0:0,0:0:0:0:
17,216,114044,2,0,L|27:136,1,50,10|8,0:0|0:0,0:0:0:0:
389,177,114396,1,10,0:0:0:0:
301,99,114630,1,10,0:0:0:0:
412,10,114865,6,0,L|402:90,1,50,10|8,0:0|0:0,0:0:0:0:
107,102,115216,2,0,L|117:182,1,50,10|8,0:0|0:0,0:0:0:0:
492,90,115568,2,0,L|482:170,1,50,10|8,0:0|0:0,0:0:0:0:
23,166,115919,2,0,L|33:246,1,50,10|8,0:0|0:0,0:0:0:0:
389,177,116271,1,10,0:0:0:0:
477,255,116505,1,10,0:0:0:0:
366,344,116740,6,0,L|376:264,1,50,10|8,0:0|0:0,0:0:0:0:
256,192,117091,2,0,L|256:132,1,50,10|8,0:0|0:0,0:0:0:0:
146,344,117443,2,0,L|136:264,1,50,10|8,0:0|0:0,0:0:0:0:
35,255,117677,6,0,L|40:212,6,25,8|8|10|8|8|8|8,0:0|0:0|0:0|0:0|0:0|0:0|0:0,0:0:0:0:
123,177,118146,6,0,L|120:156,8,12.5,10|8|8|8|8|8|8|8|8,0:0|0:0|0:0|0:0|0:0|0:0|0:0|0:0|0:0,0:0:0:0:
25,127,118497,6,0,P|64:82|108:67,1,100,10|2,0:0|0:0,0:0:0:0:
213,137,118849,2,0,P|203:111|195:85,1,50,2|2,0:0|0:0,0:0:0:0:
301,43,119083,2,0,P|316:85|323:142,1,100,10|10,0:0|0:0,0:0:0:0:
277,231,119552,1,8,0:0:0:0:
416,93,119786,1,8,0:0:0:0:
206,41,120021,6,0,P|198:68|196:97,1,50,8|8,0:0|0:0,0:0:0:0:
381,240,120372,2,0,P|386:264|390:289,1,50,8|14,0:0|0:0,0:0:0:0:
