osu file format v14

[General]
AudioFilename: garakuta.mp3
AudioLeadIn: 0
PreviewTime: 75490
Countdown: 1
SampleSet: Normal
StackLeniency: 0.7
Mode: 0
LetterboxInBreaks: 1
WidescreenStoryboard: 1

[Editor]
Bookmarks: 53341,105841
DistanceSpacing: 0.5
BeatDivisor: 4
GridSize: 4
TimelineZoom: 4.399998

[Metadata]
Title:Garakuta Doll Play
TitleUnicode:Garakuta Doll Play
Artist:t+pazolite
ArtistUnicode:t+pazolite
Creator:BluOxy
Version:MASTER
Source:maimai
Tags:SEGA 天下一音ゲ祭 jubeat saucer fulfill taiko no tatsujin kimidori groove coster Chunithm
BeatmapID:1017873
BeatmapSetID:466538

[Difficulty]
HPDrainRate:7
CircleSize:4
OverallDifficulty:8
ApproachRate:9.6
SliderMultiplier:1.2
SliderTickRate:1

[Events]
//Background and Video events
0,0,"29469868_p0.jpg",0,0
//Break Periods
//Storyboard Layer 0 (Background)
//Storyboard Layer 1 (Fail)
//Storyboard Layer 2 (Pass)
//Storyboard Layer 3 (Foreground)
//Storyboard Sound Samples

[TimingPoints]
490,234.375,4,2,1,60,1,0
490,-133.333333333333,4,2,1,60,0,0
3771,-133.333333333333,4,1,1,60,0,0
4240,-133.333333333333,4,2,1,60,0,0
7286,-66.6666666666667,4,1,2,45,0,0
7521,-100,4,2,1,60,0,0
7755,-66.6666666666667,4,2,1,60,0,0
7990,-100,4,1,4,60,0,0
8048,-100,4,2,1,60,0,0
9865,-100,4,1,4,60,0,0
9923,-100,4,2,1,60,0,0
11505,-66.6666666666667,4,2,1,60,0,0
11740,-100,4,1,4,60,0,0
11798,-100,4,1,1,60,0,0
12677,-100,4,1,4,60,0,0
12736,-100,4,1,1,60,0,0
13615,-100,4,1,4,60,0,0
13673,-100,4,1,1,60,0,0
14083,-100,4,1,4,60,0,0
14113,-100,4,1,1,60,0,0
14552,-57.1428571428571,4,1,2,60,0,0
15021,-50,4,1,2,60,0,0
15490,-100,4,1,4,60,0,0
18302,-100,4,1,2,60,0,0
18771,-83.3333333333333,4,1,2,60,0,0
19005,-90.9090909090909,4,1,2,60,0,0
19240,-100,4,1,4,60,0,0
20177,-100,4,1,2,60,0,0
20880,-100,4,1,4,60,0,0
21115,-100,4,1,2,45,0,0
22990,-100,4,1,4,60,0,0
23341,-100,4,1,2,45,0,0
23693,-100,4,1,4,60,0,0
24396,-100,4,1,2,45,0,0
24630,-100,4,1,4,60,0,0
25802,-100,4,1,2,60,0,0
26271,-83.3333333333333,4,1,2,60,0,0
26505,-90.9090909090909,4,1,2,60,0,0
26740,-100,4,1,4,60,0,0
27677,-100,4,1,2,60,0,0
28380,-50,4,1,4,60,0,0
28556,-50,4,1,4,5,0,0
28615,-100,4,2,1,60,0,0
29552,-100,4,2,1,45,0,0
30490,-100,4,1,4,60,0,0
31661,-100,4,1,2,60,0,0
32130,-100,4,1,4,60,0,0
35880,-50,4,1,4,60,0,0
35939,-50,4,1,4,5,0,0
36115,-100,4,1,2,60,0,0
37755,-100,4,2,1,60,0,0
37990,-100,4,1,4,60,0,0
39161,-100,4,1,2,60,0,0
39630,-100,4,1,4,60,0,0
43146,-100,4,1,2,60,0,0
43615,-100,4,1,2,45,0,0
45021,-100,4,2,1,60,0,0
45490,-200,4,2,4,60,0,0
52990,-200,4,1,4,60,0,0
53927,-100,4,1,4,60,0,0
54865,-200,4,1,4,60,0,0
55802,-100,4,1,4,60,0,0
56740,-200,4,1,4,60,0,0
57443,-100,4,1,4,60,0,0
57677,-200,4,1,4,60,0,0
58380,-100,4,1,4,60,0,0
59552,-100,4,1,2,30,0,0
59786,-90.9090909090909,4,1,2,30,0,0
60021,-83.3333333333333,4,1,2,30,0,0
60255,-76.9230769230769,4,1,2,30,0,0
60490,-100,4,1,4,60,0,0
63302,-100,4,1,2,60,0,0
63771,-100,4,1,4,60,0,0
65177,-100,4,1,2,60,0,0
65646,-100,4,1,4,60,0,0
65880,-100,4,1,2,60,0,0
66115,-100,4,1,4,60,0,0
67052,-100,4,1,2,45,0,0
67286,-90.9090909090909,4,1,2,45,0,0
67521,-83.3333333333333,4,1,2,45,0,0
67755,-76.9230769230769,4,1,2,45,0,0
67990,-100,4,1,4,60,0,0
70802,-100,4,1,2,60,0,0
71740,-100,4,1,4,60,0,0
72677,-100,4,1,2,60,0,0
73146,-66.6666666666667,4,1,2,60,0,0
73849,-50,4,1,2,30,0,0
74552,-100,4,1,2,60,0,0
75490,-100,4,2,1,60,0,0
82990,-100,4,1,4,60,0,0
83224,-100,4,1,3,45,0,0
84865,-100,4,1,4,60,0,0
85099,-100,4,1,3,45,0,0
86388,-100,4,1,2,60,0,0
86740,-100,4,1,4,60,0,0
86857,-100,4,1,3,45,0,0
87677,-100,4,1,4,60,0,0
87911,-100,4,1,3,45,0,0
88615,-100,4,1,4,60,0,0
88732,-100,4,1,3,45,0,0
89083,-100,4,1,4,60,0,0
89200,-100,4,1,3,45,0,0
89552,-100,4,1,4,60,0,0
90021,-50,4,1,2,30,0,0
90490,-100,4,1,4,60,0,1
90958,-100,4,1,4,60,0,0
94005,-100,4,1,2,60,0,0
94240,-100,4,1,4,60,0,0
97052,-100,4,1,2,60,0,0
97286,-90.9090909090909,4,1,2,60,0,0
97521,-83.3333333333333,4,1,2,60,0,0
97755,-76.9230769230769,4,1,2,60,0,0
97990,-100,4,1,4,60,0,1
98458,-100,4,1,4,60,0,0
100802,-66.6666666666667,4,1,2,60,0,0
101271,-100,4,1,4,60,0,0
101622,-100,4,1,2,60,0,0
101740,-100,4,1,4,60,0,0
104552,-66.6666666666667,4,1,2,60,0,0
105021,-50,4,1,2,45,0,0
105490,-76.9230769230769,4,1,4,60,0,1
109122,-76.9230769230769,4,1,2,60,0,1
109240,-76.9230769230769,4,1,4,60,0,1
114630,-76.9230769230769,4,1,2,60,0,1
114865,-76.9230769230769,4,1,4,60,0,1
116505,-76.9230769230769,4,1,2,60,0,1
116740,-76.9230769230769,4,1,4,60,0,1
117677,-76.9230769230769,4,1,2,45,0,1
118146,-50,4,1,2,45,0,1
118497,-100,4,1,4,60,0,0
118673,-100,4,1,4,5,0,0
118732,-100,4,1,4,60,0,0
119552,-100,4,1,2,60,0,0
120490,-133.333333333333,4,1,4,60,0,0
120607,-133.333333333333,4,1,4,5,0,0

[Colours]
Combo1 : 255,128,128
Combo2 : 255,128,64
Combo3 : 255,128,0
Combo4 : 255,0,0

[HitObjects]
368,17,490,6,0,P|350:57|363:150,1,135,2|0,0:0|0:0,0:0:0:0:
419,212,958,2,0,L|472:200,1,45,2|0,0:0|0:0,0:0:0:0:
204,259,1310,2,0,L|335:230,1,135,2|2,0:0|0:0,0:0:0:0:
152,383,1896,2,0,P|159:358|160:335,1,45,2|0,0:0|0:0,0:0:0:0:
40,225,2130,2,0,P|30:245|30:267,1,45,0|0,0:0|0:0,0:0:0:0:
209,175,2365,6,0,P|227:135|214:42,1,135,2|0,0:0|0:0,0:0:0:0:
128,29,2833,2,0,L|67:17,1,45,2|0,0:0|0:0,0:0:0:0:
349,71,3185,2,0,L|216:46,1,135,2|2,0:0|0:0,0:0:0:0:
431,36,3771,1,10,0:0:0:0:
427,57,3888,1,8,0:0:0:0:
423,79,4005,1,8,0:0:0:0:
419,101,4122,1,8,0:0:0:0:
414,123,4240,6,0,P|456:118|502:136,1,90,2|0,0:1|0:0,0:0:0:0:
326,195,4708,1,10,0:1:0:0:
326,195,4825,2,0,L|317:150,1,45
486,253,5060,1,0,0:0:0:0:
486,253,5177,2,0,B|497:298|497:298|474:342,1,90,2|0,0:0|0:0,0:0:0:0:
330,327,5646,2,0,L|343:281,1,45.0000017166138,10|0,0:1|0:0,0:0:0:0:
238,348,5880,2,0,L|247:303,1,45.0000017166138
150,373,6115,6,0,B|139:328|139:328|162:284,1,90,2|0,0:0|0:0,0:0:0:0:
212,177,6583,1,10,0:1:0:0:
212,177,6700,2,0,L|221:222,1,45
356,119,6935,2,0,P|314:124|268:106,1,90,2|0,0:0|0:0,0:0:0:0:
202,48,7286,6,0,L|197:18,6,22.5000008583069,8|8|8|8|8|0|0,0:0|0:0|0:0|0:0|0:0|0:0|0:0,0:0:0:0:
122,90,7521,6,0,L|131:153,1,60,2|0,0:0|0:0,0:0:0:0:
30,92,7755,6,0,L|45:184,1,90.0000034332277,2|0,0:0|0:0,0:0:0:0:
2,315,7990,6,0,B|98:274|81:334|182:293,1,180,14|0,0:0|0:0,0:0:0:0:
245,243,8458,1,2,0:0:0:0:
245,243,8575,2,0,P|259:275|260:314,1,60,2|0,0:0|0:0,0:0:0:0:
471,284,8810,2,0,P|446:234|447:162,1,120,2|0,0:0|0:0,0:0:0:0:
489,93,9161,1,2,0:0:0:0:
333,253,9396,2,0,L|392:243,1,60,2|2,0:0|0:0,0:0:0:0:
174,193,9630,2,0,L|114:183,1,60,2|2,0:0|0:0,0:0:0:0:
283,53,9865,6,0,B|314:38|314:38|350:106|293:178,1,180,14|0,0:1|0:0,0:0:0:0:
161,283,10333,1,2,0:0:0:0:
161,283,10450,2,0,P|151:243|150:214,1,60,0|0,0:0|0:0,0:0:0:0:
345,357,10685,2,0,P|295:324|236:321,1,120,2|0,0:0|0:0,0:0:0:0:
104,356,11036,1,2,0:0:0:0:
104,356,11271,6,0,P|82:331|72:298,1,60,2|0,0:0|0:0,0:0:0:0:
197,143,11505,6,0,P|221:169|236:224,1,90.0000034332277,2|0,0:0|0:0,0:0:0:0:
35,118,11740,6,0,P|67:117|98:103,1,60,14|0,0:0|0:0,0:0:0:0:
166,55,11974,1,10,0:0:0:0:
125,195,12091,1,0,0:0:0:0:
254,131,12208,2,0,P|222:132|191:146,1,60,2|2,0:0|0:0,0:0:0:0:
33,213,12443,1,8,0:0:0:0:
189,266,12560,1,2,0:0:0:0:
75,355,12677,6,0,L|63:280,1,60,14|0,0:0|0:0,0:0:0:0:
277,218,12911,2,0,L|289:293,1,60,10|0,0:0|0:0,0:0:0:0:
390,347,13146,1,2,0:0:0:0:
417,138,13263,1,2,0:0:0:0:
512,285,13380,2,0,P|478:280|443:268,1,60,10|2,0:0|0:0,0:0:0:0:
186,36,13615,6,0,L|191:65,7,30,14|0|0|0|2|0|0|0,0:0|0:0|0:0|0:0|0:0|0:0|0:0|0:0,0:0:0:0:
128,167,14083,2,0,L|122:137,7,30,14|0|2|0|0|0|2|0,0:0|0:0|0:0|0:0|0:0|0:0|0:0|0:0,0:0:0:0:
190,237,14552,6,0,P|135:230|83:259,1,105.000001001358,8|0,0:0|0:0,0:0:0:0:
113,354,14786,2,0,P|168:361|220:332,1,105.000001001358,8|0,0:0|0:0,0:0:0:0:
199,233,15021,6,0,P|136:221|69:263,1,120,8|0,0:0|0:0,0:0:0:0:
105,361,15255,2,0,P|168:373|235:331,1,120,8|0,0:0|0:0,0:0:0:0:
298,275,15490,6,0,B|294:306|294:306|314:340,1,60,14|0,0:0|0:0,0:0:0:0:
458,303,15724,2,0,B|462:272|462:272|442:238,1,60,10|0,0:0|0:0,0:0:0:0:
353,162,15958,2,0,B|349:193|349:193|369:227,1,60,10|0,0:0|0:0,0:0:0:0:
512,187,16193,2,0,B|516:156|516:156|496:122,1,60,10|0,0:0|0:0,0:0:0:0:
358,82,16427,6,0,L|440:66,1,75,10|0,0:0|0:0,0:0:0:0:
508,26,16661,1,10,0:0:0:0:
282,117,16779,2,0,B|224:97|224:97|157:109,1,120,2|0,0:0|0:0,0:0:0:0:
89,148,17130,1,12,0:0:0:0:
296,14,17247,1,8,0:0:0:0:
213,248,17365,6,0,P|209:212|222:177,1,60,10|0,0:0|0:0,0:0:0:0:
432,130,17599,2,0,P|436:166|423:201,1,60,10|0,0:0|0:0,0:0:0:0:
203,384,17833,2,0,P|199:348|212:313,1,60,10|0,0:0|0:0,0:0:0:0:
422,266,18067,2,0,P|426:302|413:337,1,60,10|0,0:0|0:0,0:0:0:0:
349,381,18302,5,10,0:0:0:0:
296,256,18419,2,0,L|325:259,2,30,10|8|10,0:0|0:0|0:0,0:0:0:0:
429,188,18654,1,10,0:0:0:0:
303,48,18771,6,0,B|300:69|294:84|294:84|295:108|289:135,1,71.9999978027344,8|0,0:0|0:0,0:0:0:0:
222,37,19005,6,0,B|221:57|215:73|215:73|215:88|211:110,1,66.0000020141602,8|0,0:0|0:0,0:0:0:0:
139,27,19240,6,0,L|129:96,1,60,10|0,0:0|0:0,0:0:0:0:
24,149,19474,2,0,L|83:157,1,60,10|0,0:0|0:0,0:0:0:0:
150,268,19708,2,0,L|160:199,1,60,10|0,0:0|0:0,0:0:0:0:
265,146,19942,2,0,L|205:137,1,60,10|0,0:0|0:0,0:0:0:0:
62,253,20177,5,10,0:0:0:0:
228,319,20294,1,10,0:0:0:0:
228,319,20353,1,8,0:0:0:0:
228,319,20411,2,0,P|237:277|232:244,1,60,8|2,0:0|0:0,0:0:0:0:
63,29,20646,2,0,P|55:58|57:88,1,60,10|0,0:0|0:0,0:0:0:0:
143,152,20880,1,10,0:0:0:0:
143,152,20997,1,2,0:0:0:0:
143,152,21115,6,0,B|236:111|228:174|327:125,1,180,2|8,0:0|0:0,0:0:0:0:
394,82,21583,2,0,P|374:138|378:198,1,120,8|8,0:0|0:0,0:0:0:0:
492,351,22052,2,0,P|499:322|501:289,1,60,8|0,0:0|0:0,0:0:0:0:
235,260,22286,2,0,P|228:288|226:321,1,60,8|0,0:0|0:0,0:0:0:0:
419,318,22521,2,0,B|392:315|373:320|373:320|350:297|350:297|331:303|308:300,1,120,8|14,0:0|0:0,0:0:0:0:
19,187,22990,6,0,B|49:185|74:193|74:193|124:157|124:157|152:168|186:164,1,180,14|8,0:0|0:0,0:0:0:0:
274,200,23458,2,0,P|293:143|289:83,1,120,8|10,0:0|0:0,0:0:0:0:
207,43,23810,1,0,0:0:0:0:
207,43,23927,2,0,L|133:53,1,60,10|0,0:0|0:0,0:0:0:0:
333,205,24161,2,0,L|274:200,1,60,10|2,0:0|0:0,0:0:0:0:
452,46,24396,1,8,0:0:0:0:
452,46,24630,2,0,L|382:58,1,60,4|0,0:0|0:0,0:0:0:0:
460,191,24865,6,0,P|469:155|464:125,1,60,14|0,0:0|0:0,0:0:0:0:
254,79,25099,2,0,P|251:108|260:137,1,60,10|0,0:0|0:0,0:0:0:0:
345,329,25333,2,0,P|354:293|349:263,1,60,10|0,0:0|0:0,0:0:0:0:
139,217,25567,2,0,P|136:246|145:275,1,60,10|0,0:0|0:0,0:0:0:0:
220,343,25802,5,10,0:0:0:0:
52,293,25919,2,0,L|15:301,2,30,10|8|10,0:0|0:0|0:0,0:0:0:0:
191,164,26154,1,2,0:0:0:0:
29,113,26271,6,0,B|32:131|31:149|31:149|38:168|38:184,1,71.9999978027344,8|0,0:0|0:0,0:0:0:0:
104,68,26505,6,0,B|108:83|107:101|107:101|112:115|112:133,1,66.0000020141602,8|0,0:0|0:0,0:0:0:0:
181,25,26740,6,0,L|192:92,1,60,10|0,0:0|0:0,0:0:0:0:
339,101,26974,2,0,L|272:112,1,60,10|0,0:0|0:0,0:0:0:0:
261,261,27208,2,0,L|250:194,1,60,10|0,0:0|0:0,0:0:0:0:
103,185,27442,2,0,L|170:174,1,60,10|0,0:0|0:0,0:0:0:0:
267,22,27677,5,8,0:0:0:0:
462,44,27794,1,8,0:0:0:0:
462,44,27853,1,8,0:0:0:0:
462,44,27911,2,0,P|473:79|475:114,1,60,8|8,0:0|0:0,0:0:0:0:
390,294,28146,2,0,P|379:259|377:224,1,60,0|0,0:0|0:0,0:0:0:0:
479,318,28380,6,0,P|414:376|329:359,1,180,2|0,0:0|0:0,0:0:0:0:
329,359,28615,6,0,L|311:290,1,60,2|2,0:0|0:0,0:0:0:0:
221,282,28849,2,0,L|236:340,1,60,2|2,0:0|0:0,0:0:0:0:
376,235,29083,2,0,L|358:166,1,60,2|2,0:0|0:0,0:0:0:0:
269,157,29318,2,0,L|284:218,1,60,2|2,0:0|0:0,0:0:0:0:
340,94,29552,5,2,0:0:0:0:
304,71,29669,1,2,0:0:0:0:
262,64,29786,1,2,0:0:0:0:
221,75,29904,1,2,0:0:0:0:
187,99,30021,5,2,0:0:0:0:
146,108,30138,1,2,0:0:0:0:
104,103,30255,1,2,0:0:0:0:
68,80,30372,1,2,0:0:0:0:
47,43,30490,6,0,B|59:103|59:103|37:163,1,120,14|10,0:0|0:0,0:0:0:0:
87,332,30841,1,0,0:0:0:0:
87,332,30958,2,0,B|75:272|75:272|97:212,1,120,10|10,0:0|0:0,0:0:0:0:
242,283,31310,1,0,0:0:0:0:
242,283,31427,6,0,L|162:276,1,60,10|0,0:0|0:0,0:0:0:0:
319,222,31661,2,0,L|328:253,2,30,10|8|8,0:0|0:0|0:0,0:0:0:0:
315,207,31837,1,8,0:0:0:0:
310,192,31896,2,0,B|303:160|303:160|311:127,1,60,8|0,0:0|0:0,0:0:0:0:
428,202,32130,2,0,L|419:263,1,60,10|8,0:0|0:0,0:0:0:0:
474,359,32365,6,0,B|415:354|415:354|361:383,1,120,10|10,0:0|0:0,0:0:0:0:
129,307,32716,1,0,0:0:0:0:
129,307,32833,2,0,B|190:312|190:312|241:282,1,120,10|10,0:0|0:0,0:0:0:0:
159,174,33185,1,0,0:0:0:0:
159,174,33302,6,0,L|172:246,1,60,10|2,0:0|0:0,0:0:0:0:
140,89,33536,2,0,L|129:29,1,60,10|2,0:0|0:0,0:0:0:0:
72,147,33771,2,0,L|10:160,1,60,10|0,0:0|0:0,0:0:0:0:
234,118,34005,1,10,0:0:0:0:
234,118,34122,1,8,0:0:0:0:
234,118,34240,6,0,P|277:84|352:74,1,120,10|10,0:0|0:0,0:0:0:0:
484,226,34591,1,0,0:0:0:0:
484,226,34708,2,0,P|454:252|389:264,1,90,10|0,0:0|0:0,0:0:0:0:
376,260,34943,2,0,L|364:329,1,60,10|0,0:0|0:0,0:0:0:0:
254,360,35177,6,0,L|242:290,1,60,10|2,0:0|0:0,0:0:0:0:
160,219,35411,2,0,L|148:288,1,60,10|10,0:0|0:0,0:0:0:0:
95,147,35646,1,10,0:0:0:0:
181,384,35880,6,0,P|148:377|118:368,1,60,6|0,0:0|0:0,0:0:0:0:
51,350,35997,5,0,0:0:0:0:
51,350,36115,2,0,B|62:289|25:234|25:234|60:265|100:256,1,180,2|10,0:0|0:0,0:0:0:0:
179,163,36583,2,0,P|174:192|159:219,1,60,8|8,0:0|0:0,0:0:0:0:
8,154,36818,2,0,P|13:125|28:98,1,60,10|0,0:0|0:0,0:0:0:0:
132,36,37052,6,0,B|120:60|124:79|124:79|108:105|108:105|108:126|94:150,1,120,10|10,0:0|0:0,0:0:0:0:
339,126,37404,2,0,B|351:150|347:169|347:169|363:195|363:195|363:216|376:240,1,120,2|2,0:0|0:0,0:0:0:0:
279,364,37755,1,6,0:0:0:0:
279,364,37872,1,0,0:0:0:0:
279,364,37990,6,0,B|252:309|252:309|262:251,1,120,14|10,0:0|0:0,0:0:0:0:
494,271,38341,1,0,0:0:0:0:
494,271,38459,2,0,B|520:325|520:325|505:386,1,120,10|10,0:0|0:0,0:0:0:0:
367,345,38810,1,0,0:0:0:0:
367,345,38927,6,0,L|432:332,1,60,10|0,0:0|0:0,0:0:0:0:
313,191,39161,2,0,L|309:158,2,30,10|8|10,0:0|0:0|0:0,0:0:0:0:
315,206,39337,1,8,0:0:0:0:
317,220,39396,2,0,L|249:209,1,60,10|0,0:0|0:0,0:0:0:0:
410,159,39630,2,0,L|475:146,1,60,10|10,0:0|0:0,0:0:0:0:
289,64,39865,6,0,B|228:76|228:76|167:57,1,120,10|10,0:0|0:0,0:0:0:0:
27,142,40216,1,0,0:0:0:0:
27,142,40333,2,0,B|88:130|88:130|149:149,1,120,10|10,0:0|0:0,0:0:0:0:
75,275,40685,1,0,0:0:0:0:
75,275,40802,6,0,L|81:208,1,60,10|2,0:0|0:0,0:0:0:0:
162,304,41036,2,0,L|167:363,1,60,10|2,0:0|0:0,0:0:0:0:
230,243,41271,2,0,L|236:176,1,60,10|0,0:0|0:0,0:0:0:0:
313,280,41505,1,10,0:0:0:0:
333,116,41622,1,8,0:0:0:0:
433,271,41740,6,0,B|427:209|427:209|451:153,1,120,10|10,0:0|0:0,0:0:0:0:
349,40,42208,1,10,0:0:0:0:
321,201,42325,1,10,0:0:0:0:
332,40,42443,1,10,0:0:0:0:
308,193,42560,1,10,0:0:0:0:
215,34,42677,6,0,B|221:96|221:96|197:152,1,120,10|10,0:0|0:0,0:0:0:0:
75,185,43146,2,0,L|69:156,2,30,8|8|8,0:0|0:0|0:0,0:0:0:0:
99,272,43380,1,8,0:0:0:0:
132,89,43497,1,8,0:0:0:0:
54,346,43615,6,0,P|100:322|173:322,1,120,12|0,0:0|0:0,0:0:0:0:
402,272,43966,2,0,L|416:346,1,60,12|0,0:0|0:0,0:0:0:0:
300,201,44200,2,0,L|311:259,1,60,12|0,0:0|0:0,0:0:0:0:
194,127,44435,2,0,L|215:253|215:253,1,120,12|8,0:0|0:0,0:0:0:0:
277,60,44786,1,0,0:0:0:0:
90,94,45021,5,2,0:0:0:0:
339,213,45255,1,2,0:0:0:0:
364,23,45490,6,0,P|365:72|352:115,1,90,12|0,0:1|0:0,0:0:0:0:
345,123,45958,2,0,P|367:116|408:117,1,60,8|0,0:3|0:0,0:0:0:0:
485,154,46310,1,8,0:1:0:0:
485,154,46427,5,0,0:0:0:0:
425,221,46661,1,8,0:1:0:0:
470,298,46896,1,8,0:3:0:0:
407,362,47130,1,0,0:0:0:0:
355,287,47365,6,0,P|316:306|259:307,1,90,8|0,0:1|0:0,0:0:0:0:
256,303,47833,2,0,L|197:313,1,60,8|0,0:3|0:0,0:0:0:0:
42,185,48185,1,8,0:1:0:0:
42,185,48302,1,0,0:0:0:0:
105,121,48536,1,8,0:1:0:0:
194,112,48771,1,8,0:3:0:0:
268,161,49005,1,0,0:0:0:0:
357,147,49240,6,0,P|378:103|376:53,1,90,8|0,0:1|1:0,0:0:0:0:
372,48,49708,2,0,L|305:31,1,60,8|0,0:3|0:0,0:0:0:0:
145,0,50060,1,8,0:1:0:0:
145,0,50177,1,0,0:0:0:0:
215,55,50411,1,8,0:1:0:0:
165,130,50646,1,8,0:3:0:0:
91,78,50880,1,8,0:1:0:0:
14,125,51115,6,0,P|17:173|44:215,1,90,8|0,0:1|0:0,0:0:0:0:
51,218,51583,2,0,L|116:233,1,60,8|0,0:3|0:0,0:0:0:0:
122,239,51935,2,0,P|138:278|135:333,1,90,8|8,0:1|0:1,0:0:0:0:
62,376,52521,1,8,0:3:0:0:
223,348,52755,1,8,0:1:0:0:
265,107,52990,6,0,L|228:155,1,60,14|0,0:0|0:0,0:0:0:0:
240,254,53341,2,0,L|220:198,1,60,2|0,0:0|0:0,0:0:0:0:
157,169,53693,2,0,L|186:175,1,30,2|0,0:0|0:0,0:0:0:0:
311,191,53927,6,0,B|356:148|348:96|348:96|336:104,1,120,14|0,0:0|0:0,0:0:0:0:
154,263,54279,2,0,B|167:323|216:342|216:342|215:328,1,120,14|0,0:0|0:0,0:0:0:0:
171,86,54630,2,0,B|140:77|120:93|120:93|126:97,1,60,14|0,0:0|0:0,0:0:0:0:
253,94,54865,6,0,P|252:68|231:32,1,60,14|0,0:0|0:0,0:0:0:0:
42,93,55333,2,0,P|43:119|64:155,1,60,2|0,0:0|0:0,0:0:0:0:
237,234,55802,6,0,B|224:174|175:155|175:155|176:169,1,120,14|0,0:0|0:0,0:0:0:0:
311,287,56154,2,0,B|265:328|273:380|273:380|285:372,1,120,14|0,0:0|0:0,0:0:0:0:
324,194,56505,2,0,B|355:203|375:187|375:187|369:183,1,60,14|0,0:0|0:0,0:0:0:0:
269,38,56740,6,0,P|254:64|252:93,1,60,14|0,0:0|0:0,0:0:0:0:
453,148,57208,2,0,P|468:122|470:93,1,60,10|10,0:0|0:0,0:0:0:0:
380,32,57521,6,0,L|368:76,1,40,8|8,0:0|0:0,0:0:0:0:
346,153,57677,6,0,L|363:92,1,60,14|0,0:0|0:0,0:0:0:0:
412,290,58146,2,0,L|395:351,1,60,10|10,0:0|0:0,0:0:0:0:
192,358,58458,6,0,L|207:311,1,40,8|8,0:0|0:0,0:0:0:0:
227,241,58615,6,0,L|205:320,1,60,14|0,0:0|0:0,0:0:0:0:
135,208,58849,2,0,L|113:287,1,60,10|0,0:0|0:0,0:0:0:0:
45,80,59083,2,0,L|67:159,1,60,14|0,0:0|0:0,0:0:0:0:
137,47,59317,2,0,L|159:126,1,60,10|0,0:0|0:0,0:0:0:0:
227,241,59552,6,0,P|256:241|299:246,1,60,12|8,0:0|0:0,0:0:0:0:
406,135,59786,6,0,P|378:146|340:155,1,66.0000020141602,8|8,0:0|0:0,0:0:0:0:
403,256,60020,6,0,P|433:260|473:260,1,66.0000020141602,8|8,0:0|0:0,0:0:0:0:
403,384,60255,6,0,P|377:368|338:336,1,77.9999964294435,8|8,0:0|0:0,0:0:0:0:
301,87,60490,6,0,P|333:54|425:53,1,120,14|8,0:0|0:0,0:0:0:0:
458,115,60841,1,2,0:0:0:0:
270,168,60958,2,0,P|238:144|227:121,1,60,8|0,0:0|0:0,0:0:0:0:
225,46,61193,1,10,0:0:0:0:
349,154,61310,1,0,0:0:0:0:
189,211,61427,5,8,0:0:0:0:
189,211,61544,1,2,0:0:0:0:
189,211,61661,2,0,L|180:278,1,60,10|0,0:0|0:0,0:0:0:0:
339,272,61896,2,0,L|348:331,1,60,10|0,0:0|0:0,0:0:0:0:
260,345,62130,1,10,0:0:0:0:
431,366,62247,1,10,0:0:0:0:
369,193,62365,6,0,B|363:152|363:152|376:119|376:119|367:73,1,120,10|8,0:0|0:0,0:0:0:0:
293,25,62716,1,2,0:0:0:0:
461,171,62833,2,0,B|466:206|466:206|452:250,1,60,8|0,0:0|0:0,0:0:0:0:
377,277,63068,1,10,0:0:0:0:
455,88,63185,1,0,0:0:0:0:
283,211,63302,5,10,0:0:0:0:
468,321,63419,2,0,L|501:326,2,30,8|8|8,0:0|0:0|0:0,0:0:0:0:
284,300,63654,1,8,0:0:0:0:
382,359,63771,6,0,L|377:295,1,60,8|0,0:0|0:0,0:0:0:0:
373,217,64005,2,0,L|377:287,1,60,8|0,0:0|0:0,0:0:0:0:
196,278,64240,6,0,P|162:231|105:218,1,120,10|8,0:0|0:0,0:0:0:0:
18,255,64591,1,2,0:0:0:0:
207,364,64708,2,0,P|243:353|265:333,1,60,8|0,0:0|0:0,0:0:0:0:
290,241,64943,1,10,0:0:0:0:
115,326,65060,1,0,0:0:0:0:
184,152,65177,5,8,0:0:0:0:
116,341,65294,2,0,L|121:375,2,30,10|8|10,0:0|0:0|0:0,0:0:0:0:
103,218,65529,1,8,0:0:0:0:
27,314,65646,2,0,L|17:253,1,60,10|0,0:0|0:0,0:0:0:0:
76,40,65880,2,0,L|74:10,2,30,10|8|8,0:0|0:0|0:0,0:0:0:0:
78,54,66056,1,8,0:0:0:0:
80,68,66115,6,0,L|87:131,1,60,10|0,0:0|0:0,0:0:0:0:
225,10,66349,2,0,L|218:73,1,60,8|2,0:0|0:0,0:0:0:0:
334,125,66583,2,0,L|341:188,1,60,8|0,0:0|0:0,0:0:0:0:
479,67,66817,2,0,L|472:130,1,60,10|0,0:0|0:0,0:0:0:0:
425,316,67052,6,0,L|417:251,1,60,8|0,0:0|0:0,0:0:0:0:
280,374,67286,6,0,L|285:308,1,66.0000020141602,8|0,0:0|0:0,0:0:0:0:
171,259,67520,6,0,L|163:175,1,66.0000020141602,8|0,0:0|0:0,0:0:0:0:
26,317,67754,6,0,L|31:245,1,71.9999978027344,8|0,0:0|0:0,0:0:0:0:
79,127,67990,5,10,0:0:0:0:
117,327,68107,2,0,P|144:341|173:347,1,60,0|8,0:0|0:0,0:0:0:0:
285,308,68341,1,2,0:0:0:0:
267,173,68458,2,0,P|293:159|322:153,1,60,8|0,0:0|0:0,0:0:0:0:
449,200,68693,1,10,0:0:0:0:
425,316,68810,1,0,0:0:0:0:
364,239,68927,5,8,0:0:0:0:
364,239,69044,1,2,0:0:0:0:
496,381,69161,2,0,L|505:316,1,60,10|0,0:0|0:0,0:0:0:0:
458,140,69396,2,0,L|449:199,1,60,10|0,0:0|0:0,0:0:0:0:
388,87,69630,1,10,0:0:0:0:
512,244,69747,1,10,0:0:0:0:
473,52,69865,5,10,0:0:0:0:
435,278,69982,2,0,P|408:292|379:298,1,60,0|8,0:0|0:0,0:0:0:0:
259,252,70216,1,2,0:0:0:0:
279,116,70333,2,0,P|253:102|224:96,1,60,8|0,0:0|0:0,0:0:0:0:
97,143,70568,1,10,0:0:0:0:
113,265,70685,1,0,0:0:0:0:
183,190,70802,5,8,0:0:0:0:
29,305,70919,2,0,L|-7:312,2,30,10|8|10,0:0|0:0|0:0,0:0:0:0:
214,366,71154,1,8,0:0:0:0:
121,324,71271,2,0,L|112:259,1,60,10|0,0:0|0:0,0:0:0:0:
101,177,71505,1,10,0:0:0:0:
209,277,71622,1,0,0:0:0:0:
12,184,71740,5,10,0:0:0:0:
180,73,71857,2,0,P|172:40|158:15,1,60,0|8,0:0|0:0,0:0:0:0:
68,80,72091,1,2,0:0:0:0:
253,167,72208,2,0,P|267:138|276:106,1,60,8|0,0:0|0:0,0:0:0:0:
209,277,72443,2,0,P|241:269|274:252,1,60,10|0,0:0|0:0,0:0:0:0:
374,105,72677,5,8,0:0:0:0:
363,212,72794,2,0,L|358:262,2,30,10|8|10,0:0|0:0|0:0,0:0:0:0:
471,60,73029,1,8,0:0:0:0:
274,110,73146,6,0,P|278:65|303:29,1,90.0000034332277,10|2,0:0|0:0,0:0:0:0:
468,262,73380,2,0,P|476:218|463:176,1,90.0000034332277,10|2,0:0|0:0,0:0:0:0:
282,309,73615,1,2,0:0:0:0:
282,309,73732,1,2,0:0:0:0:
348,182,73849,6,0,L|360:244,3,60,8|8|8|8,0:0|0:0|0:0|0:0,0:0:0:0:
282,309,74083,2,0,L|279:342,6,30,8|8|8|8|8|8|8,0:0|0:0|0:0|0:0|0:0|0:0|0:0,0:0:0:0:
174,346,74318,2,0,L|148:367,6,30,8|8|8|8|8|8|8,0:0|0:0|0:0|0:0|0:0|0:0|0:0,0:0:0:0:
373,378,74552,5,2,0:0:0:0:
227,221,74669,2,0,B|201:222|184:212|184:212|169:249|124:268,1,120,2|2,0:0|0:0,0:0:0:0:
14,221,75021,2,0,L|2:156,1,60,2|0,0:0|0:0,0:0:0:0:
110,120,75255,2,0,L|96:179,1,60,2|0,0:0|0:0,0:0:0:0:
32,71,75490,6,0,P|78:35|137:34,1,120,4|0,0:0|0:0,0:0:0:0:
198,137,75958,2,0,L|209:76,1,60,2|0,0:0|0:0,0:0:0:0:
273,187,76310,2,0,B|264:228|264:228|283:257|283:257|274:308,1,120,2|0,0:0|0:0,0:0:0:0:
190,329,76661,1,2,0:0:0:0:
355,358,76896,2,0,L|366:291,1,60,2|0,0:0|0:0,0:0:0:0:
417,127,77130,2,0,L|353:150,1,60,2|0,0:0|0:0,0:0:0:0:
107,130,77365,6,0,B|142:153|142:153|153:187|153:187|189:211,1,120,2|0,0:0|0:0,0:0:0:0:
54,269,77833,2,0,P|57:239|63:210,1,60,2|0,0:0|0:0,0:0:0:0:
238,17,78185,2,0,P|246:76|241:135,1,120,2|0,0:0|0:0,0:0:0:0:
61,43,78536,1,2,0:0:0:0:
61,43,78771,6,0,L|142:46,1,60,2|0,0:0|0:0,0:0:0:0:
49,70,79005,6,0,L|110:130,1,60,2|0,0:0|0:0,0:0:0:0:
23,85,79240,6,0,B|14:132|14:132|32:157|32:157|21:213,1,120,2|0,0:0|0:0,0:0:0:0:
129,360,79708,2,0,L|144:300,1,60,2|0,0:0|0:0,0:0:0:0:
323,141,80060,2,0,P|312:200|303:264,1,120,2|0,0:0|0:0,0:0:0:0:
362,327,80411,1,2,0:0:0:0:
362,327,80646,2,0,P|387:345|422:363,1,60,2|0,0:0|0:0,0:0:0:0:
406,102,80880,2,0,P|410:73|406:37,1,60,2|0,0:0|0:0,0:0:0:0:
213,194,81115,6,0,B|180:205|166:232|166:232|143:209|105:216,1,120,2|0,0:0|0:0,0:0:0:0:
273,329,81583,2,0,P|259:290|245:267,1,60,2|0,0:0|0:0,0:0:0:0:
37,163,81935,2,0,P|55:106|97:54,1,120,2|0,0:0|0:0,0:0:0:0:
192,31,82286,1,2,0:0:0:0:
192,31,82521,6,0,L|205:110,1,60,2|0,0:0|0:0,0:0:0:0:
314,106,82755,6,0,L|343:53,1,60,2|0,0:0|0:0,0:0:0:0:
432,193,82990,6,0,L|367:211,1,60,14|0,0:0|0:0,0:0:0:0:
349,320,83224,1,10,0:0:0:0:
349,320,83458,1,10,0:0:0:0:
474,123,83575,1,2,0:0:0:0:
442,356,83693,2,0,P|435:319|430:293,1,60,10|2,0:0|0:0,0:0:0:0:
279,185,83927,6,0,P|270:248|263:318,1,120,10|10,0:0|0:0,0:0:0:0:
353,348,84279,1,2,0:0:0:0:
182,367,84396,2,0,L|168:299,1,60,10|0,0:0|0:0,0:0:0:0:
43,227,84630,2,0,P|64:265|74:297,1,60,10|0,0:0|0:0,0:0:0:0:
158,214,84865,6,0,P|152:176|148:135,1,60,12|0,0:0|0:0,0:0:0:0:
57,112,85099,1,10,0:0:0:0:
267,178,85216,1,2,0:0:0:0:
69,280,85333,2,0,L|92:352,1,60,10|2,0:0|0:0,0:0:0:0:
257,299,85568,1,10,0:0:0:0:
36,203,85685,1,2,0:0:0:0:
229,42,85802,6,0,P|241:71|251:103,1,60,10|0,0:0|0:0,0:0:0:0:
180,160,86036,1,8,0:0:0:0:
325,43,86154,1,2,0:0:0:0:
143,23,86271,1,10,0:0:0:0:
342,125,86388,2,0,L|378:247,1,120,10|8,0:0|0:0,0:0:0:0:
314,308,86740,6,0,P|299:276|285:242,1,60,14|0,0:0|0:0,0:0:0:0:
455,208,86974,1,10,0:0:0:0:
455,208,87208,1,10,0:0:0:0:
264,172,87325,1,2,0:0:0:0:
421,68,87443,2,0,P|443:40|459:12,1,60,10|2,0:0|0:0,0:0:0:0:
264,172,87677,6,0,P|221:223|181:285,1,120,14|10,0:0|0:0,0:0:0:0:
229,356,88029,1,2,0:0:0:0:
96,268,88146,2,0,P|86:239|74:212,1,60,10|0,0:0|0:0,0:0:0:0:
0,167,88380,2,0,P|15:137|27:103,1,60,10|2,0:0|0:0,0:0:0:0:
153,12,88615,6,0,P|162:49|174:92,1,60,14|2,0:0|0:0,0:0:0:0:
258,96,88849,1,10,0:0:0:0:
70,47,88966,1,2,0:0:0:0:
360,80,89083,2,0,P|352:108|345:138,1,60,14|2,0:0|0:0,0:0:0:0:
409,224,89318,1,10,0:0:0:0:
258,96,89435,1,2,0:0:0:0:
458,27,89552,6,0,P|443:85|431:143,1,120,10|0,0:0|0:0,0:0:0:0:
397,340,90021,6,0,L|400:310,14,30,2|8|8|8|8|8|8|8|8|8|8|8|8|0|0,0:0|0:0|0:0|0:0|0:0|0:0|0:0|0:0|0:0|0:0|0:0|0:0|0:0|0:0|0:0,0:0:0:0:
313,375,90490,6,0,P|306:338|298:305,1,60,10|0,0:0|0:0,0:0:0:0:
409,224,90724,2,0,P|416:187|424:154,1,60,10|0,0:0|0:0,0:0:0:0:
237,113,90958,1,10,0:0:0:0:
388,92,91075,1,2,0:0:0:0:
321,177,91193,1,10,0:0:0:0:
297,26,91310,1,2,0:0:0:0:
459,16,91427,6,0,P|465:68|481:160,1,120,10|10,0:0|0:0,0:0:0:0:
494,226,91779,1,2,0:0:0:0:
165,276,91896,2,0,P|157:227|150:197,1,60,10|0,0:0|0:0,0:0:0:0:
71,159,92130,1,10,0:0:0:0:
249,233,92247,1,0,0:0:0:0:
88,339,92365,6,0,L|78:272,1,60,10|0,0:0|0:0,0:0:0:0:
233,149,92599,1,10,0:0:0:0:
255,325,92716,1,2,0:0:0:0:
245,148,92833,1,10,0:0:0:0:
264,323,92950,1,2,0:0:0:0:
324,183,93068,1,10,0:0:0:0:
177,284,93185,1,2,0:0:0:0:
340,384,93302,6,0,P|362:326|383:272,1,120,10|10,0:0|0:0,0:0:0:0:
483,261,93654,1,2,0:0:0:0:
444,128,93771,2,0,P|431:161|416:195,1,60,10|0,0:0|0:0,0:0:0:0:
479,43,94005,1,8,0:0:0:0:
324,183,94122,5,8,0:0:0:0:
324,183,94181,1,8,0:0:0:0:
324,183,94240,2,0,P|306:152|286:126,1,60,10|0,0:0|0:0,0:0:0:0:
193,42,94474,2,0,L|211:111,1,60,10|0,0:0|0:0,0:0:0:0:
109,7,94708,1,10,0:0:0:0:
290,50,94825,1,2,0:0:0:0:
148,168,94943,2,0,P|142:202|141:249,1,60,10|2,0:0|0:0,0:0:0:0:
386,337,95177,6,0,P|398:281|404:218,1,120,10|10,0:0|0:0,0:0:0:0:
413,133,95529,1,2,0:0:0:0:
97,6,95646,2,0,P|85:62|79:125,1,120,10|2,0:0|0:0,0:0:0:0:
221,315,95997,6,0,P|227:271|232:237,1,60,6|0,0:0|0:0,0:0:0:0:
126,345,96232,1,2,0:0:0:0:
316,288,96349,1,2,0:0:0:0:
151,182,96466,1,2,0:0:0:0:
306,367,96583,2,0,P|312:336|315:307,1,60,10|2,0:0|0:0,0:0:0:0:
141,262,96818,2,0,P|144:232|149:202,1,60,10|2,0:0|0:0,0:0:0:0:
429,77,97052,6,0,P|426:107|421:146,1,60,8|0,0:0|0:0,0:0:0:0:
316,25,97286,6,0,P|319:55|324:95,1,66.0000020141602,8|0,0:0|0:0,0:0:0:0:
219,62,97521,6,0,P|216:92|209:136,1,71.9999978027344,8|0,0:0|0:0,0:0:0:0:
106,10,97755,6,0,P|110:42|116:88,1,77.9999964294435,8|0,0:0|0:0,0:0:0:0:
37,209,97990,6,0,P|31:176|27:142,1,60,14|0,0:0|0:0,0:0:0:0:
260,297,98224,2,0,P|265:267|269:237,1,60,10|0,0:0|0:0,0:0:0:0:
31,353,98458,1,10,0:0:0:0:
176,320,98575,1,2,0:0:0:0:
111,384,98693,1,10,0:0:0:0:
93,292,98810,1,2,0:0:0:0:
343,338,98927,6,0,P|355:279|362:215,1,120,10|10,0:0|0:0,0:0:0:0:
374,132,99279,1,2,0:0:0:0:
127,28,99396,2,0,P|115:87|111:114,1,60,10|0,0:0|0:0,0:0:0:0:
167,164,99630,1,10,0:0:0:0:
35,49,99747,1,10,0:0:0:0:
220,0,99865,6,0,P|214:29|204:69,1,60,10|0,0:0|0:0,0:0:0:0:
305,37,100099,1,10,0:0:0:0:
253,209,100216,1,2,0:0:0:0:
312,44,100333,1,10,0:0:0:0:
266,210,100450,1,2,0:0:0:0:
388,94,100568,1,10,0:0:0:0:
190,152,100685,1,2,0:0:0:0:
339,292,100802,6,0,P|350:255|363:198,1,90.0000034332277,10|0,0:0|0:0,0:0:0:0:
395,369,101036,2,0,P|436:365|486:353,1,90.0000034332277,10|0,0:0|0:0,0:0:0:0:
241,323,101271,5,10,0:0:0:0:
450,22,101388,2,0,P|462:67|477:140,1,120,2|10,0:0|0:0,0:0:0:0:
403,192,101681,5,8,0:0:0:0:
382,185,101740,2,0,P|371:144|366:112,1,60,10|0,0:0|0:0,0:0:0:0:
281,264,101974,2,0,P|288:234|295:189,1,60,10|0,0:0|0:0,0:0:0:0:
219,148,102208,1,10,0:0:0:0:
368,265,102325,1,2,0:0:0:0:
195,329,102443,2,0,P|166:343|137:365,1,60,10|2,0:0|0:0,0:0:0:0:
20,231,102677,6,0,P|28:290|47:348,1,120,10|10,0:0|0:0,0:0:0:0:
19,217,103029,1,2,0:0:0:0:
97,168,103146,2,0,P|91:125|80:91,1,60,10|0,0:0|0:0,0:0:0:0:
1,82,103380,1,10,0:0:0:0:
185,124,103497,6,0,P|215:116|266:103,1,60,6|0,0:0|0:0,0:0:0:0:
338,126,103732,1,0,0:0:0:0:
277,196,103849,5,2,0:0:0:0:
268,207,103965,1,2,0:0:0:0:
431,157,104083,5,10,0:0:0:0:
443,163,104200,1,2,0:0:0:0:
314,40,104318,5,10,0:0:0:0:
309,24,104435,1,2,0:0:0:0:
367,225,104552,6,0,B|322:235|315:287|315:287|213:243|150:320,1,270.000010299683,2|0,0:0|0:0,0:0:0:0:
83,384,105021,6,0,L|49:377,14,30,8|8|8|8|8|8|8|8|8|8|8|8|8|0|0,0:0|0:0|0:0|0:0|0:0|0:0|0:0|0:0|0:0|0:0|0:0|0:0|0:0|0:0|0:0,0:0:0:0:
151,320,105490,6,0,P|145:272|135:237,1,77.9999964294435,10|8,0:0|0:0,0:0:0:0:
52,86,105724,1,8,0:0:0:0:
121,232,105841,2,0,P|127:184|137:149,1,77.9999964294435,10|8,0:0|0:0,0:0:0:0:
213,17,106075,1,8,0:0:0:0:
155,151,106193,2,0,P|149:103|139:68,1,77.9999964294435,10|8,0:0|0:0,0:0:0:0:
80,0,106427,5,8,0:0:0:0:
239,115,106544,1,10,0:0:0:0:
46,211,106661,1,8,0:0:0:0:
256,119,106779,1,8,0:0:0:0:
215,358,106896,2,0,P|230:294|243:202,1,155.999992858887,10|10,0:0|0:0,0:0:0:0:
325,36,107365,6,0,P|336:72|356:129,1,77.9999964294435,10|8,0:0|0:0,0:0:0:0:
443,255,107599,1,8,0:0:0:0:
360,128,107716,2,0,P|349:164|329:221,1,77.9999964294435,10|8,0:0|0:0,0:0:0:0:
249,357,107950,1,8,0:0:0:0:
325,216,108068,2,0,P|336:252|356:309,1,77.9999964294435,10|8,0:0|0:0,0:0:0:0:
424,350,108302,5,8,0:0:0:0:
450,142,108419,1,10,0:0:0:0:
246,216,108536,1,8,0:0:0:0:
459,130,108654,1,8,0:0:0:0:
229,29,108771,2,0,P|287:48|390:85,1,155.999992858887,10|8,0:0|0:0,0:0:0:0:
449,271,109122,5,8,0:0:0:0:
449,271,109181,1,8,0:0:0:0:
449,271,109240,2,0,P|408:285|362:293,1,77.9999964294435,10|8,0:0|0:0,0:0:0:0:
175,193,109474,1,8,0:0:0:0:
357,302,109591,2,0,P|316:288|270:280,1,77.9999964294435,10|8,0:0|0:0,0:0:0:0:
75,382,109825,1,8,0:0:0:0:
264,296,109943,2,0,P|223:310|177:318,1,77.9999964294435,10|8,0:0|0:0,0:0:0:0:
44,285,110177,5,8,0:0:0:0:
74,74,110294,1,10,0:0:0:0:
239,202,110411,1,8,0:0:0:0:
70,61,110529,1,8,0:0:0:0:
288,8,110646,2,0,P|310:82|326:158,1,155.999992858887,10|10,0:0|0:0,0:0:0:0:
44,285,111115,6,0,P|81:258|120:235,1,77.9999964294435,10|8,0:0|0:0,0:0:0:0:
410,194,111349,1,8,0:0:0:0:
133,237,111466,2,0,P|176:250|226:257,1,77.9999964294435,10|8,0:0|0:0,0:0:0:0:
471,319,111700,1,8,0:0:0:0:
232,249,111818,2,0,P|269:222|308:199,1,77.9999964294435,10|8,0:0|0:0,0:0:0:0:
512,240,112052,5,8,0:0:0:0:
322,357,112169,1,10,0:0:0:0:
349,132,112286,1,8,0:0:0:0:
314,368,112404,1,8,0:0:0:0:
437,102,112521,2,0,P|430:61|419:21,1,77.9999964294435,10|2,0:0|0:0,0:0:0:0:
286,282,112755,2,0,P|289:240|297:202,1,77.9999964294435,10|2,0:0|0:0,0:0:0:0:
415,341,112990,5,10,0:0:0:0:
190,310,113107,2,0,P|192:271|197:233,1,77.9999964294435,8|8,0:0|0:0,0:0:0:0:
419,350,113341,1,10,0:0:0:0:
226,119,113458,2,0,P|229:81|238:43,1,77.9999964294435,8|8,0:0|0:0,0:0:0:0:
438,247,113693,2,0,P|435:208|431:169,1,77.9999964294435,10|8,0:0|0:0,0:0:0:0:
343,5,113927,5,8,0:0:0:0:
136,84,114044,1,10,0:0:0:0:
296,204,114161,1,8,0:0:0:0:
122,83,114279,1,8,0:0:0:0:
86,254,114396,6,0,P|93:214|104:178,1,77.9999964294435,10|10,0:0|0:0,0:0:0:0:
215,351,114630,1,10,0:0:0:0:
213,331,114689,1,8,0:0:0:0:
208,312,114747,2,0,P|201:284|190:251,1,38.9999982147218,8|8,0:0|0:0,0:0:0:0:
324,371,114865,5,10,0:0:0:0:
97,330,114982,2,0,P|89:292|86:254,1,77.9999964294435,8|8,0:0|0:0,0:0:0:0:
328,384,115216,1,10,0:0:0:0:
103,169,115333,2,0,P|95:131|92:93,1,77.9999964294435,8|8,0:0|0:0,0:0:0:0:
354,300,115568,2,0,P|362:261|366:223,1,77.9999964294435,10|8,0:0|0:0,0:0:0:0:
176,53,115802,5,8,0:0:0:0:
197,276,115919,1,10,0:0:0:0:
337,136,116036,1,8,0:0:0:0:
191,287,116154,1,8,0:0:0:0:
273,55,116271,2,0,P|258:86|233:139,1,77.9999964294435,10|10,0:0|0:0,0:0:0:0:
467,179,116505,1,10,0:0:0:0:
474,197,116564,1,8,0:0:0:0:
479,215,116622,2,0,P|484:241|487:269,1,38.9999982147218,8|8,0:0|0:0,0:0:0:0:
359,338,116740,5,10,0:0:0:0:
113,305,116857,2,0,P|102:268|97:230,1,77.9999964294435,8|8,0:0|0:0,0:0:0:0:
361,345,117091,1,10,0:0:0:0:
104,146,117208,2,0,P|93:109|88:71,1,77.9999964294435,8|8,0:0|0:0,0:0:0:0:
385,259,117443,2,0,P|395:221|401:183,1,77.9999964294435,10|8,0:0|0:0,0:0:0:0:
356,11,117677,6,0,L|349:49,7,38.9999982147218,8|8|10|8|8|8|8|8,0:0|0:0|0:0|0:0|0:0|0:0|0:0|0:0,0:0:0:0:
504,112,118146,6,0,L|510:141,10,30,10|8|8|8|8|8|8|8|8|8|8,0:0|0:0|0:0|0:0|0:0|0:0|0:0|0:0|0:0|0:0|0:0,0:0:0:0:
404,170,118497,6,0,B|386:166|369:170|369:170|351:148|323:142,1,90,10|0,0:0|0:0,0:0:0:0:
292,149,118732,1,2,0:0:0:0:
305,236,118849,2,0,L|315:295,1,60,2|2,0:0|0:0,0:0:0:0:
152,370,119083,1,10,0:0:0:0:
214,227,119201,1,2,0:0:0:0:
244,384,119318,1,10,0:0:0:0:
133,274,119435,1,2,0:0:0:0:
331,353,119552,6,0,P|320:319|314:285,1,60,8|0,0:0|0:0,0:0:0:0:
41,258,119786,2,0,P|51:222|54:186,1,60,8|0,0:0|0:0,0:0:0:0:
270,38,120021,1,8,0:0:0:0:
247,55,120138,2,0,B|255:99|255:99|251:116|251:116|265:130|265:130|274:177,1,120,8|8,0:0|0:0,0:0:0:0:
187,313,120490,6,0,B|187:285|187:285|175:269|175:269|180:250|180:250|170:229,1,90.0000034332277,14|0,0:0|0:0,0:0:0:0:
