osu file format v14

[General]
AudioFilename: garakuta.mp3
AudioLeadIn: 0
PreviewTime: 75490
Countdown: 1
SampleSet: Normal
StackLeniency: 0.7
Mode: 0
LetterboxInBreaks: 1
WidescreenStoryboard: 1

[Editor]
Bookmarks: 490,4240,7990,15490,30490,45490,60490,86388
DistanceSpacing: 1
BeatDivisor: 2
GridSize: 4
TimelineZoom: 4.399998

[Metadata]
Title:Garakuta Doll Play
TitleUnicode:Garakuta Doll Play
Artist:t+pazolite
ArtistUnicode:t+pazolite
Creator:BluOxy
Version:BASIC
Source:maimai
Tags:SEGA 天下一音ゲ祭 jubeat saucer fulfill taiko no tatsujin kimidori groove coster Chunithm
BeatmapID:1006648
BeatmapSetID:466538

[Difficulty]
HPDrainRate:3
CircleSize:3
OverallDifficulty:3
ApproachRate:3
SliderMultiplier:0.7
SliderTickRate:1

[Events]
//Background and Video events
0,0,"29469868_p0.jpg",0,0
//Break Periods
2,45690,51550
2,75690,81550
//Storyboard Layer 0 (Background)
//Storyboard Layer 1 (Fail)
//Storyboard Layer 2 (Pass)
//Storyboard Layer 3 (Foreground)
//Storyboard Sound Samples

[TimingPoints]
490,234.375,4,2,1,60,1,0
7286,-100,4,1,2,45,0,0
7521,-100,4,2,1,60,0,0
7990,-100,4,1,4,60,0,0
14552,-100,4,1,2,60,0,0
15490,-100,4,1,4,60,0,0
18302,-100,4,1,2,60,0,0
19240,-100,4,1,4,60,0,0
20177,-100,4,1,2,60,0,0
21115,-100,4,1,2,45,0,0
22990,-100,4,1,4,60,0,0
23341,-100,4,1,2,45,0,0
23693,-100,4,1,4,60,0,0
24396,-100,4,1,2,45,0,0
24865,-100,4,1,4,60,0,0
25802,-100,4,1,2,60,0,0
26740,-100,4,1,4,60,0,0
27677,-100,4,1,2,60,0,0
28615,-100,4,2,1,60,0,0
29552,-100,4,2,1,45,0,0
30490,-100,4,1,4,60,0,0
31661,-100,4,1,2,60,0,0
32130,-100,4,1,4,60,0,0
36115,-100,4,1,2,60,0,0
37990,-100,4,1,4,60,0,0
39161,-100,4,1,2,60,0,0
39630,-100,4,1,4,60,0,0
43146,-100,4,1,2,60,0,0
43615,-100,4,1,2,45,0,0
45021,-100,4,2,1,60,0,0
45490,-100,4,2,4,60,0,0
52990,-100,4,1,4,60,0,0
59552,-100,4,1,2,30,0,0
60490,-100,4,1,4,60,0,0
63302,-100,4,1,2,60,0,0
63771,-100,4,1,4,60,0,0
65177,-100,4,1,2,60,0,0
65646,-100,4,1,4,60,0,0
67052,-100,4,1,2,45,0,0
67990,-100,4,1,4,60,0,0
70802,-100,4,1,2,60,0,0
71740,-100,4,1,4,60,0,0
73146,-100,4,1,2,60,0,0
73849,-100,4,1,2,30,0,0
74552,-100,4,1,2,60,0,0
75490,-100,4,2,1,60,0,0
82990,-100,4,1,4,60,0,0
90490,-100,4,1,4,60,0,1
90958,-100,4,1,4,60,0,0
97052,-100,4,1,2,60,0,0
97990,-100,4,1,4,60,0,1
98458,-100,4,1,4,60,0,0
100802,-100,4,1,2,60,0,0
101271,-100,4,1,4,60,0,0
101740,-100,4,1,4,60,0,0
104552,-100,4,1,2,60,0,0
105021,-100,4,1,2,45,0,0
105490,-100,4,1,4,60,0,1
118497,-100,4,1,4,60,0,0
119552,-100,4,1,2,60,0,0
120490,-100,4,1,4,60,0,0

[Colours]
Combo1 : 255,128,128
Combo2 : 255,128,64
Combo3 : 255,128,0
Combo4 : 255,0,0

[HitObjects]
46,140,490,6,0,B|174:113|148:200|288:172,1,245,2|2,0:0|0:0,0:0:0:0:
382,126,1661,1,2,0:0:0:0:
485,312,2365,2,0,B|357:340|382:252|243:280,1,245,2|2,0:0|0:0,0:0:0:0:
149,326,3536,1,2,0:0:0:0:
46,140,4240,6,0,L|62:67,2,70,2|0|10,0:1|0:0|0:1,0:0:0:0:
164,220,5177,2,0,L|180:292,2,70,2|0|10,0:0|0:0|0:1,0:0:0:0:
240,98,6115,2,0,L|257:26,2,70,2|0|10,0:0|0:0|0:1,0:0:0:0:
350,188,7052,2,0,L|366:262,2,70,0|8|2,0:0|0:0|0:0,0:0:0:0:
427,68,7990,5,14,0:0:0:0:
427,68,9865,1,14,0:1:0:0:
427,68,11740,5,14,0:0:0:0:
483,347,12677,1,14,0:0:0:0:
427,68,13615,1,14,0:0:0:0:
399,207,14083,1,14,0:0:0:0:
321,90,14552,6,0,B|291:66|291:66|256:126|298:182|298:182|339:232|328:299|328:299,1,280,8|14,0:0|0:0,0:0:0:0:
216,376,15958,1,10,0:0:0:0:
80,333,16427,2,0,L|11:346,2,70,10|10|8,0:0|0:0|0:0,0:0:0:0:
198,257,17365,1,10,0:0:0:0:
334,296,17833,1,10,0:0:0:0:
448,215,18302,2,0,L|523:226,2,70,10|10|8,0:0|0:0|0:0,0:0:0:0:
312,176,19240,5,10,0:0:0:0:
198,257,19708,1,10,0:0:0:0:
171,119,20177,2,0,L|156:21,2,70,10|8|10,0:0|0:0|0:0,0:0:0:0:
73,218,21115,6,0,B|126:277|199:255|199:255|271:235|319:305,2,280,2|8|14,0:0|0:0|0:0,0:0:0:0:
171,119,23458,1,8,0:0:0:0:
264,223,23927,2,0,L|276:154,2,70,10|10|8,0:0|0:0|0:0,0:0:0:0:
238,361,24865,5,14,0:0:0:0:
155,247,25333,1,10,0:0:0:0:
33,315,25802,2,0,L|12:400,2,70,10|10|8,0:0|0:0|0:0,0:0:0:0:
60,177,26740,5,10,0:0:0:0:
146,286,27208,1,10,0:0:0:0:
180,150,27677,2,0,L|198:75,2,70,8|8|0,0:0|0:0|0:0,0:0:0:0:
256,192,28615,12,14,30490,0:0:0:0:
135,184,30958,5,10,0:0:0:0:
239,90,31427,2,0,L|225:21,2,70,10|10|8,0:0|0:0|0:0,0:0:0:0:
371,135,32365,2,0,B|408:193|408:193|396:262,1,140,10|10,0:0|0:0,0:0:0:0:
262,220,33302,2,0,L|276:289,2,70,10|10|10,0:0|0:0|0:0,0:0:0:0:
160,312,34240,2,0,B|123:254|123:254|135:185,1,140,10|10,0:0|0:0,0:0:0:0:
239,90,35177,2,0,L|317:105,2,70,10|10|10,0:0|0:0|0:0,0:0:0:0:
116,20,36115,6,0,B|120:67|120:67|9:218|9:218|17:265,2,280,2|10|14,0:0|0:0|0:0,0:0:0:0:
239,90,38458,1,10,0:0:0:0:
361,21,38927,2,0,L|436:8,2,70,10|10|10,0:0|0:0|0:0,0:0:0:0:
239,90,39865,1,10,0:0:0:0:
368,142,40333,1,10,0:0:0:0:
245,209,40802,2,0,L|170:196,2,70,10|10|10,0:0|0:0|0:0,0:0:0:0:
380,252,41740,5,10,0:0:0:0:
256,312,42208,2,0,L|270:394,2,70,10|10|10,0:0|0:0|0:0,0:0:0:0:
231,173,43146,1,8,0:0:0:0:
101,120,43615,5,12,0:0:0:0:
76,222,43966,2,0,L|56:292,2,70,12|12|12,0:0|0:0|0:0,0:0:0:0:
256,192,44552,12,12,45490,0:1:0:0:
120,205,52990,6,0,P|185:179|257:185,1,140,14|0,0:0|0:0,0:0:0:0:
386,136,53927,2,4,L|377:244,2,105,14|14|14,0:0|0:0|0:0,0:0:0:0:
413,72,54865,2,0,P|348:98|276:92,1,140,14|2,0:0|0:0,0:0:0:0:
149,145,55802,2,4,L|140:40,2,105,14|14|14,0:0|0:0|0:0,0:0:0:0:
120,205,56740,6,0,P|185:179|257:185,1,140,14|10,0:0|0:0,0:0:0:0:
274,322,57677,2,0,P|209:348|137:342,1,140,14|10,0:0|0:0,0:0:0:0:
17,275,58615,2,0,L|7:352,2,70,14|10|14,0:0|0:0|0:0,0:0:0:0:
256,192,59552,12,14,60490,0:0:0:0:
379,247,60958,6,0,L|393:169,2,70,8|10|8,0:0|0:0|0:0,0:0:0:0:
253,183,61896,1,10,0:0:0:0:
352,83,62365,1,10,0:0:0:0:
226,20,62833,2,0,L|240:98,2,70,8|10|10,0:0|0:0|0:0,0:0:0:0:
132,124,63771,1,8,0:0:0:0:
9,55,64240,5,10,0:0:0:0:
43,190,64708,2,0,L|57:112,2,70,8|10|8,0:0|0:0|0:0,0:0:0:0:
15,327,65646,1,10,0:0:0:0:
121,236,66115,1,10,0:0:0:0:
245,298,66583,2,0,L|259:376,1,70,8|10,0:0|0:0,0:0:0:0:
256,192,67052,12,10,67990,0:0:0:0:
370,261,68458,5,8,0:0:0:0:
246,195,68927,1,8,0:0:0:0:
382,162,69396,2,0,L|458:146,2,70,10|10|10,0:0|0:0|0:0,0:0:0:0:
257,98,70333,1,8,0:0:0:0:
148,186,70802,1,8,0:0:0:0:
71,68,71271,6,0,L|-5:52,2,70,10|10|10,0:0|0:0|0:0,0:0:0:0:
206,102,72208,1,8,0:0:0:0:
75,151,72677,1,8,0:0:0:0:
152,267,73146,2,0,L|222:280,2,70,10|10|2,0:0|0:0|0:0,0:0:0:0:
256,192,73732,12,4,75490,0:0:0:0:
85,68,82990,5,14,0:0:0:0:
85,68,84865,1,12,0:0:0:0:
85,68,86740,5,14,0:0:0:0:
29,347,87677,1,14,0:0:0:0:
85,68,88615,1,14,0:0:0:0:
113,207,89083,1,14,0:0:0:0:
191,90,89552,6,0,B|221:66|221:66|256:126|214:182|214:182|173:232|184:299|184:299,1,280,10|10,0:0|0:0,0:0:0:0:
296,376,90958,1,10,0:0:0:0:
432,333,91427,2,0,L|501:346,2,70,10|10|10,0:0|0:0|0:0,0:0:0:0:
314,257,92365,1,10,0:0:0:0:
178,296,92833,1,10,0:0:0:0:
64,215,93302,2,0,L|-11:226,2,70,10|10|10,0:0|0:0|0:0,0:0:0:0:
200,176,94240,5,10,0:0:0:0:
314,257,94708,1,10,0:0:0:0:
341,119,95177,2,0,L|356:21,2,70,10|10|10,0:0|0:0|0:0,0:0:0:0:
439,218,96115,6,0,B|386:277|313:255|313:255|241:235|193:305,2,280,4|8|14,0:0|0:0|0:0,0:0:0:0:
341,119,98458,1,10,0:0:0:0:
248,223,98927,2,0,L|236:154,2,70,10|10|10,0:0|0:0|0:0,0:0:0:0:
274,361,99865,5,10,0:0:0:0:
357,247,100333,1,10,0:0:0:0:
479,315,100802,2,0,L|500:400,2,70,10|10|10,0:0|0:0|0:0,0:0:0:0:
448,178,101740,5,10,0:0:0:0:
369,293,102208,1,10,0:0:0:0:
343,155,102677,2,0,L|329:80,2,70,10|10|10,0:0|0:0|0:0,0:0:0:0:
256,192,103497,12,8,105255,0:0:0:0:
84,30,105490,6,0,P|60:83|65:135,1,105,10|10,0:0|0:0,0:0:0:0:
156,176,106193,2,0,P|180:229|175:281,1,105,10|10,0:0|0:0,0:0:0:0:
110,356,106896,1,10,0:0:0:0:
0,262,107365,2,0,B|80:235|80:235|103:247,1,105,10|10,0:0|0:0,0:0:0:0:
202,255,108068,2,0,B|220:264|220:264|300:237,1,105,10|10,0:0|0:0,0:0:0:0:
398,200,108771,1,10,0:0:0:0:
343,333,109240,6,0,L|297:232,1,105,10|10,0:0|0:0,0:0:0:0:
398,200,109943,2,0,L|444:99,1,105,10|10,0:0|0:0,0:0:0:0:
420,1,110646,1,10,0:0:0:0:
346,120,111115,2,0,P|277:112|242:85,1,105,10|10,0:0|0:0,0:0:0:0:
179,13,111818,2,0,P|110:21|75:48,1,105,10|10,0:0|0:0,0:0:0:0:
8,115,112521,6,0,B|26:153|26:153|18:218|18:218|39:260,1,140,10|10,0:0|0:0,0:0:0:0:
58,348,113341,1,10,0:0:0:0:
130,272,113693,2,0,P|182:268|237:298,1,105,10|10,0:0|0:0,0:0:0:0:
315,349,114396,2,0,B|333:311|333:311|325:246|325:246|346:204,1,140,10|10,0:0|0:0,0:0:0:0:
427,274,115216,1,10,0:0:0:0:
470,180,115568,2,0,P|467:128|439:84,1,105,10|10,0:0|0:0,0:0:0:0:
341,45,116271,6,0,P|285:74|208:75,1,140,10|10,0:0|0:0,0:0:0:0:
112,33,117091,1,10,0:0:0:0:
40,110,117443,2,0,P|40:167|57:224,1,105,10|10,0:0|0:0,0:0:0:0:
148,255,118146,1,10,0:0:0:0:
230,189,118497,2,0,B|308:174|367:212|367:212|394:190|394:190|406:222|406:222|428:199|428:199|440:233|484:247,1,315,10|8,0:0|0:0,0:0:0:0:
256,192,119669,12,14,120490,0:0:0:0:
