osu file format v14

[General]
AudioFilename: garakuta.mp3
AudioLeadIn: 0
PreviewTime: 75490
Countdown: 1
SampleSet: Normal
StackLeniency: 0.7
Mode: 0
LetterboxInBreaks: 1
WidescreenStoryboard: 1

[Editor]
Bookmarks: 490,4240,7990,15490,30490,45490,60490,86388
DistanceSpacing: 1
BeatDivisor: 2
GridSize: 4
TimelineZoom: 4.399998

[Metadata]
Title:Garakuta Doll Play
TitleUnicode:Garakuta Doll Play
Artist:t+pazolite
ArtistUnicode:t+pazolite
Creator:BluOxy
Version:ADVANCED
Source:maimai
Tags:SEGA 天下一音ゲ祭 jubeat saucer fulfill taiko no tatsujin kimidori groove coster Chunithm
BeatmapID:1010265
BeatmapSetID:466538

[Difficulty]
HPDrainRate:5
CircleSize:3
OverallDifficulty:5
ApproachRate:6
SliderMultiplier:0.9
SliderTickRate:1

[Events]
//Background and Video events
0,0,"29469868_p0.jpg",0,0
//Break Periods
2,45690,51790
2,75690,81790
//Storyboard Layer 0 (Background)
//Storyboard Layer 1 (Fail)
//Storyboard Layer 2 (Pass)
//Storyboard Layer 3 (Foreground)
//Storyboard Sound Samples

[TimingPoints]
490,234.375,4,2,1,60,1,0
3771,-100,4,1,1,60,0,0
7286,-100,4,1,2,45,0,0
7521,-100,4,2,1,60,0,0
7990,-100,4,1,4,60,0,0
14552,-100,4,1,2,60,0,0
15490,-100,4,1,4,60,0,0
18302,-100,4,1,2,60,0,0
19240,-100,4,1,4,60,0,0
20177,-100,4,1,2,60,0,0
21115,-100,4,1,2,45,0,0
22990,-100,4,1,4,60,0,0
23341,-100,4,1,2,45,0,0
23693,-100,4,1,4,60,0,0
24396,-100,4,1,2,45,0,0
24865,-100,4,1,4,60,0,0
25802,-100,4,1,2,60,0,0
26740,-100,4,1,4,60,0,0
27677,-100,4,1,2,60,0,0
28615,-100,4,2,1,60,0,0
29552,-100,4,2,1,45,0,0
30490,-100,4,1,4,60,0,0
31661,-100,4,1,2,60,0,0
32130,-100,4,1,4,60,0,0
36115,-100,4,1,2,60,0,0
37990,-100,4,1,4,60,0,0
39161,-100,4,1,2,60,0,0
39630,-100,4,1,4,60,0,0
43146,-100,4,1,2,60,0,0
43615,-100,4,1,2,45,0,0
45021,-100,4,2,1,60,0,0
45490,-100,4,2,4,60,0,0
52990,-100,4,1,4,60,0,0
59552,-100,4,1,2,30,0,0
60490,-100,4,1,4,60,0,0
63302,-100,4,1,2,60,0,0
63771,-100,4,1,4,60,0,0
65177,-100,4,1,2,60,0,0
65646,-100,4,1,4,60,0,0
67052,-100,4,1,2,45,0,0
67990,-100,4,1,4,60,0,0
70802,-100,4,1,2,60,0,0
71740,-100,4,1,4,60,0,0
73146,-100,4,1,2,60,0,0
73849,-100,4,1,2,30,0,0
74552,-100,4,1,2,60,0,0
75490,-100,4,2,1,60,0,0
82990,-100,4,1,4,60,0,0
90490,-100,4,1,4,60,0,1
90958,-100,4,1,4,60,0,0
97052,-100,4,1,2,60,0,0
97990,-100,4,1,4,60,0,1
98458,-100,4,1,4,60,0,0
100802,-100,4,1,2,60,0,0
101271,-100,4,1,4,60,0,0
101740,-100,4,1,4,60,0,0
104552,-100,4,1,2,60,0,0
105021,-100,4,1,2,45,0,0
105490,-100,4,1,4,60,0,1
118497,-100,4,1,4,60,0,0
119552,-100,4,1,2,60,0,0
120490,-100,4,1,4,60,0,0

[Colours]
Combo1 : 255,128,128
Combo2 : 255,128,64
Combo3 : 255,128,0
Combo4 : 255,0,0

[HitObjects]
478,26,490,6,0,P|440:52|391:60,1,90,2|0,0:0|0:0,0:0:0:0:
309,40,958,2,0,L|325:104,1,45,2|0,0:0|0:0,0:0:0:0:
378,152,1310,2,0,P|310:152|251:189,1,135,2|2,0:0|0:0,0:0:0:0:
30,26,2365,6,0,P|68:52|117:60,1,90,2|0,0:0|0:0,0:0:0:0:
199,40,2833,2,0,L|183:104,1,45,2|0,0:0|0:0,0:0:0:0:
130,152,3185,2,0,P|198:152|257:189,1,135,2|2,0:0|0:0,0:0:0:0:
294,266,3771,1,10,0:0:0:0:
378,235,4005,1,8,0:0:0:0:
431,307,4240,6,0,P|458:266|458:206,1,90,2|0,0:1|0:0,0:0:0:0:
415,149,4708,2,0,B|413:100|438:61|438:61|406:94|355:100,1,180,10|2,0:1|0:0,0:0:0:0:
275,71,5411,1,0,0:0:0:0:
222,144,5646,2,0,B|180:170|134:168|134:168|178:179|209:220,1,180,10|2,0:1|0:0,0:0:0:0:
211,305,6349,1,0,0:0:0:0:
287,351,6583,2,0,P|204:350|114:381,1,180,10|0,0:1|0:0,0:0:0:0:
36,333,7286,1,8,0:0:0:0:
116,291,7521,1,2,0:0:0:0:
38,244,7755,1,2,0:0:0:0:
118,202,7990,6,0,B|129:181|120:157|120:157|146:149|136:125|136:125|164:121|183:100|183:100|195:112|225:99|225:99|230:122|257:119|257:119|262:141|283:153|283:153|281:173|293:194|293:194|277:206|271:235|271:235,1,360,14|0,0:0|0:0,0:0:0:0:
271,230,9865,2,0,B|260:251|269:275|269:275|243:283|253:307|253:307|225:311|206:332|206:332|194:320|164:333|164:333|159:310|132:313|132:313|127:291|106:279|106:279|108:259|96:238|96:238|112:226|118:197|118:197,1,360,14|0,0:1|0:0,0:0:0:0:
118,202,11740,6,0,B|129:181|120:157|120:157|146:149|136:125|136:125|164:121|183:100|183:100|195:112|225:99|225:99|230:122|257:119|257:119|262:141|283:153|283:153|281:173|293:194|293:194|277:206|271:235|271:235,2,360,14|14|14,0:0|0:0|0:0,0:0:0:0:
170,373,14083,1,14,0:0:0:0:
341,319,14552,6,0,L|246:304,1,90,8|8,0:0|0:0,0:0:0:0:
162,292,15021,2,0,L|73:278,1,90,8|8,0:0|0:0,0:0:0:0:
23,201,15490,5,14,0:0:0:0:
115,195,15724,1,10,0:0:0:0:
66,119,15958,2,0,P|109:45|202:19,1,180,10|10,0:0|0:0,0:0:0:0:
278,52,16661,2,0,L|258:147,1,90,10|8,0:0|0:0,0:0:0:0:
312,212,17130,1,12,0:0:0:0:
390,168,17365,5,10,0:0:0:0:
445,238,17599,2,0,L|497:227,2,45,10|0|10,0:0|0:0|0:0,0:0:0:0:
366,282,18068,1,10,0:0:0:0:
438,334,18302,2,0,P|378:318|264:366,1,180,10|8,0:0|0:0,0:0:0:0:
189,319,19005,1,8,0:0:0:0:
260,263,19240,6,0,L|278:169,1,90,10|10,0:0|0:0,0:0:0:0:
353,128,19708,1,10,0:0:0:0:
304,52,19943,2,0,P|254:64|218:82,1,90,10|10,0:0|0:0,0:0:0:0:
176,69,20294,2,0,P|146:133|97:185,1,135,10|10,0:0|0:0,0:0:0:0:
20,217,20880,5,10,0:0:0:0:
256,192,21115,12,14,22990,0:0:0:0:
53,274,23341,6,0,L|101:259,1,45,8|8,0:0|0:0,0:0:0:0:
178,297,23693,1,10,0:0:0:0:
246,238,23927,1,10,0:0:0:0:
262,326,24161,1,10,0:0:0:0:
448,130,24865,5,14,0:0:0:0:
424,216,25099,1,10,0:0:0:0:
358,154,25333,2,0,P|310:141|271:122,1,90,10|10,0:0|0:0,0:0:0:0:
212,57,25802,2,0,L|226:6,2,45,10|10|10,0:0|0:0|0:0,0:0:0:0:
133,101,26271,1,8,0:0:0:0:
182,176,26505,1,8,0:0:0:0:
92,187,26740,6,0,L|66:275,1,90,10|10,0:0|0:0,0:0:0:0:
118,346,27208,1,10,0:0:0:0:
204,318,27443,1,10,0:0:0:0:
265,383,27677,2,0,L|312:372,2,45,8|8|8,0:0|0:0|0:0,0:0:0:0:
204,318,28146,1,0,0:0:0:0:
229,231,28380,5,10,0:0:0:0:
256,192,28615,12,2,29552,0:0:0:0:
505,85,30490,6,0,P|444:124|374:120,1,135,14|0,0:0|0:0,0:0:0:0:
342,105,30958,2,0,L|360:200,1,90,10|10,0:0|0:0,0:0:0:0:
328,278,31427,1,10,0:0:0:0:
396,335,31661,2,0,L|450:346,2,45,10|8|8,0:0|0:0|0:0,0:0:0:0:
312,369,32130,1,10,0:0:0:0:
242,311,32365,6,0,L|102:287,1,135,10|0,0:0|0:0,0:0:0:0:
65,301,32833,2,0,P|78:248|81:204,1,90,10|10,0:0|0:0,0:0:0:0:
77,122,33302,1,10,0:0:0:0:
153,74,33536,2,0,L|145:22,2,45,10|2|10,0:0|0:0|0:0,0:0:0:0:
169,162,34005,1,10,0:0:0:0:
245,210,34240,6,0,P|283:171|365:147,1,135,10|0,0:0|0:0,0:0:0:0:
402,154,34708,2,0,L|417:64,1,90,10|10,0:0|0:0,0:0:0:0:
499,35,35177,1,10,0:0:0:0:
486,123,35411,2,0,L|477:179,2,45,10|10|10,0:0|0:0|0:0,0:0:0:0:
416,65,35880,5,10,0:0:0:0:
256,192,36115,12,14,37990,0:0:0:0:
381,361,38224,5,10,0:0:0:0:
342,279,38458,2,0,L|360:184,1,90,10|10,0:0|0:0,0:0:0:0:
328,106,38927,1,10,0:0:0:0:
396,49,39161,2,0,L|450:38,2,45,10|10|10,0:0|0:0|0:0,0:0:0:0:
312,15,39630,1,10,0:0:0:0:
242,73,39865,6,0,L|102:97,1,135,10|0,0:0|0:0,0:0:0:0:
65,83,40333,2,0,P|78:136|81:180,1,90,10|10,0:0|0:0,0:0:0:0:
77,262,40802,1,10,0:0:0:0:
153,310,41036,2,0,L|145:362,2,45,10|2|10,0:0|0:0|0:0,0:0:0:0:
169,222,41505,1,10,0:0:0:0:
245,174,41740,6,0,P|283:213|365:237,1,135,10|0,0:0|0:0,0:0:0:0:
402,228,42208,2,0,L|410:287,2,45,10|10|10,0:0|0:0|0:0,0:0:0:0:
431,142,42677,2,0,P|393:103|311:79,1,135,10|0,0:0|0:0,0:0:0:0:
274,88,43145,2,0,L|266:29,2,45,8|8|8,0:0|0:0|0:0,0:0:0:0:
245,174,43615,6,0,L|257:266,1,90,12|0,0:0|0:0,0:0:0:0:
279,301,43966,2,0,P|237:276|192:274,1,90,12|12,0:0|0:0,0:0:0:0:
118,317,44435,2,0,P|46:302|5:253,1,135,12|0,0:0|0:0,0:0:0:0:
6,167,45021,1,2,0:0:0:0:
89,200,45255,1,2,0:0:0:0:
124,117,45490,5,12,0:1:0:0:
212,147,52990,6,0,P|260:123|435:219,1,270,14|2,0:0|0:0,0:0:0:0:
446,303,53927,2,0,L|305:338,1,135,14|14,0:0|0:0,0:0:0:0:
182,308,54630,1,14,0:0:0:0:
119,373,54865,6,0,B|75:304|118:247|118:247|138:171|84:124,1,270,14|0,0:0|0:0,0:0:0:0:
33,50,55802,2,0,P|76:75|182:72,1,135,14|14,0:0|0:0,0:0:0:0:
288,39,56505,1,14,0:0:0:0:
356,97,56740,6,0,L|335:289,1,180,14|10,0:0|0:0,0:0:0:0:
165,332,57677,2,0,L|145:153,1,180,14|10,0:0|0:0,0:0:0:0:
288,39,58615,6,0,L|276:146,1,90,14|10,0:0|0:0,0:0:0:0:
234,207,59083,2,0,L|246:314,1,90,14|10,0:0|0:0,0:0:0:0:
256,192,59552,12,14,60490,0:0:0:0:
335,320,60724,6,0,L|379:325,2,45,8|2|8,0:0|0:0|0:0,0:0:0:0:
246,303,61193,1,10,0:0:0:0:
305,236,61427,1,8,0:0:0:0:
217,217,61661,2,0,L|128:232,2,90,10|10|10,0:0|0:0|0:0,0:0:0:0:
278,150,62365,6,0,P|279:103|300:62,1,90,10|8,0:0|0:0,0:0:0:0:
341,54,62716,2,0,L|398:65,1,45,2|8,0:0|0:0,0:0:0:0:
474,76,63068,1,10,0:0:0:0:
419,147,63302,1,10,0:0:0:0:
458,227,63536,2,0,L|505:218,2,45,8|8|8,0:0|0:0|0:0,0:0:0:0:
377,266,64005,1,8,0:0:0:0:
444,325,64240,6,0,P|396:352|354:348,1,90,10|8,0:0|0:0,0:0:0:0:
317,368,64591,2,0,L|300:301,1,45,2|8,0:0|0:0,0:0:0:0:
270,241,64943,1,10,0:0:0:0:
340,185,65177,1,8,0:0:0:0:
305,101,65411,2,0,L|316:57,2,45,10|8|10,0:0|0:0|0:0,0:0:0:0:
236,159,65880,1,10,0:0:0:0:
201,75,66115,6,0,P|155:48|108:48,1,90,10|8,0:0|0:0,0:0:0:0:
75,34,66466,2,0,L|58:101,1,45,2|8,0:0|0:0,0:0:0:0:
127,138,66818,2,0,L|144:205,1,45,10|0,0:0|0:0,0:0:0:0:
256,192,67052,12,10,67990,0:0:0:0:
177,320,68224,6,0,L|132:325,2,45,8|2|8,0:0|0:0|0:0,0:0:0:0:
266,303,68693,1,10,0:0:0:0:
207,236,68927,1,8,0:0:0:0:
295,217,69161,2,0,L|384:232,2,90,10|10|10,0:0|0:0|0:0,0:0:0:0:
234,150,69865,6,0,P|233:103|212:62,1,90,10|8,0:0|0:0,0:0:0:0:
171,54,70216,2,0,L|114:65,1,45,2|8,0:0|0:0,0:0:0:0:
38,76,70568,1,10,0:0:0:0:
93,147,70802,1,8,0:0:0:0:
54,227,71036,2,0,L|7:218,2,45,10|8|10,0:0|0:0|0:0,0:0:0:0:
135,266,71505,1,10,0:0:0:0:
68,325,71740,6,0,P|111:352|157:352,1,90,10|8,0:0|0:0,0:0:0:0:
192,366,72091,2,0,L|209:299,1,45,2|8,0:0|0:0,0:0:0:0:
242,241,72443,1,10,0:0:0:0:
172,185,72677,1,8,0:0:0:0:
207,101,72911,2,0,L|195:57,2,45,10|8|10,0:0|0:0|0:0,0:0:0:0:
276,159,73380,1,10,0:0:0:0:
348,104,73615,2,0,L|405:112,1,45,2|2,0:0|0:0,0:0:0:0:
433,91,73849,6,0,B|401:135|405:174|405:174|454:195|469:234|469:234|432:268|439:317,1,270,8|2,0:0|0:0,0:0:0:0:
265,364,75021,5,2,0:0:0:0:
243,276,75255,1,2,0:0:0:0:
178,338,75490,1,4,0:0:0:0:
397,197,82990,6,0,B|386:176|395:152|395:152|369:144|379:120|379:120|351:116|332:95|332:95|320:107|290:94|290:94|285:117|258:114|258:114|253:136|232:148|232:148|234:168|222:189|222:189|238:201|244:230|244:230,1,360,14|10,0:0|0:0,0:0:0:0:
218,312,84161,2,0,L|211:358,2,45,10|2|10,0:0|0:0|0:0,0:0:0:0:
153,250,84630,1,10,0:0:0:0:
244,225,84865,2,0,B|255:246|246:270|246:270|272:278|262:302|262:302|290:306|309:327|309:327|321:315|351:328|351:328|356:305|383:308|383:308|388:286|409:274|409:274|407:254|419:233|419:233|403:221|397:192|397:192,1,360,12|10,0:0|0:0,0:0:0:0:
413,107,86036,2,0,L|420:61,2,45,8|2|10,0:0|0:0|0:0,0:0:0:0:
478,169,86505,1,8,0:0:0:0:
397,197,86740,6,0,B|386:176|395:152|395:152|369:144|379:120|379:120|351:116|332:95|332:95|320:107|290:94|290:94|285:117|258:114|258:114|253:136|232:148|232:148|234:168|222:189|222:189|238:201|244:230|244:230,2,360,14|14|14,0:0|0:0|0:0,0:0:0:0:
344,368,89083,1,14,0:0:0:0:
179,295,89552,6,0,B|253:279|253:279|283:286|283:286|359:271,1,180,10|2,0:0|0:0,0:0:0:0:
493,159,90490,5,10,0:0:0:0:
404,148,90724,1,10,0:0:0:0:
458,76,90958,2,0,L|465:26,2,45,10|2|10,0:0|0:0|0:0,0:0:0:0:
368,65,91427,2,0,P|322:86|281:92,1,90,10|10,0:0|0:0,0:0:0:0:
238,86,91779,2,0,L|190:79,1,45,2|10,0:0|0:0,0:0:0:0:
113,39,92130,1,10,0:0:0:0:
33,81,92365,6,0,P|32:125|45:169,1,90,10|10,0:0|0:0,0:0:0:0:
74,202,92716,2,0,L|69:251,1,45,2|10,0:0|0:0,0:0:0:0:
54,335,93068,1,10,0:0:0:0:
138,304,93302,2,0,P|181:302|227:319,1,90,10|10,0:0|0:0,0:0:0:0:
259,346,93654,2,0,L|273:299,1,45,2|10,0:0|0:0,0:0:0:0:
290,215,94005,1,8,0:0:0:0:
355,277,94240,5,10,0:0:0:0:
381,191,94474,1,10,0:0:0:0:
442,256,94708,2,0,L|449:306,2,45,10|2|10,0:0|0:0|0:0,0:0:0:0:
470,170,95177,6,0,P|460:125|455:72,1,90,10|10,0:0|0:0,0:0:0:0:
480,43,95529,2,0,L|435:36,1,45,2|10,0:0|0:0,0:0:0:0:
356,78,95880,1,2,0:0:0:0:
356,78,95997,2,0,P|269:69|148:142,1,225,6|10,0:0|0:0,0:0:0:0:
110,215,96818,1,10,0:0:0:0:
32,181,97052,2,0,P|25:224|37:268,1,90,8|8,0:0|0:0,0:0:0:0:
118,306,97521,2,0,P|164:286|185:248,1,90,8|8,0:0|0:0,0:0:0:0:
264,293,97990,5,14,0:0:0:0:
352,276,98224,1,10,0:0:0:0:
429,322,98458,2,0,L|421:371,2,45,10|2|10,0:0|0:0|0:0,0:0:0:0:
482,249,98927,2,0,P|469:203|468:152,1,90,10|10,0:0|0:0,0:0:0:0:
473,116,99279,2,0,L|481:68,1,45,2|10,0:0|0:0,0:0:0:0:
399,32,99630,1,10,0:0:0:0:
386,121,99865,6,0,P|340:123|290:146,1,90,10|10,0:0|0:0,0:0:0:0:
262,164,100216,2,0,L|215:157,1,45,2|10,0:0|0:0,0:0:0:0:
163,84,100568,1,10,0:0:0:0:
80,119,100802,2,0,P|67:165|66:216,1,90,10|10,0:0|0:0,0:0:0:0:
71,252,101154,2,0,L|79:300,2,45,0|10|2,0:0|0:0|0:0,0:0:0:0:
157,278,101622,1,10,0:0:0:0:
157,278,101740,5,10,0:0:0:0:
240,243,101974,1,10,0:0:0:0:
230,332,102208,2,0,L|224:378,2,45,10|2|10,0:0|0:0|0:0,0:0:0:0:
314,299,102677,2,0,P|317:251|339:208,1,90,10|10,0:0|0:0,0:0:0:0:
374,190,103029,2,0,L|426:206,1,45,2|10,0:0|0:0,0:0:0:0:
495,159,103380,1,10,0:0:0:0:
495,159,103497,6,0,B|452:106|491:29|491:29|456:50|408:45|408:45|380:85|334:94|334:94,1,315,6|10,0:0|0:0,0:0:0:0:
246,72,104552,2,0,B|237:120|237:120|265:153|265:153|258:197|258:197|281:235,1,180,2|8,0:0|0:0,0:0:0:0:
426,340,105490,6,0,P|373:311|312:313,1,90,10|8,0:0|0:0,0:0:0:0:
300,316,105841,2,0,L|251:328,1,45,10|8,0:0|0:0,0:0:0:0:
195,260,106193,2,0,P|142:289|81:287,1,90,10|8,0:0|0:0,0:0:0:0:
69,284,106544,2,0,L|20:272,1,45,10|8,0:0|0:0,0:0:0:0:
72,196,106896,1,10,0:0:0:0:
10,130,107130,1,10,0:0:0:0:
52,51,107365,6,0,P|105:80|166:78,1,90,10|8,0:0|0:0,0:0:0:0:
178,75,107716,2,0,L|227:63,1,45,10|8,0:0|0:0,0:0:0:0:
283,131,108068,2,0,P|336:102|397:104,1,90,10|8,0:0|0:0,0:0:0:0:
409,107,108419,2,0,L|458:119,1,45,10|8,0:0|0:0,0:0:0:0:
501,41,108771,1,10,0:0:0:0:
470,218,109240,6,0,P|418:226|370:231,1,90,10|8,0:0|0:0,0:0:0:0:
336,220,109591,2,0,P|340:245|344:279,1,45,10|8,0:0|0:0,0:0:0:0:
289,337,109943,2,0,P|237:328|189:324,1,90,10|8,0:0|0:0,0:0:0:0:
155,335,110294,2,0,P|159:310|163:276,1,45,10|8,0:0|0:0,0:0:0:0:
76,260,110646,1,10,0:0:0:0:
120,182,110880,1,10,0:0:0:0:
55,119,111115,6,0,P|97:94|154:99,1,90,10|8,0:0|0:0,0:0:0:0:
178,111,111466,2,0,P|174:86|170:52,1,45,10|8,0:0|0:0,0:0:0:0:
236,4,111818,2,0,P|276:23|320:22,1,90,10|8,0:0|0:0,0:0:0:0:
363,6,112169,2,0,P|359:31|355:65,1,45,10|8,0:0|0:0,0:0:0:0:
429,103,112521,2,0,L|409:209,1,90,10|10,0:0|0:0,0:0:0:0:
480,255,112990,5,10,0:0:0:0:
395,285,113224,2,0,L|405:341,2,45,8|10|8,0:0|0:0|0:0,0:0:0:0:
326,226,113693,1,10,0:0:0:0:
346,138,113927,2,0,L|360:82,2,45,8|10|8,0:0|0:0|0:0,0:0:0:0:
260,165,114396,2,0,P|228:137|178:126,1,90,10|10,0:0|0:0,0:0:0:0:
93,139,114865,5,10,0:0:0:0:
74,226,115099,2,0,L|65:270,2,45,8|10|8,0:0|0:0|0:0,0:0:0:0:
163,215,115568,1,10,0:0:0:0:
144,302,115802,2,0,L|135:346,2,45,8|10|8,0:0|0:0|0:0,0:0:0:0:
233,292,116271,2,0,P|265:320|315:331,1,90,10|10,0:0|0:0,0:0:0:0:
398,312,116740,5,10,0:0:0:0:
462,249,116974,2,0,L|507:259,2,45,8|10|8,0:0|0:0|0:0,0:0:0:0:
401,181,117443,1,10,0:0:0:0:
339,115,117677,2,0,B|317:124|308:148|308:148|283:137|275:162|275:162|251:147|229:153|229:153|222:134|195:128|195:128|201:104|180:90|180:90|191:71|183:42|183:42,1,270,8|8,0:0|0:0,0:0:0:0:
152,14,118497,6,0,B|119:58|119:58|125:91|125:91|96:135,1,135,14|10,0:0|0:0,0:0:0:0:
89,219,119083,1,10,0:0:0:0:
16,164,119318,1,10,0:0:0:0:
256,192,119552,12,14,120490,0:0:0:0:
