osu file format v14

[General]
AudioFilename: t+pazolite - Electric Sister Bitch.mp3
AudioLeadIn: 0
PreviewTime: 34539
Countdown: 0
SampleSet: Soft
StackLeniency: 0.7
Mode: 3
LetterboxInBreaks: 0
EpilepsyWarning: 1
SpecialStyle: 0
WidescreenStoryboard: 1

[Editor]
DistanceSpacing: 0.8
BeatDivisor: 4
GridSize: 8
TimelineZoom: 1.5

[Metadata]
Title:Electric "Sister" Bitch
TitleUnicode:Electric "Sister" Bitch
Artist:t+pazolite
ArtistUnicode:t+pazolite
Creator:Verniy_Chan
Version:BASIC Lv.6
Source:SOUND VOLTEX II -infinite infection-
Tags:SDVX Tomoyuki Hamada ZUN Touhou Project EOSD Remix Contest Butterfly Little U.N.オーエンは彼女なのか? Rinzler Rido arviejhay Eon-
BeatmapID:710980
BeatmapSetID:310607

[Difficulty]
HPDrainRate:6.5
CircleSize:4
OverallDifficulty:7
ApproachRate:5
SliderMultiplier:1.4
SliderTickRate:1

[Events]
//Background and Video events
0,0,"BG.jpg",0,0
//Break Periods
//Storyboard Layer 0 (Background)
//Storyboard Layer 1 (Fail)
//Storyboard Layer 2 (Pass)
//Storyboard Layer 3 (Foreground)
//Storyboard Sound Samples

[TimingPoints]
810,324.324324324324,4,2,1,50,1,0
23837,-100,4,2,1,30,0,0
35837,-100,4,2,1,50,0,1
56593,-100,4,2,1,50,0,0
87728,-100,4,2,1,50,0,1
108485,-100,4,2,1,50,0,0

[HitObjects]
320,192,810,5,2,0:0:0:0:
64,192,1134,1,8,0:0:0:0:
320,192,1296,1,2,0:0:0:0:
448,192,1620,1,2,0:0:0:0:
192,192,1782,1,8,0:0:0:0:
320,192,1945,1,8,0:0:0:0:
64,192,2107,1,2,0:0:0:0:
192,192,2431,1,2,0:0:0:0:
320,192,2755,1,2,0:0:0:0:
64,192,3080,128,8,3404:0:0:0:0:
448,192,3404,128,2,3728:0:0:0:0:
192,192,3728,1,2,0:0:0:0:
64,192,4053,128,2,4377:0:0:0:0:
320,192,4377,1,2,0:0:0:0:
448,192,4701,128,2,5350:0:0:0:0:
64,192,5350,1,2,0:0:0:0:
320,192,5512,1,0,0:0:0:0:
192,192,5674,1,2,0:0:0:0:
448,192,5837,1,0,0:0:0:0:
64,192,5999,128,2,6323:0:0:0:0:
320,192,6323,1,2,0:0:0:0:
448,192,6647,128,2,6972:0:0:0:0:
192,192,6972,1,2,0:0:0:0:
64,192,7296,128,2,7945:0:0:0:0:
320,192,7945,1,2,0:0:0:0:
192,192,8107,1,0,0:0:0:0:
448,192,8269,128,2,8593:0:0:0:0:
64,192,8593,128,2,8918:0:0:0:0:
320,192,8918,1,2,0:0:0:0:
192,192,9242,128,2,9566:0:0:0:0:
448,192,9566,1,2,0:0:0:0:
64,192,9891,128,2,10539:0:0:0:0:
448,192,10539,1,2,0:0:0:0:
192,192,10701,1,0,0:0:0:0:
320,192,10864,1,2,0:0:0:0:
64,192,11026,1,0,0:0:0:0:
448,192,11188,128,2,12485:0:0:0:0:
64,192,12485,1,2,0:0:0:0:
320,192,12728,1,2,0:0:0:0:
192,192,12972,1,2,0:0:0:0:
448,192,13134,1,2,0:0:0:0:
64,192,13458,1,2,0:0:0:0:
192,192,13782,1,2,0:0:0:0:
448,192,13945,1,0,0:0:0:40:Greget.wav
64,192,14107,1,0,0:0:0:40:Greget.wav
320,192,14431,1,0,0:0:0:40:Greget.wav
192,192,14674,1,0,0:0:0:40:Greget.wav
64,192,14918,1,0,0:0:0:40:Greget.wav
448,192,15161,1,0,0:0:0:40:Greget.wav
192,192,15404,128,0,15728:0:0:0:40:Greget.wav
320,192,15728,1,0,0:0:0:40:Greget.wav
448,192,15972,1,0,0:0:0:40:Greget.wav
64,192,16215,1,0,0:0:0:40:Greget.wav
192,192,16539,1,0,0:0:0:40:Greget.wav
448,192,16701,1,0,0:0:0:40:Greget.wav
320,192,17026,1,0,0:0:0:40:Greget.wav
192,192,17269,1,0,0:0:0:40:Greget.wav
64,192,17512,1,0,0:0:0:40:Greget.wav
320,192,17755,1,0,0:0:0:40:Greget.wav
448,192,17999,128,0,18323:0:0:0:40:Greget.wav
192,192,18323,1,0,0:0:0:40:Greget.wav
64,192,18566,1,0,0:0:0:40:Greget.wav
448,192,18809,1,0,0:0:0:40:Greget.wav
320,192,19134,1,0,0:0:0:40:Greget.wav
64,192,19296,1,0,0:0:0:40:Greget.wav
192,192,19620,1,0,0:0:0:40:Greget.wav
320,192,19864,1,0,0:0:0:40:Greget.wav
448,192,20107,1,0,0:0:0:40:Greget.wav
192,192,20350,1,0,0:0:0:40:Greget.wav
320,192,20593,128,0,20918:0:0:0:40:Greget.wav
64,192,20918,1,0,0:0:0:40:Greget.wav
192,192,21161,1,0,0:0:0:40:Greget.wav
448,192,21404,1,0,0:0:0:40:Greget.wav
192,192,21728,1,0,0:0:0:40:Greget.wav
320,192,21891,1,0,0:0:0:40:Greget.wav
448,192,22215,1,0,0:0:0:40:Greget.wav
192,192,22458,1,0,0:0:0:40:Greget.wav
64,192,22701,1,0,0:0:0:40:Greget.wav
448,192,22945,1,0,0:0:0:40:Greget.wav
320,192,23188,1,0,0:0:0:40:Greget.wav
64,192,23431,1,0,0:0:0:40:Greget.wav
192,192,23674,1,0,0:0:0:40:Greget.wav
448,192,23837,1,2,0:0:0:0:
64,192,24161,1,2,0:0:0:0:
192,192,24647,1,0,0:0:0:0:
320,192,25296,1,0,0:0:0:0:
192,192,25782,128,0,26431:0:0:0:0:
448,192,26431,1,0,0:0:0:0:
64,192,26755,1,0,0:0:0:0:
320,192,27080,128,0,27728:0:0:0:0:
64,192,27728,1,0,0:0:0:0:
192,192,28053,1,0,0:0:0:0:
320,192,28377,1,0,0:0:0:0:
448,192,28701,128,0,29350:0:0:0:0:
192,192,29350,1,2,0:0:0:0:
320,192,29837,1,0,0:0:0:0:
64,192,30485,1,0,0:0:0:0:
448,192,30972,128,0,31620:0:0:0:0:
192,192,31620,1,0,0:0:0:0:
320,192,31945,1,0,0:0:0:0:
64,192,32269,128,0,32918:0:0:0:0:
448,192,32918,1,0,0:0:0:0:
192,192,33242,128,0,34539:0:0:0:0:
64,192,35512,128,8,35837:0:0:0:0:
320,192,35837,1,2,0:0:0:0:
448,192,35837,1,4,0:0:0:0:
192,192,36161,1,2,0:0:0:0:
448,192,36485,1,2,0:0:0:0:
320,192,36809,1,2,0:0:0:0:
64,192,36972,1,0,0:0:0:0:
448,192,37134,1,2,0:0:0:0:
192,192,37458,1,2,0:0:0:0:
320,192,37782,1,2,0:0:0:0:
64,192,38107,1,2,0:0:0:0:
448,192,38269,1,0,0:0:0:0:
192,192,38431,1,2,0:0:0:0:
64,192,38755,1,2,0:0:0:0:
320,192,39080,1,2,0:0:0:0:
192,192,39404,1,2,0:0:0:0:
448,192,39566,1,0,0:0:0:0:
64,192,39728,128,2,40215:0:0:0:0:
448,192,40215,128,0,40701:0:0:0:0:
192,192,40701,1,2,0:0:0:0:
320,192,40864,1,2,0:0:0:0:
64,192,41026,1,2,0:0:0:0:
320,192,41350,1,2,0:0:0:0:
192,192,41674,1,2,0:0:0:0:
448,192,41999,1,2,0:0:0:0:
64,192,42161,1,0,0:0:0:0:
320,192,42323,1,2,0:0:0:0:
192,192,42647,1,2,0:0:0:0:
448,192,42972,1,2,0:0:0:0:
64,192,43296,1,2,0:0:0:0:
320,192,43620,1,2,0:0:0:0:
448,192,43945,1,2,0:0:0:0:
192,192,44269,1,2,0:0:0:0:
448,192,44593,128,8,44918:0:0:0:0:
64,192,44918,1,2,0:0:0:0:
192,192,45161,1,2,0:0:0:0:
320,192,45404,1,2,0:0:0:0:
448,192,45647,1,2,0:0:0:0:
192,192,45891,1,2,0:0:0:0:
320,192,46053,1,2,0:0:0:0:
64,192,46215,1,2,0:0:0:0:
448,192,46539,1,2,0:0:0:0:
192,192,46864,1,2,0:0:0:0:
320,192,47188,1,2,0:0:0:0:
64,192,47350,1,0,0:0:0:0:
448,192,47512,1,2,0:0:0:0:
192,192,47837,128,8,48161:0:0:0:0:
448,192,48161,1,0,0:0:0:0:
64,192,48485,128,8,48809:0:0:0:0:
320,192,48809,1,2,0:0:0:0:
448,192,49134,1,2,0:0:0:0:
64,192,49458,1,2,0:0:0:0:
320,192,49782,1,2,0:0:0:0:
192,192,50107,1,0,0:0:0:0:
64,192,50431,128,8,50755:0:0:0:0:
320,192,50755,1,2,0:0:0:0:
192,192,51080,128,8,51404:0:0:0:0:
448,192,51404,1,2,0:0:0:0:
320,192,51728,1,2,0:0:0:0:
64,192,52053,1,2,0:0:0:0:
192,192,52377,1,2,0:0:0:0:
448,192,52539,1,0,0:0:0:0:
64,192,52701,1,2,0:0:0:0:
320,192,53026,128,2,53350:0:0:0:0:
192,192,53350,1,2,0:0:0:0:
448,192,53674,1,2,0:0:0:0:
64,192,53999,128,2,55296:0:0:0:0:
448,192,55296,1,2,0:0:0:0:
320,192,55539,1,2,0:0:0:0:
192,192,55782,1,2,0:0:0:0:
64,192,56026,1,2,0:0:0:0:
320,192,56269,1,2,0:0:0:0:
192,192,56431,1,2,0:0:0:0:
448,192,56593,1,2,0:0:0:0:
320,192,57242,1,2,0:0:0:0:
192,192,57891,128,2,59188:0:0:0:0:
448,192,59188,1,2,0:0:0:0:
64,192,59512,1,2,0:0:0:0:
320,192,59674,1,0,0:0:0:0:
192,192,59999,1,0,0:0:0:0:
64,192,60323,128,0,60809:0:0:0:0:
192,192,60809,128,2,61134:0:0:0:0:
320,192,61134,128,2,61458:0:0:0:0:
448,192,61458,128,2,61782:0:0:0:0:
64,192,61782,1,2,0:0:0:0:
448,192,62107,1,2,0:0:0:0:
192,192,62269,1,0,0:0:0:0:
320,192,62593,1,0,0:0:0:0:
448,192,62918,128,0,63404:0:0:0:0:
192,192,63404,128,2,63728:0:0:0:0:
64,192,63728,128,2,64377:0:0:0:0:
320,192,64377,1,2,0:0:0:0:
192,192,64701,1,2,0:0:0:0:
448,192,64864,1,0,0:0:0:0:
320,192,65188,1,0,0:0:0:0:
64,192,65512,128,0,65999:0:0:0:0:
448,192,65999,128,2,66323:0:0:0:0:
320,192,66323,128,2,66647:0:0:0:0:
192,192,66647,128,2,66972:0:0:0:0:
448,192,66972,1,2,0:0:0:0:
64,192,67296,1,2,0:0:0:0:
320,192,67458,1,0,0:0:0:0:
192,192,67782,1,0,0:0:0:0:
448,192,68107,128,2,68593:0:0:0:0:
64,192,68593,128,2,68918:0:0:0:0:
192,192,68918,128,8,69566:0:0:0:0:
448,192,69566,1,2,0:0:0:0:
320,192,69891,1,2,0:0:0:0:
64,192,70053,1,0,0:0:0:0:
192,192,70377,1,0,0:0:0:0:
448,192,70701,128,2,71188:0:0:0:0:
64,192,71188,128,2,71512:0:0:0:0:
192,192,71512,128,2,71837:0:0:0:0:
320,192,71837,128,2,72161:0:0:0:0:
64,192,72161,1,2,0:0:0:0:
448,192,72485,1,2,0:0:0:0:
192,192,72647,1,0,0:0:0:0:
320,192,72972,1,0,0:0:0:0:
64,192,73296,1,2,0:0:0:0:
448,192,73620,1,2,0:0:0:0:
192,192,73864,1,2,0:0:0:0:
320,192,74107,1,2,0:0:0:0:
64,192,74350,1,2,0:0:0:0:
448,192,74593,1,8,0:0:0:0:
192,192,74755,1,2,0:0:0:0:
448,192,75080,1,2,0:0:0:0:
64,192,75242,1,0,0:0:0:0:
320,192,75566,1,0,0:0:0:0:
64,192,75891,128,0,76377:0:0:0:0:
448,192,76377,128,2,76701:0:0:0:0:
320,192,76701,128,2,77026:0:0:0:0:
192,192,77026,128,2,77350:0:0:0:0:
448,192,77350,1,2,0:0:0:0:
64,192,77837,1,2,0:0:0:0:
192,192,78161,1,2,0:0:0:0:
320,192,78485,1,2,0:0:0:0:
64,192,78972,1,2,0:0:0:0:
448,192,79296,128,2,79945:0:0:0:0:
192,192,79945,1,2,0:0:0:0:
192,192,80755,1,2,0:0:0:0:
448,192,81080,1,2,0:0:0:0:
64,192,81242,1,2,0:0:0:0:
320,192,82053,1,2,0:0:0:0:
64,192,82296,1,2,0:0:0:0:
448,192,82539,1,2,0:0:0:0:
192,192,83026,1,2,0:0:0:0:
320,192,83350,1,2,0:0:0:0:
448,192,83674,1,2,0:0:0:0:
64,192,83837,128,2,85134:0:0:0:0:
448,192,85134,128,2,86431:0:0:0:0:
64,192,86431,1,2,0:0:0:0:
192,192,86674,1,2,0:0:0:0:
320,192,86918,1,2,0:0:0:0:
448,192,87242,1,2,0:0:0:0:
64,192,87404,128,8,87728:0:0:0:0:
320,192,87728,1,4,0:0:0:0:
448,192,87728,1,2,0:0:0:0:
192,192,88053,1,2,0:0:0:0:
448,192,88377,1,2,0:0:0:0:
320,192,88701,1,2,0:0:0:0:
64,192,88864,1,0,0:0:0:0:
448,192,89026,128,2,89512:0:0:0:0:
64,192,89512,128,0,89999:0:0:0:0:
320,192,89999,1,2,0:0:0:0:
192,192,90161,1,2,0:0:0:0:
448,192,90323,1,2,0:0:0:0:
64,192,90647,1,2,0:0:0:0:
320,192,90972,1,2,0:0:0:0:
448,192,91296,1,2,0:0:0:0:
64,192,91458,1,0,0:0:0:0:
320,192,91620,1,2,0:0:0:0:
192,192,91945,1,2,0:0:0:0:
448,192,92269,1,2,0:0:0:0:
64,192,92593,1,2,0:0:0:0:
320,192,92918,1,2,0:0:0:0:
448,192,93242,1,2,0:0:0:0:
192,192,93566,1,2,0:0:0:0:
64,192,93891,128,8,94215:0:0:0:0:
448,192,94215,1,2,0:0:0:0:
320,192,94458,1,2,0:0:0:0:
192,192,94701,1,2,0:0:0:0:
64,192,94945,1,2,0:0:0:0:
320,192,95188,1,2,0:0:0:0:
192,192,95350,1,2,0:0:0:0:
448,192,95512,1,2,0:0:0:0:
64,192,95837,1,2,0:0:0:0:
320,192,96161,1,2,0:0:0:0:
192,192,96485,1,2,0:0:0:0:
448,192,96647,1,0,0:0:0:0:
64,192,96809,1,2,0:0:0:0:
320,192,97134,128,8,97458:0:0:0:0:
64,192,97458,1,0,0:0:0:0:
448,192,97782,128,8,98107:0:0:0:0:
192,192,98107,1,2,0:0:0:0:
64,192,98431,1,2,0:0:0:0:
448,192,98755,1,2,0:0:0:0:
192,192,99080,1,2,0:0:0:0:
320,192,99404,1,0,0:0:0:0:
448,192,99728,128,8,100053:0:0:0:0:
192,192,100053,1,2,0:0:0:0:
320,192,100377,128,8,100701:0:0:0:0:
64,192,100701,1,4,0:0:0:0:
448,192,101026,1,2,0:0:0:0:
320,192,101350,1,2,0:0:0:0:
64,192,101674,1,2,0:0:0:0:
448,192,101837,1,0,0:0:0:0:
192,192,101999,1,2,0:0:0:0:
448,192,102323,128,2,102647:0:0:0:0:
64,192,102647,1,2,0:0:0:0:
192,192,102891,1,2,0:0:0:0:
320,192,103134,1,2,0:0:0:0:
64,192,103296,128,2,104593:0:0:0:0:
448,192,104593,1,2,0:0:0:0:
192,192,104837,1,2,0:0:0:0:
320,192,105080,1,2,0:0:0:0:
64,192,105323,1,2,0:0:0:0:
192,192,105566,1,2,0:0:0:0:
448,192,105728,1,2,0:0:0:0:
64,192,105891,1,2,0:0:0:0:
320,192,106134,1,2,0:0:0:0:
192,192,106377,1,2,0:0:0:0:
448,192,106620,1,2,0:0:0:0:
320,192,106864,1,2,0:0:0:0:
64,192,107026,1,2,0:0:0:0:
448,192,107188,1,2,0:0:0:0:
192,192,107350,1,2,0:0:0:0:
320,192,107512,1,2,0:0:0:0:
64,192,107674,1,2,0:0:0:0:
320,192,107837,128,8,108161:0:0:0:0:
192,192,108161,128,8,108485:0:0:0:0:
64,192,108485,128,4,110755:0:0:0:0:
448,192,108485,1,2,0:0:0:0:
