osu file format v14

[General]
AudioFilename: t+pazolite - Electric Sister Bitch.mp3
AudioLeadIn: 0
PreviewTime: 34539
Countdown: 0
SampleSet: Soft
StackLeniency: 0.7
Mode: 3
LetterboxInBreaks: 0
EpilepsyWarning: 1
SpecialStyle: 0
WidescreenStoryboard: 1

[Editor]
DistanceSpacing: 0.8
BeatDivisor: 4
GridSize: 8
TimelineZoom: 1.5

[Metadata]
Title:Electric "Sister" Bitch
TitleUnicode:Electric "Sister" Bitch
Artist:t+pazolite
ArtistUnicode:t+pazolite
Creator:Verniy_Chan
Version:ADVANCED Lv.12
Source:SOUND VOLTEX II -infinite infection-
Tags:SDVX Tomoyuki Hamada ZUN Touhou Project EOSD Remix Contest Butterfly Little U.N.オーエンは彼女なのか? Rinzler Rido arviejhay Eon-
BeatmapID:694150
BeatmapSetID:310607

[Difficulty]
HPDrainRate:7.5
CircleSize:4
OverallDifficulty:7.5
ApproachRate:5
SliderMultiplier:1.4
SliderTickRate:1

[Events]
//Background and Video events
0,0,"BG.jpg",0,0
//Break Periods
//Storyboard Layer 0 (Background)
//Storyboard Layer 1 (Fail)
//Storyboard Layer 2 (Pass)
//Storyboard Layer 3 (Foreground)
//Storyboard Sound Samples

[TimingPoints]
810,324.324324324324,4,2,1,50,1,0
23837,-100,4,2,1,30,0,0
35837,-100,4,2,1,50,0,1
56593,-100,4,2,1,50,0,0
87728,-100,4,2,1,50,0,1
108485,-100,4,2,1,50,0,0

[HitObjects]
64,192,810,5,2,0:0:0:0:
320,192,810,1,0,0:0:0:0:
192,192,972,1,0,0:0:0:0:
64,192,1134,1,8,0:0:0:0:
448,192,1134,1,0,0:0:0:0:
320,192,1296,1,2,0:0:0:0:
192,192,1296,1,0,0:0:0:0:
448,192,1458,1,0,0:0:0:0:
192,192,1620,1,2,0:0:0:0:
64,192,1620,1,0,0:0:0:0:
320,192,1782,1,8,0:0:0:0:
448,192,1782,1,0,0:0:0:0:
320,192,1945,1,8,0:0:0:0:
448,192,1945,1,0,0:0:0:0:
192,192,2107,1,2,0:0:0:0:
64,192,2107,1,0,0:0:0:0:
320,192,2431,1,2,0:0:0:0:
192,192,2431,1,0,0:0:0:0:
320,192,2755,1,2,0:0:0:0:
448,192,2755,1,0,0:0:0:0:
192,192,3080,128,8,3404:0:0:0:0:
448,192,3404,1,2,0:0:0:0:
64,192,3404,1,4,0:0:0:0:
320,192,3566,1,0,0:0:0:0:
448,192,3728,1,2,0:0:0:0:
192,192,3728,1,0,0:0:0:0:
64,192,3891,1,0,0:0:0:0:
192,192,4053,1,2,0:0:0:0:
320,192,4053,1,0,0:0:0:0:
448,192,4215,1,0,0:0:0:0:
64,192,4377,1,2,0:0:0:0:
320,192,4377,1,0,0:0:0:0:
192,192,4539,1,0,0:0:0:0:
448,192,4701,1,2,0:0:0:0:
320,192,4701,1,0,0:0:0:0:
192,192,4864,1,0,0:0:0:0:
64,192,5026,1,2,0:0:0:0:
320,192,5026,1,0,0:0:0:0:
448,192,5188,1,0,0:0:0:0:
320,192,5269,1,0,0:0:0:0:
64,192,5350,1,2,0:0:0:0:
192,192,5350,1,0,0:0:0:0:
320,192,5512,1,0,0:0:0:0:
448,192,5674,1,0,0:0:0:0:
192,192,5674,1,2,0:0:0:0:
64,192,5837,1,0,0:0:0:0:
192,192,5918,1,0,0:0:0:0:
448,192,5999,1,2,0:0:0:0:
320,192,5999,1,0,0:0:0:0:
192,192,6161,1,0,0:0:0:0:
448,192,6323,1,2,0:0:0:0:
64,192,6323,1,0,0:0:0:0:
192,192,6485,1,0,0:0:0:0:
320,192,6647,1,2,0:0:0:0:
448,192,6647,1,0,0:0:0:0:
192,192,6809,1,0,0:0:0:0:
64,192,6972,1,2,0:0:0:0:
320,192,6972,1,0,0:0:0:0:
448,192,7134,1,0,0:0:0:0:
192,192,7296,1,2,0:0:0:0:
64,192,7296,1,0,0:0:0:0:
320,192,7458,1,0,0:0:0:0:
448,192,7620,1,2,0:0:0:0:
192,192,7620,1,0,0:0:0:0:
64,192,7782,1,0,0:0:0:0:
192,192,7864,1,0,0:0:0:0:
448,192,7945,1,2,0:0:0:0:
320,192,7945,1,0,0:0:0:0:
64,192,8107,1,0,0:0:0:0:
320,192,8269,1,2,0:0:0:0:
192,192,8269,1,0,0:0:0:0:
320,192,8431,1,2,0:0:0:0:
448,192,8431,1,0,0:0:0:0:
64,192,8593,1,2,0:0:0:0:
192,192,8593,1,4,0:0:0:0:
320,192,8755,1,0,0:0:0:0:
64,192,8918,1,2,0:0:0:0:
448,192,8918,1,0,0:0:0:0:
192,192,9080,1,0,0:0:0:0:
320,192,9242,1,2,0:0:0:0:
448,192,9242,1,0,0:0:0:0:
192,192,9404,1,0,0:0:0:0:
64,192,9566,1,2,0:0:0:0:
320,192,9566,1,0,0:0:0:0:
448,192,9728,1,0,0:0:0:0:
64,192,9891,1,2,0:0:0:0:
192,192,9891,1,0,0:0:0:0:
320,192,10053,1,0,0:0:0:0:
192,192,10215,1,2,0:0:0:0:
448,192,10215,1,0,0:0:0:0:
64,192,10377,1,0,0:0:0:0:
192,192,10458,1,0,0:0:0:0:
320,192,10539,1,2,0:0:0:0:
448,192,10539,1,0,0:0:0:0:
192,192,10701,1,0,0:0:0:0:
320,192,10864,1,2,0:0:0:0:
64,192,10864,1,0,0:0:0:0:
448,192,11026,1,0,0:0:0:0:
320,192,11107,1,0,0:0:0:0:
192,192,11188,1,2,0:0:0:0:
64,192,11188,1,4,0:0:0:0:
64,192,11350,1,0,0:0:0:0:
192,192,11350,1,2,0:0:0:0:
448,192,11512,1,2,0:0:0:0:
320,192,11512,1,0,0:0:0:0:
448,192,11674,1,2,0:0:0:0:
320,192,11674,1,0,0:0:0:0:
192,192,11837,1,2,0:0:0:0:
64,192,11837,1,0,0:0:0:0:
192,192,11999,1,2,0:0:0:0:
64,192,11999,1,0,0:0:0:0:
320,192,12161,1,2,0:0:0:0:
448,192,12161,1,0,0:0:0:0:
320,192,12323,1,2,0:0:0:0:
448,192,12323,1,0,0:0:0:0:
448,192,12485,1,0,0:0:0:0:
64,192,12485,1,2,0:0:0:0:
192,192,12728,1,2,0:0:0:0:
320,192,12728,1,0,0:0:0:0:
64,192,12972,1,2,0:0:0:0:
448,192,12972,1,0,0:0:0:0:
192,192,13134,1,2,0:0:0:0:
320,192,13134,1,0,0:0:0:0:
192,192,13458,1,2,0:0:0:0:
320,192,13458,128,0,13782:0:0:0:0:
64,192,13782,1,2,0:0:0:0:
448,192,13782,1,0,0:0:0:0:
192,192,13945,1,0,0:0:0:40:Greget.wav
320,192,14107,1,0,0:0:0:40:Greget.wav
448,192,14431,1,0,0:0:0:40:Greget.wav
448,192,14674,1,0,0:0:0:40:Greget.wav
448,192,14918,1,0,0:0:0:40:Greget.wav
64,192,15161,1,0,0:0:0:40:Greget.wav
192,192,15404,1,0,0:0:0:40:Greget.wav
320,192,15566,1,0,0:0:0:40:Greget.wav
192,192,15728,1,0,0:0:0:40:Greget.wav
192,192,15972,1,0,0:0:0:40:Greget.wav
448,192,16215,1,0,0:0:0:40:Greget.wav
320,192,16539,1,0,0:0:0:40:Greget.wav
192,192,16701,1,0,0:0:0:40:Greget.wav
64,192,17026,1,0,0:0:0:40:Greget.wav
64,192,17269,1,0,0:0:0:40:Greget.wav
64,192,17512,1,0,0:0:0:40:Greget.wav
448,192,17755,1,0,0:0:0:40:Greget.wav
320,192,17999,1,0,0:0:0:40:Greget.wav
192,192,18161,1,0,0:0:0:40:Greget.wav
320,192,18323,1,0,0:0:0:40:Greget.wav
192,192,18566,1,0,0:0:0:40:Greget.wav
64,192,18809,1,0,0:0:0:40:Greget.wav
320,192,19134,1,0,0:0:0:40:Greget.wav
448,192,19296,1,0,0:0:0:40:Greget.wav
192,192,19620,1,0,0:0:0:40:Greget.wav
192,192,19864,1,0,0:0:0:40:Greget.wav
192,192,20107,1,0,0:0:0:40:Greget.wav
320,192,20350,1,0,0:0:0:40:Greget.wav
64,192,20593,1,0,0:0:0:40:Greget.wav
192,192,20755,1,0,0:0:0:40:Greget.wav
64,192,20918,1,0,0:0:0:40:Greget.wav
448,192,21161,1,0,0:0:0:40:Greget.wav
192,192,21404,1,0,0:0:0:40:Greget.wav
64,192,21728,1,0,0:0:0:40:Greget.wav
320,192,21891,1,0,0:0:0:40:Greget.wav
448,192,22215,1,0,0:0:0:40:Greget.wav
448,192,22458,1,0,0:0:0:40:Greget.wav
448,192,22701,1,0,0:0:0:40:Greget.wav
192,192,22945,1,0,0:0:0:40:Greget.wav
192,192,23188,1,0,0:0:0:40:Greget.wav
448,192,23431,1,0,0:0:0:40:Greget.wav
448,192,23674,1,0,0:0:0:40:Greget.wav
192,192,23837,1,2,0:0:0:20:Greget.wav
320,192,23837,1,2,0:0:0:0:
64,192,23999,1,0,0:0:0:10:Greget.wav
192,192,24161,1,2,0:0:0:0:
448,192,24161,1,4,0:0:0:0:
320,192,24485,1,0,0:0:0:0:
64,192,24647,1,0,0:0:0:0:
320,192,24972,1,0,0:0:0:0:
192,192,25296,1,0,0:0:0:0:
448,192,25620,1,0,0:0:0:0:
64,192,25782,128,0,26107:0:0:0:0:
320,192,26107,1,0,0:0:0:0:
448,192,26431,1,0,0:0:0:0:
192,192,26755,1,0,0:0:0:0:
448,192,27080,1,0,0:0:0:0:
320,192,27242,1,0,0:0:0:0:
64,192,27404,1,0,0:0:0:0:
192,192,27566,1,0,0:0:0:0:
320,192,27647,1,0,0:0:0:0:
448,192,27728,1,0,0:0:0:0:
64,192,27891,1,0,0:0:0:0:
320,192,28053,1,0,0:0:0:0:
192,192,28215,1,0,0:0:0:0:
448,192,28377,1,0,0:0:0:0:
320,192,28539,1,0,0:0:0:0:
64,192,28701,128,0,29350:0:0:0:0:
192,192,29350,1,4,0:0:0:0:
320,192,29350,1,2,0:0:0:0:
64,192,29674,1,0,0:0:0:0:
448,192,29837,1,0,0:0:0:0:
192,192,30161,1,0,0:0:0:0:
320,192,30485,1,0,0:0:0:0:
64,192,30809,1,0,0:0:0:0:
448,192,30972,128,0,31296:0:0:0:0:
192,192,31296,1,0,0:0:0:0:
320,192,31620,1,0,0:0:0:0:
64,192,31945,1,0,0:0:0:0:
320,192,32269,1,0,0:0:0:0:
192,192,32431,1,0,0:0:0:0:
448,192,32593,1,0,0:0:0:0:
320,192,32755,1,0,0:0:0:0:
192,192,32837,1,0,0:0:0:0:
64,192,32918,1,0,0:0:0:0:
320,192,33080,1,0,0:0:0:0:
448,192,33242,128,0,34539:0:0:0:0:
320,192,35512,128,8,35837:0:0:0:0:
64,192,35837,1,2,0:0:0:0:
448,192,35837,1,4,0:0:0:0:
192,192,35918,1,0,0:0:0:0:
320,192,35999,1,0,0:0:0:0:
448,192,36080,1,0,0:0:0:0:
64,192,36161,1,2,0:0:0:0:
192,192,36242,1,0,0:0:0:0:
448,192,36323,1,0,0:0:0:0:
320,192,36404,1,0,0:0:0:0:
192,192,36485,1,2,0:0:0:0:
64,192,36566,1,0,0:0:0:0:
448,192,36647,1,0,0:0:0:0:
320,192,36728,1,0,0:0:0:0:
64,192,36809,1,2,0:0:0:0:
192,192,36972,1,0,0:0:0:0:
448,192,37134,1,2,0:0:0:0:
320,192,37215,1,0,0:0:0:0:
192,192,37296,1,0,0:0:0:0:
64,192,37377,1,0,0:0:0:0:
448,192,37458,1,2,0:0:0:0:
320,192,37539,1,0,0:0:0:0:
64,192,37620,1,0,0:0:0:0:
192,192,37701,1,0,0:0:0:0:
320,192,37782,1,2,0:0:0:0:
448,192,37864,1,0,0:0:0:0:
64,192,37945,1,0,0:0:0:0:
192,192,38026,1,0,0:0:0:0:
448,192,38107,1,2,0:0:0:0:
320,192,38269,1,0,0:0:0:0:
64,192,38431,1,2,0:0:0:0:
192,192,38512,1,0,0:0:0:0:
320,192,38593,1,0,0:0:0:0:
448,192,38674,1,0,0:0:0:0:
192,192,38755,1,2,0:0:0:0:
64,192,38837,1,0,0:0:0:0:
448,192,38918,1,0,0:0:0:0:
320,192,38999,1,0,0:0:0:0:
192,192,39080,1,2,0:0:0:0:
64,192,39161,1,0,0:0:0:0:
320,192,39242,1,0,0:0:0:0:
448,192,39323,1,0,0:0:0:0:
192,192,39404,1,2,0:0:0:0:
64,192,39566,1,0,0:0:0:0:
448,192,39728,1,2,0:0:0:0:
320,192,39809,1,0,0:0:0:0:
192,192,39891,1,0,0:0:0:0:
64,192,39972,1,0,0:0:0:0:
192,192,40053,1,2,0:0:0:0:
320,192,40134,1,0,0:0:0:0:
448,192,40215,1,0,0:0:0:0:
64,192,40296,1,0,0:0:0:0:
192,192,40377,1,2,0:0:0:0:
320,192,40458,1,0,0:0:0:0:
448,192,40539,1,0,0:0:0:0:
320,192,40620,1,0,0:0:0:0:
64,192,40701,1,2,0:0:0:0:
192,192,40701,1,0,0:0:0:0:
448,192,40864,1,2,0:0:0:0:
320,192,40864,1,0,0:0:0:0:
64,192,41026,1,2,0:0:0:0:
192,192,41026,1,4,0:0:0:0:
448,192,41107,1,0,0:0:0:0:
320,192,41188,1,0,0:0:0:0:
192,192,41269,1,0,0:0:0:0:
448,192,41350,1,2,0:0:0:0:
320,192,41431,1,0,0:0:0:0:
64,192,41512,1,0,0:0:0:0:
192,192,41593,1,0,0:0:0:0:
320,192,41674,1,2,0:0:0:0:
448,192,41755,1,0,0:0:0:0:
64,192,41837,1,0,0:0:0:0:
192,192,41918,1,0,0:0:0:0:
448,192,41999,1,2,0:0:0:0:
64,192,42161,1,0,0:0:0:0:
320,192,42323,1,2,0:0:0:0:
192,192,42404,1,0,0:0:0:0:
64,192,42485,1,0,0:0:0:0:
448,192,42566,1,0,0:0:0:0:
320,192,42647,1,2,0:0:0:0:
192,192,42728,1,0,0:0:0:0:
320,192,42809,1,0,0:0:0:0:
448,192,42891,1,0,0:0:0:0:
64,192,42972,1,2,0:0:0:0:
192,192,43053,1,0,0:0:0:0:
320,192,43134,1,0,0:0:0:0:
192,192,43215,1,0,0:0:0:0:
64,192,43296,1,2,0:0:0:0:
192,192,43458,1,0,0:0:0:0:
448,192,43620,1,2,0:0:0:0:
320,192,43701,1,0,0:0:0:0:
192,192,43782,1,0,0:0:0:0:
64,192,43864,1,0,0:0:0:0:
448,192,43945,1,2,0:0:0:0:
320,192,44026,1,0,0:0:0:0:
64,192,44107,1,0,0:0:0:0:
192,192,44188,1,0,0:0:0:0:
320,192,44269,1,2,0:0:0:0:
448,192,44350,1,0,0:0:0:0:
64,192,44431,1,0,0:0:0:0:
192,192,44512,1,0,0:0:0:0:
448,192,44593,128,8,44918:0:0:0:0:
192,192,44918,1,2,0:0:0:0:
320,192,44918,1,0,0:0:0:0:
192,192,45161,1,2,0:0:0:0:
320,192,45161,1,0,0:0:0:0:
192,192,45404,1,2,0:0:0:0:
64,192,45404,1,0,0:0:0:0:
192,192,45647,1,2,0:0:0:0:
64,192,45647,1,0,0:0:0:0:
320,192,45891,1,2,0:0:0:0:
448,192,45891,1,0,0:0:0:0:
64,192,46053,1,2,0:0:0:0:
192,192,46053,1,0,0:0:0:0:
320,192,46215,1,4,0:0:0:0:
448,192,46215,1,2,0:0:0:0:
64,192,46296,1,0,0:0:0:0:
192,192,46377,1,0,0:0:0:0:
448,192,46458,1,0,0:0:0:0:
320,192,46539,1,2,0:0:0:0:
192,192,46620,1,0,0:0:0:0:
320,192,46701,1,0,0:0:0:0:
192,192,46782,1,0,0:0:0:0:
64,192,46864,1,2,0:0:0:0:
448,192,46945,1,0,0:0:0:0:
320,192,47026,1,0,0:0:0:0:
192,192,47107,1,0,0:0:0:0:
64,192,47188,1,2,0:0:0:0:
448,192,47350,1,0,0:0:0:0:
320,192,47512,1,2,0:0:0:0:
64,192,47512,1,0,0:0:0:0:
64,192,47837,1,8,0:0:0:0:
192,192,47837,1,0,0:0:0:0:
448,192,47999,1,2,0:0:0:0:
320,192,47999,1,0,0:0:0:0:
320,192,48323,1,2,0:0:0:0:
448,192,48323,1,0,0:0:0:0:
64,192,48485,1,8,0:0:0:0:
192,192,48485,1,0,0:0:0:0:
192,192,48647,1,8,0:0:0:0:
64,192,48647,1,0,0:0:0:0:
320,192,48809,1,2,0:0:0:0:
448,192,48809,1,4,0:0:0:0:
192,192,48972,1,0,0:0:0:0:
448,192,49134,1,2,0:0:0:0:
64,192,49134,1,0,0:0:0:0:
320,192,49296,1,0,0:0:0:0:
448,192,49458,1,2,0:0:0:0:
320,192,49620,1,0,0:0:0:0:
192,192,49701,1,0,0:0:0:0:
448,192,49782,1,2,0:0:0:0:
64,192,49782,1,0,0:0:0:0:
320,192,49945,1,0,0:0:0:0:
192,192,50107,1,0,0:0:0:0:
448,192,50269,1,2,0:0:0:0:
320,192,50431,1,8,0:0:0:0:
64,192,50431,1,0,0:0:0:0:
192,192,50593,1,0,0:0:0:0:
64,192,50755,1,2,0:0:0:0:
448,192,50755,128,0,51404:0:0:0:0:
64,192,50918,1,2,0:0:0:0:
320,192,51080,128,8,51404:0:0:0:0:
192,192,51404,1,4,0:0:0:0:
64,192,51404,1,2,0:0:0:0:
448,192,51485,1,0,0:0:0:0:
320,192,51566,1,0,0:0:0:0:
192,192,51647,1,0,0:0:0:0:
448,192,51728,1,2,0:0:0:0:
320,192,51809,1,0,0:0:0:0:
64,192,51891,1,0,0:0:0:0:
192,192,51972,1,0,0:0:0:0:
320,192,52053,1,2,0:0:0:0:
64,192,52134,1,0,0:0:0:0:
192,192,52215,1,0,0:0:0:0:
448,192,52296,1,0,0:0:0:0:
320,192,52377,1,2,0:0:0:0:
192,192,52539,1,0,0:0:0:0:
64,192,52701,1,2,0:0:0:0:
192,192,52782,1,0,0:0:0:0:
320,192,52864,1,0,0:0:0:0:
448,192,52945,1,0,0:0:0:0:
64,192,53026,1,2,0:0:0:0:
192,192,53107,1,0,0:0:0:0:
448,192,53188,1,0,0:0:0:0:
320,192,53269,1,0,0:0:0:0:
192,192,53350,1,2,0:0:0:0:
448,192,53431,1,0,0:0:0:0:
320,192,53512,1,0,0:0:0:0:
192,192,53593,1,0,0:0:0:0:
64,192,53674,1,2,0:0:0:0:
320,192,53837,1,0,0:0:0:0:
64,192,53999,1,0,0:0:0:0:
192,192,53999,1,2,0:0:0:0:
320,192,54161,1,2,0:0:0:0:
448,192,54161,1,0,0:0:0:0:
64,192,54323,1,2,0:0:0:0:
192,192,54323,1,0,0:0:0:0:
448,192,54485,1,2,0:0:0:0:
320,192,54485,1,0,0:0:0:0:
192,192,54647,1,2,0:0:0:0:
64,192,54647,1,0,0:0:0:0:
320,192,54809,1,2,0:0:0:0:
448,192,54809,1,0,0:0:0:0:
192,192,54972,1,2,0:0:0:0:
64,192,54972,1,0,0:0:0:0:
448,192,55134,1,0,0:0:0:0:
320,192,55134,1,2,0:0:0:0:
192,192,55296,1,4,0:0:0:0:
64,192,55296,1,2,0:0:0:0:
64,192,55539,1,2,0:0:0:0:
192,192,55539,1,0,0:0:0:0:
320,192,55782,1,2,0:0:0:0:
448,192,55782,1,0,0:0:0:0:
320,192,56026,1,2,0:0:0:0:
448,192,56026,1,0,0:0:0:0:
320,192,56269,1,2,0:0:0:0:
192,192,56269,1,0,0:0:0:0:
192,192,56431,1,2,0:0:0:0:
320,192,56431,1,0,0:0:0:0:
64,192,56593,1,2,0:0:0:0:
448,192,56593,1,0,0:0:0:0:
192,192,57242,1,2,0:0:0:0:
448,192,57242,1,0,0:0:0:0:
320,192,57891,1,2,0:0:0:0:
64,192,57891,128,0,59188:0:0:0:0:
192,192,58215,128,0,58539:0:0:0:0:
448,192,58539,128,8,58864:0:0:0:0:
320,192,58539,1,0,0:0:0:0:
320,192,58864,128,0,59188:0:0:0:0:
192,192,59188,1,2,0:0:0:0:
448,192,59188,1,0,0:0:0:0:
320,192,59350,1,0,0:0:0:0:
448,192,59512,1,2,0:0:0:0:
192,192,59512,1,0,0:0:0:0:
320,192,59674,1,0,0:0:0:0:
64,192,59837,1,2,0:0:0:0:
192,192,59837,1,0,0:0:0:0:
448,192,59999,1,0,0:0:0:0:
320,192,60161,1,2,0:0:0:0:
192,192,60161,1,0,0:0:0:0:
64,192,60323,128,0,60809:0:0:0:0:
448,192,60485,1,2,0:0:0:0:
192,192,60485,1,0,0:0:0:0:
320,192,60809,1,2,0:0:0:0:
192,192,60809,128,0,61134:0:0:0:0:
64,192,61134,1,2,0:0:0:0:
320,192,61134,128,0,61458:0:0:0:0:
192,192,61458,1,2,0:0:0:0:
448,192,61458,128,0,61782:0:0:0:0:
64,192,61620,1,0,0:0:0:0:
192,192,61782,1,2,0:0:0:0:
320,192,61782,1,0,0:0:0:0:
448,192,61945,1,0,0:0:0:0:
64,192,62107,1,2,0:0:0:0:
320,192,62107,1,0,0:0:0:0:
192,192,62269,1,0,0:0:0:0:
448,192,62431,1,2,0:0:0:0:
320,192,62431,1,0,0:0:0:0:
64,192,62593,1,0,0:0:0:0:
192,192,62755,1,2,0:0:0:0:
320,192,62755,1,0,0:0:0:0:
448,192,62918,128,0,63404:0:0:0:0:
64,192,63080,1,2,0:0:0:0:
320,192,63080,1,0,0:0:0:0:
192,192,63404,1,2,0:0:0:0:
320,192,63404,128,0,63728:0:0:0:0:
448,192,63728,1,2,0:0:0:0:
64,192,63728,128,0,64377:0:0:0:0:
192,192,64053,128,8,64377:0:0:0:0:
448,192,64377,1,4,0:0:0:0:
320,192,64377,1,2,0:0:0:0:
192,192,64539,1,0,0:0:0:0:
64,192,64701,1,2,0:0:0:0:
320,192,64701,1,0,0:0:0:0:
448,192,64864,1,0,0:0:0:0:
192,192,65026,1,2,0:0:0:0:
64,192,65026,1,0,0:0:0:0:
320,192,65188,1,0,0:0:0:0:
448,192,65350,1,2,0:0:0:0:
64,192,65350,1,0,0:0:0:0:
320,192,65512,128,0,65999:0:0:0:0:
448,192,65674,1,2,0:0:0:0:
192,192,65674,1,0,0:0:0:0:
64,192,65999,1,2,0:0:0:0:
448,192,65999,128,0,66323:0:0:0:0:
320,192,66323,1,2,0:0:0:0:
192,192,66323,128,0,66647:0:0:0:0:
448,192,66647,1,2,0:0:0:0:
64,192,66647,128,0,66972:0:0:0:0:
192,192,66972,1,0,0:0:0:0:
320,192,66972,1,2,0:0:0:0:
64,192,67134,1,0,0:0:0:0:
448,192,67296,1,2,0:0:0:0:
320,192,67296,1,0,0:0:0:0:
64,192,67458,1,0,0:0:0:0:
192,192,67620,1,2,0:0:0:0:
320,192,67620,1,0,0:0:0:0:
448,192,67782,1,0,0:0:0:0:
320,192,67945,1,2,0:0:0:0:
64,192,67945,1,0,0:0:0:0:
448,192,68107,1,2,0:0:0:0:
192,192,68107,128,0,68593:0:0:0:0:
64,192,68593,1,2,0:0:0:0:
320,192,68593,128,0,68918:0:0:0:0:
448,192,68918,128,0,69566:0:0:0:0:
192,192,68918,1,8,0:0:0:0:
64,192,69242,128,0,69566:0:0:0:0:
320,192,69566,1,2,0:0:0:0:
192,192,69566,1,4,0:0:0:0:
64,192,69728,1,0,0:0:0:0:
448,192,69891,1,0,0:0:0:0:
192,192,69891,1,2,0:0:0:0:
320,192,70053,1,0,0:0:0:0:
64,192,70215,1,2,0:0:0:0:
192,192,70215,1,0,0:0:0:0:
448,192,70377,1,0,0:0:0:0:
192,192,70539,1,2,0:0:0:0:
320,192,70539,1,0,0:0:0:0:
448,192,70701,1,2,0:0:0:0:
64,192,70701,128,0,71188:0:0:0:0:
192,192,71188,1,2,0:0:0:0:
448,192,71188,128,0,71512:0:0:0:0:
320,192,71512,128,2,71837:0:0:0:0:
448,192,71837,1,2,0:0:0:0:
192,192,71837,128,0,72161:0:0:0:0:
320,192,72161,1,2,0:0:0:0:
64,192,72161,1,4,0:0:0:0:
448,192,72323,1,0,0:0:0:0:
64,192,72485,1,0,0:0:0:0:
320,192,72485,1,2,0:0:0:0:
192,192,72647,1,0,0:0:0:0:
448,192,72809,1,2,0:0:0:0:
64,192,72809,1,0,0:0:0:0:
320,192,72972,1,0,0:0:0:0:
192,192,73134,1,2,0:0:0:0:
64,192,73134,1,0,0:0:0:0:
320,192,73296,128,2,73620:0:0:0:0:
448,192,73296,128,0,73620:0:0:0:0:
192,192,73620,128,0,73864:0:0:0:0:
64,192,73620,128,2,73864:0:0:0:0:
320,192,73864,128,2,74107:0:0:0:0:
448,192,73864,128,0,74107:0:0:0:0:
64,192,74107,128,2,74350:0:0:0:0:
192,192,74107,128,0,74350:0:0:0:0:
320,192,74350,128,2,74593:0:0:0:0:
448,192,74350,128,0,74593:0:0:0:0:
192,192,74593,128,8,74755:0:0:0:0:
64,192,74593,128,0,74755:0:0:0:0:
320,192,74755,1,4,0:0:0:0:
448,192,74755,1,2,0:0:0:0:
192,192,74918,1,0,0:0:0:0:
64,192,75080,1,2,0:0:0:0:
320,192,75080,1,0,0:0:0:0:
448,192,75242,1,0,0:0:0:0:
64,192,75404,1,2,0:0:0:0:
192,192,75404,1,0,0:0:0:0:
320,192,75566,1,0,0:0:0:0:
192,192,75728,1,2,0:0:0:0:
448,192,75728,1,0,0:0:0:0:
64,192,75891,128,0,76377:0:0:0:0:
192,192,76053,1,2,0:0:0:0:
320,192,76053,1,0,0:0:0:0:
448,192,76377,1,2,0:0:0:0:
192,192,76377,128,0,76701:0:0:0:0:
64,192,76701,1,2,0:0:0:0:
320,192,76701,128,0,77026:0:0:0:0:
192,192,77026,1,2,0:0:0:0:
448,192,77026,128,0,77350:0:0:0:0:
320,192,77350,1,2,0:0:0:0:
64,192,77350,1,4,0:0:0:0:
448,192,77512,1,0,0:0:0:0:
320,192,77674,1,0,0:0:0:0:
192,192,77837,1,2,0:0:0:0:
64,192,77837,1,0,0:0:0:0:
320,192,78161,1,2,0:0:0:0:
192,192,78161,1,0,0:0:0:0:
64,192,78485,1,2,0:0:0:0:
448,192,78485,128,0,78972:0:0:0:0:
192,192,78972,1,2,0:0:0:0:
320,192,78972,128,0,79296:0:0:0:0:
448,192,79296,1,2,0:0:0:0:
64,192,79296,128,0,79945:0:0:0:0:
192,192,79620,128,8,79945:0:0:0:0:
320,192,79945,1,2,0:0:0:0:
448,192,79945,1,4,0:0:0:0:
64,192,80269,1,0,0:0:0:0:
448,192,80431,1,0,0:0:0:0:
320,192,80755,1,0,0:0:0:0:
192,192,80755,1,2,0:0:0:0:
320,192,81080,1,0,0:0:0:0:
448,192,81080,1,2,0:0:0:0:
192,192,81242,1,2,0:0:0:0:
64,192,81242,1,4,0:0:0:0:
448,192,81566,1,0,0:0:0:0:
64,192,81728,1,0,0:0:0:0:
448,192,82053,1,2,0:0:0:0:
320,192,82053,1,0,0:0:0:0:
320,192,82296,1,0,0:0:0:0:
192,192,82296,1,2,0:0:0:0:
64,192,82539,1,2,0:0:0:0:
192,192,82539,1,4,0:0:0:0:
448,192,82864,1,0,0:0:0:0:
320,192,83026,1,2,0:0:0:0:
192,192,83026,1,0,0:0:0:0:
64,192,83188,1,0,0:0:0:0:
448,192,83350,1,2,0:0:0:0:
192,192,83350,1,0,0:0:0:0:
320,192,83512,1,0,0:0:0:0:
64,192,83674,1,0,0:0:0:0:
448,192,83674,1,2,0:0:0:0:
320,192,83837,1,2,0:0:0:0:
192,192,83837,1,0,0:0:0:0:
192,192,83999,1,2,0:0:0:0:
320,192,83999,1,0,0:0:0:0:
192,192,84161,1,2,0:0:0:0:
64,192,84161,1,0,0:0:0:0:
64,192,84323,1,2,0:0:0:0:
192,192,84323,1,0,0:0:0:0:
448,192,84485,1,2,0:0:0:0:
320,192,84485,1,0,0:0:0:0:
320,192,84647,1,2,0:0:0:0:
448,192,84647,1,0,0:0:0:0:
192,192,84809,1,2,0:0:0:0:
320,192,84809,1,0,0:0:0:0:
192,192,84972,1,2,0:0:0:0:
320,192,84972,1,0,0:0:0:0:
64,192,85134,1,2,0:0:0:0:
192,192,85215,1,0,0:0:0:0:
320,192,85296,1,0,0:0:0:0:
448,192,85377,1,0,0:0:0:0:
64,192,85458,1,0,0:0:0:0:
192,192,85539,1,0,0:0:0:0:
320,192,85620,1,0,0:0:0:0:
192,192,85701,1,0,0:0:0:0:
64,192,85782,1,0,0:0:0:0:
448,192,85864,1,0,0:0:0:0:
320,192,85945,1,0,0:0:0:0:
192,192,86026,1,0,0:0:0:0:
64,192,86107,1,0,0:0:0:0:
192,192,86188,1,0,0:0:0:0:
320,192,86269,1,0,0:0:0:0:
448,192,86350,1,0,0:0:0:0:
64,192,86431,1,2,0:0:0:0:
192,192,86431,1,0,0:0:0:0:
320,192,86674,1,2,0:0:0:0:
192,192,86674,1,0,0:0:0:0:
448,192,86918,1,2,0:0:0:0:
320,192,86918,1,0,0:0:0:0:
320,192,87242,1,2,0:0:0:0:
64,192,87242,1,0,0:0:0:0:
192,192,87404,128,8,87728:0:0:0:0:
448,192,87728,1,4,0:0:0:0:
64,192,87728,1,2,0:0:0:0:
320,192,87809,1,0,0:0:0:0:
192,192,87891,1,0,0:0:0:0:
64,192,87972,1,0,0:0:0:0:
448,192,88053,1,2,0:0:0:0:
320,192,88134,1,0,0:0:0:0:
64,192,88215,1,0,0:0:0:0:
192,192,88296,1,0,0:0:0:0:
320,192,88377,1,2,0:0:0:0:
448,192,88458,1,0,0:0:0:0:
64,192,88539,1,0,0:0:0:0:
192,192,88620,1,0,0:0:0:0:
448,192,88701,1,2,0:0:0:0:
320,192,88864,1,0,0:0:0:0:
64,192,89026,1,2,0:0:0:0:
192,192,89107,1,0,0:0:0:0:
320,192,89188,1,0,0:0:0:0:
448,192,89269,1,0,0:0:0:0:
320,192,89350,1,2,0:0:0:0:
192,192,89431,1,0,0:0:0:0:
64,192,89512,1,0,0:0:0:0:
448,192,89593,1,0,0:0:0:0:
320,192,89674,1,2,0:0:0:0:
192,192,89755,1,0,0:0:0:0:
64,192,89837,1,0,0:0:0:0:
192,192,89918,1,0,0:0:0:0:
320,192,89999,1,2,0:0:0:0:
448,192,89999,1,0,0:0:0:0:
64,192,90161,1,2,0:0:0:0:
192,192,90161,1,0,0:0:0:0:
320,192,90323,1,4,0:0:0:0:
448,192,90323,1,2,0:0:0:0:
64,192,90404,1,0,0:0:0:0:
192,192,90485,1,0,0:0:0:0:
320,192,90566,1,0,0:0:0:0:
64,192,90647,1,2,0:0:0:0:
192,192,90728,1,0,0:0:0:0:
448,192,90809,1,0,0:0:0:0:
320,192,90891,1,0,0:0:0:0:
192,192,90972,1,2,0:0:0:0:
64,192,91053,1,0,0:0:0:0:
448,192,91134,1,0,0:0:0:0:
320,192,91215,1,0,0:0:0:0:
64,192,91296,1,2,0:0:0:0:
448,192,91458,1,0,0:0:0:0:
192,192,91620,1,2,0:0:0:0:
320,192,91701,1,0,0:0:0:0:
448,192,91782,1,0,0:0:0:0:
64,192,91864,1,0,0:0:0:0:
192,192,91945,1,2,0:0:0:0:
320,192,92026,1,0,0:0:0:0:
192,192,92107,1,0,0:0:0:0:
64,192,92188,1,0,0:0:0:0:
448,192,92269,1,2,0:0:0:0:
320,192,92350,1,0,0:0:0:0:
192,192,92431,1,0,0:0:0:0:
320,192,92512,1,0,0:0:0:0:
448,192,92593,1,2,0:0:0:0:
320,192,92755,1,0,0:0:0:0:
64,192,92918,1,2,0:0:0:0:
192,192,92999,1,0,0:0:0:0:
320,192,93080,1,0,0:0:0:0:
448,192,93161,1,0,0:0:0:0:
64,192,93242,1,2,0:0:0:0:
192,192,93323,1,0,0:0:0:0:
448,192,93404,1,0,0:0:0:0:
320,192,93485,1,0,0:0:0:0:
192,192,93566,1,2,0:0:0:0:
64,192,93647,1,0,0:0:0:0:
448,192,93728,1,0,0:0:0:0:
320,192,93809,1,0,0:0:0:0:
64,192,93891,128,8,94215:0:0:0:0:
320,192,94215,1,2,0:0:0:0:
192,192,94215,1,0,0:0:0:0:
320,192,94458,1,2,0:0:0:0:
192,192,94458,1,0,0:0:0:0:
448,192,94701,1,0,0:0:0:0:
320,192,94701,1,2,0:0:0:0:
448,192,94945,1,0,0:0:0:0:
320,192,94945,1,2,0:0:0:0:
192,192,95188,1,2,0:0:0:0:
64,192,95188,1,0,0:0:0:0:
448,192,95350,1,2,0:0:0:0:
320,192,95350,1,0,0:0:0:0:
192,192,95512,1,4,0:0:0:0:
64,192,95512,1,2,0:0:0:0:
448,192,95593,1,0,0:0:0:0:
320,192,95674,1,0,0:0:0:0:
64,192,95755,1,0,0:0:0:0:
192,192,95837,1,2,0:0:0:0:
320,192,95918,1,0,0:0:0:0:
192,192,95999,1,0,0:0:0:0:
320,192,96080,1,0,0:0:0:0:
448,192,96161,1,2,0:0:0:0:
64,192,96242,1,0,0:0:0:0:
192,192,96323,1,0,0:0:0:0:
320,192,96404,1,0,0:0:0:0:
448,192,96485,1,2,0:0:0:0:
64,192,96647,1,0,0:0:0:0:
448,192,96809,1,0,0:0:0:0:
192,192,96809,1,2,0:0:0:0:
448,192,97134,1,8,0:0:0:0:
320,192,97134,1,0,0:0:0:0:
192,192,97296,1,8,0:0:0:0:
320,192,97458,1,0,0:0:0:0:
64,192,97620,1,2,0:0:0:0:
192,192,97620,1,0,0:0:0:0:
320,192,97782,1,8,0:0:0:0:
448,192,97782,1,0,0:0:0:0:
448,192,97945,1,0,0:0:0:0:
320,192,97945,1,8,0:0:0:0:
192,192,98107,1,2,0:0:0:0:
64,192,98107,1,4,0:0:0:0:
320,192,98269,1,0,0:0:0:0:
64,192,98431,1,2,0:0:0:0:
448,192,98431,1,0,0:0:0:0:
192,192,98593,1,0,0:0:0:0:
64,192,98755,1,2,0:0:0:0:
192,192,98918,1,0,0:0:0:0:
320,192,98999,1,0,0:0:0:0:
64,192,99080,1,2,0:0:0:0:
448,192,99080,1,0,0:0:0:0:
192,192,99242,1,0,0:0:0:0:
320,192,99404,1,0,0:0:0:0:
64,192,99566,1,2,0:0:0:0:
192,192,99728,1,8,0:0:0:0:
448,192,99728,1,0,0:0:0:0:
320,192,99891,1,0,0:0:0:0:
64,192,100053,128,0,100701:0:0:0:0:
448,192,100053,1,2,0:0:0:0:
448,192,100215,1,2,0:0:0:0:
192,192,100377,128,8,100701:0:0:0:0:
320,192,100701,1,4,0:0:0:0:
448,192,100701,1,2,0:0:0:0:
64,192,100782,1,0,0:0:0:0:
192,192,100864,1,0,0:0:0:0:
320,192,100945,1,0,0:0:0:0:
64,192,101026,1,2,0:0:0:0:
192,192,101107,1,0,0:0:0:0:
448,192,101188,1,0,0:0:0:0:
320,192,101269,1,0,0:0:0:0:
192,192,101350,1,2,0:0:0:0:
448,192,101431,1,0,0:0:0:0:
320,192,101512,1,0,0:0:0:0:
64,192,101593,1,0,0:0:0:0:
192,192,101674,1,2,0:0:0:0:
320,192,101837,1,0,0:0:0:0:
448,192,101999,1,2,0:0:0:0:
64,192,101999,1,4,0:0:0:0:
320,192,102080,1,0,0:0:0:0:
192,192,102161,1,0,0:0:0:0:
64,192,102242,1,0,0:0:0:0:
448,192,102323,1,2,0:0:0:0:
320,192,102404,1,0,0:0:0:0:
64,192,102485,1,0,0:0:0:0:
192,192,102566,1,0,0:0:0:0:
448,192,102647,1,2,0:0:0:0:
320,192,102647,1,0,0:0:0:0:
192,192,102891,1,2,0:0:0:0:
448,192,102891,1,0,0:0:0:0:
448,192,103134,1,2,0:0:0:0:
64,192,103134,1,0,0:0:0:0:
192,192,103296,1,2,0:0:0:0:
64,192,103296,1,4,0:0:0:0:
448,192,103458,1,2,0:0:0:0:
320,192,103458,1,0,0:0:0:0:
192,192,103620,1,2,0:0:0:0:
64,192,103620,1,0,0:0:0:0:
320,192,103782,1,2,0:0:0:0:
448,192,103782,1,0,0:0:0:0:
192,192,103945,1,2,0:0:0:0:
64,192,103945,1,0,0:0:0:0:
448,192,104107,1,2,0:0:0:0:
320,192,104107,1,0,0:0:0:0:
192,192,104269,1,2,0:0:0:0:
64,192,104269,1,0,0:0:0:0:
448,192,104431,1,2,0:0:0:0:
320,192,104431,1,0,0:0:0:0:
64,192,104593,1,2,0:0:0:0:
192,192,104593,1,4,0:0:0:0:
64,192,104837,1,2,0:0:0:0:
192,192,104837,1,0,0:0:0:0:
64,192,105080,1,2,0:0:0:0:
192,192,105080,1,0,0:0:0:0:
192,192,105323,1,2,0:0:0:0:
64,192,105323,1,0,0:0:0:0:
64,192,105566,1,2,0:0:0:0:
192,192,105566,1,0,0:0:0:0:
320,192,105728,1,2,0:0:0:0:
192,192,105728,1,0,0:0:0:0:
448,192,105891,1,2,0:0:0:0:
320,192,105891,1,4,0:0:0:0:
320,192,106134,1,2,0:0:0:0:
448,192,106134,1,0,0:0:0:0:
320,192,106377,1,2,0:0:0:0:
448,192,106377,1,0,0:0:0:0:
320,192,106620,1,2,0:0:0:0:
448,192,106620,1,0,0:0:0:0:
320,192,106864,1,2,0:0:0:0:
448,192,106864,1,0,0:0:0:0:
192,192,107026,1,2,0:0:0:0:
320,192,107026,1,0,0:0:0:0:
448,192,107188,1,2,0:0:0:0:
64,192,107188,1,4,0:0:0:0:
448,192,107350,1,2,0:0:0:0:
64,192,107350,1,0,0:0:0:0:
64,192,107512,1,2,0:0:0:0:
448,192,107512,1,0,0:0:0:0:
448,192,107674,1,2,0:0:0:0:
64,192,107674,1,0,0:0:0:0:
320,192,107837,1,2,0:0:0:0:
448,192,107837,1,8,0:0:0:0:
64,192,107918,1,8,0:0:0:0:
192,192,107918,1,2,0:0:0:0:
448,192,107999,1,8,0:0:0:0:
320,192,107999,1,2,0:0:0:0:
64,192,108080,1,8,0:0:0:0:
192,192,108080,1,2,0:0:0:0:
448,192,108161,128,8,108485:0:0:0:0:
320,192,108161,128,2,108485:0:0:0:0:
64,192,108485,128,4,110755:0:0:0:0:
192,192,108485,1,2,0:0:0:0:
