osu file format v14

[General]
AudioFilename: t+pazolite - Electric Sister Bitch.mp3
AudioLeadIn: 0
PreviewTime: 56431
Countdown: 0
SampleSet: Normal
StackLeniency: 0.7
Mode: 1
LetterboxInBreaks: 0
WidescreenStoryboard: 0

[Editor]
DistanceSpacing: 1.2
BeatDivisor: 4
GridSize: 4
TimelineZoom: 2.899999

[Metadata]
Title:Electric "Sister" Bitch
TitleUnicode:Electric "Sister" Bitch
Artist:t+pazolite
ArtistUnicode:t+pazolite
Creator:Shinzo-
Version:Inner Oni
Source:SOUND VOLTEX II -infinite infection-
Tags:SDVX Tomoyuki Hamada ZUN Touhou Project EOSD Remix Contest Butterfly Little U.N.オーエンは彼女なのか?
BeatmapID:924098
BeatmapSetID:428123

[Difficulty]
HPDrainRate:6
CircleSize:5
OverallDifficulty:6
ApproachRate:6
SliderMultiplier:1.4
SliderTickRate:1

[Events]
//Background and Video events
0,0,"BGSinzo12.jpg",0,80
//Break Periods
//Storyboard Layer 0 (Background)
//Storyboard Layer 1 (Fail)
//Storyboard Layer 2 (Pass)
//Storyboard Layer 3 (Foreground)
//Storyboard Sound Samples

[TimingPoints]
810,324.324324324324,4,1,0,90,1,0
12485,-101.010101010101,4,1,0,90,0,0
12566,-102.040816326531,4,1,0,90,0,0
12647,-103.092783505155,4,1,0,90,0,0
12728,-104.166666666667,4,1,0,90,0,0
12809,-105.263157894737,4,1,0,90,0,0
12891,-106.382978723404,4,1,0,90,0,0
12972,-107.52688172043,4,1,0,90,0,0
13053,-108.695652173913,4,1,0,90,0,0
13134,-109.89010989011,4,1,0,90,0,0
13215,-112.359550561798,4,1,0,90,0,0
13296,-113.636363636364,4,1,0,90,0,0
13377,-114.942528735632,4,1,0,90,0,0
13458,-116.279069767442,4,1,0,90,0,0
13539,-117.647058823529,4,1,0,90,0,0
13620,-119.047619047619,4,1,0,90,0,0
13701,-120.481927710843,4,1,0,90,0,0
13782,-121.951219512195,4,1,0,90,0,0
24161,-100,4,1,0,90,0,0
35837,-100,4,1,0,90,0,1
44918,-100,4,1,0,90,0,0
46215,-100,4,1,0,90,0,1
55296,-100,4,1,0,90,0,0
87728,-100,4,1,0,90,0,1
94215,-100,4,1,0,90,0,0
95512,-100,4,1,0,90,0,1
104593,-100,4,1,0,90,0,0

[HitObjects]
256,192,810,5,0,0:0:0:0:
256,192,972,1,0,0:0:0:0:
256,192,1053,1,0,0:0:0:0:
256,192,1134,1,8,0:0:0:0:
256,192,1296,1,0,0:0:0:0:
256,192,1377,1,8,0:0:0:0:
256,192,1458,1,8,0:0:0:0:
256,192,1539,1,8,0:0:0:0:
256,192,1620,1,0,0:0:0:0:
256,192,1701,1,8,0:0:0:0:
256,192,1782,1,0,0:0:0:0:
256,192,1945,1,8,0:0:0:0:
256,192,2107,1,4,0:0:0:0:
256,192,2431,1,4,0:0:0:0:
256,192,2755,1,4,0:0:0:0:
256,192,3080,1,8,0:0:0:0:
256,192,3134,1,8,0:0:0:0:
256,192,3188,1,8,0:0:0:0:
256,192,3242,1,8,0:0:0:0:
256,192,3404,5,4,0:0:0:0:
256,192,3566,5,8,0:0:0:0:
256,192,3728,1,0,0:0:0:0:
256,192,3809,1,8,0:0:0:0:
256,192,3891,1,8,0:0:0:0:
256,192,3972,1,8,0:0:0:0:
256,192,4053,1,0,0:0:0:0:
256,192,4215,1,8,0:0:0:0:
256,192,4377,1,0,0:0:0:0:
256,192,4458,1,8,0:0:0:0:
256,192,4539,1,8,0:0:0:0:
256,192,4620,1,8,0:0:0:0:
256,192,4701,1,0,0:0:0:0:
256,192,4864,1,8,0:0:0:0:
256,192,5026,1,0,0:0:0:0:
256,192,5107,1,8,0:0:0:0:
256,192,5188,1,0,0:0:0:0:
256,192,5269,1,8,0:0:0:0:
256,192,5350,1,0,0:0:0:0:
256,192,5431,1,0,0:0:0:0:
256,192,5512,1,8,0:0:0:0:
256,192,5674,1,0,0:0:0:0:
256,192,5755,1,0,0:0:0:0:
256,192,5837,1,8,0:0:0:0:
256,192,5918,1,8,0:0:0:0:
256,192,5999,1,0,0:0:0:0:
256,192,6161,5,8,0:0:0:0:
256,192,6323,1,0,0:0:0:0:
256,192,6404,1,8,0:0:0:0:
256,192,6486,1,8,0:0:0:0:
256,192,6566,1,8,0:0:0:0:
256,192,6648,1,0,0:0:0:0:
256,192,6810,1,8,0:0:0:0:
256,192,6972,1,0,0:0:0:0:
256,192,7053,1,8,0:0:0:0:
256,192,7134,1,8,0:0:0:0:
256,192,7215,1,8,0:0:0:0:
256,192,7296,1,0,0:0:0:0:
256,192,7459,1,8,0:0:0:0:
256,192,7621,1,0,0:0:0:0:
256,192,7702,1,8,0:0:0:0:
256,192,7782,1,0,0:0:0:0:
256,192,7864,1,8,0:0:0:0:
256,192,7945,1,0,0:0:0:0:
256,192,8026,1,0,0:0:0:0:
256,192,8107,1,8,0:0:0:0:
256,192,8269,1,0,0:0:0:0:
256,192,8350,1,8,0:0:0:0:
256,192,8432,1,0,0:0:0:0:
256,192,8593,1,4,0:0:0:0:
256,192,8755,5,8,0:0:0:0:
256,192,8917,1,0,0:0:0:0:
256,192,8998,1,8,0:0:0:0:
256,192,9080,1,8,0:0:0:0:
256,192,9161,1,8,0:0:0:0:
256,192,9242,1,0,0:0:0:0:
256,192,9404,1,8,0:0:0:0:
256,192,9566,1,0,0:0:0:0:
256,192,9647,1,8,0:0:0:0:
256,192,9728,1,8,0:0:0:0:
256,192,9809,1,8,0:0:0:0:
256,192,9890,1,0,0:0:0:0:
256,192,10053,1,8,0:0:0:0:
256,192,10215,1,0,0:0:0:0:
256,192,10296,1,8,0:0:0:0:
256,192,10377,1,0,0:0:0:0:
256,192,10458,1,8,0:0:0:0:
256,192,10539,1,0,0:0:0:0:
256,192,10620,1,0,0:0:0:0:
256,192,10701,1,8,0:0:0:0:
256,192,10864,1,0,0:0:0:0:
256,192,10945,1,0,0:0:0:0:
256,192,11026,1,8,0:0:0:0:
256,192,11107,1,8,0:0:0:0:
256,192,11188,1,0,0:0:0:0:
256,192,11350,1,8,0:0:0:0:
256,192,11431,1,8,0:0:0:0:
256,192,11512,1,0,0:0:0:0:
256,192,11593,1,8,0:0:0:0:
256,192,11674,1,0,0:0:0:0:
256,192,11755,1,8,0:0:0:0:
256,192,11837,1,0,0:0:0:0:
256,192,11918,1,0,0:0:0:0:
256,192,11999,1,8,0:0:0:0:
256,192,12080,1,8,0:0:0:0:
256,192,12161,1,0,0:0:0:0:
256,192,12242,1,8,0:0:0:0:
256,192,12323,1,0,0:0:0:0:
256,192,12404,1,8,0:0:0:0:
256,192,12485,1,0,0:0:0:0:
260,188,12566,1,0,0:0:0:0:
256,192,12647,1,8,0:0:0:0:
256,192,12728,1,8,0:0:0:0:
256,192,12809,1,0,0:0:0:0:
256,192,12891,1,8,0:0:0:0:
256,192,12972,1,0,0:0:0:0:
256,192,13053,1,0,0:0:0:0:
256,192,13134,1,8,0:0:0:0:
256,192,13296,1,0,0:0:0:0:
256,192,13458,1,8,0:0:0:0:
256,192,13620,1,8,0:0:0:0:
256,192,13782,1,4,0:0:0:0:
256,192,13945,1,0,0:0:0:0:
256,192,14107,1,0,0:0:0:0:
256,192,14431,1,0,0:0:0:0:
256,192,14674,1,0,0:0:0:0:
256,192,14918,1,0,0:0:0:0:
256,192,15161,1,8,0:0:0:0:
256,192,15404,1,8,0:0:0:0:
256,192,15566,1,8,0:0:0:0:
256,192,15728,1,0,0:0:0:0:
256,192,15972,1,0,0:0:0:0:
256,192,16215,1,8,0:0:0:0:
256,192,16539,1,0,0:0:0:0:
256,192,16701,1,0,0:0:0:0:
256,192,17026,1,8,0:0:0:0:
256,192,17269,1,8,0:0:0:0:
256,192,17512,1,8,0:0:0:0:
256,192,17755,1,0,0:0:0:0:
256,192,17999,1,0,0:0:0:0:
256,192,18161,1,0,0:0:0:0:
256,192,18323,1,8,0:0:0:0:
256,192,18566,1,8,0:0:0:0:
256,192,18809,1,8,0:0:0:0:
256,192,19134,1,0,0:0:0:0:
256,192,19296,1,0,0:0:0:0:
256,192,19620,1,0,0:0:0:0:
256,192,19863,1,0,0:0:0:0:
256,192,20107,1,0,0:0:0:0:
256,192,20350,1,8,0:0:0:0:
256,192,20593,1,8,0:0:0:0:
256,192,20755,1,8,0:0:0:0:
256,192,20917,1,0,0:0:0:0:
256,192,21161,1,0,0:0:0:0:
256,192,21404,1,0,0:0:0:0:
256,192,21728,1,8,0:0:0:0:
256,192,21890,1,8,0:0:0:0:
256,192,22215,1,0,0:0:0:0:
256,192,22458,1,0,0:0:0:0:
256,192,22701,1,0,0:0:0:0:
256,192,22944,1,8,0:0:0:0:
256,192,23188,1,8,0:0:0:0:
256,192,23431,1,0,0:0:0:0:
256,192,23674,1,0,0:0:0:0:
256,192,23837,1,4,0:0:0:0:
256,192,24161,1,12,0:0:0:0:
256,192,24485,1,0,0:0:0:0:
256,192,24647,1,8,0:0:0:0:
256,192,24972,1,0,0:0:0:0:
256,192,25134,1,0,0:0:0:0:
256,192,25296,1,8,0:0:0:0:
256,192,25458,1,0,0:0:0:0:
256,192,25782,1,0,0:0:0:0:
256,192,25945,1,8,0:0:0:0:
256,192,26107,1,0,0:0:0:0:
256,192,26431,1,8,0:0:0:0:
256,192,26755,1,8,0:0:0:0:
256,192,26918,1,0,0:0:0:0:
256,192,27080,1,8,0:0:0:0:
256,192,27242,1,8,0:0:0:0:
256,192,27404,1,0,0:0:0:0:
256,192,27566,1,8,0:0:0:0:
256,192,27647,1,8,0:0:0:0:
256,192,27728,1,0,0:0:0:0:
256,192,27891,1,8,0:0:0:0:
256,192,28053,1,0,0:0:0:0:
256,192,28215,1,8,0:0:0:0:
256,192,28296,1,8,0:0:0:0:
256,192,28377,1,0,0:0:0:0:
256,192,28539,1,8,0:0:0:0:
256,192,28701,1,0,0:0:0:0:
256,192,29350,1,4,0:0:0:0:
256,192,29674,1,0,0:0:0:0:
256,192,29837,1,8,0:0:0:0:
256,192,30161,1,8,0:0:0:0:
256,192,30485,1,8,0:0:0:0:
256,192,30809,1,0,0:0:0:0:
256,192,30972,1,0,0:0:0:0:
256,192,31134,1,8,0:0:0:0:
256,192,31296,1,0,0:0:0:0:
256,192,31620,1,8,0:0:0:0:
256,192,31945,1,8,0:0:0:0:
256,192,32107,1,0,0:0:0:0:
256,192,32269,1,0,0:0:0:0:
256,192,32431,1,8,0:0:0:0:
256,192,32593,1,0,0:0:0:0:
256,192,32755,1,8,0:0:0:0:
256,192,32837,1,0,0:0:0:0:
256,192,32918,1,0,0:0:0:0:
256,192,33080,1,8,0:0:0:0:
24,32,33242,2,4,L|496:336,1,560
256,192,35512,1,8,0:0:0:0:
256,192,35566,1,8,0:0:0:0:
256,192,35620,1,8,0:0:0:0:
256,192,35674,1,8,0:0:0:0:
256,192,35837,5,8,0:0:0:0:
256,192,35918,5,0,0:0:0:0:
256,192,35999,1,0,0:0:0:0:
256,192,36080,1,8,0:0:0:0:
256,192,36161,5,0,0:0:0:0:
256,192,36242,1,0,0:0:0:0:
256,192,36323,1,8,0:0:0:0:
256,192,36404,1,0,0:0:0:0:
256,192,36485,1,0,0:0:0:0:
256,192,36566,1,8,0:0:0:0:
256,192,36647,1,8,0:0:0:0:
256,192,36728,1,8,0:0:0:0:
256,192,36809,1,0,0:0:0:0:
256,192,36972,1,8,0:0:0:0:
256,192,37134,1,8,0:0:0:0:
256,192,37215,1,0,0:0:0:0:
256,192,37296,1,0,0:0:0:0:
256,192,37377,1,8,0:0:0:0:
256,192,37458,1,0,0:0:0:0:
256,192,37539,1,0,0:0:0:0:
256,192,37620,1,8,0:0:0:0:
256,192,37701,1,0,0:0:0:0:
256,192,37782,1,0,0:0:0:0:
256,192,37864,1,8,0:0:0:0:
256,192,37945,1,0,0:0:0:0:
256,192,38026,1,8,0:0:0:0:
256,192,38107,1,0,0:0:0:0:
256,192,38269,1,8,0:0:0:0:
256,192,38431,1,8,0:0:0:0:
256,192,38512,1,0,0:0:0:0:
256,192,38593,1,0,0:0:0:0:
256,192,38674,1,8,0:0:0:0:
256,192,38755,1,0,0:0:0:0:
256,192,38837,1,0,0:0:0:0:
256,192,38918,1,8,0:0:0:0:
256,192,38999,1,8,0:0:0:0:
256,192,39080,1,0,0:0:0:0:
256,192,39161,1,8,0:0:0:0:
256,192,39242,1,0,0:0:0:0:
256,192,39323,1,0,0:0:0:0:
256,192,39404,1,8,0:0:0:0:
256,192,39566,1,8,0:0:0:0:
256,192,39728,1,0,0:0:0:0:
256,192,39891,1,8,0:0:0:0:
256,192,39972,1,8,0:0:0:0:
256,192,40053,1,0,0:0:0:0:
256,192,40134,1,8,0:0:0:0:
256,192,40215,1,8,0:0:0:0:
256,192,40377,1,0,0:0:0:0:
256,192,40458,1,8,0:0:0:0:
256,192,40539,1,8,0:0:0:0:
256,192,40620,1,8,0:0:0:0:
256,192,40701,1,0,0:0:0:0:
256,192,40864,1,8,0:0:0:0:
256,192,41026,1,8,0:0:0:0:
256,192,41107,5,0,0:0:0:0:
256,192,41188,1,0,0:0:0:0:
256,192,41269,1,8,0:0:0:0:
256,192,41350,5,0,0:0:0:0:
256,192,41431,1,0,0:0:0:0:
256,192,41512,1,8,0:0:0:0:
256,192,41593,1,0,0:0:0:0:
256,192,41674,1,0,0:0:0:0:
256,192,41755,1,8,0:0:0:0:
256,192,41837,1,8,0:0:0:0:
256,192,41917,1,8,0:0:0:0:
256,192,41998,1,0,0:0:0:0:
256,192,42161,1,8,0:0:0:0:
256,192,42323,1,8,0:0:0:0:
256,192,42404,1,0,0:0:0:0:
256,192,42485,1,0,0:0:0:0:
256,192,42566,1,8,0:0:0:0:
256,192,42647,1,0,0:0:0:0:
256,192,42728,1,0,0:0:0:0:
256,192,42809,1,8,0:0:0:0:
256,192,42890,1,0,0:0:0:0:
256,192,42971,1,0,0:0:0:0:
256,192,43053,1,8,0:0:0:0:
256,192,43134,1,0,0:0:0:0:
256,192,43215,1,8,0:0:0:0:
256,192,43296,1,8,0:0:0:0:
256,192,43458,1,0,0:0:0:0:
256,192,43539,1,0,0:0:0:0:
256,192,43620,1,8,0:0:0:0:
256,192,43701,1,0,0:0:0:0:
256,192,43782,1,0,0:0:0:0:
256,192,43863,1,8,0:0:0:0:
256,192,43944,1,0,0:0:0:0:
256,192,44026,1,0,0:0:0:0:
256,192,44107,1,8,0:0:0:0:
256,192,44188,1,8,0:0:0:0:
256,192,44269,1,0,0:0:0:0:
256,192,44350,1,8,0:0:0:0:
256,192,44431,1,8,0:0:0:0:
256,192,44512,1,0,0:0:0:0:
256,192,44593,1,8,0:0:0:0:
256,192,44755,1,0,0:0:0:0:
256,192,44918,1,0,0:0:0:0:
256,192,44999,5,8,0:0:0:0:
256,192,45080,1,8,0:0:0:0:
256,192,45161,1,0,0:0:0:0:
256,192,45242,1,8,0:0:0:0:
256,192,45323,1,8,0:0:0:0:
256,192,45404,1,0,0:0:0:0:
256,192,45485,1,8,0:0:0:0:
256,192,45566,1,8,0:0:0:0:
256,192,45647,1,0,0:0:0:0:
256,192,45728,1,8,0:0:0:0:
256,192,45809,1,8,0:0:0:0:
256,192,45891,1,0,0:0:0:0:
256,192,45972,1,8,0:0:0:0:
256,192,46053,1,0,0:0:0:0:
256,192,46215,1,12,0:0:0:0:
256,192,46377,1,0,0:0:0:0:
256,192,46458,1,8,0:0:0:0:
256,192,46539,1,0,0:0:0:0:
256,192,46701,1,8,0:0:0:0:
256,192,46782,1,0,0:0:0:0:
256,192,46864,1,0,0:0:0:0:
256,192,46945,1,8,0:0:0:0:
256,192,47026,1,0,0:0:0:0:
256,192,47107,1,0,0:0:0:0:
256,192,47188,1,8,0:0:0:0:
256,192,47350,1,8,0:0:0:0:
256,192,47431,1,8,0:0:0:0:
256,192,47512,1,0,0:0:0:0:
256,192,47674,1,0,0:0:0:0:
256,192,47755,1,0,0:0:0:0:
256,192,47837,1,8,0:0:0:0:
256,192,47999,1,0,0:0:0:0:
256,192,48161,1,8,0:0:0:0:
256,192,48323,1,0,0:0:0:0:
256,192,48404,1,0,0:0:0:0:
256,192,48485,1,8,0:0:0:0:
256,192,48647,1,8,0:0:0:0:
256,192,48809,1,8,0:0:0:0:
256,192,48891,1,8,0:0:0:0:
256,192,48972,1,0,0:0:0:0:
256,192,49053,1,0,0:0:0:0:
256,192,49134,1,0,0:0:0:0:
256,192,49296,1,8,0:0:0:0:
256,192,49458,1,0,0:0:0:0:
256,192,49539,1,0,0:0:0:0:
256,192,49620,1,8,0:0:0:0:
256,192,49701,1,8,0:0:0:0:
256,192,49782,1,0,0:0:0:0:
256,192,49945,1,0,0:0:0:0:
256,192,50026,1,8,0:0:0:0:
256,192,50107,1,0,0:0:0:0:
256,192,50269,1,0,0:0:0:0:
256,192,50431,1,8,0:0:0:0:
256,192,50512,1,8,0:0:0:0:
256,192,50674,1,8,0:0:0:0:
256,192,50755,1,0,0:0:0:0:
256,192,50918,1,0,0:0:0:0:
256,192,50999,1,0,0:0:0:0:
256,192,51080,1,8,0:0:0:0:
256,192,51161,1,8,0:0:0:0:
256,192,51242,1,8,0:0:0:0:
256,192,51323,1,8,0:0:0:0:
256,192,51404,1,0,0:0:0:0:
256,192,51485,1,0,0:0:0:0:
256,192,51566,1,8,0:0:0:0:
256,192,51647,1,0,0:0:0:0:
256,192,51728,1,0,0:0:0:0:
256,192,51891,1,8,0:0:0:0:
256,192,51972,1,0,0:0:0:0:
256,192,52053,1,0,0:0:0:0:
256,192,52134,1,8,0:0:0:0:
256,192,52215,1,0,0:0:0:0:
256,192,52377,1,0,0:0:0:0:
256,192,52539,1,8,0:0:0:0:
256,192,52701,1,8,0:0:0:0:
256,192,52782,1,0,0:0:0:0:
256,192,52863,1,0,0:0:0:0:
256,192,52945,1,8,0:0:0:0:
256,192,53026,1,0,0:0:0:0:
256,192,53107,1,0,0:0:0:0:
256,192,53188,1,8,0:0:0:0:
256,192,53269,1,0,0:0:0:0:
256,192,53350,1,0,0:0:0:0:
256,192,53512,1,0,0:0:0:0:
256,192,53674,1,8,0:0:0:0:
256,192,53999,1,4,0:0:0:0:
256,192,54161,1,4,0:0:0:0:
256,192,54323,1,4,0:0:0:0:
256,192,54485,1,4,0:0:0:0:
256,192,54647,1,4,0:0:0:0:
256,192,54809,1,8,0:0:0:0:
256,192,54891,1,0,0:0:0:0:
256,192,54972,1,0,0:0:0:0:
256,192,55053,1,8,0:0:0:0:
256,192,55134,1,8,0:0:0:0:
256,192,55296,1,12,0:0:0:0:
256,192,55539,1,12,0:0:0:0:
256,192,55782,1,12,0:0:0:0:
256,192,56026,1,12,0:0:0:0:
256,192,56269,1,12,0:0:0:0:
256,192,56431,1,12,0:0:0:0:
256,192,56593,1,4,0:0:0:0:
256,192,57242,1,4,0:0:0:0:
256,192,57891,12,0,58864,0:0:0:0:
256,192,59188,5,4,0:0:0:0:
256,192,59512,1,0,0:0:0:0:
256,192,59674,1,8,0:0:0:0:
256,192,59837,1,0,0:0:0:0:
256,192,59999,1,0,0:0:0:0:
256,192,60161,1,0,0:0:0:0:
256,192,60323,1,8,0:0:0:0:
256,192,60485,1,0,0:0:0:0:
256,192,60647,1,8,0:0:0:0:
256,192,60809,1,8,0:0:0:0:
256,192,61134,1,0,0:0:0:0:
256,192,61458,1,8,0:0:0:0:
256,192,61782,1,0,0:0:0:0:
256,192,62107,1,0,0:0:0:0:
256,192,62269,1,8,0:0:0:0:
256,192,62431,1,0,0:0:0:0:
256,192,62593,1,0,0:0:0:0:
256,192,62755,1,0,0:0:0:0:
256,192,62918,1,8,0:0:0:0:
256,192,63080,1,0,0:0:0:0:
256,192,63242,1,8,0:0:0:0:
256,192,63404,1,0,0:0:0:0:
256,192,63728,1,0,0:0:0:0:
256,192,64053,1,12,0:0:0:0:
256,192,64377,5,4,0:0:0:0:
256,192,64701,1,0,0:0:0:0:
256,192,64863,1,8,0:0:0:0:
256,192,65026,1,0,0:0:0:0:
256,192,65188,1,8,0:0:0:0:
256,192,65350,1,0,0:0:0:0:
256,192,65512,1,8,0:0:0:0:
256,192,65674,1,0,0:0:0:0:
256,192,65836,1,8,0:0:0:0:
256,192,65998,1,0,0:0:0:0:
256,192,66323,1,0,0:0:0:0:
256,192,66647,1,8,0:0:0:0:
256,192,66971,1,0,0:0:0:0:
256,192,67296,1,0,0:0:0:0:
256,192,67458,1,8,0:0:0:0:
256,192,67620,1,0,0:0:0:0:
256,192,67782,1,0,0:0:0:0:
256,192,67944,1,0,0:0:0:0:
256,192,68107,1,12,0:0:0:0:
256,192,68431,1,8,0:0:0:0:
256,192,68593,1,4,0:0:0:0:
256,192,68918,1,12,0:0:0:0:
256,192,69242,1,0,0:0:0:0:
256,192,69566,5,4,0:0:0:0:
256,192,69890,1,0,0:0:0:0:
256,192,70052,1,8,0:0:0:0:
256,192,70215,1,0,0:0:0:0:
256,192,70377,1,0,0:0:0:0:
256,192,70539,1,0,0:0:0:0:
256,192,70701,1,4,0:0:0:0:
256,192,71026,1,0,0:0:0:0:
256,192,71188,1,0,0:0:0:0:
256,192,71512,1,0,0:0:0:0:
256,192,71836,1,0,0:0:0:0:
256,192,72161,1,12,0:0:0:0:
256,192,72485,1,0,0:0:0:0:
256,192,72647,1,8,0:0:0:0:
256,192,72809,1,0,0:0:0:0:
256,192,72971,1,0,0:0:0:0:
256,192,73133,1,0,0:0:0:0:
256,192,73296,1,12,0:0:0:0:
256,192,73620,1,12,0:0:0:0:
256,192,73864,1,12,0:0:0:0:
256,192,74107,1,4,0:0:0:0:
256,192,74350,1,4,0:0:0:0:
256,192,74593,1,12,0:0:0:0:
256,192,74755,5,4,0:0:0:0:
256,192,75079,1,0,0:0:0:0:
256,192,75241,1,8,0:0:0:0:
256,192,75404,1,0,0:0:0:0:
256,192,75566,1,0,0:0:0:0:
256,192,75728,1,0,0:0:0:0:
256,192,75890,1,8,0:0:0:0:
256,192,76053,1,0,0:0:0:0:
256,192,76215,1,8,0:0:0:0:
256,192,76377,1,0,0:0:0:0:
256,192,76701,1,0,0:0:0:0:
256,192,77025,1,8,0:0:0:0:
256,192,77350,1,4,0:0:0:0:
256,192,77674,1,0,0:0:0:0:
256,192,77837,1,12,0:0:0:0:
256,192,78161,1,4,0:0:0:0:
256,192,78485,1,12,0:0:0:0:
256,192,78809,1,8,0:0:0:0:
256,192,78972,1,4,0:0:0:0:
256,192,79296,1,4,0:0:0:0:
256,192,79620,1,8,0:0:0:0:
256,192,79945,1,4,0:0:0:0:
256,192,80269,1,0,0:0:0:0:
256,192,80431,1,8,0:0:0:0:
256,192,80755,1,4,0:0:0:0:
256,192,81080,1,4,0:0:0:0:
256,192,81242,1,4,0:0:0:0:
256,192,81566,1,0,0:0:0:0:
256,192,81728,1,8,0:0:0:0:
256,192,82053,1,4,0:0:0:0:
256,192,82296,1,4,0:0:0:0:
256,192,82539,1,4,0:0:0:0:
256,192,82864,1,8,0:0:0:0:
256,192,83026,1,4,0:0:0:0:
256,192,83188,1,8,0:0:0:0:
256,192,83350,1,4,0:0:0:0:
256,192,83512,1,8,0:0:0:0:
256,192,83674,1,4,0:0:0:0:
256,192,83837,1,12,0:0:0:0:
256,192,83999,1,12,0:0:0:0:
256,192,84161,1,4,0:0:0:0:
256,192,84323,1,4,0:0:0:0:
256,192,84485,1,12,0:0:0:0:
256,192,84647,1,12,0:0:0:0:
256,192,84809,1,4,0:0:0:0:
256,192,84972,1,4,0:0:0:0:
256,192,85134,1,12,0:0:0:0:
256,192,86431,1,0,0:0:0:0:
256,192,86674,1,0,0:0:0:0:
256,192,86918,1,0,0:0:0:0:
256,192,87242,1,0,0:0:0:0:
256,192,87404,1,8,0:0:0:0:
256,192,87458,1,8,0:0:0:0:
256,192,87512,1,8,0:0:0:0:
256,192,87566,1,8,0:0:0:0:
256,192,87728,1,8,0:0:0:0:
256,192,87809,1,0,0:0:0:0:
256,192,87890,1,0,0:0:0:0:
256,192,87971,1,8,0:0:0:0:
256,192,88052,1,0,0:0:0:0:
256,192,88134,1,0,0:0:0:0:
256,192,88215,1,8,0:0:0:0:
256,192,88296,1,8,0:0:0:0:
256,192,88377,1,0,0:0:0:0:
256,192,88458,1,8,0:0:0:0:
256,192,88539,1,0,0:0:0:0:
256,192,88620,1,0,0:0:0:0:
256,192,88701,1,8,0:0:0:0:
256,192,88863,1,8,0:0:0:0:
256,192,89025,1,0,0:0:0:0:
256,192,89188,1,8,0:0:0:0:
256,192,89269,1,8,0:0:0:0:
256,192,89350,1,0,0:0:0:0:
256,192,89431,1,8,0:0:0:0:
256,192,89512,1,8,0:0:0:0:
256,192,89674,1,0,0:0:0:0:
256,192,89755,1,8,0:0:0:0:
256,192,89837,1,8,0:0:0:0:
256,192,89917,1,8,0:0:0:0:
256,192,89998,1,0,0:0:0:0:
256,192,90161,1,8,0:0:0:0:
256,192,90323,1,8,0:0:0:0:
256,192,90404,5,0,0:0:0:0:
256,192,90485,1,0,0:0:0:0:
256,192,90566,1,8,0:0:0:0:
256,192,90647,5,0,0:0:0:0:
256,192,90728,1,0,0:0:0:0:
256,192,90809,1,8,0:0:0:0:
256,192,90890,1,0,0:0:0:0:
256,192,90971,1,0,0:0:0:0:
256,192,91052,1,8,0:0:0:0:
256,192,91134,1,8,0:0:0:0:
256,192,91214,1,8,0:0:0:0:
256,192,91295,1,0,0:0:0:0:
256,192,91458,1,8,0:0:0:0:
256,192,91620,1,8,0:0:0:0:
256,192,91701,1,0,0:0:0:0:
256,192,91782,1,0,0:0:0:0:
256,192,91863,1,8,0:0:0:0:
256,192,91944,1,0,0:0:0:0:
256,192,92025,1,0,0:0:0:0:
256,192,92106,1,8,0:0:0:0:
256,192,92187,1,0,0:0:0:0:
256,192,92268,1,0,0:0:0:0:
256,192,92350,1,8,0:0:0:0:
256,192,92431,1,0,0:0:0:0:
256,192,92512,1,8,0:0:0:0:
256,192,92593,1,8,0:0:0:0:
256,192,92755,1,0,0:0:0:0:
256,192,92836,1,0,0:0:0:0:
256,192,92917,1,8,0:0:0:0:
256,192,92998,1,0,0:0:0:0:
256,192,93079,1,0,0:0:0:0:
256,192,93160,1,8,0:0:0:0:
256,192,93241,1,0,0:0:0:0:
256,192,93323,1,0,0:0:0:0:
256,192,93404,1,8,0:0:0:0:
256,192,93485,1,8,0:0:0:0:
256,192,93566,1,0,0:0:0:0:
256,192,93647,1,8,0:0:0:0:
256,192,93728,1,8,0:0:0:0:
256,192,93809,1,0,0:0:0:0:
256,192,93890,1,8,0:0:0:0:
256,192,94052,1,0,0:0:0:0:
256,192,94215,1,0,0:0:0:0:
256,192,94296,5,8,0:0:0:0:
256,192,94377,1,8,0:0:0:0:
256,192,94458,1,0,0:0:0:0:
256,192,94539,1,8,0:0:0:0:
256,192,94620,1,8,0:0:0:0:
256,192,94701,1,0,0:0:0:0:
256,192,94782,1,8,0:0:0:0:
256,192,94863,1,8,0:0:0:0:
256,192,94944,1,0,0:0:0:0:
256,192,95025,1,8,0:0:0:0:
256,192,95106,1,8,0:0:0:0:
256,192,95188,1,0,0:0:0:0:
256,192,95269,1,8,0:0:0:0:
256,192,95350,1,0,0:0:0:0:
256,192,95512,1,12,0:0:0:0:
256,192,95674,1,0,0:0:0:0:
256,192,95755,1,8,0:0:0:0:
256,192,95836,1,0,0:0:0:0:
256,192,95998,1,8,0:0:0:0:
256,192,96079,1,0,0:0:0:0:
256,192,96161,1,0,0:0:0:0:
256,192,96242,1,8,0:0:0:0:
256,192,96323,1,0,0:0:0:0:
256,192,96404,1,0,0:0:0:0:
256,192,96485,1,8,0:0:0:0:
256,192,96647,1,8,0:0:0:0:
256,192,96728,1,8,0:0:0:0:
256,192,96809,1,0,0:0:0:0:
256,192,96971,1,0,0:0:0:0:
256,192,97053,1,0,0:0:0:0:
256,192,97134,1,0,0:0:0:0:
256,192,97296,1,8,0:0:0:0:
256,192,97350,1,8,0:0:0:0:
256,192,97404,1,8,0:0:0:0:
256,192,97458,1,0,0:0:0:0:
256,192,97620,1,0,0:0:0:0:
256,192,97701,1,0,0:0:0:0:
256,192,97782,1,8,0:0:0:0:
256,192,97944,1,8,0:0:0:0:
256,192,98106,1,8,0:0:0:0:
256,192,98188,1,8,0:0:0:0:
256,192,98269,1,0,0:0:0:0:
256,192,98350,1,0,0:0:0:0:
256,192,98431,1,0,0:0:0:0:
256,192,98593,1,8,0:0:0:0:
256,192,98755,1,0,0:0:0:0:
256,192,98836,1,0,0:0:0:0:
256,192,98917,1,8,0:0:0:0:
256,192,98998,1,8,0:0:0:0:
256,192,99079,1,0,0:0:0:0:
256,192,99242,1,0,0:0:0:0:
256,192,99323,1,8,0:0:0:0:
256,192,99404,1,0,0:0:0:0:
256,192,99566,1,0,0:0:0:0:
256,192,99728,1,8,0:0:0:0:
256,192,99809,1,8,0:0:0:0:
256,192,99972,1,8,0:0:0:0:
256,192,100052,1,0,0:0:0:0:
256,192,100215,1,0,0:0:0:0:
256,192,100296,1,0,0:0:0:0:
256,192,100377,1,8,0:0:0:0:
256,192,100458,1,8,0:0:0:0:
256,192,100539,1,8,0:0:0:0:
256,192,100620,1,8,0:0:0:0:
256,192,100701,1,0,0:0:0:0:
256,192,100782,1,0,0:0:0:0:
256,192,100864,1,8,0:0:0:0:
256,192,100944,1,0,0:0:0:0:
256,192,101025,1,0,0:0:0:0:
256,192,101188,1,8,0:0:0:0:
256,192,101269,1,0,0:0:0:0:
256,192,101350,1,0,0:0:0:0:
256,192,101431,1,8,0:0:0:0:
256,192,101512,1,0,0:0:0:0:
256,192,101674,1,0,0:0:0:0:
256,192,101836,1,8,0:0:0:0:
256,192,101998,1,8,0:0:0:0:
256,192,102079,1,0,0:0:0:0:
256,192,102160,1,0,0:0:0:0:
256,192,102242,1,8,0:0:0:0:
256,192,102323,1,0,0:0:0:0:
256,192,102404,1,0,0:0:0:0:
256,192,102485,1,8,0:0:0:0:
256,192,102566,1,0,0:0:0:0:
256,192,102647,1,0,0:0:0:0:
256,192,102891,1,0,0:0:0:0:
256,192,103134,1,0,0:0:0:0:
256,192,103296,1,4,0:0:0:0:
256,192,103458,1,4,0:0:0:0:
256,192,103620,1,4,0:0:0:0:
256,192,103782,1,4,0:0:0:0:
256,192,103944,5,4,0:0:0:0:
256,192,104106,1,8,0:0:0:0:
256,192,104188,1,0,0:0:0:0:
256,192,104269,1,0,0:0:0:0:
256,192,104350,1,8,0:0:0:0:
256,192,104431,1,8,0:0:0:0:
256,192,104593,1,12,0:0:0:0:
256,192,104836,5,12,0:0:0:0:
256,192,105079,1,4,0:0:0:0:
256,192,105323,5,4,0:0:0:0:
256,192,105566,1,12,0:0:0:0:
256,192,105728,1,12,0:0:0:0:
256,192,105890,1,4,0:0:0:0:
256,192,106134,5,12,0:0:0:0:
256,192,106377,1,4,0:0:0:0:
256,192,106620,1,4,0:0:0:0:
256,192,106864,1,12,0:0:0:0:
256,192,107026,1,4,0:0:0:0:
256,192,107188,1,8,0:0:0:0:
256,192,107350,1,0,0:0:0:0:
256,192,107431,1,8,0:0:0:0:
256,192,107512,1,0,0:0:0:0:
256,192,107674,1,4,0:0:0:0:
256,192,107837,1,0,0:0:0:0:
256,192,107918,1,8,0:0:0:0:
256,192,107999,1,0,0:0:0:0:
256,192,108080,1,0,0:0:0:0:
256,192,108161,1,8,0:0:0:0:
256,192,108215,1,8,0:0:0:0:
256,192,108269,1,8,0:0:0:0:
256,192,108323,1,8,0:0:0:0:
256,192,108485,1,4,0:0:0:0:
