osu file format v14

[General]
AudioFilename: t+pazolite - Electric Sister Bitch.mp3
AudioLeadIn: 0
PreviewTime: 56431
Countdown: 0
SampleSet: Normal
StackLeniency: 0.7
Mode: 1
LetterboxInBreaks: 0
WidescreenStoryboard: 0

[Editor]
DistanceSpacing: 1.2
BeatDivisor: 4
GridSize: 4
TimelineZoom: 1.7

[Metadata]
Title:Electric "Sister" Bitch
TitleUnicode:Electric "Sister" Bitch
Artist:t+pazolite
ArtistUnicode:t+pazolite
Creator:Shinzo-
Version:Futsuu
Source:SOUND VOLTEX II -infinite infection-
Tags:SDVX Tomoyuki Hamada ZUN Touhou Project EOSD Remix Contest Butterfly Little U.N.オーエンは彼女なのか?
BeatmapID:924097
BeatmapSetID:428123

[Difficulty]
HPDrainRate:7
CircleSize:5
OverallDifficulty:4
ApproachRate:5
SliderMultiplier:1.4
SliderTickRate:1

[Events]
//Background and Video events
0,0,"BGSinzo12.jpg",0,80
//Break Periods
//Storyboard Layer 0 (Background)
//Storyboard Layer 1 (Fail)
//Storyboard Layer 2 (Pass)
//Storyboard Layer 3 (Foreground)
//Storyboard Sound Samples

[TimingPoints]
810,324.324324324324,4,1,0,90,1,0
35837,-100,4,1,0,90,0,1
44918,-100,4,1,0,90,0,0
46215,-100,4,1,0,90,0,1
55296,-100,4,1,0,90,0,0
87728,-100,4,1,0,90,0,1
94215,-100,4,1,0,90,0,0
95512,-100,4,1,0,90,0,1
104593,-100,4,1,0,90,0,0

[HitObjects]
256,192,810,5,0,0:0:0:0:
256,192,1458,1,8,0:0:0:0:
256,192,2107,1,0,0:0:0:0:
256,192,2755,1,0,0:0:0:0:
256,192,3404,1,0,0:0:0:0:
256,192,3728,1,8,0:0:0:0:
256,192,4053,1,0,0:0:0:0:
256,192,4377,1,8,0:0:0:0:
256,192,4701,1,0,0:0:0:0:
256,192,5350,1,8,0:0:0:0:
256,192,5674,1,8,0:0:0:0:
256,192,5999,1,0,0:0:0:0:
256,192,6323,1,8,0:0:0:0:
256,192,6647,1,0,0:0:0:0:
256,192,6972,1,8,0:0:0:0:
256,192,7296,1,0,0:0:0:0:
256,192,7945,1,0,0:0:0:0:
256,192,8269,1,8,0:0:0:0:
256,192,8431,1,8,0:0:0:0:
256,192,8593,1,0,0:0:0:0:
256,192,8917,1,8,0:0:0:0:
256,192,9242,1,0,0:0:0:0:
256,192,9566,1,8,0:0:0:0:
256,192,9890,1,0,0:0:0:0:
256,192,10539,1,8,0:0:0:0:
256,192,10863,1,8,0:0:0:0:
256,192,11188,1,0,0:0:0:0:
256,192,11512,1,8,0:0:0:0:
256,192,11836,1,0,0:0:0:0:
256,192,12161,1,8,0:0:0:0:
256,192,12485,1,0,0:0:0:0:
256,192,12972,1,0,0:0:0:0:
256,192,13134,1,0,0:0:0:0:
256,192,13458,1,8,0:0:0:0:
256,192,13782,1,0,0:0:0:0:
256,192,14431,1,0,0:0:0:0:
256,192,15080,1,8,0:0:0:0:
256,192,16377,1,0,0:0:0:0:
256,192,17026,1,8,0:0:0:0:
256,192,17674,1,0,0:0:0:0:
256,192,18972,1,8,0:0:0:0:
256,192,19620,1,8,0:0:0:0:
256,192,20269,1,0,0:0:0:0:
256,192,21566,5,8,0:0:0:0:
256,192,22215,1,0,0:0:0:0:
256,192,22864,1,8,0:0:0:0:
256,196,23837,5,0,0:0:0:0:
256,196,24161,1,8,0:0:0:0:
256,196,24647,1,8,0:0:0:0:
256,196,25296,1,0,0:0:0:0:
256,196,25782,1,8,0:0:0:0:
256,196,26107,1,0,0:0:0:0:
256,196,26431,1,8,0:0:0:0:
256,196,26755,1,0,0:0:0:0:
256,196,27404,1,0,0:0:0:0:
256,196,27728,1,8,0:0:0:0:
256,196,28053,1,0,0:0:0:0:
256,196,28701,1,0,0:0:0:0:
256,196,29350,5,0,0:0:0:0:
256,196,29837,1,8,0:0:0:0:
256,196,30161,1,8,0:0:0:0:
256,196,30647,1,0,0:0:0:0:
256,196,31296,1,0,0:0:0:0:
256,196,31620,1,8,0:0:0:0:
256,196,31945,1,0,0:0:0:0:
256,196,32593,1,8,0:0:0:0:
256,196,32918,1,8,0:0:0:0:
256,192,33242,12,0,34539,0:0:0:0:
256,196,35837,5,12,0:0:0:0:
256,196,36161,1,0,0:0:0:0:
256,196,36485,1,0,0:0:0:0:
256,196,36809,1,8,0:0:0:0:
256,196,36972,1,0,0:0:0:0:
256,196,37134,1,0,0:0:0:0:
256,196,37458,1,8,0:0:0:0:
256,196,37782,1,0,0:0:0:0:
256,196,38107,1,0,0:0:0:0:
256,196,38269,1,8,0:0:0:0:
256,196,38431,1,0,0:0:0:0:
256,196,38755,1,0,0:0:0:0:
256,196,39080,1,8,0:0:0:0:
256,196,39404,1,0,0:0:0:0:
256,196,39566,1,0,0:0:0:0:
256,196,39728,1,8,0:0:0:0:
256,196,40377,1,8,0:0:0:0:
256,196,40701,1,0,0:0:0:0:
256,196,41026,1,0,0:0:0:0:
256,196,41350,1,0,0:0:0:0:
256,196,41674,1,8,0:0:0:0:
256,196,41999,1,0,0:0:0:0:
256,196,42161,1,0,0:0:0:0:
256,196,42323,1,8,0:0:0:0:
256,196,42647,1,0,0:0:0:0:
256,196,42972,1,0,0:0:0:0:
256,196,43296,1,8,0:0:0:0:
256,196,43458,1,0,0:0:0:0:
256,196,43620,1,0,0:0:0:0:
256,196,43945,1,0,0:0:0:0:
256,196,44269,1,0,0:0:0:0:
256,196,44593,1,8,0:0:0:0:
256,196,44918,1,0,0:0:0:0:
256,196,45404,1,0,0:0:0:0:
256,196,45891,1,0,0:0:0:0:
256,196,46215,1,0,0:0:0:0:
256,196,46539,1,8,0:0:0:0:
256,196,46864,1,0,0:0:0:0:
256,196,47188,1,0,0:0:0:0:
256,196,47350,1,8,0:0:0:0:
256,196,47512,1,0,0:0:0:0:
256,196,48485,1,8,0:0:0:0:
256,196,48809,1,0,0:0:0:0:
256,196,49134,1,0,0:0:0:0:
256,196,49296,1,8,0:0:0:0:
256,196,49458,1,0,0:0:0:0:
256,196,49782,1,8,0:0:0:0:
256,196,50107,1,0,0:0:0:0:
256,196,51080,1,8,0:0:0:0:
256,196,51242,1,8,0:0:0:0:
256,196,51404,1,0,0:0:0:0:
256,196,51728,1,0,0:0:0:0:
256,196,52053,1,8,0:0:0:0:
256,196,52377,1,8,0:0:0:0:
256,196,52539,1,0,0:0:0:0:
256,196,52701,1,0,0:0:0:0:
256,196,53026,1,8,0:0:0:0:
256,196,53350,1,0,0:0:0:0:
256,196,53674,1,0,0:0:0:0:
256,196,53837,1,8,0:0:0:0:
256,196,53999,1,0,0:0:0:0:
256,196,54323,1,8,0:0:0:0:
256,196,54647,1,0,0:0:0:0:
256,196,54972,1,8,0:0:0:0:
256,196,55296,1,4,0:0:0:0:
256,196,55782,1,0,0:0:0:0:
256,196,56269,1,0,0:0:0:0:
256,196,56593,1,0,0:0:0:0:
256,196,57242,1,0,0:0:0:0:
256,196,57891,1,0,0:0:0:0:
256,196,59188,1,12,0:0:0:0:
256,196,59674,1,8,0:0:0:0:
256,196,59999,1,0,0:0:0:0:
256,196,60323,1,8,0:0:0:0:
256,196,60809,1,0,0:0:0:0:
256,196,61134,1,0,0:0:0:0:
256,196,61458,1,8,0:0:0:0:
256,196,61782,1,8,0:0:0:0:
256,196,62269,1,8,0:0:0:0:
256,196,62593,1,0,0:0:0:0:
256,196,62918,1,8,0:0:0:0:
256,196,63404,1,8,0:0:0:0:
256,196,63728,1,0,0:0:0:0:
256,196,64377,1,8,0:0:0:0:
256,196,64864,1,8,0:0:0:0:
256,196,65188,1,0,0:0:0:0:
256,196,65512,1,8,0:0:0:0:
256,196,65999,1,0,0:0:0:0:
256,196,66323,1,0,0:0:0:0:
256,196,66647,1,8,0:0:0:0:
256,196,66972,1,8,0:0:0:0:
256,196,67458,1,8,0:0:0:0:
256,196,67782,1,0,0:0:0:0:
256,196,68107,1,8,0:0:0:0:
256,196,68593,1,8,0:0:0:0:
256,196,68917,1,0,0:0:0:0:
256,196,69566,1,8,0:0:0:0:
256,196,70053,1,8,0:0:0:0:
256,196,70377,1,0,0:0:0:0:
256,196,70701,1,8,0:0:0:0:
256,196,72161,1,8,0:0:0:0:
256,196,72647,1,8,0:0:0:0:
256,196,72972,1,0,0:0:0:0:
256,196,73296,1,8,0:0:0:0:
256,196,74107,1,0,0:0:0:0:
256,196,74755,1,8,0:0:0:0:
256,196,75242,1,8,0:0:0:0:
256,196,75566,1,0,0:0:0:0:
256,196,75891,1,8,0:0:0:0:
256,196,76377,1,0,0:0:0:0:
256,196,76701,1,0,0:0:0:0:
256,196,77026,1,8,0:0:0:0:
256,196,77349,5,8,0:0:0:0:
256,196,77837,1,8,0:0:0:0:
256,196,78161,1,0,0:0:0:0:
256,196,78485,1,8,0:0:0:0:
256,196,78971,1,8,0:0:0:0:
256,196,79295,1,0,0:0:0:0:
256,196,79945,1,4,0:0:0:0:
256,196,80755,1,0,0:0:0:0:
256,196,81242,1,4,0:0:0:0:
256,196,82053,1,0,0:0:0:0:
256,196,82539,1,4,0:0:0:0:
256,196,83026,1,0,0:0:0:0:
256,196,83350,1,0,0:0:0:0:
256,196,83674,1,0,0:0:0:0:
256,196,83837,1,8,0:0:0:0:
256,196,84161,1,0,0:0:0:0:
256,196,84485,1,8,0:0:0:0:
256,196,84809,1,0,0:0:0:0:
256,196,85134,1,12,0:0:0:0:
256,196,86431,1,0,0:0:0:0:
256,196,86674,1,0,0:0:0:0:
256,196,86918,1,0,0:0:0:0:
256,196,87404,1,8,0:0:0:0:
256,196,87728,1,4,0:0:0:0:
256,196,88052,1,0,0:0:0:0:
256,196,88377,1,8,0:0:0:0:
256,196,88701,1,0,0:0:0:0:
256,196,88863,1,0,0:0:0:0:
256,196,89025,1,8,0:0:0:0:
256,196,89674,1,8,0:0:0:0:
256,196,89998,1,0,0:0:0:0:
256,196,90323,1,0,0:0:0:0:
256,196,90647,1,0,0:0:0:0:
256,196,90971,1,8,0:0:0:0:
256,196,91296,1,0,0:0:0:0:
256,196,91458,1,0,0:0:0:0:
256,196,91620,1,8,0:0:0:0:
256,196,91944,1,0,0:0:0:0:
256,196,92269,1,0,0:0:0:0:
256,196,92593,1,8,0:0:0:0:
256,196,92755,1,0,0:0:0:0:
256,196,92917,1,0,0:0:0:0:
256,196,93242,1,0,0:0:0:0:
256,196,93566,1,0,0:0:0:0:
256,196,93890,1,8,0:0:0:0:
256,196,94215,1,0,0:0:0:0:
256,196,94701,1,0,0:0:0:0:
256,196,95188,1,0,0:0:0:0:
256,196,95512,1,0,0:0:0:0:
256,196,95836,1,8,0:0:0:0:
256,196,96161,1,0,0:0:0:0:
256,196,96485,1,0,0:0:0:0:
256,196,96647,1,8,0:0:0:0:
256,196,96809,1,0,0:0:0:0:
256,196,97782,1,8,0:0:0:0:
256,196,98106,1,0,0:0:0:0:
256,196,98431,1,0,0:0:0:0:
256,196,98593,1,8,0:0:0:0:
256,196,98755,1,0,0:0:0:0:
256,196,99079,1,8,0:0:0:0:
256,196,99404,1,0,0:0:0:0:
256,196,100377,1,8,0:0:0:0:
256,196,100539,1,8,0:0:0:0:
256,196,100701,1,0,0:0:0:0:
256,196,101025,1,0,0:0:0:0:
256,196,101350,1,8,0:0:0:0:
256,196,101674,1,8,0:0:0:0:
256,196,101836,1,0,0:0:0:0:
256,196,101998,1,0,0:0:0:0:
256,196,102323,1,8,0:0:0:0:
256,196,102647,1,0,0:0:0:0:
256,196,102971,1,0,0:0:0:0:
256,196,103134,1,8,0:0:0:0:
256,196,103296,1,0,0:0:0:0:
256,196,103620,1,8,0:0:0:0:
256,196,103944,5,0,0:0:0:0:
256,196,104269,1,8,0:0:0:0:
256,196,104593,1,4,0:0:0:0:
256,196,105079,5,0,0:0:0:0:
256,196,105566,1,0,0:0:0:0:
256,196,105891,1,12,0:0:0:0:
256,196,106377,1,8,0:0:0:0:
256,196,106864,1,8,0:0:0:0:
256,196,107188,1,4,0:0:0:0:
256,196,107674,1,0,0:0:0:0:
256,196,108161,1,8,0:0:0:0:
256,196,108485,1,4,0:0:0:0:
