osu file format v14

[General]
AudioFilename: audio.mp3
AudioLeadIn: 0
PreviewTime: 56337
Countdown: 0
SampleSet: Normal
StackLeniency: 0.7
Mode: 0
LetterboxInBreaks: 0
EpilepsyWarning: 1
WidescreenStoryboard: 1

[Editor]
DistanceSpacing: 3.5
BeatDivisor: 4
GridSize: 4
TimelineZoom: 1.7

[Metadata]
Title:Electric "Sister" Bitch
TitleUnicode:Electric "Sister" Bitch
Artist:t+pazolite
ArtistUnicode:t+pazolite
Creator:- wickEd -
Version:UNknown
Source:SOUND VOLTEX II -infinite infection-
Tags:東方Project touhou flandre scarlet U.N. owen was her? オーエンは彼女なのか eosd embodiment of scarlet devil フランドール・スカーレット zun remix
BeatmapID:945149
BeatmapSetID:439144

[Difficulty]
HPDrainRate:6.5
CircleSize:4
OverallDifficulty:9
ApproachRate:9
SliderMultiplier:1.8
SliderTickRate:1

[Events]
//Background and Video events
0,0,"bg.jpg",0,0
//Break Periods
2,13726,22980
//Storyboard Layer 0 (Background)
//Storyboard Layer 1 (Fail)
//Storyboard Layer 2 (Pass)
//Storyboard Layer 3 (Foreground)
//Storyboard Sound Samples

[TimingPoints]
-743.828712449701,324.324324324324,4,1,0,100,1,0
3148,-100,4,1,0,100,0,1
5742,-100,4,1,0,100,0,1
8337,-100,4,1,0,100,0,1
10931,-100,4,1,0,100,0,1
12229,-100,4,1,0,100,0,0
23904,-100,4,1,0,100,0,1
23985,-100,4,1,0,100,0,0
29094,-100,4,1,0,100,0,1
29175,-100,4,1,0,100,0,0
34283,-100,4,1,0,5,0,0
35256,-100,4,1,0,100,0,0
35580,-100,4,1,0,100,0,1
40769,-100,4,1,0,100,0,1
45958,-100,4,1,0,100,0,0
48553,-100,4,1,0,100,0,1
49850,-100,4,1,0,100,0,0
51148,-100,4,1,0,100,0,1
56337,-100,4,1,0,100,0,0
58931,-100,4,1,0,100,0,1
59012,-100,4,1,0,100,0,0
64121,-100,4,1,0,100,0,1
64202,-100,4,1,0,100,0,0
68661,-100,4,1,0,5,0,0
69310,-100,4,1,0,100,0,1
69391,-100,4,1,0,100,0,0
71904,-100,4,1,0,100,0,1
71985,-100,4,1,0,100,0,0
74499,-100,4,1,0,100,0,1
74580,-100,4,1,0,100,0,0
79039,-100,4,1,0,5,0,0
79688,-100,4,1,0,100,0,1
79769,-100,4,1,0,100,0,0
86175,-100,4,1,0,5,0,0
87472,-100,4,1,0,100,0,1
96553,-100,4,1,0,100,0,0
97850,-100,4,1,0,100,0,1
99148,-100,4,1,0,100,0,0
100445,-100,4,1,0,100,0,1
108229,-100,4,1,0,100,0,0

[Colours]
Combo1 : 240,240,240
Combo2 : 202,2,2
Combo3 : 249,237,6

[HitObjects]
160,96,553,5,0,3:0:0:0:
196,180,715,1,0,0:0:0:0:
200,212,796,1,0,0:0:0:0:
204,244,877,1,8,3:0:0:0:
272,76,1039,5,0,0:0:0:0:
256,117,1120,1,0,0:0:0:0:
264,161,1201,1,0,0:0:0:0:
293,195,1282,1,0,0:0:0:0:
334,210,1363,1,0,0:0:0:0:
378,202,1444,1,0,0:0:0:0:
412,173,1526,2,0,L|446:87,1,90,4|0,2:0|0:0,0:0:0:0:
272,76,1850,5,0,3:0:0:0:
212,244,2012,1,0,0:0:0:0:
212,244,2094,1,0,0:0:0:0:
212,244,2175,1,0,3:0:0:0:
92,112,2337,1,0,0:0:0:0:
92,112,2418,1,0,0:0:0:0:
92,112,2499,2,0,B|76:160|76:160|96:216,1,90,0|0,3:0|0:0,0:0:0:0:
256,137,2823,2,0,L|280:125,7,22.5,0|0|0|0|0|0|0|0,0:0|0:0|0:0|0:0|0:0|0:0|0:0|0:0,0:0:0:0:
284,160,3148,6,0,P|304:216|304:264,1,90,0|0,3:0|0:0,0:0:0:0:
164,300,3472,1,0,0:0:0:0:
138,263,3553,1,0,0:0:0:0:
127,220,3634,1,0,0:0:0:0:
132,175,3715,1,0,0:0:0:0:
153,135,3796,6,0,P|224:100|256:96,1,90,0|0,3:0|0:0,0:0:0:0:
336,212,4121,1,0,0:0:0:0:
293,223,4202,1,0,0:0:0:0:
267,259,4283,1,0,0:0:0:0:
269,303,4364,1,0,0:0:0:0:
298,336,4445,5,0,3:0:0:0:
455,175,4607,1,0,3:0:0:0:
217,127,4769,1,0,3:0:0:0:
324,220,4931,1,0,3:0:0:0:
344,244,5012,1,0,3:0:0:0:
364,268,5094,2,0,P|400:312|432:336,1,90,0|0,3:0|0:0,0:0:0:0:
455,175,5418,1,4,2:0:0:0:
455,175,5499,1,0,0:0:0:0:
455,175,5580,1,0,0:0:0:0:
455,175,5661,1,0,0:0:0:0:
455,175,5742,6,0,L|389:109,1,90,0|0,3:0|0:0,0:0:0:0:
294,39,6066,1,0,3:0:0:0:
249,39,6147,1,0,0:0:0:0:
204,46,6228,1,0,0:0:0:0:
162,62,6309,1,0,0:0:0:0:
123,84,6391,6,0,B|93:108|93:108|85:159,1,90,0|0,3:0|0:0,0:0:0:0:
312,160,6715,1,0,3:0:0:0:
342,192,6796,1,0,0:0:0:0:
362,232,6877,1,0,0:0:0:0:
367,277,6958,1,0,0:0:0:0:
358,321,7039,5,0,3:0:0:0:
84,232,7202,1,0,3:0:0:0:
358,143,7364,1,0,3:0:0:0:
84,54,7526,1,0,3:0:0:0:
76,84,7607,1,0,3:0:0:0:
68,114,7688,1,0,3:0:0:0:
32,244,7850,1,0,3:0:0:0:
172,196,8012,2,0,L|208:176,7,22.5,2|0|0|0|0|0|0|0,0:0|0:0|0:0|0:0|0:0|0:0|0:0|0:0,0:0:0:0:
160,152,8337,6,0,P|148:100|160:60,1,90,4|0,2:0|0:0,0:0:0:0:
288,68,8661,1,0,3:0:0:0:
332,67,8742,1,0,0:0:0:0:
374,83,8823,1,0,0:0:0:0:
408,112,8904,1,0,0:0:0:0:
429,151,8985,5,0,3:0:0:0:
308,204,9147,1,0,0:0:0:0:
182,256,9310,1,0,3:0:0:0:
203,295,9391,1,0,0:0:0:0:
237,324,9472,1,0,0:0:0:0:
279,340,9553,1,0,0:0:0:0:
324,340,9634,5,0,3:0:0:0:
392,80,9796,1,0,3:0:0:0:
268,320,9958,1,0,3:0:0:0:
336,60,10121,1,0,3:0:0:0:
312,80,10202,1,0,3:0:0:0:
288,100,10283,2,0,L|220:164,1,90,0|0,3:0|3:0,3:0:0:0:
344,220,10607,2,0,L|304:260,3,45,2|0|0|0,2:0|0:0|0:0|0:0,0:0:0:0:
252,320,10931,5,0,3:0:0:0:
144,176,11093,1,0,3:0:0:0:
288,68,11256,1,0,3:0:0:0:
396,212,11418,1,0,3:0:0:0:
262,345,11580,5,0,3:0:0:0:
127,165,11742,1,0,3:0:0:0:
307,30,11905,1,0,3:0:0:0:
442,210,12067,1,0,3:0:0:0:
288,120,12228,5,2,0:0:0:0:
288,120,12309,1,0,0:0:0:0:
288,120,12391,1,0,0:0:0:0:
134,210,12553,2,0,L|164:244,1,45,0|2,0:0|0:0,0:0:0:0:
256,276,12715,2,0,B|272:232|272:232|304:200,1,90,2|4,0:0|2:0,0:0:0:0:
137,348,13201,5,0,0:0:0:0:
445,268,13364,1,0,0:0:0:0:
237,16,13526,1,4,2:0:0:0:
310,299,23580,5,0,3:0:0:0:
310,299,23904,1,4,2:0:0:0:
311,254,23985,1,0,0:0:0:0:
292,213,24066,1,0,0:0:0:0:
258,184,24147,1,0,0:0:0:0:
216,172,24228,1,2,0:0:0:0:
461,121,24391,1,2,0:0:0:0:
216,70,24553,1,2,0:0:0:0:
461,19,24715,1,2,0:0:0:0:
461,19,25039,5,8,2:0:0:0:
461,19,25364,1,2,0:0:0:0:
500,148,25526,1,2,0:0:0:0:
461,277,25688,1,2,0:0:0:0:
500,148,25850,1,8,0:0:0:0:
480,112,25931,1,0,0:0:0:0:
460,76,26012,1,0,0:0:0:0:
356,164,26175,1,8,0:0:0:0:
319,182,26256,1,0,0:0:0:0:
282,201,26337,1,0,0:0:0:0:
148,180,26499,6,0,P|152:92|180:64,1,90,2|0,0:0|0:0,0:0:0:0:
364,204,26823,2,0,P|360:292|332:320,1,90,2|0,0:0|0:0,0:0:0:0:
150,93,27147,1,0,0:0:0:0:
364,204,27310,1,0,0:0:0:0:
373,247,27391,1,0,0:0:0:0:
361,290,27472,2,2,P|323:338|291:345,1,90
176,329,27796,5,8,0:0:0:0:
252,216,27958,1,2,0:0:0:0:
327,329,28121,1,8,0:0:0:0:
402,216,28283,1,2,0:0:0:0:
477,329,28445,1,8,0:0:0:0:
492,287,28526,1,0,0:0:0:0:
490,242,28607,1,0,0:0:0:0:
469,203,28688,1,0,0:0:0:0:
433,176,28769,1,0,0:0:0:0:
389,166,28850,1,0,0:0:0:0:
346,175,28931,1,0,0:0:0:0:
310,201,29012,1,0,0:0:0:0:
288,240,29094,6,0,P|280:304|280:336,1,90,0|0,3:0|0:0,0:0:0:0:
60,284,29418,1,2,0:0:0:0:
272,204,29580,1,2,0:0:0:0:
48,240,29742,1,2,0:0:0:0:
272,248,29904,1,2,0:0:0:0:
312,268,30229,5,8,2:0:0:0:
312,268,30553,1,0,0:0:0:0:
312,44,30715,1,0,0:0:0:0:
312,268,30878,1,0,0:0:0:0:
312,152,31039,2,0,P|256:124|208:132,1,90,2|0,0:0|0:0,0:0:0:0:
120,288,31364,2,0,P|176:316|224:308,1,90,2|0,0:0|0:0,0:0:0:0:
370,186,31688,5,8,0:0:0:0:
104,232,31850,1,2,0:0:0:0:
296,45,32012,1,8,0:0:0:0:
245,311,32174,1,2,0:0:0:0:
129,65,32336,1,8,0:0:0:0:
256,192,32498,1,2,0:0:0:0:
256,192,32579,1,0,0:0:0:0:
256,192,32661,2,0,L|336:264,1,90,8|0,0:0|0:0,0:0:0:0:
204,316,32985,1,4,2:0:0:0:
256,192,33066,12,0,34283,0:0:0:0:
144,88,35256,6,0,L|168:108,6,22.5,0|0|0|0|0|0|0,0:0|0:0|0:0|0:0|0:0|0:0|0:0,0:0:0:0:
124,128,35581,1,0,3:0:0:0:
131,172,35661,1,0,0:0:0:0:
155,209,35742,1,0,0:0:0:0:
194,231,35823,1,0,0:0:0:0:
237,223,35905,1,0,3:0:0:0:
273,195,35985,1,0,0:0:0:0:
310,170,36066,1,0,0:0:0:0:
353,160,36147,1,0,0:0:0:0:
397,168,36229,1,0,3:0:0:0:
436,190,36309,1,0,0:0:0:0:
465,224,36390,1,0,0:0:0:0:
482,266,36471,1,0,0:0:0:0:
487,311,36553,6,0,P|472:360|425:383,1,90,0|0,3:0|0:0,0:0:0:0:
360,266,36877,2,0,L|350:222,3,45,0|0|0|0,3:0|0:0|0:0|0:0,0:0:0:0:
255,248,37202,2,0,L|278:210,3,45,0|0|0|0,3:0|0:0|0:0|0:0,0:0:0:0:
193,162,37526,2,0,L|235:152,3,45,0|0|0|0,3:0|0:0|0:0|0:0,0:0:0:0:
212,58,37850,2,0,L|248:81,1,45,0|0,3:0|0:0,0:0:0:0:
446,205,38012,2,0,L|408:180,1,45,0|0,3:0|0:0,0:0:0:0:
328,132,38175,5,0,3:0:0:0:
283,138,38256,1,0,0:0:0:0:
245,162,38337,1,0,0:0:0:0:
219,198,38418,1,0,0:0:0:0:
210,242,38499,1,0,3:0:0:0:
218,286,38580,1,0,0:0:0:0:
242,323,38661,1,0,0:0:0:0:
279,348,38742,1,0,0:0:0:0:
323,357,38823,1,0,3:0:0:0:
367,348,38904,1,0,0:0:0:0:
404,322,38985,1,0,0:0:0:0:
428,284,39066,1,0,0:0:0:0:
435,240,39148,2,0,P|431:174|435:142,1,90,0|0,3:0|0:0,0:0:0:0:
324,244,39472,6,0,L|276:240,1,45,0|0,2:0|2:0,2:0:0:0:
52,88,39715,2,0,L|100:92,1,45,0|0,2:0|2:0,2:0:0:0:
460,88,39958,1,0,2:0:0:0:
460,88,40039,1,0,2:0:0:0:
460,88,40121,2,2,L|394:153,1,90
300,244,40445,1,8,0:0:0:0:
204,336,40607,1,8,0:0:0:0:
164,208,40769,1,0,3:0:0:0:
208,201,40850,1,0,0:0:0:0:
243,174,40931,1,0,0:0:0:0:
259,132,41012,1,0,0:0:0:0:
253,88,41093,1,0,3:0:0:0:
226,53,41174,1,0,0:0:0:0:
185,36,41256,6,0,L|136:36,1,45,2|0,3:2|0:0,0:0:0:0:
92,112,41418,2,0,L|136:111,1,45,2|0,3:2|0:0,0:0:0:0:
184,188,41580,2,0,L|134:188,1,45,2|0,3:2|0:0,0:0:0:0:
90,263,41742,1,2,3:2:0:0:
212,316,41904,1,2,3:2:0:0:
334,263,42066,5,0,3:0:0:0:
325,219,42147,1,0,0:0:0:0:
301,181,42228,1,0,0:0:0:0:
261,161,42309,1,0,0:0:0:0:
218,170,42390,1,0,3:0:0:0:
182,197,42471,1,0,0:0:0:0:
148,227,42552,1,0,0:0:0:0:
109,249,42633,1,0,0:0:0:0:
65,245,42714,1,0,3:0:0:0:
35,213,42795,1,0,0:0:0:0:
27,170,42876,1,0,0:0:0:0:
39,126,42957,1,0,0:0:0:0:
65,90,43039,2,0,P|115:45|135:33,1,90,0|0,3:0|0:0,0:0:0:0:
288,20,43364,5,0,2:0:0:0:
332,27,43445,1,0,0:0:0:0:
368,53,43526,1,0,0:0:0:0:
388,93,43607,1,0,0:0:0:0:
388,137,43688,1,0,2:0:0:0:
368,177,43769,1,0,0:0:0:0:
332,203,43850,1,0,0:0:0:0:
288,211,43931,1,0,0:0:0:0:
246,197,44012,1,0,2:0:0:0:
214,166,44093,1,0,0:0:0:0:
199,124,44175,2,0,P|192:84|176:56,1,67.5,8|0,0:0|0:0,0:0:0:0:
164,32,44337,2,0,L|184:20,7,22.5
224,28,44661,6,0,L|266:70,1,60,8|0,0:0|0:0,0:0:0:0:
280,248,44877,2,0,L|237:205,1,60,8|0,0:0|0:0,0:0:0:0:
349,53,45094,2,0,L|349:113,1,60,8|0,0:0|0:0,0:0:0:0:
233,248,45310,2,0,L|233:188,1,60,8|0,0:0|0:0,0:0:0:0:
420,160,45526,2,0,L|377:202,1,60,8|0,0:0|0:0,0:0:0:0:
200,216,45742,1,8,0:0:0:0:
242,173,45850,1,8,0:0:0:0:
180,160,45958,5,8,3:0:0:0:
180,24,46121,1,0,0:0:0:0:
180,24,46202,1,0,0:0:0:0:
180,24,46283,2,0,L|280:16,1,90,0|0,3:0|0:0,0:0:0:0:
376,160,46607,1,2,0:0:0:0:
200,112,46769,1,2,0:0:0:0:
372,52,46931,1,2,0:0:0:0:
268,200,47093,1,2,0:0:0:0:
296,112,47256,1,0,0:0:0:0:
184,56,48553,6,0,L|215:87,3,45,0|0|0|0,3:0|0:0|0:0|0:0,0:0:0:0:
143,151,48877,2,0,L|186:151,3,45,0|0|0|0,3:0|0:0|0:0|0:0,0:0:0:0:
184,248,49202,1,0,3:0:0:0:
219,221,49283,1,0,0:0:0:0:
262,208,49364,1,0,0:0:0:0:
307,212,49445,1,0,0:0:0:0:
347,231,49526,2,0,L|378:199,4,45,0|0|0|0|0,3:0|0:0|0:0|0:0|0:0,0:0:0:0:
312,336,51148,5,0,3:0:0:0:
286,299,51229,1,0,0:0:0:0:
276,255,51310,1,0,0:0:0:0:
290,212,51391,1,0,0:0:0:0:
327,188,51472,1,0,3:0:0:0:
372,182,51553,1,0,0:0:0:0:
417,179,51634,1,0,0:0:0:0:
460,167,51715,1,0,0:0:0:0:
488,133,51796,1,0,3:0:0:0:
487,89,51877,1,0,0:0:0:0:
462,53,51958,1,0,0:0:0:0:
423,31,52039,1,0,0:0:0:0:
379,24,52121,2,0,P|311:27|289:34,1,90,0|0,3:0|0:0,0:0:0:0:
137,117,52445,5,0,3:0:0:0:
180,107,52526,1,0,0:0:0:0:
224,116,52607,1,0,0:0:0:0:
262,140,52688,1,0,0:0:0:0:
288,176,52769,1,0,3:0:0:0:
298,220,52850,1,0,0:0:0:0:
291,264,52931,1,0,0:0:0:0:
268,302,53012,1,0,0:0:0:0:
232,329,53093,1,0,3:0:0:0:
189,340,53174,1,0,0:0:0:0:
144,334,53255,1,0,0:0:0:0:
106,312,53336,1,0,0:0:0:0:
78,277,53418,2,0,P|52:228|4:196,1,90,0|0,3:0|0:0,0:0:0:0:
76,96,53742,5,0,3:0:0:0:
180,244,53904,1,0,3:0:0:0:
8,188,54066,1,0,3:0:0:0:
176,124,54228,1,0,3:0:0:0:
76,276,54391,1,0,3:0:0:0:
76,96,54553,1,0,3:0:0:0:
113,71,54634,1,0,0:0:0:0:
150,46,54715,2,0,P|228:24|252:20,1,90,0|0,3:0|0:0,0:0:0:0:
362,58,55039,5,0,3:0:0:0:
391,93,55120,1,0,0:0:0:0:
408,135,55201,1,0,3:0:0:0:
413,179,55282,1,0,0:0:0:0:
408,224,55363,1,0,3:0:0:0:
387,263,55444,1,0,0:0:0:0:
346,279,55525,1,0,3:0:0:0:
303,266,55606,1,0,0:0:0:0:
267,240,55687,1,0,3:0:0:0:
233,210,55768,1,0,0:0:0:0:
200,179,55849,1,0,3:0:0:0:
163,155,55930,1,0,0:0:0:0:
119,153,56011,1,0,3:0:0:0:
82,178,56093,1,0,0:0:0:0:
55,214,56174,1,0,3:0:0:0:
38,256,56255,1,0,0:0:0:0:
34,301,56336,5,4,3:0:0:0:
440,100,56661,1,0,0:0:0:0:
220,148,56823,1,0,0:0:0:0:
380,308,56985,1,0,3:0:0:0:
380,308,57310,5,0,0:0:0:0:
220,148,57472,1,0,0:0:0:0:
440,100,57634,2,0,L|456:83,16,22.5,0|0|0|0|0|0|0|0|0|0|0|0|0|0|0|0|8,3:0|0:0|0:0|0:0|0:0|0:0|0:0|0:0|0:0|0:0|0:0|0:0|0:0|0:0|0:0|0:0|2:0,0:0:0:0:
440,100,58607,1,8,2:0:0:0:
268,48,58931,6,0,P|212:44|168:48,1,90,8|0,0:0|0:0,0:0:0:0:
108,160,59256,1,8,2:0:0:0:
244,160,59419,1,0,0:0:0:0:
380,160,59580,2,0,P|382:204|378:249,1,90,8|0,0:0|0:0,0:0:0:0:
260,316,59904,1,8,2:0:0:0:
260,180,60067,1,0,0:0:0:0:
144,248,60229,6,0,P|136:192|136:144,1,90,8|0,0:0|0:0,0:0:0:0:
368,136,60553,2,0,P|376:192|376:240,1,90,8|0,2:0|0:0,0:0:0:0:
112,263,60877,2,0,P|102:192|102:130,1,90,8|0,0:0|0:0,0:0:0:0:
399,120,61201,2,0,P|409:192|409:253,1,90,8|0,2:0|0:0,0:0:0:0:
280,176,61526,5,8,0:0:0:0:
172,96,61688,1,0,0:0:0:0:
64,176,61850,2,0,P|44:256|44:287,1,90,8|0,2:0|0:0,0:0:0:0:
296,160,62175,5,8,0:0:0:0:
156,80,62337,1,0,0:0:0:0:
48,192,62499,2,0,P|25:283|25:320,1,90,8|0,2:0|0:0,0:0:0:0:
165,358,62823,5,8,0:0:0:0:
284,296,62986,1,0,0:0:0:0:
165,234,63148,1,8,2:0:0:0:
284,172,63310,1,0,0:0:0:0:
165,110,63472,1,4,3:0:0:0:
120,113,63553,1,0,0:0:0:0:
80,133,63634,1,0,0:0:0:0:
51,167,63715,1,0,0:0:0:0:
37,210,63796,1,0,0:0:0:0:
41,254,63877,1,0,0:0:0:0:
61,294,63958,1,0,0:0:0:0:
95,323,64039,1,0,0:0:0:0:
137,337,64120,5,8,0:0:0:0:
256,144,64283,1,0,0:0:0:0:
375,337,64445,2,0,L|376:248,1,90,8|0,2:0|0:0,0:0:0:0:
100,263,64769,2,0,P|124:195|140:167,1,90,8|0,0:0|0:0,0:0:0:0:
412,263,65094,2,0,P|388:195|372:167,1,90,8|0,2:0|0:0,0:0:0:0:
256,32,65418,5,2,0:0:0:0:
256,260,65581,1,2,0:0:0:0:
369,78,65742,1,2,0:0:0:0:
142,213,65904,1,2,0:0:0:0:
416,191,66066,2,0,P|424:236|424:288,1,90,2|0,0:0|0:0,0:0:0:0:
95,192,66391,2,0,P|88:148|88:96,1,90,2|0,0:0|0:0,0:0:0:0:
256,32,66715,6,0,P|340:60|356:76,1,90,2|0,0:0|0:0,0:0:0:0:
444,208,67039,1,8,0:0:0:0:
483,30,67202,1,0,0:0:0:0:
239,32,67364,6,0,P|325:51|343:66,1,90,2|0,0:0|0:0,0:0:0:0:
444,188,67688,1,8,0:0:0:0:
464,7,67850,2,0,P|360:20|316:100,1,180,0|0,3:0|0:0,0:0:0:0:
469,159,68337,2,0,P|446:121|416:88,1,90,0|0,3:0|0:0,0:0:0:0:
372,168,68661,1,0,0:0:0:0:
357,210,68742,1,0,0:0:0:0:
328,244,68823,1,0,0:0:0:0:
288,263,68904,1,0,0:0:0:0:
244,266,68985,1,0,0:0:0:0:
201,251,69066,1,0,0:0:0:0:
168,221,69147,1,0,0:0:0:0:
149,181,69228,1,0,0:0:0:0:
147,136,69310,6,0,L|148:40,1,90,4|0,2:3|0:0,0:0:0:0:
364,247,69634,2,0,L|364:344,1,90,8|0,0:0|0:0,0:0:0:0:
147,136,69959,1,0,3:0:0:0:
52,39,70121,1,2,0:0:0:0:
20,168,70283,1,8,0:0:0:0:
96,80,70445,2,0,P|196:80|208:184,1,180,8|8,0:0|0:0,0:0:0:0:
224,384,70932,1,12,3:0:0:0:
224,0,71256,1,12,3:0:0:0:
224,384,71580,1,12,3:0:0:0:
224,192,71904,5,0,3:0:0:0:
108,92,72066,1,0,0:0:0:0:
256,48,72229,2,0,L|190:113,1,90,8|0,0:0|0:0,0:0:0:0:
160,31,72553,5,0,3:0:0:0:
276,131,72715,1,0,0:0:0:0:
128,175,72878,2,0,L|193:109,1,90,8|2,0:0|0:0,0:0:0:0:
384,76,73310,1,2,0:0:0:0:
240,232,73607,1,2,0:0:0:0:
433,197,73850,1,2,0:0:0:0:
191,111,74121,2,2,P|235:63|295:43,1,120
292,160,74499,5,0,3:0:0:0:
261,310,74661,1,0,0:0:0:0:
112,281,74823,1,8,0:0:0:0:
141,130,74985,1,0,0:0:0:0:
313,144,75148,5,0,3:0:0:0:
276,332,75310,1,0,0:0:0:0:
89,296,75472,1,8,0:0:0:0:
344,60,75634,2,0,L|352:160,2,90,2|0|0,0:0|0:0|0:0,0:0:0:0:
54,37,76121,2,0,L|46:126,1,90,10|0,0:0|0:0,0:0:0:0:
140,232,76445,5,2,0:0:0:0:
184,100,76607,1,2,0:0:0:0:
431,133,76769,5,2,0:0:0:0:
387,265,76931,1,2,0:0:0:0:
140,232,77094,5,4,2:0:0:0:
431,133,77418,1,4,2:0:0:0:
252,48,77580,1,4,2:0:0:0:
260,336,77904,1,4,2:0:0:0:
252,48,78229,1,4,2:0:0:0:
260,336,78553,2,4,L|360:352,1,90,4|4,2:0|2:0,2:0:0:0:
190,240,79039,1,0,0:0:0:0:
186,195,79120,1,0,0:0:0:0:
197,151,79201,1,0,0:0:0:0:
222,114,79282,1,0,0:0:0:0:
257,86,79363,1,0,0:0:0:0:
299,71,79444,1,0,0:0:0:0:
344,70,79525,1,0,0:0:0:0:
386,83,79606,1,0,0:0:0:0:
423,109,79688,5,4,2:0:0:0:
112,288,80012,2,0,L|112:380,1,90,2|0,0:0|0:0,0:0:0:0:
423,109,80499,5,4,2:3:0:0:
112,288,80823,1,4,2:3:0:0:
376,340,80985,1,4,2:3:0:0:
65,161,81310,2,2,L|65:69,1,90
108,344,81796,5,4,2:3:0:0:
66,10,82039,1,4,2:3:0:0:
378,131,82283,1,4,2:3:0:0:
66,10,82607,5,2,0:0:0:0:
68,144,82769,2,0,L|68:236,1,90,0|0,3:0|0:0,0:0:0:0:
204,236,83094,2,0,L|204:328,1,90,0|0,3:0|0:0,0:0:0:0:
340,144,83418,1,0,3:0:0:0:
346,370,83580,1,0,3:0:0:0:
478,185,83742,1,0,3:0:0:0:
260,244,83904,1,0,3:0:0:0:
489,314,84066,2,0,L|504:264,1,45,0|0,3:0|3:0,3:0:0:0:
440,204,84229,2,0,L|425:254,1,45,0|0,3:0|3:0,3:0:0:0:
365,180,84391,2,0,L|377:136,1,45,0|0,3:0|3:0,3:0:0:0:
316,70,84553,2,0,L|301:120,1,45,0|0,3:0|3:0,3:0:0:0:
241,46,84715,2,0,L|253:2,1,45,0|0,3:0|3:0,3:0:0:0:
256,192,84877,12,0,86175,0:0:0:0:
164,92,87148,6,0,L|147:108,7,22.5,0|0|0|0|0|0|0|0,0:0|0:0|0:0|0:0|0:0|0:0|0:0|0:0,0:0:0:0:
176,132,87472,1,0,3:0:0:0:
218,144,87553,1,0,0:0:0:0:
253,172,87634,1,0,0:0:0:0:
275,211,87715,1,0,0:0:0:0:
279,256,87796,1,0,3:0:0:0:
267,299,87877,1,0,0:0:0:0:
239,333,87958,1,0,0:0:0:0:
199,355,88039,1,0,0:0:0:0:
155,359,88120,1,0,3:0:0:0:
112,347,88201,1,0,0:0:0:0:
77,318,88282,1,0,0:0:0:0:
56,279,88363,1,0,0:0:0:0:
52,235,88445,2,0,L|52:136,1,90,0|0,3:0|0:0,0:0:0:0:
132,36,88769,5,0,3:0:0:0:
164,61,88850,1,0,0:0:0:0:
183,101,88931,1,0,0:0:0:0:
209,137,89012,1,0,0:0:0:0:
249,160,89093,1,0,3:0:0:0:
293,163,89174,1,0,0:0:0:0:
332,142,89255,1,0,0:0:0:0:
348,101,89336,1,0,0:0:0:0:
337,57,89417,1,0,3:0:0:0:
306,26,89498,1,0,0:0:0:0:
262,17,89579,1,0,0:0:0:0:
218,29,89660,1,0,0:0:0:0:
180,56,89742,2,0,L|144:84,1,45,0|0,3:0|3:0,3:0:0:0:
212,144,89904,2,0,L|248:116,1,45,0|0,3:0|3:0,3:0:0:0:
316,176,90066,6,0,L|273:187,3,45,0|0|0|0,3:0|0:0|0:0|0:0,0:0:0:0:
301,285,90391,6,0,L|262:263,3,45,0|0|0|0,3:0|0:0|0:0|0:0,0:0:0:0:
214,352,90715,6,0,L|202:309,3,45,0|0|0|0,3:0|0:0|0:0|0:0,0:0:0:0:
104,337,91039,2,0,B|88:292|88:292|112:232,1,90,0|0,3:0|0:0,0:0:0:0:
160,128,91364,1,0,3:0:0:0:
191,96,91445,1,0,0:0:0:0:
223,64,91526,1,0,0:0:0:0:
255,95,91607,1,0,0:0:0:0:
287,127,91688,1,0,3:0:0:0:
319,96,91769,1,0,0:0:0:0:
350,65,91850,1,0,0:0:0:0:
378,98,91931,1,0,0:0:0:0:
398,138,92012,1,0,3:0:0:0:
408,182,92093,1,0,0:0:0:0:
405,227,92174,1,0,0:0:0:0:
390,269,92255,1,0,0:0:0:0:
364,306,92337,2,0,P|320:348|272:352,1,90,0|0,3:0|0:0,0:0:0:0:
280,220,92661,5,0,3:0:0:0:
321,204,92742,1,0,0:0:0:0:
353,173,92823,1,0,0:0:0:0:
367,130,92904,1,0,0:0:0:0:
361,86,92985,1,0,3:0:0:0:
337,49,93066,1,0,0:0:0:0:
299,25,93147,1,0,0:0:0:0:
255,21,93228,1,0,0:0:0:0:
213,36,93309,1,0,3:0:0:0:
182,68,93390,1,0,0:0:0:0:
168,111,93472,2,0,L|168:172,1,45,2|0,0:0|0:0,0:0:0:0:
256,200,93634,2,0,L|256:172,6,22.5,2|0|0|0|0|0|0,0:0|0:0|0:0|0:0|0:0|0:0|0:0,0:0:0:0:
292,164,93958,6,0,L|334:121,1,60,8|0,0:0|0:0,0:0:0:0:
220,164,94175,2,0,L|177:121,1,60,8|0,0:0|0:0,0:0:0:0:
292,220,94391,2,0,L|334:262,1,60,8|0,0:0|0:0,0:0:0:0:
220,220,94608,2,0,L|177:262,1,60,8|0,0:0|0:0,0:0:0:0:
264,344,94823,2,0,L|306:301,1,60,8|0,0:0|0:0,0:0:0:0:
364,196,95040,1,8,0:0:0:0:
244,196,95148,1,8,0:0:0:0:
300,88,95256,6,0,P|256:72|200:68,2,90,8|0|8,0:0|0:0|0:0,0:0:0:0:
410,227,95742,2,0,P|368:242|324:248,1,90,8|0,0:0|0:0,0:0:0:0:
284,100,96066,2,0,P|318:128|345:164,2,90,8|0|8,0:0|0:0|0:0,0:0:0:0:
148,88,96553,5,2,0:0:0:0:
106,194,96715,1,2,0:0:0:0:
151,299,96877,1,8,3:0:0:0:
360,84,97202,5,2,0:0:0:0:
405,189,97364,1,2,0:0:0:0:
364,296,97526,1,8,3:0:0:0:
151,299,97850,6,0,P|152:252|172:216,1,90,0|0,3:0|0:0,0:0:0:0:
396,60,98175,2,0,P|395:107|375:143,1,90,0|0,3:0|0:0,0:0:0:0:
172,215,98498,1,0,3:0:0:0:
375,143,98661,1,0,0:0:0:0:
375,143,98742,1,0,0:0:0:0:
375,143,98823,2,0,P|392:188|400:236,1,90,0|0,3:0|0:0,0:0:0:0:
113,229,99148,5,2,0:0:0:0:
399,229,99310,1,2,0:0:0:0:
256,176,99472,2,2,L|256:132,1,45,2|2,0:0|0:0,0:0:0:0:
256,284,99634,2,2,L|256:328,1,45,2|2,0:0|0:0,0:0:0:0:
256,228,99796,5,2,2:0:0:0:
356,60,99958,1,2,2:0:0:0:
156,60,100121,1,2,2:0:0:0:
156,324,100445,6,0,L|82:385,1,90,0|0,3:0|0:0,0:0:0:0:
223,156,100769,2,0,L|296:94,1,90,0|0,3:0|0:0,0:0:0:0:
105,206,101094,2,0,L|43:132,1,90,0|0,3:0|0:0,0:0:0:0:
273,273,101418,2,0,L|334:346,1,90,0|0,3:0|0:0,0:0:0:0:
156,324,101742,5,0,3:0:0:0:
409,241,101904,1,0,0:0:0:0:
156,143,102067,1,0,3:0:0:0:
293,376,102229,1,0,0:0:0:0:
316,107,102391,2,0,P|384:80|440:84,1,90,0|0,3:0|3:0,3:0:0:0:
442,91,102634,1,0,3:0:0:0:
479,117,102715,2,0,L|472:216,1,90,0|0,3:0|3:0,3:0:0:0:
460,324,103040,5,0,3:0:0:0:
351,280,103202,1,0,3:0:0:0:
243,236,103364,1,0,3:0:0:0:
136,193,103526,1,0,3:0:0:0:
29,150,103688,1,0,3:0:0:0:
120,76,103850,1,0,3:0:0:0:
159,97,103931,1,0,3:0:0:0:
192,127,104012,2,0,P|212:184|216:228,1,90,0|2,3:0|0:0,3:0:0:0:
144,328,104337,1,4,3:2:0:0:
184,347,104418,1,0,0:0:0:0:
228,356,104499,1,0,0:0:0:0:
272,352,104580,1,0,0:0:0:0:
314,336,104661,1,0,0:0:0:0:
351,309,104742,1,0,0:0:0:0:
378,274,104823,1,0,0:0:0:0:
395,233,104904,1,0,0:0:0:0:
401,188,104985,1,0,0:0:0:0:
394,144,105066,1,0,0:0:0:0:
375,103,105147,1,0,0:0:0:0:
346,69,105228,1,0,0:0:0:0:
309,44,105309,1,0,0:0:0:0:
267,29,105391,1,0,0:0:0:0:
222,27,105472,1,2,0:0:0:0:
140,132,105634,5,4,3:2:0:0:
153,174,105715,1,0,0:0:0:0:
186,204,105796,1,0,0:0:0:0:
230,210,105877,1,0,0:0:0:0:
268,188,105958,1,0,0:0:0:0:
298,154,106039,1,0,0:0:0:0:
311,111,106121,1,0,0:0:0:0:
344,81,106202,1,0,0:0:0:0:
388,75,106283,1,0,0:0:0:0:
426,97,106364,1,0,0:0:0:0:
456,130,106444,1,0,0:0:0:0:
462,174,106525,1,0,0:0:0:0:
440,212,106606,1,0,0:0:0:0:
406,242,106687,1,0,0:0:0:0:
363,255,106769,1,2,0:0:0:0:
376,160,106931,5,4,3:2:0:0:
340,132,107012,1,0,0:0:0:0:
297,119,107093,1,0,3:0:0:0:
253,124,107174,1,0,0:0:0:0:
213,145,107255,1,0,3:0:0:0:
185,179,107336,1,0,0:0:0:0:
171,222,107417,1,0,3:0:0:0:
175,267,107498,1,0,0:0:0:0:
195,307,107579,1,0,3:0:0:0:
228,336,107660,1,0,3:0:0:0:
271,351,107741,1,0,3:0:0:0:
315,349,107822,1,0,3:0:0:0:
356,330,107904,2,0,L|380:305,8,22.5,0|0|0|0|0|0|0|0|4,3:0|0:0|0:0|0:0|0:0|0:0|0:0|0:0|1:2,0:0:0:0:
