osu file format v14

[General]
AudioFilename: audio.mp3
AudioLeadIn: 0
PreviewTime: 85780
Countdown: 0
SampleSet: Soft
StackLeniency: 0.7
Mode: 2
LetterboxInBreaks: 0
WidescreenStoryboard: 0

[Editor]
Bookmarks: 2753,11834,13131,23510,33888,44267,54645,75402,107834,110429,113023,115618,118213,131186,141564,151942,162321,172699,183077,193456,196050,198645,209023,210321,211618,212915,214213,215510,216807,218104,220699,262213,272591,282969
DistanceSpacing: 1
BeatDivisor: 4
GridSize: 4
TimelineZoom: 2.5

[Metadata]
Title:Electric Butterfly
TitleUnicode:Electric Butterfly
Artist:t+pazolite
ArtistUnicode:t+pazolite
Creator:Kukkai
Version:Electric Shock
Source:
Tags:"Sister" Bitch ZUN Team Shanghai Alice SOUND VOLTEX II -infinite infection- sdvx U.N.オーエンは彼女なのか 東方紅魔郷 ~ the Embodiment of Scarlet Devil Le Raisin D'être Touhou project the Embodiment of Scarlet Devil Remix Song Contest eosd 東方紅魔郷リミックス楽曲コンテスト happy hardcore full long version ver c.h.s chs cutie headshaking sounds mpg The Best of tpz 2 the Best!!! electronic instrumental featured artist mappers' guild mg fa
BeatmapID:4439815
BeatmapSetID:2114419

[Difficulty]
HPDrainRate:5
CircleSize:4.3
OverallDifficulty:9.8
ApproachRate:9.8
SliderMultiplier:2.3
SliderTickRate:1

[Events]
//Background and Video events
0,0,"asda.png",0,0
//Break Periods
2,44474,54312
2,131393,141092
2,200149,205957
//Storyboard Layer 0 (Background)
//Storyboard Layer 1 (Fail)
//Storyboard Layer 2 (Pass)
//Storyboard Layer 3 (Foreground)
//Storyboard Layer 4 (Overlay)
//Storyboard Sound Samples

[TimingPoints]
166,324.324324324324,4,2,2,50,1,0
2760,-100,4,2,2,60,0,0
23517,-95.2380952380952,4,2,1,65,0,0
42976,-95.2380952380952,4,2,1,60,0,0
43301,-95.2380952380952,4,2,1,55,0,0
43626,-95.2380952380952,4,2,1,50,0,0
43949,-95.2380952380952,4,2,1,45,0,0
44274,-100,4,2,1,40,0,0
54652,-100,4,2,2,40,0,0
65030,-95.2380952380952,4,2,1,50,0,0
70220,-95.2380952380952,4,2,1,55,0,0
75409,-95.2380952380952,4,2,1,60,0,0
80598,-95.2380952380952,4,2,1,65,0,0
87084,-90.9090909090909,4,2,1,70,0,1
91949,-90.9090909090909,4,2,1,70,0,0
92274,-90.9090909090909,4,2,1,70,0,1
97138,-90.9090909090909,4,2,1,70,0,0
97463,-90.9090909090909,4,2,1,70,0,1
102328,-90.9090909090909,4,2,1,70,0,0
102652,-90.9090909090909,4,2,1,70,0,1
106544,-90.9090909090909,4,2,1,65,0,1
106787,-90.9090909090909,4,2,1,60,0,1
107030,-90.9090909090909,4,2,1,55,0,1
107274,-90.9090909090909,4,2,1,50,0,1
107517,-90.9090909090909,4,2,1,45,0,1
107841,-90.9090909090909,4,2,1,40,0,0
110436,-90.9090909090909,4,2,1,45,0,0
113030,-90.9090909090909,4,2,1,50,0,0
115625,-90.9090909090909,4,2,1,60,0,0
118220,-90.9090909090909,4,2,1,70,0,1
128598,-90.9090909090909,4,2,1,70,0,0
131193,-90.9090909090909,4,2,1,60,0,0
141571,-100,4,2,2,65,0,0
151949,-90.9090909090909,4,2,1,70,0,0
198652,-90.9090909090909,4,2,1,60,0,0
209030,-111.111111111111,4,2,1,40,0,0
210328,-105.263157894737,4,2,1,45,0,0
211625,-100,4,2,1,50,0,0
212922,-95.2380952380952,4,2,1,55,0,0
214220,-90.9090909090909,4,2,1,60,0,0
218111,-90.9090909090909,4,2,1,60,0,0
220706,-90.9090909090909,4,2,1,70,0,1
225571,-90.9090909090909,4,2,1,70,0,0
225895,-90.9090909090909,4,2,1,70,0,1
230760,-90.9090909090909,4,2,1,70,0,0
231084,-90.9090909090909,4,2,1,70,0,1
235949,-90.9090909090909,4,2,1,70,0,0
236274,-90.9090909090909,4,2,1,70,0,1
241138,-90.9090909090909,4,2,1,70,0,0
241463,-90.9090909090909,4,2,1,70,0,1
246328,-90.9090909090909,4,2,1,70,0,0
246652,-90.9090909090909,4,2,1,70,0,1
251517,-90.9090909090909,4,2,1,70,0,0
251841,-90.9090909090909,4,2,1,70,0,1
256706,-90.9090909090909,4,2,1,70,0,0
257030,-90.9090909090909,4,2,1,70,0,1
262220,-100,4,2,2,65,0,0
281679,-100,4,2,1,60,0,0
282004,-100,4,2,1,55,0,0
282329,-100,4,2,1,50,0,0
282652,-100,4,2,1,45,0,0
282977,-100,4,2,1,40,0,0

[Colours]
Combo1 : 255,164,255
Combo2 : 62,255,62
Combo3 : 255,6,255
Combo4 : 240,240,0

[HitObjects]
196,320,166,5,0,1:2:0:0:
24,320,328,1,0,0:0:0:0:
80,320,409,1,0,0:0:0:0:
260,320,490,1,8,0:2:0:0:
84,272,652,2,0,L|156:272,1,57.5,0|0,1:2|0:0,0:0:0:0:
312,204,814,6,0,L|228:204,1,57.5,0|0,0:0|0:0,0:0:0:0:
196,204,976,2,0,L|132:204,1,57.5,0|0,1:0|0:0,0:0:0:0:
340,208,1138,2,0,L|412:208,1,57.5,8|0,0:0|0:0,0:0:0:0:
192,156,1301,2,0,L|288:156,1,57.5,8|0,1:2|0:0,0:0:0:0:
44,304,1463,6,0,L|176:304,1,115,0|0,1:2|0:0,0:0:0:0:
104,304,1706,1,0,0:0:0:0:
288,252,1787,2,0,L|164:252,1,115,0|0,1:2|0:0,0:0:0:0:
116,252,2030,1,0,0:0:0:0:
296,188,2111,6,0,L|212:188,1,57.5,0|0,1:2|0:0,0:0:0:0:
296,188,2274,2,0,L|372:188,1,57.5,0|0,0:0|0:0,0:0:0:0:
168,116,2436,2,0,L|124:116,6,28.75,0|0|0|0|0|0|0,1:2|1:2|1:2|1:2|1:2|1:2|1:2,0:0:0:0:
364,360,2760,6,0,L|364:232,1,115,4|0,1:2|0:0,0:0:0:0:
204,236,3084,2,0,L|204:96,1,115,0|0,1:2|0:0,0:0:0:0:
44,116,3409,2,0,L|44:260,1,115,0|0,1:2|0:0,0:0:0:0:
204,244,3733,2,0,L|80:244,1,115,0|0,1:2|0:0,0:0:0:0:
248,248,4057,6,0,L|376:248,1,115,0|0,1:2|0:0,0:0:0:0:
200,248,4382,2,0,L|324:248,1,115,0|0,1:2|0:0,0:0:0:0:
156,252,4706,2,0,L|156:116,1,115,0|0,1:2|0:0,0:0:0:0:
316,132,5030,2,0,L|316:272,1,115,0|0,1:2|0:0,0:0:0:0:
476,252,5355,6,0,L|476:104,1,115,0|0,1:2|0:0,0:0:0:0:
316,136,5679,2,0,L|184:136,1,115,0|0,1:2|0:0,0:0:0:0:
360,136,6003,2,0,L|236:136,1,115,0|0,1:2|0:0,0:0:0:0:
408,140,6328,2,0,L|408:256,1,115,0|0,1:2|0:0,0:0:0:0:
248,256,6652,6,0,L|368:256,1,115,0|0,1:2|0:0,0:0:0:0:
204,252,6976,2,0,L|56:252,1,115,0|0,1:2|0:0,0:0:0:0:
252,252,7301,2,0,L|128:252,1,115,0|0,1:2|0:0,0:0:0:0:
296,252,7625,2,0,L|296:108,1,115,0|0,1:2|0:0,0:0:0:0:
40,332,7949,6,0,L|160:332,1,115,4|0,1:2|0:0,0:0:0:0:
316,336,8274,2,0,L|192:336,1,115,0|0,1:2|0:0,0:0:0:0:
352,336,8598,2,0,L|352:192,1,115,0|0,1:2|0:0,0:0:0:0:
204,220,8922,2,0,L|336:220,1,115,0|0,1:2|0:0,0:0:0:0:
168,220,9247,6,0,L|32:220,1,115,0|0,1:2|0:0,0:0:0:0:
200,232,9571,2,0,L|200:88,1,115,0|0,1:2|0:0,0:0:0:0:
360,124,9895,2,0,L|360:244,1,115,0|0,1:2|0:0,0:0:0:0:
200,240,10220,2,0,L|328:240,1,115,0|0,1:2|0:0,0:0:0:0:
156,240,10544,6,0,L|296:240,1,115,0|0,1:2|0:0,0:0:0:0:
432,240,10868,2,0,L|296:240,1,115,0|0,1:2|0:0,0:0:0:0:
480,240,11193,2,0,L|480:108,1,115,0|0,1:2|0:0,0:0:0:0:
320,128,11517,2,0,L|456:128,1,115,0|0,1:2|0:0,0:0:0:0:
176,368,11841,6,0,L|176:228,1,115,0|0,1:2|0:0,0:0:0:0:
268,244,12165,2,0,L|268:112,1,115,0|0,0:0|0:0,0:0:0:0:
360,128,12490,2,0,L|360:260,1,115,0|0,0:0|1:2,0:0:0:0:
304,244,12733,1,0,1:2:0:0:
136,244,12814,1,0,1:2:0:0:
312,156,12976,1,0,1:2:0:0:
44,320,13138,6,0,L|200:320,1,115,4|0,1:2|0:2,0:0:0:0:
224,320,13382,1,0,0:0:0:0:
159,320,13463,2,0,L|160:200,1,115,0|0,1:2|0:2,0:0:0:0:
224,204,13706,1,0,0:0:0:0:
288,204,13787,6,0,L|120:204,1,115,0|0,1:2|0:2,0:0:0:0:
108,204,14030,1,0,0:0:0:0:
173,204,14111,2,0,L|173:80,1,115,0|0,1:2|0:2,0:0:0:0:
108,92,14355,1,0,0:0:0:0:
312,376,14436,6,0,L|312:288,1,57.5,0|0,1:2|0:0,0:0:0:0:
248,320,14598,2,0,L|248:244,1,57.5,0|0,0:2|0:0,0:0:0:0:
312,260,14760,2,0,L|312:164,1,57.5,0|0,1:2|0:0,0:0:0:0:
248,196,14922,1,0,0:2:0:0:
312,200,15003,1,0,0:0:0:0:
248,196,15084,6,0,L|128:196,1,115,0|0,1:2|0:2,0:0:0:0:
196,200,15328,1,0,0:0:0:0:
133,196,15409,2,0,L|133:76,1,115,0|0,1:2|0:2,0:0:0:0:
196,80,15652,1,0,0:0:0:0:
408,328,15733,6,0,L|272:328,1,115,0|0,1:2|0:2,0:0:0:0:
228,328,15976,1,0,0:0:0:0:
293,328,16057,2,0,L|452:328,1,115,0|0,1:2|0:2,0:0:0:0:
344,328,16301,1,0,0:0:0:0:
408,328,16382,6,0,L|408:200,1,115,0|0,1:2|0:2,0:0:0:0:
344,212,16625,1,0,0:0:0:0:
408,213,16706,2,0,L|244:212,1,115,0|0,1:2|0:2,0:0:0:0:
228,212,16949,1,0,0:0:0:0:
376,136,17030,6,0,L|376:52,1,57.5,0|0,1:2|0:0,0:0:0:0:
312,80,17193,1,0,0:2:0:0:
248,80,17274,1,0,0:0:0:0:
312,80,17355,2,0,L|196:80,1,115,0|0,1:2|0:2,0:0:0:0:
360,368,17679,6,0,L|360:236,1,115,0|0,1:2|0:2,0:0:0:0:
296,252,17922,1,0,0:0:0:0:
360,253,18003,1,0,1:2:0:0:
424,252,18084,1,0,0:0:0:0:
360,253,18165,1,0,0:2:0:0:
424,252,18247,1,0,0:0:0:0:
252,184,18328,6,0,L|132:184,1,115,4|0,1:2|0:2,0:0:0:0:
200,184,18571,1,0,0:0:0:0:
137,184,18652,2,0,P|132:120|148:64,1,115,0|0,1:2|0:2,0:0:0:0:
208,72,18895,1,0,0:0:0:0:
272,72,18976,6,0,L|148:72,1,115,0|0,1:2|0:2,0:0:0:0:
236,72,19220,1,0,0:0:0:0:
172,68,19301,2,0,L|311:68,1,115,0|0,1:2|0:2,0:0:0:0:
352,68,19544,1,0,0:0:0:0:
172,360,19625,6,0,L|172:280,1,57.5,0|0,1:2|0:0,0:0:0:0:
236,304,19787,2,0,L|236:220,1,57.5,0|0,0:2|0:0,0:0:0:0:
172,248,19949,2,0,L|172:160,1,57.5,0|0,1:2|0:0,0:0:0:0:
236,188,20111,1,0,0:2:0:0:
172,188,20193,1,0,0:0:0:0:
236,188,20274,6,0,L|364:188,1,115,0|0,1:2|0:2,0:0:0:0:
288,188,20517,1,0,0:0:0:0:
351,188,20598,2,0,P|363:104|331:56,1,115,0|0,1:2|0:2,0:0:0:0:
288,80,20841,1,0,0:0:0:0:
116,284,20922,2,0,L|240:284,1,115,0|0,1:2|0:2,0:0:0:0:
168,284,21165,1,0,0:0:0:0:
231,284,21247,6,0,L|376:284,1,115,0|0,1:2|0:2,0:0:0:0:
284,284,21490,1,0,0:0:0:0:
346,284,21571,2,0,P|368:216|336:180,1,115,0|0,1:2|0:2,0:0:0:0:
284,184,21814,1,0,0:0:0:0:
345,185,21895,2,0,L|344:96,1,57.5,0|0,1:2|0:0,0:0:0:0:
280,128,22057,1,0,0:2:0:0:
344,128,22138,1,0,0:0:0:0:
136,340,22220,6,0,L|12:340,1,115,0|0,1:2|0:0,0:0:0:0:
256,264,22544,2,0,L|124:264,1,115,0|0,1:2|0:0,0:0:0:0:
372,192,22868,2,0,L|232:192,1,115,0|0,1:2|0:0,0:0:0:0:
496,100,23193,2,0,L|356:100,1,115,0|0,1:2|0:0,0:0:0:0:
152,280,23517,5,6,1:2:0:0:
284,279,23679,1,2,0:2:0:0:
40,232,23841,2,0,L|132:232,3,60.3749981575013,2|0|0|0,1:2|0:0|0:0|0:0,0:0:0:0:
252,176,24165,5,2,1:2:0:0:
119,176,24327,1,2,0:2:0:0:
360,208,24490,2,0,L|288:208,1,60.3749981575013,2|0,1:2|0:0,0:0:0:0:
360,208,24652,2,0,L|360:128,1,60.3749981575013,0|0,0:0|0:0,0:0:0:0:
192,360,24814,5,2,1:2:0:0:
59,360,24976,1,2,0:2:0:0:
300,320,25138,2,0,L|212:320,1,60.3749981575013,2|0,1:2|0:0,0:0:0:0:
300,320,25301,2,0,L|388:320,1,60.3749981575013,0|0,0:0|0:0,0:0:0:0:
208,192,25463,6,0,L|292:192,1,60.3749981575013,2|0,1:2|0:0,0:0:0:0:
328,192,25625,2,0,L|260:192,1,60.3749981575013,2|0,0:2|0:0,0:0:0:0:
419,108,25787,2,0,L|496:108,1,60.3749981575013,2|0,1:2|0:0,0:0:0:0:
419,108,25949,2,0,L|507:108,1,60.3749981575013,2|0,0:2|0:0,0:0:0:0:
280,279,26111,5,2,1:2:0:0:
412,280,26273,1,2,0:2:0:0:
172,283,26436,2,0,L|88:284,1,60.3749981575013,2|0,1:2|0:0,0:0:0:0:
172,223,26598,2,0,L|84:223,1,60.3749981575013,0|0,0:0|0:0,0:0:0:0:
272,160,26760,5,2,1:2:0:0:
139,160,26922,1,2,0:2:0:0:
380,104,27084,2,0,L|452:104,3,60.3749981575013,2|0|0|0,1:2|0:0|0:0|0:0,0:0:0:0:
280,328,27409,5,2,1:2:0:0:
412,328,27571,1,2,0:2:0:0:
172,336,27733,2,0,L|276:336,1,60.3749981575013,2|0,1:2|0:0,0:0:0:0:
292,336,27895,2,0,L|200:336,1,60.3749981575013,0|0,0:0|0:0,0:0:0:0:
76,248,28057,6,0,L|156:248,1,60.3749981575013,2|0,1:2|0:0,0:0:0:0:
76,248,28220,2,0,L|4:248,1,60.3749981575013,2|0,0:2|0:0,0:0:0:0:
172,184,28382,2,0,L|96:184,1,60.3749981575013,2|0,1:2|0:0,0:0:0:0:
52,184,28544,2,0,L|52:120,1,60.3749981575013,2|0,0:2|0:0,0:0:0:0:
236,340,28706,5,6,1:2:0:0:
103,340,28868,1,2,0:2:0:0:
352,276,29030,2,0,L|260:276,3,60.3749981575013,2|0|0|0,1:2|0:0|0:0|0:0,0:0:0:0:
104,204,29355,5,2,1:2:0:0:
236,204,29517,1,2,0:2:0:0:
8,172,29679,2,0,L|96:172,1,60.3749981575013,2|0,1:2|0:0,0:0:0:0:
128,172,29841,2,0,L|48:172,1,60.3749981575013,0|0,0:0|0:0,0:0:0:0:
232,348,30003,5,2,1:2:0:0:
99,348,30165,1,2,0:2:0:0:
340,348,30328,2,0,L|340:264,1,60.3749981575013,2|0,1:2|0:0,0:0:0:0:
276,284,30490,2,0,L|192:284,1,60.3749981575013,0|0,0:0|0:0,0:0:0:0:
352,200,30652,6,0,L|268:200,1,60.3749981575013,2|0,1:2|0:0,0:0:0:0:
352,200,30814,2,0,L|432:200,1,60.3749981575013,2|0,0:2|0:0,0:0:0:0:
260,140,30976,2,0,L|332:140,3,60.3749981575013,2|0|2|0,1:2|0:0|0:2|0:0,0:0:0:0:
488,320,31301,5,2,1:2:0:0:
355,320,31463,1,2,0:2:0:0:
104,316,31625,2,0,L|184:316,1,60.3749981575013,2|0,1:2|0:0,0:0:0:0:
104,316,31787,2,0,L|104:227,1,60.3749981575013,0|0,0:0|0:0,0:0:0:0:
260,196,31949,5,2,1:2:0:0:
128,194,32111,1,2,0:2:0:0:
376,128,32274,2,0,L|444:128,3,60.3749981575013,2|0|0|0,1:2|0:0|0:0|0:0,0:0:0:0:
252,364,32598,6,0,L|252:268,1,60.3749981575013,2|0,1:2|0:0,0:0:0:0:
316,304,32760,1,2,0:0:0:0:
316,360,32841,1,0,0:0:0:0:
120,224,32922,2,0,L|268:224,1,120.749996315003,10|2,0:0|1:2,0:0:0:0:
180,224,33165,1,0,0:0:0:0:
368,224,33247,6,0,P|392:156|332:120,1,120.749996315003,0|0,0:0|1:2,0:0:0:0:
216,128,33490,1,0,1:2:0:0:
364,68,33571,2,0,L|284:68,1,60.3749981575013,0|0,1:2|0:0,0:0:0:0:
124,72,33733,2,0,L|52:72,1,60.3749981575013,0|0,1:2|0:0,0:0:0:0:
277,265,33895,5,6,1:2:0:0:
144,264,34057,1,2,0:2:0:0:
204,264,34138,1,0,0:0:0:0:
360,192,34220,2,0,L|284:192,1,60.3749981575013,2|0,1:2|0:0,0:0:0:0:
239,192,34382,2,0,L|327:192,1,60.3749981575013,0|0,0:2|0:0,0:0:0:0:
140,140,34544,5,2,1:2:0:0:
272,140,34706,1,2,0:2:0:0:
212,140,34787,1,0,0:0:0:0:
64,200,34868,2,0,L|64:120,1,60.3749981575013,2|0,1:2|0:0,0:0:0:0:
124,200,35030,2,0,L|48:200,1,60.3749981575013,0|0,0:2|0:0,0:0:0:0:
232,364,35193,5,2,1:2:0:0:
100,364,35355,1,2,0:2:0:0:
160,368,35436,1,0,0:0:0:0:
308,364,35517,2,0,L|308:284,1,60.3749981575013,2|0,1:2|0:0,0:0:0:0:
244,288,35679,2,0,L|244:220,1,60.3749981575013,0|0,0:2|0:0,0:0:0:0:
404,228,35841,6,0,L|512:228,3,60.3749981575013,2|0|2|0,1:2|0:0|0:2|0:0,0:0:0:0:
304,163,36165,2,0,L|380:163,1,60.3749981575013,2|0,1:2|0:0,0:0:0:0:
202,164,36328,2,0,L|274:164,1,60.3749981575013,2|0,0:2|0:0,0:0:0:0:
444,100,36490,5,2,1:2:0:0:
312,100,36652,1,2,0:2:0:0:
252,100,36733,1,0,0:0:0:0:
424,332,36814,2,0,L|344:332,1,60.3749981575013,2|0,1:2|0:0,0:0:0:0:
424,332,36976,2,0,L|424:256,1,60.3749981575013,0|0,0:2|0:0,0:0:0:0:
260,208,37138,5,2,1:2:0:0:
392,212,37301,1,2,0:2:0:0:
332,212,37382,1,0,0:0:0:0:
144,140,37463,2,0,L|228:140,1,60.3749981575013,2|0,1:2|0:0,0:0:0:0:
144,140,37625,2,0,L|60:140,1,60.3749981575013,0|0,0:2|0:0,0:0:0:0:
248,320,37787,5,2,1:2:0:0:
380,320,37949,1,2,0:2:0:0:
320,324,38030,1,0,0:0:0:0:
176,280,38111,2,0,L|176:200,1,60.3749981575013,2|0,1:2|0:0,0:0:0:0:
244,220,38274,2,0,L|244:136,1,60.3749981575013,0|0,0:2|0:0,0:0:0:0:
83,140,38436,6,0,L|155:140,1,60.3749981575013,2|0,1:2|0:0,0:0:0:0:
203,140,38598,2,0,L|111:140,1,60.3749981575013,2|0,0:2|0:0,0:0:0:0:
344,136,38760,2,0,L|416:136,1,60.3749981575013,2|0,1:2|0:0,0:0:0:0:
256,64,38922,2,0,L|180:64,1,60.3749981575013,2|0,0:2|0:0,0:0:0:0:
52,304,39084,5,6,1:2:0:0:
184,304,39247,1,2,0:2:0:0:
244,308,39328,1,0,0:0:0:0:
76,264,39409,2,0,L|152:264,1,60.3749981575013,2|0,1:2|0:0,0:0:0:0:
76,264,39571,2,0,L|76:180,1,60.3749981575013,0|0,0:2|0:0,0:0:0:0:
244,212,39733,5,2,1:2:0:0:
112,216,39895,1,2,0:2:0:0:
172,216,39976,1,0,0:0:0:0:
320,152,40057,2,0,L|244:152,1,60.3749981575013,2|0,1:2|0:0,0:0:0:0:
200,152,40220,2,0,L|200:72,1,60.3749981575013,0|0,0:2|0:0,0:0:0:0:
360,92,40382,5,2,1:2:0:0:
228,88,40544,1,2,0:2:0:0:
288,88,40625,1,0,0:0:0:0:
436,200,40706,2,0,L|360:200,3,60.3749981575013,2|0|0|0,1:2|0:0|0:2|0:0,0:0:0:0:
216,328,41030,6,0,L|304:328,1,60.3749981575013,2|0,1:2|0:0,0:0:0:0:
216,328,41193,2,0,L|136:328,1,60.3749981575013,2|0,0:2|0:0,0:0:0:0:
312,288,41355,2,0,L|312:208,1,60.3749981575013,2|0,1:2|0:0,0:0:0:0:
128,220,41517,2,0,L|216:220,1,60.3749981575013,2|0,0:2|0:0,0:0:0:0:
380,152,41679,5,2,1:2:0:0:
248,152,41841,1,2,0:2:0:0:
308,152,41922,1,0,0:0:0:0:
456,72,42003,2,0,L|376:72,1,60.3749981575013,2|0,1:2|0:0,0:0:0:0:
336,72,42165,2,0,L|400:72,1,60.3749981575013,0|0,0:2|0:0,0:0:0:0:
236,256,42328,5,2,1:2:0:0:
104,256,42490,1,2,0:2:0:0:
164,256,42571,1,0,0:0:0:0:
348,192,42652,2,0,L|428:192,3,60.3749981575013,2|0|0|0,1:2|0:0|0:2|0:0,0:0:0:0:
220,352,42976,6,0,L|32:352,1,160.99999508667,2|0,0:2|0:0,0:0:0:0:
164,296,43301,2,0,B|288:296|288:296|288:224,1,160.99999508667,2|0,0:0|0:0,0:0:0:0:
180,244,43625,2,0,P|132:204|204:144,1,160.99999508667,2|0,0:0|0:0,0:0:0:0:
264,136,43949,2,0,L|264:316,1,160.99999508667,2|0,0:0|0:0,0:0:0:0:
32,296,44274,5,6,1:2:0:0:
236,192,54814,5,2,0:0:0:0:
120,196,54976,1,2,0:0:0:0:
352,196,55301,2,0,L|168:196,2,172.5,2|2|2,0:0|0:0|0:0,0:0:0:0:
180,204,56030,6,0,L|180:24,1,172.5,2|2,0:0|0:0,0:0:0:0:
296,32,56436,1,2,0:0:0:0:
180,36,56598,2,0,L|384:36,1,172.5,2|2,0:0|0:0,0:0:0:0:
148,312,57084,1,2,0:0:0:0:
384,328,57409,6,0,L|384:200,1,115,2|2,0:0|0:0,0:0:0:0:
160,176,57895,2,0,L|364:176,2,172.5,2|2|2,0:0|0:0|0:0,0:0:0:0:
332,196,58625,6,0,P|372:132|304:44,1,172.5,2|2,0:0|0:0,0:0:0:0:
216,56,59030,1,2,0:0:0:0:
332,52,59193,2,0,L|140:52,2,172.5,2|2|2,0:0|0:0|0:0,0:0:0:0:
64,308,60003,6,0,L|64:176,1,115,2|2,0:0|0:0,0:0:0:0:
296,192,60490,2,0,L|472:192,2,172.5,2|2|2,0:0|0:0|0:0,0:0:0:0:
124,196,61220,6,0,L|316:196,1,172.5,2|2,0:0|0:0,0:0:0:0:
180,196,61625,1,2,0:2:0:0:
296,196,61787,2,0,L|472:196,2,172.5,2|2|2,0:2|0:2|0:2,0:0:0:0:
52,336,62598,6,0,L|200:336,1,115,2|2,0:2|0:2,0:0:0:0:
396,332,63084,2,0,L|200:332,2,172.5,2|2|2,0:2|0:2|0:2,0:0:0:0:
216,240,63814,6,0,P|188:176|244:80,1,172.5,2|2,0:2|0:2,0:0:0:0:
404,88,64301,2,0,L|192:88,1,172.5,2|2,0:2|0:2,0:0:0:0:
460,88,64868,1,2,0:2:0:0:
200,348,65030,5,0,1:2:0:0:
140,348,65111,1,0,0:0:0:0:
140,288,65193,1,0,0:0:0:0:
220,284,65274,1,2,0:2:0:0:
280,284,65355,1,0,0:0:0:0:
280,224,65436,1,0,0:0:0:0:
200,160,65517,1,2,0:2:0:0:
140,160,65598,1,0,0:0:0:0:
200,160,65679,5,0,0:0:0:0:
280,116,65760,1,2,0:2:0:0:
340,116,65841,1,0,0:0:0:0:
280,116,65922,1,0,0:0:0:0:
200,160,66003,1,2,0:2:0:0:
200,100,66084,1,0,0:0:0:0:
280,116,66165,1,2,0:2:0:0:
284,56,66247,1,0,0:0:0:0:
100,320,66328,5,0,0:2:0:0:
100,260,66409,1,0,0:0:0:0:
160,260,66490,1,0,0:0:0:0:
240,260,66571,1,2,0:2:0:0:
240,200,66652,1,0,0:0:0:0:
180,200,66733,1,0,0:0:0:0:
260,152,66814,1,2,0:2:0:0:
320,152,66895,1,0,0:0:0:0:
320,92,66976,5,0,0:0:0:0:
240,92,67057,1,2,0:2:0:0:
180,92,67138,1,0,0:0:0:0:
180,32,67220,1,0,0:0:0:0:
256,344,67301,1,2,0:2:0:0:
256,284,67382,1,0,0:0:0:0:
176,276,67463,1,2,0:2:0:0:
176,276,67544,1,0,0:0:0:0:
356,188,67625,5,0,0:2:0:0:
295,188,67706,1,0,0:0:0:0:
235,188,67787,1,0,0:0:0:0:
156,136,67868,1,2,0:2:0:0:
216,136,67949,1,0,0:0:0:0:
276,136,68030,1,0,0:0:0:0:
356,132,68111,2,0,L|356:60,1,60.3749981575013,2|0,0:2|0:0,0:0:0:0:
296,72,68274,5,0,0:0:0:0:
216,76,68355,2,0,L|144:76,2,60.3749981575013,2|0|0,0:2|0:0|0:0,0:0:0:0:
292,336,68598,2,0,L|220:336,1,60.3749981575013,2|0,0:2|0:0,0:0:0:0:
152,332,68760,2,0,L|152:264,1,60.3749981575013,2|0,0:2|0:0,0:0:0:0:
336,224,68922,5,0,0:2:0:0:
396,228,69003,2,0,L|396:140,1,60.3749981575013,0|0,0:0|0:0,0:0:0:0:
316,156,69165,1,2,0:2:0:0:
376,152,69247,2,0,L|376:80,1,60.3749981575013,0|0,0:0|0:0,0:0:0:0:
296,92,69409,1,2,0:2:0:0:
235,92,69490,1,0,0:0:0:0:
175,92,69571,5,0,0:0:0:0:
256,40,69652,1,2,0:2:0:0:
316,40,69733,1,0,0:0:0:0:
376,40,69814,1,0,0:0:0:0:
300,368,69895,2,0,L|300:272,1,60.3749981575013,2|0,0:2|0:0,0:0:0:0:
384,272,70057,2,0,L|384:204,1,60.3749981575013,2|0,0:2|0:0,0:0:0:0:
200,224,70220,5,0,0:2:0:0:
139,224,70301,1,0,0:0:0:0:
79,224,70382,1,0,0:0:0:0:
160,164,70463,1,2,0:2:0:0:
99,164,70544,1,0,0:0:0:0:
39,164,70625,1,0,0:0:0:0:
120,108,70706,1,2,0:2:0:0:
180,108,70787,6,0,L|180:28,1,60.3749981575013,0|0,0:0|0:0,0:0:0:0:
100,52,70949,1,2,0:2:0:0:
40,56,71030,2,0,L|40:116,1,60.3749981575013,0|0,0:0|0:0,0:0:0:0:
120,364,71193,2,0,L|180:364,1,60.3749981575013,2|0,0:2|0:0,0:0:0:0:
104,308,71355,2,0,L|43:308,1,60.3749981575013,2|0,0:2|0:0,0:0:0:0:
228,220,71517,5,0,0:2:0:0:
288,220,71598,1,0,0:0:0:0:
348,220,71679,1,0,0:0:0:0:
272,156,71760,1,2,0:2:0:0:
332,156,71841,1,0,0:0:0:0:
392,156,71922,1,0,0:0:0:0:
312,104,72003,1,2,0:2:0:0:
251,104,72084,1,0,0:0:0:0:
191,104,72165,5,0,0:0:0:0:
264,52,72247,1,2,0:2:0:0:
203,52,72328,1,0,0:0:0:0:
143,52,72409,1,0,0:0:0:0:
224,320,72490,2,0,L|224:252,1,60.3749981575013,2|0,0:2|0:0,0:0:0:0:
144,236,72652,2,0,L|144:160,1,60.3749981575013,2|0,0:2|0:0,0:0:0:0:
328,344,72814,6,0,L|408:344,2,60.3749981575013,0|0|0,0:2|0:0|0:0,0:0:0:0:
248,264,73057,2,0,L|152:264,2,60.3749981575013,2|0|0,0:2|0:0|0:0,0:0:0:0:
328,192,73301,1,2,0:2:0:0:
267,192,73382,1,0,0:0:0:0:
207,192,73463,5,0,0:0:0:0:
288,136,73544,1,2,0:2:0:0:
227,136,73625,1,0,0:0:0:0:
167,136,73706,1,0,0:0:0:0:
244,88,73787,2,0,L|332:88,1,60.3749981575013,2|0,0:2|0:0,0:0:0:0:
224,40,73949,2,0,L|296:40,1,60.3749981575013,2|0,0:2|0:0,0:0:0:0:
128,344,74111,6,0,L|56:344,2,60.3749981575013,0|0|0,0:2|0:0|0:0,0:0:0:0:
212,288,74355,1,2,0:2:0:0:
151,288,74436,1,0,0:0:0:0:
91,288,74517,1,0,0:0:0:0:
180,224,74598,1,2,0:2:0:0:
240,224,74679,6,0,L|240:144,1,60.3749981575013,0|0,0:0|0:0,0:0:0:0:
160,168,74841,1,2,0:2:0:0:
100,168,74922,2,0,L|100:80,1,60.3749981575013,0|0,0:0|0:0,0:0:0:0:
180,104,75084,2,0,L|244:104,1,60.3749981575013,2|0,0:2|0:0,0:0:0:0:
164,48,75247,2,0,L|100:48,1,60.3749981575013,0|0,0:0|0:0,0:0:0:0:
288,360,75409,6,0,L|368:360,2,60.3749981575013,12|0|0,1:2|0:0|0:0,0:0:0:0:
208,284,75652,2,0,L|120:284,2,60.3749981575013,0|8|0,0:2|0:2|0:0,0:0:0:0:
376,228,75895,6,0,L|376:152,1,60.3749981575013,0|0,0:2|0:0,0:0:0:0:
308,164,76057,1,8,0:2:0:0:
228,164,76138,2,0,L|228:84,1,60.3749981575013,0|0,0:2|0:0,0:0:0:0:
296,104,76301,1,0,0:0:0:0:
120,352,76382,6,0,L|52:352,1,60.3749981575013,10|0,0:2|0:0,0:0:0:0:
240,280,76544,2,0,L|340:280,1,60.3749981575013,2|0,0:2|0:0,0:0:0:0:
116,216,76706,6,0,L|116:136,1,60.3749981575013,8|0,1:2|0:0,0:0:0:0:
184,156,76868,1,0,0:0:0:0:
264,152,76949,1,2,0:2:0:0:
203,152,77030,1,8,0:2:0:0:
143,152,77111,1,0,0:0:0:0:
304,92,77193,6,0,L|368:92,2,60.3749981575013,2|0|8,0:2|0:0|1:2,0:0:0:0:
224,44,77436,1,2,0:2:0:0:
285,44,77517,1,0,0:0:0:0:
345,44,77598,1,0,1:2:0:0:
164,364,77679,6,0,L|88:364,1,60.3749981575013,10|0,1:2|0:0,0:0:0:0:
288,288,77841,2,0,L|204:288,1,60.3749981575013,10|0,1:2|0:0,0:0:0:0:
48,236,78003,5,12,1:2:0:0:
108,236,78084,1,0,0:0:0:0:
168,236,78165,1,0,0:0:0:0:
88,184,78247,2,0,L|16:184,2,60.3749981575013,2|8|0,0:2|0:0|0:0,0:0:0:0:
264,184,78490,5,2,0:2:0:0:
203,184,78571,1,0,0:0:0:0:
143,184,78652,1,8,0:2:0:0:
224,132,78733,1,2,0:2:0:0:
284,132,78814,1,0,0:0:0:0:
344,132,78895,1,0,0:0:0:0:
160,344,78976,6,0,L|236:344,1,60.3749981575013,10|0,0:2|0:0,0:0:0:0:
408,272,79138,2,0,L|408:200,1,60.3749981575013,2|0,0:2|0:0,0:0:0:0:
212,244,79301,6,0,L|212:160,1,60.3749981575013,8|0,1:2|0:0,0:0:0:0:
280,188,79463,1,0,0:0:0:0:
200,136,79544,2,0,L|200:72,1,60.3749981575013,2|8,0:2|0:0,0:0:0:0:
268,80,79706,1,0,0:0:0:0:
424,280,79787,5,2,0:2:0:0:
363,280,79868,1,0,0:0:0:0:
303,280,79949,1,8,1:2:0:0:
384,216,80030,2,0,L|468:216,2,60.3749981575013,2|0|0,0:2|0:0|1:2,0:0:0:0:
204,220,80274,6,0,L|128:220,1,60.3749981575013,10|0,1:2|0:0,0:0:0:0:
324,160,80436,2,0,L|392:160,1,60.3749981575013,10|0,1:2|0:0,0:0:0:0:
160,348,80598,5,12,1:2:0:0:
99,348,80679,1,0,0:0:0:0:
39,348,80760,1,8,0:2:0:0:
200,296,80841,2,0,L|200:224,1,60.3749981575013,0|8,0:0|0:2,0:0:0:0:
132,240,81003,1,0,0:0:0:0:
296,192,81084,5,8,0:2:0:0:
356,192,81165,1,0,0:0:0:0:
416,192,81246,1,8,0:2:0:0:
256,144,81328,2,0,L|256:72,1,60.3749981575013,0|8,0:0|0:2,0:0:0:0:
324,84,81490,1,0,0:0:0:0:
136,328,81571,6,0,L|216:328,1,60.3749981575013,8|0,0:2|0:0,0:0:0:0:
384,256,81733,2,0,L|452:256,1,60.3749981575013,8|0,1:2|0:0,0:0:0:0:
260,200,81895,5,12,1:2:0:0:
320,200,81976,1,0,0:0:0:0:
380,200,82057,1,8,0:2:0:0:
220,136,82138,2,0,L|144:136,2,60.3749981575013,0|8|0,0:0|0:2|0:0,0:0:0:0:
384,72,82382,5,8,0:2:0:0:
323,72,82463,1,0,0:0:0:0:
263,72,82544,1,8,0:2:0:0:
424,24,82625,1,0,0:0:0:0:
363,24,82706,1,8,0:2:0:0:
303,24,82787,1,0,0:0:0:0:
124,328,82868,6,0,L|40:328,1,60.3749981575013,8|0,0:2|0:0,0:0:0:0:
244,264,83030,2,0,L|316:264,1,60.3749981575013,8|0,1:2|0:0,0:0:0:0:
120,192,83193,5,0,1:2:0:0:
284,188,83274,2,0,L|284:112,1,60.3749981575013,8|8,0:2|0:2,0:0:0:0:
120,128,83436,1,8,0:2:0:0:
276,84,83517,2,0,L|368:84,1,60.3749981575013,8|8,0:2|0:2,0:0:0:0:
488,80,83679,1,8,0:2:0:0:
328,252,83760,6,0,L|328:176,1,60.3749981575013,8|0,0:2|1:2,0:0:0:0:
488,80,83922,1,8,0:2:0:0:
328,252,84003,2,0,L|232:252,1,60.3749981575013,8|8,0:2|0:2,0:0:0:0:
80,192,84165,6,0,L|184:192,1,60.3749981575013,8|8,0:2|0:2,0:0:0:0:
328,180,84328,2,0,L|412:180,1,60.3749981575013,8|8,0:2|0:2,0:0:0:0:
136,340,84490,5,0,1:2:0:0:
75,340,84571,1,8,0:2:0:0:
15,340,84652,1,8,0:2:0:0:
224,280,84733,1,0,1:2:0:0:
163,280,84814,1,8,0:2:0:0:
103,280,84895,1,8,0:2:0:0:
312,232,84976,5,0,1:2:0:0:
372,232,85057,1,8,0:2:0:0:
192,228,85138,1,8,0:2:0:0:
360,168,85220,1,0,1:2:0:0:
420,168,85301,1,8,0:2:0:0:
236,172,85382,1,8,0:2:0:0:
424,112,85463,6,0,L|344:112,1,60.3749981575013,0|8,1:2|0:2,0:0:0:0:
176,112,85625,2,0,L|104:112,1,60.3749981575013,0|8,1:2|0:2,0:0:0:0:
300,368,85787,6,0,P|320:300|276:260,1,120.749996315003,2|2,0:2|0:2,0:0:0:0:
232,264,86030,1,2,0:2:0:0:
292,272,86111,1,2,0:2:0:0:
140,200,86274,1,2,0:2:0:0:
200,200,86355,1,2,0:2:0:0:
140,200,86436,2,0,L|356:200,1,160.99999508667,2|2,0:2|0:2,1:0:0:0:
124,368,86760,6,0,L|88:368,6,30.1874990787506,0|0|0|0|0|2|0,1:2|1:2|1:2|1:2|1:2|1:2|1:2,0:0:0:0:
340,304,87084,6,0,L|428:304,2,63.2500019302369,6|0|0,1:2|0:0|0:0,0:0:0:0:
176,256,87328,1,0,0:0:0:0:
239,255,87409,1,2,1:2:0:0:
302,254,87490,1,0,0:0:0:0:
136,188,87571,5,0,0:0:0:0:
300,188,87652,1,0,0:0:0:0:
236,188,87733,1,2,1:2:0:0:
71,146,87814,1,0,0:0:0:0:
237,141,87895,1,0,0:0:0:0:
300,138,87976,1,0,0:0:0:0:
462,95,88057,6,0,L|387:95,1,63.2500019302369,2|0,1:2|0:0,0:0:0:0:
214,87,88220,2,0,L|135:87,1,63.2500019302369,2|0,0:2|0:0,0:0:0:0:
343,350,88382,5,2,1:2:0:0:
178,344,88463,1,0,0:0:0:0:
241,344,88544,1,0,0:0:0:0:
404,287,88625,1,0,0:0:0:0:
467,289,88706,1,2,1:2:0:0:
404,287,88787,1,0,0:0:0:0:
240,235,88868,5,0,0:0:0:0:
303,236,88949,1,0,0:0:0:0:
139,174,89030,1,2,1:2:0:0:
76,176,89111,1,0,0:0:0:0:
139,174,89193,1,0,0:0:0:0:
308,168,89274,1,0,0:0:0:0:
136,124,89355,6,0,L|35:123,1,63.2500019302369,2|0,1:2|0:0,0:0:0:0:
260,64,89517,2,0,L|175:63,1,63.2500019302369,2|0,0:2|0:0,0:0:0:0:
396,356,89679,5,2,1:2:0:0:
396,296,89760,1,0,0:0:0:0:
332,296,89841,1,0,0:0:0:0:
164,304,89922,1,0,0:0:0:0:
100,307,90003,1,2,1:2:0:0:
100,243,90084,1,0,0:0:0:0:
266,187,90165,5,0,0:0:0:0:
96,128,90247,2,0,L|171:127,1,63.2500019302369,0|2,0:0|1:2,0:0:0:0:
324,125,90409,1,0,0:0:0:0:
160,202,90490,2,0,L|241:203,1,63.2500019302369,0|0,0:0|0:0,0:0:0:0:
391,204,90652,6,0,L|465:204,1,63.2500019302369,2|0,1:2|0:0,0:0:0:0:
289,119,90814,2,0,L|221:119,1,63.2500019302369,2|0,0:2|0:0,0:0:0:0:
408,360,90976,6,0,L|499:362,2,63.2500019302369,2|0|0,1:2|0:0|0:0,0:0:0:0:
241,295,91220,2,0,L|160:295,2,63.2500019302369,0|2|0,0:0|1:2|0:0,0:0:0:0:
433,228,91463,6,0,L|433:151,1,63.2500019302369,0|0,0:0|0:0,0:0:0:0:
369,165,91625,1,2,1:2:0:0:
182,120,91706,1,0,0:0:0:0:
245,120,91787,1,0,0:0:0:0:
308,120,91868,1,0,0:0:0:0:
115,119,91949,6,0,L|34:118,1,63.2500019302369,2|0,1:2|0:0,0:0:0:0:
240,62,92111,2,0,L|162:62,1,63.2500019302369,2|0,1:2|0:0,0:0:0:0:
384,212,92274,5,6,1:2:0:0:
320,212,92355,1,0,0:0:0:0:
256,212,92436,1,0,0:0:0:0:
422,138,92517,1,0,0:0:0:0:
486,138,92598,1,2,1:2:0:0:
422,138,92679,1,0,0:0:0:0:
255,332,92760,5,0,0:0:0:0:
420,285,92841,1,0,0:0:0:0:
356,285,92922,1,2,1:2:0:0:
189,290,93003,1,0,0:0:0:0:
354,226,93084,1,0,0:0:0:0:
417,226,93165,1,0,0:0:0:0:
247,167,93247,6,0,L|147:166,1,63.2500019302369,2|0,1:2|0:0,0:0:0:0:
350,95,93409,2,0,L|256:94,1,63.2500019302369,2|0,0:2|0:0,0:0:0:0:
100,328,93571,5,2,1:2:0:0:
264,324,93652,1,0,0:0:0:0:
328,324,93733,1,0,0:0:0:0:
164,256,93814,1,0,0:0:0:0:
328,256,93895,1,2,1:2:0:0:
392,256,93976,1,0,0:0:0:0:
228,184,94057,5,0,0:0:0:0:
64,128,94138,2,0,L|148:128,1,63.2500019302369,0|2,0:0|1:2,0:0:0:0:
296,120,94301,1,0,0:0:0:0:
464,64,94382,2,0,L|376:64,1,63.2500019302369,0|0,0:0|0:0,0:0:0:0:
236,188,94544,6,0,L|320:188,1,63.2500019302369,2|0,1:2|0:0,0:0:0:0:
132,152,94706,2,0,L|56:152,1,63.2500019302369,2|0,0:2|0:0,0:0:0:0:
256,356,94868,5,2,1:2:0:0:
192,356,94949,1,0,0:0:0:0:
128,356,95030,1,0,0:0:0:0:
292,288,95111,1,0,0:0:0:0:
356,288,95193,1,2,1:2:0:0:
356,224,95274,1,0,0:0:0:0:
192,212,95355,5,0,0:0:0:0:
356,168,95436,1,0,0:0:0:0:
292,168,95517,1,2,1:2:0:0:
128,244,95598,1,0,0:0:0:0:
296,120,95679,1,0,0:0:0:0:
232,120,95760,1,0,0:0:0:0:
396,352,95841,5,2,1:2:0:0:
428,352,95881,1,0,1:0:0:0:
453,334,95922,1,0,1:0:0:0:
463,304,95962,1,0,1:2:0:0:
454,274,96003,1,0,1:0:0:0:
430,255,96043,1,0,1:0:0:0:
398,254,96084,1,0,1:0:0:0:
220,256,96165,5,10,1:2:0:0:
380,200,96247,2,0,L|380:128,1,63.2500019302369,0|0,0:0|0:0,0:0:0:0:
188,256,96409,1,10,1:2:0:0:
352,200,96490,2,0,L|352:108,1,63.2500019302369,0|0,0:0|0:0,0:0:0:0:
188,196,96652,5,10,1:2:0:0:
24,180,96733,2,0,L|24:88,1,63.2500019302369,0|0,0:0|0:0,0:0:0:0:
216,196,96895,1,10,1:2:0:0:
52,180,96976,2,0,L|52:100,1,63.2500019302369,0|0,0:0|0:0,0:0:0:0:
240,116,97138,6,0,L|168:116,1,63.2500019302369,10|0,1:2|0:0,0:0:0:0:
364,64,97301,2,0,L|440:64,1,63.2500019302369,10|0,1:2|0:0,0:0:0:0:
236,320,97463,5,6,1:2:0:0:
300,320,97544,1,0,0:0:0:0:
364,320,97625,1,0,0:0:0:0:
196,264,97706,1,0,0:0:0:0:
260,264,97787,1,2,1:2:0:0:
324,264,97868,1,0,0:0:0:0:
152,204,97949,5,0,0:0:0:0:
312,196,98030,2,0,L|208:196,1,63.2500019302369,0|2,0:0|1:2,0:0:0:0:
80,136,98193,1,0,0:0:0:0:
256,136,98274,2,0,L|168:136,1,63.2500019302369,0|0,0:0|0:0,0:0:0:0:
368,84,98436,6,0,L|472:84,1,63.2500019302369,2|0,1:2|0:0,0:0:0:0:
248,136,98598,2,0,L|248:44,1,63.2500019302369,2|0,0:2|0:0,0:0:0:0:
436,264,98760,5,2,1:2:0:0:
268,264,98841,2,0,L|164:264,1,63.2500019302369,0|0,0:0|0:0,0:0:0:0:
376,212,99003,2,0,L|452:212,2,63.2500019302369,0|2|0,0:0|1:2|0:0,0:0:0:0:
192,164,99247,6,0,L|124:164,2,63.2500019302369,0|0|2,0:0|0:0|1:2,0:0:0:0:
376,116,99490,1,0,0:0:0:0:
312,116,99571,1,0,0:0:0:0:
249,116,99652,1,0,0:0:0:0:
440,116,99733,6,0,L|440:40,1,63.2500019302369,2|0,1:2|0:0,0:0:0:0:
252,116,99895,2,0,L|344:116,1,63.2500019302369,2|0,0:2|0:0,0:0:0:0:
120,352,100057,5,2,1:2:0:0:
183,352,100138,1,0,0:0:0:0:
246,352,100219,1,0,0:0:0:0:
412,268,100301,1,0,0:0:0:0:
348,268,100382,1,2,1:2:0:0:
285,268,100463,1,0,0:0:0:0:
452,212,100544,5,0,0:0:0:0:
284,212,100625,2,0,L|184:212,1,63.2500019302369,0|2,0:0|1:2,0:0:0:0:
52,208,100787,1,0,0:0:0:0:
228,212,100868,2,0,L|296:212,1,63.2500019302369,0|0,0:0|0:0,0:0:0:0:
116,96,101030,6,0,L|28:96,1,63.2500019302369,2|0,1:2|0:0,0:0:0:0:
240,92,101193,2,0,L|312:92,1,63.2500019302369,2|0,0:2|0:0,0:0:0:0:
108,280,101355,6,0,L|16:280,2,63.2500019302369,2|0|0,1:2|0:0|0:0,0:0:0:0:
276,280,101598,2,0,L|188:280,2,63.2500019302369,0|2|0,0:0|1:2|0:0,0:0:0:0:
440,224,101841,5,0,0:0:0:0:
376,224,101922,1,0,0:0:0:0:
313,224,102003,1,2,1:2:0:0:
488,156,102084,1,0,0:0:0:0:
424,156,102165,1,0,0:0:0:0:
361,156,102246,1,0,0:0:0:0:
168,152,102328,6,0,L|88:152,1,63.2500019302369,2|0,1:2|0:0,0:0:0:0:
296,84,102490,2,0,L|204:84,1,63.2500019302369,2|0,1:2|0:0,0:0:0:0:
48,352,102652,6,0,L|48:280,1,63.2500019302369,6|0,1:2|0:0,0:0:0:0:
112,292,102814,1,0,0:0:0:0:
276,220,102895,1,0,0:0:0:0:
212,220,102976,1,2,1:2:0:0:
149,220,103057,1,0,0:0:0:0:
316,156,103138,5,0,0:0:0:0:
484,152,103220,2,0,L|400:152,1,63.2500019302369,0|2,0:0|1:2,0:0:0:0:
252,108,103382,1,0,0:0:0:0:
424,96,103463,2,0,L|344:96,1,63.2500019302369,0|0,0:0|0:0,0:0:0:0:
168,360,103625,6,0,L|168:264,1,63.2500019302369,2|0,1:2|0:0,0:0:0:0:
360,292,103787,2,0,L|436:292,1,63.2500019302369,2|0,0:2|0:0,0:0:0:0:
232,220,103949,5,2,1:2:0:0:
400,160,104030,2,0,L|312:160,1,63.2500019302369,0|0,0:0|0:0,0:0:0:0:
168,168,104193,1,0,0:0:0:0:
336,96,104274,2,0,L|256:96,1,63.2500019302369,2|0,1:2|0:0,0:0:0:0:
108,100,104436,5,0,0:0:0:0:
272,96,104517,2,0,L|376:96,1,63.2500019302369,0|2,0:0|1:2,0:0:0:0:
500,32,104679,1,0,0:0:0:0:
336,332,104760,2,0,L|416:332,1,63.2500019302369,0|0,0:0|0:0,0:0:0:0:
208,304,104922,6,0,L|128:304,1,63.2500019302369,2|0,1:2|0:0,0:0:0:0:
336,240,105084,2,0,L|416:240,1,63.2500019302369,2|0,0:2|0:0,0:0:0:0:
200,176,105247,6,0,L|200:104,1,63.2500019302369,2|0,1:2|0:0,0:0:0:0:
360,104,105409,2,0,L|288:104,1,63.2500019302369,0|0,1:2|0:0,0:0:0:0:
464,44,105571,6,0,L|396:44,1,63.2500019302369,2|0,1:2|0:0,0:0:0:0:
232,264,105733,2,0,L|312:264,1,63.2500019302369,0|0,1:2|0:0,0:0:0:0:
128,228,105895,6,0,L|36:228,1,63.2500019302369,2|0,1:2|0:0,0:0:0:0:
236,164,106057,2,0,L|320:164,1,63.2500019302369,0|0,1:2|0:0,0:0:0:0:
472,96,106220,6,0,L|400:96,1,63.2500019302369,2|0,1:2|1:0,0:0:0:0:
232,96,106382,2,0,L|160:96,1,63.2500019302369,0|0,1:0|1:0,0:0:0:0:
360,324,106544,5,10,1:2:0:0:
296,324,106625,1,0,0:0:0:0:
233,324,106706,1,0,0:0:0:0:
400,256,106787,1,10,1:2:0:0:
336,256,106868,1,0,0:0:0:0:
273,256,106949,1,0,0:0:0:0:
432,196,107030,6,0,L|500:196,2,63.2500019302369,10|0|0,1:2|0:0|0:0,0:0:0:0:
264,204,107274,1,10,1:2:0:0:
327,204,107355,1,0,0:0:0:0:
390,204,107436,1,0,0:0:0:0:
208,164,107517,6,0,L|208:96,1,63.2500019302369,10|0,1:2|0:0,0:0:0:0:
372,104,107679,2,0,L|372:20,1,63.2500019302369,10|0,1:2|0:0,0:0:0:0:
176,296,107841,5,4,1:2:0:0:
148,241,107922,1,0,0:0:0:0:
176,187,108003,1,0,0:0:0:0:
240,188,108084,1,0,0:0:0:0:
304,188,108165,1,0,1:2:0:0:
340,140,108246,1,0,0:0:0:0:
311,88,108327,1,0,0:0:0:0:
248,88,108409,1,0,0:0:0:0:
184,88,108490,5,0,1:2:0:0:
184,149,108571,1,0,0:0:0:0:
227,194,108652,1,0,0:0:0:0:
289,196,108733,1,0,0:0:0:0:
376,200,108814,2,0,L|376:128,1,63.2500019302369,0|0,1:2|0:0,0:0:0:0:
292,152,108976,2,0,L|292:56,1,63.2500019302369,0|0,0:0|0:0,0:0:0:0:
464,360,109138,5,0,1:2:0:0:
443,301,109219,1,0,0:0:0:0:
393,263,109300,1,0,0:0:0:0:
331,260,109381,1,0,0:0:0:0:
268,268,109463,1,0,1:2:0:0:
215,238,109544,1,0,0:0:0:0:
215,177,109625,1,0,0:0:0:0:
268,148,109706,1,0,0:0:0:0:
332,148,109787,5,0,1:2:0:0:
389,132,109868,1,0,0:0:0:0:
395,72,109949,1,0,0:0:0:0:
342,46,110030,1,0,0:0:0:0:
252,48,110111,2,0,L|252:120,1,63.2500019302369,0|0,1:2|0:0,0:0:0:0:
340,48,110274,2,0,L|340:128,1,63.2500019302369,0|0,0:0|0:0,0:0:0:0:
144,304,110436,6,0,L|68:304,2,63.2500019302369,0|0|0,1:2|0:0|0:0,0:0:0:0:
212,252,110679,2,0,L|136:252,2,63.2500019302369,0|0|0,0:0|1:2|0:0,0:0:0:0:
300,256,110922,6,0,L|300:184,1,63.2500019302369,0|0,0:0|0:0,0:0:0:0:
236,192,111084,1,0,1:2:0:0:
320,148,111165,2,0,L|396:148,2,63.2500019302369,0|0|0,0:0|0:0|0:0,0:0:0:0:
232,120,111409,6,0,L|232:32,1,63.2500019302369,0|0,1:2|0:0,0:0:0:0:
324,56,111571,2,0,L|408:56,1,63.2500019302369,0|0,0:0|0:0,0:0:0:0:
196,336,111733,6,0,L|196:260,1,63.2500019302369,0|0,1:2|0:0,0:0:0:0:
260,276,111895,1,0,0:0:0:0:
176,232,111976,1,0,0:0:0:0:
112,232,112057,2,0,L|112:148,1,63.2500019302369,0|0,1:2|0:0,0:0:0:0:
200,116,112220,5,0,0:0:0:0:
136,116,112301,1,0,0:0:0:0:
73,116,112382,1,0,1:2:0:0:
156,56,112463,2,0,L|240:56,2,63.2500019302369,0|0|0,0:0|0:0|0:0,0:0:0:0:
72,60,112706,6,0,L|72:132,1,63.2500019302369,0|0,1:2|0:0,0:0:0:0:
160,56,112868,2,0,L|84:56,1,63.2500019302369,0|0,1:2|0:0,0:0:0:0:
300,276,113030,6,0,L|224:276,2,63.2500019302369,4|0|0,1:2|0:0|0:0,0:0:0:0:
364,212,113274,1,0,0:0:0:0:
300,210,113355,1,0,1:2:0:0:
237,208,113436,1,0,0:0:0:0:
444,156,113517,6,0,L|444:84,1,63.2500019302369,0|0,0:0|0:0,0:0:0:0:
380,92,113679,1,0,1:2:0:0:
444,92,113760,2,0,L|512:92,2,63.2500019302369,0|0|0,0:0|0:0|0:0,0:0:0:0:
280,344,114003,6,0,L|192:344,1,63.2500019302369,0|0,1:2|0:0,0:0:0:0:
384,268,114165,2,0,L|288:268,1,63.2500019302369,0|0,0:0|0:0,0:0:0:0:
144,196,114328,5,0,1:2:0:0:
207,196,114409,1,0,0:0:0:0:
270,196,114490,1,0,0:0:0:0:
208,136,114571,1,0,0:0:0:0:
271,136,114652,1,0,1:2:0:0:
334,136,114733,1,0,0:0:0:0:
152,316,114814,6,0,L|76:316,2,63.2500019302369,0|0|0,0:0|0:0|1:2,0:0:0:0:
88,316,115057,2,0,L|20:316,2,63.2500019302369,0|0|0,0:0|0:0|0:0,0:0:0:0:
244,264,115301,6,0,L|156:264,1,63.2500019302369,0|0,1:2|0:0,0:0:0:0:
352,200,115463,2,0,L|276:200,1,63.2500019302369,0|0,0:0|0:0,0:0:0:0:
96,144,115625,6,0,L|20:144,2,63.2500019302369,0|0|0,1:2|0:0|0:0,0:0:0:0:
260,88,115868,1,0,0:0:0:0:
196,88,115949,1,0,1:2:0:0:
133,88,116030,1,0,0:0:0:0:
320,256,116111,5,0,0:0:0:0:
320,256,116192,1,0,0:0:0:0:
256,260,116274,1,0,1:2:0:0:
428,304,116355,1,0,0:0:0:0:
492,304,116436,1,0,0:0:0:0:
428,304,116517,1,0,0:0:0:0:
212,180,116598,5,0,1:2:0:0:
244,180,116638,1,0,1:2:0:0:
276,180,116679,1,0,1:2:0:0:
307,180,116719,1,0,1:2:0:0:
339,180,116760,1,0,1:2:0:0:
371,180,116800,1,0,1:2:0:0:
402,180,116841,1,0,1:2:0:0:
180,332,116922,5,8,1:2:0:0:
16,328,117003,2,0,L|100:328,1,63.2500019302369,0|0,0:0|0:0,0:0:0:0:
248,328,117165,1,8,1:2:0:0:
80,248,117247,2,0,L|164:248,1,63.2500019302369,0|0,0:0|0:0,0:0:0:0:
308,252,117409,5,8,1:2:0:0:
476,212,117490,2,0,L|376:212,1,63.2500019302369,0|0,0:0|0:0,0:0:0:0:
248,208,117652,1,8,1:2:0:0:
416,160,117733,2,0,L|340:160,1,63.2500019302369,0|0,0:0|0:0,0:0:0:0:
164,156,117895,6,0,L|88:156,1,63.2500019302369,8|0,1:2|0:0,0:0:0:0:
296,68,118057,2,0,L|192:68,1,63.2500019302369,8|0,1:2|0:0,0:0:0:0:
428,276,118220,5,6,1:2:0:0:
364,276,118301,1,0,0:0:0:0:
301,276,118382,1,0,0:0:0:0:
136,272,118463,1,0,0:0:0:0:
296,276,118544,2,0,L|392:276,1,63.2500019302369,2|0,1:2|0:0,0:0:0:0:
188,240,118706,2,0,L|188:172,1,63.2500019302369,0|0,0:0|0:0,0:0:0:0:
372,156,118868,5,2,1:2:0:0:
192,92,118949,1,0,0:0:0:0:
256,92,119030,1,0,0:0:0:0:
319,92,119111,1,0,0:0:0:0:
140,44,119193,2,0,L|72:44,1,63.2500019302369,2|0,1:2|0:0,0:0:0:0:
268,176,119355,2,0,L|188:176,1,63.2500019302369,2|0,0:2|0:0,0:0:0:0:
396,112,119517,6,0,L|472:112,2,63.2500019302369,2|0|0,1:2|0:0|0:0,0:0:0:0:
208,308,119760,1,0,0:0:0:0:
396,172,119841,2,0,L|296:172,1,63.2500019302369,2|0,1:2|0:0,0:0:0:0:
168,132,120003,2,0,L|240:132,1,63.2500019302369,0|0,0:0|0:0,0:0:0:0:
60,88,120165,5,2,1:2:0:0:
231,132,120247,2,0,L|320:132,2,63.2500019302369,0|0|0,0:0|0:0|0:0,0:0:0:0:
64,292,120490,2,0,L|64:224,1,63.2500019302369,2|0,1:2|0:0,0:0:0:0:
236,232,120652,2,0,L|324:232,1,63.2500019302369,2|0,0:2|0:0,0:0:0:0:
108,156,120814,5,2,1:2:0:0:
171,156,120895,1,0,0:0:0:0:
234,156,120976,1,0,0:0:0:0:
424,156,121057,1,0,0:0:0:0:
234,156,121138,2,0,L|136:156,1,63.2500019302369,2|0,1:2|0:0,0:0:0:0:
340,88,121301,2,0,L|260:88,1,63.2500019302369,0|0,0:0|0:0,0:0:0:0:
440,52,121463,5,2,1:2:0:0:
264,48,121544,2,0,L|148:48,2,63.2500019302369,0|0|0,0:0|0:0|0:0,0:0:0:0:
456,96,121787,2,0,L|456:176,1,63.2500019302369,2|0,1:2|0:0,0:0:0:0:
292,248,121949,2,0,L|368:248,1,63.2500019302369,2|0,0:2|0:0,0:0:0:0:
184,184,122111,5,2,1:2:0:0:
120,184,122192,1,0,0:0:0:0:
57,184,122273,1,0,0:0:0:0:
228,128,122355,1,0,0:0:0:0:
60,128,122436,2,0,L|60:60,1,63.2500019302369,2|0,1:2|0:0,0:0:0:0:
228,60,122598,2,0,L|140:60,1,63.2500019302369,0|0,0:0|0:0,0:0:0:0:
336,60,122760,5,2,1:2:0:0:
168,200,122841,2,0,L|52:200,2,63.2500019302369,0|0|0,0:0|0:0|0:0,0:0:0:0:
356,200,123084,2,0,L|356:128,1,63.2500019302369,2|0,1:2|0:0,0:0:0:0:
168,200,123247,2,0,L|168:120,1,63.2500019302369,2|0,1:2|0:0,0:0:0:0:
364,88,123409,5,14,1:2:0:0:
300,88,123490,1,0,0:0:0:0:
237,88,123571,1,8,0:2:0:0:
424,40,123652,1,0,0:0:0:0:
237,88,123733,2,0,L|144:88,1,63.2500019302369,10|0,1:2|0:0,0:0:0:0:
340,32,123895,2,0,L|264:32,1,63.2500019302369,8|0,0:2|0:0,0:0:0:0:
112,240,124057,5,10,1:2:0:0:
280,244,124138,2,0,L|280:176,1,63.2500019302369,0|8,0:0|0:2,0:0:0:0:
216,184,124301,1,0,0:0:0:0:
396,120,124382,2,0,L|300:120,1,63.2500019302369,10|0,1:2|0:0,0:0:0:0:
144,128,124544,2,0,L|68:128,1,63.2500019302369,10|0,0:2|0:0,0:0:0:0:
272,356,124706,6,0,L|364:356,2,63.2500019302369,10|0|8,1:2|0:0|0:2,0:0:0:0:
436,244,124949,1,0,0:0:0:0:
272,248,125030,2,0,L|192:248,1,63.2500019302369,10|0,1:2|0:0,0:0:0:0:
392,104,125193,2,0,L|308:104,1,63.2500019302369,8|0,0:2|0:0,0:0:0:0:
160,108,125355,5,10,1:2:0:0:
328,48,125436,1,0,0:0:0:0:
264,48,125517,1,8,0:2:0:0:
96,48,125598,1,0,0:0:0:0:
288,352,125679,2,0,L|204:352,1,63.2500019302369,10|0,1:2|0:0,0:0:0:0:
412,304,125841,2,0,L|496:304,1,63.2500019302369,10|0,0:2|0:0,0:0:0:0:
296,240,126003,5,10,1:2:0:0:
116,184,126084,2,0,L|224:184,1,63.2500019302369,8|8,0:2|1:2,0:0:0:0:
352,120,126247,1,8,0:2:0:0:
180,120,126328,2,0,L|180:24,1,63.2500019302369,10|8,1:2|0:2,0:0:0:0:
352,52,126490,1,8,1:2:0:0:
180,120,126571,1,8,0:2:0:0:
16,240,126652,5,10,1:2:0:0:
184,236,126733,1,8,0:2:0:0:
352,172,126814,2,0,L|256:172,1,63.2500019302369,8|8,1:2|0:2,0:0:0:0:
84,364,126976,1,10,1:2:0:0:
54,353,127016,1,8,1:2:0:0:
34,329,127057,1,8,1:2:0:0:
30,298,127097,1,8,1:2:0:0:
41,269,127138,1,8,1:2:0:0:
66,250,127178,1,8,1:2:0:0:
97,246,127219,1,8,1:2:0:0:
336,336,127301,5,10,1:2:0:0:
400,336,127382,1,0,0:0:0:0:
463,336,127463,1,0,0:0:0:0:
272,212,127544,1,10,1:2:0:0:
336,212,127625,1,0,0:0:0:0:
399,212,127706,1,0,0:0:0:0:
208,152,127787,1,10,1:2:0:0:
145,152,127868,1,0,0:0:0:0:
82,152,127949,5,0,0:0:0:0:
284,92,128030,1,10,1:2:0:0:
221,92,128111,1,0,0:0:0:0:
158,92,128192,1,0,0:0:0:0:
360,248,128274,2,0,L|452:248,1,63.2500019302369,10|0,1:2|0:0,0:0:0:0:
236,180,128436,2,0,L|324:180,1,63.2500019302369,10|0,1:2|0:0,0:0:0:0:
112,264,128598,5,4,1:2:0:0:
112,264,128760,1,0,0:0:0:0:
240,264,128922,1,0,0:0:0:0:
112,264,129084,1,0,0:0:0:0:
360,192,129247,5,0,1:2:0:0:
232,192,129409,1,0,0:0:0:0:
360,192,129571,1,0,0:0:0:0:
488,192,129733,1,0,0:0:0:0:
224,324,129895,6,0,L|184:324,14,31.6250009651184,0|0|0|0|0|0|0|0|0|0|0|0|0|0|0,1:0|3:0|3:0|3:0|3:0|3:0|3:0|3:0|3:0|3:0|3:0|3:0|3:0|3:0|3:0,0:0:0:0:
416,332,130544,5,8,0:0:0:0:
445,321,130584,1,0,3:0:0:0:
465,297,130625,1,0,3:0:0:0:
470,266,130665,1,0,3:0:0:0:
459,237,130706,1,0,3:0:0:0:
435,217,130746,1,0,3:0:0:0:
404,211,130787,1,0,3:0:0:0:
208,144,130868,5,0,1:0:0:0:
239,144,130908,1,0,3:0:0:0:
271,144,130949,1,0,3:0:0:0:
302,144,130989,1,0,3:0:0:0:
334,144,131030,1,0,3:0:0:0:
366,144,131070,1,0,3:0:0:0:
397,144,131111,1,0,3:0:0:0:
136,224,131193,5,4,1:2:0:0:
80,364,141571,6,0,L|48:128,1,230,0|8,1:2|0:2,0:0:0:0:
232,132,142220,2,0,L|232:368,1,230,8|8,0:0|0:0,0:0:0:0:
416,368,142868,6,0,L|428:124,1,230,8|8,0:0|0:0,0:0:0:0:
244,148,143517,2,0,L|436:0,1,230,8|8,0:0|0:0,0:0:0:0:
248,48,144165,6,0,L|28:220,1,230,8|8,0:0|0:0,0:0:0:0:
256,212,144814,2,0,L|248:-36,1,230,8|8,0:0|0:0,0:0:0:0:
448,292,145463,6,0,L|204:292,1,230,8|8,0:0|0:0,0:0:0:0:
424,288,146111,2,0,P|488:208|380:120,1,230,8|8,0:0|0:0,0:0:0:0:
112,344,146760,6,0,L|112:224,1,115,8|8,0:0|0:0,0:0:0:0:
284,240,147084,2,0,L|284:112,1,115,8|8,0:0|0:0,0:0:0:0:
456,120,147409,6,0,L|456:272,1,115,8|8,0:0|0:0,0:0:0:0:
284,240,147733,2,0,L|404:240,1,115,8|8,0:0|0:0,0:0:0:0:
228,240,148057,6,0,L|96:240,1,115,8|8,0:0|0:0,0:0:0:0:
288,244,148382,2,0,L|288:96,1,115,8|8,0:0|0:0,0:0:0:0:
116,132,148706,6,0,L|272:132,1,115,8|8,0:0|0:0,0:0:0:0:
60,136,149030,2,0,L|60:16,1,115,8|8,0:0|0:0,0:0:0:0:
296,348,149355,6,0,L|228:348,1,57.5,8|8,0:0|0:0,0:0:0:0:
180,348,149517,2,0,L|180:268,1,57.5,8|8,0:0|0:0,0:0:0:0:
360,200,149679,2,0,L|460:200,1,57.5,8|8,0:0|0:0,0:0:0:0:
476,200,149841,2,0,L|400:200,1,57.5,8|8,0:0|0:0,0:0:0:0:
244,156,150003,6,0,L|244:68,1,57.5,8|8,0:0|0:0,0:0:0:0:
300,100,150165,2,0,L|300:16,1,57.5,8|8,0:0|0:0,0:0:0:0:
128,276,150328,2,0,L|44:276,1,57.5,8|8,0:0|0:0,0:0:0:0:
70,276,150490,2,0,L|156:280,1,57.5,8|8,0:0|0:0,0:0:0:0:
312,368,150652,6,0,L|312:280,1,57.5,0|8,1:2|0:0,0:0:0:0:
248,308,150814,1,8,0:0:0:0:
312,308,150895,1,8,0:0:0:0:
248,308,150976,1,8,0:0:0:0:
184,308,151057,1,8,0:0:0:0:
120,308,151138,1,8,0:0:0:0:
184,312,151220,1,8,0:0:0:0:
360,228,151301,5,8,0:0:0:0:
424,228,151382,1,8,0:0:0:0:
488,228,151463,1,8,0:0:0:0:
424,228,151544,1,8,0:0:0:0:
248,168,151625,1,8,0:0:0:0:
184,168,151706,1,8,0:0:0:0:
360,104,151787,1,8,0:0:0:0:
424,104,151868,1,8,0:0:0:0:
224,308,151949,6,0,L|392:308,1,126.500003860474,6|0,1:2|0:0,0:0:0:0:
288,308,152193,2,0,L|456:308,1,126.500003860474,0|0,0:0|0:0,0:0:0:0:
252,364,152436,2,0,L|152:364,1,63.2500019302369,0|0,0:0|0:0,0:0:0:0:
344,240,152598,6,0,L|180:240,1,126.500003860474,2|0,1:2|0:0,0:0:0:0:
280,240,152841,2,0,L|420:240,1,126.500003860474,0|0,0:0|0:0,0:0:0:0:
260,280,153084,2,0,L|168:280,1,63.2500019302369,0|0,0:0|0:0,0:0:0:0:
40,212,153247,6,0,L|196:212,1,126.500003860474,2|0,1:2|0:0,0:0:0:0:
166,212,153490,2,0,L|18:212,1,126.500003860474,0|0,0:0|0:0,0:0:0:0:
196,156,153733,2,0,L|288:156,1,63.2500019302369,0|0,0:0|0:0,0:0:0:0:
64,292,153895,6,0,L|196:292,1,126.500003860474,2|0,1:2|0:0,0:0:0:0:
344,232,154138,2,0,L|172:232,1,126.500003860474,2|0,0:2|0:0,0:0:0:0:
376,168,154382,2,0,L|448:168,1,63.2500019302369,2|0,0:2|0:0,0:0:0:0:
260,308,154544,6,0,L|120:308,1,126.500003860474,2|0,1:2|0:0,0:0:0:0:
196,308,154787,2,0,L|40:308,1,126.500003860474,0|0,0:0|0:0,0:0:0:0:
228,240,155030,2,0,L|228:120,1,63.2500019302369,0|0,0:0|0:0,0:0:0:0:
72,132,155193,6,0,L|232:132,1,126.500003860474,2|0,1:2|0:0,0:0:0:0:
136,128,155436,2,0,L|312:128,1,126.500003860474,0|0,0:0|0:0,0:0:0:0:
104,60,155679,2,0,L|188:60,1,63.2500019302369,0|0,0:0|0:0,0:0:0:0:
324,324,155841,6,0,L|188:324,1,126.500003860474,2|0,1:2|0:0,0:0:0:0:
360,328,156084,2,0,P|396:268|340:240,1,126.500003860474,2|0,0:2|0:0,0:0:0:0:
168,240,156328,2,0,L|244:240,1,63.2500019302369,2|0,0:2|0:0,0:0:0:0:
392,168,156490,6,0,L|260:168,1,126.500003860474,2|0,1:2|0:0,0:0:0:0:
468,76,156733,2,0,L|292:76,1,126.500003860474,2|0,0:2|0:0,0:0:0:0:
136,48,156976,2,0,L|56:48,1,63.2500019302369,2|0,0:2|0:0,0:0:0:0:
232,316,157138,6,0,L|368:316,1,126.500003860474,4|0,1:2|0:0,0:0:0:0:
296,316,157382,2,0,L|108:316,1,126.500003860474,0|0,0:0|0:0,0:0:0:0:
324,244,157625,2,0,L|400:244,1,63.2500019302369,0|0,0:0|0:0,0:0:0:0:
224,180,157787,6,0,L|76:180,1,126.500003860474,2|0,1:2|0:0,0:0:0:0:
160,176,158030,2,0,L|24:176,1,126.500003860474,0|0,0:0|0:0,0:0:0:0:
192,116,158274,2,0,L|280:116,1,63.2500019302369,0|0,0:0|0:0,0:0:0:0:
416,56,158436,6,0,L|256:56,1,126.500003860474,2|0,1:2|0:0,0:0:0:0:
352,52,158679,2,0,L|488:52,1,126.500003860474,0|0,0:0|0:0,0:0:0:0:
320,328,158922,2,0,L|232:328,1,63.2500019302369,0|0,0:0|0:0,0:0:0:0:
72,260,159084,6,0,L|232:260,1,126.500003860474,2|0,1:2|0:0,0:0:0:0:
360,184,159328,2,0,L|208:184,1,126.500003860474,2|0,0:2|0:0,0:0:0:0:
72,256,159571,2,0,L|172:256,1,63.2500019302369,2|0,0:2|0:0,0:0:0:0:
300,188,159733,6,0,L|124:188,1,126.500003860474,2|0,1:2|0:0,0:0:0:0:
173,188,159976,2,0,L|312:188,1,126.500003860474,0|0,0:0|0:0,0:0:0:0:
464,192,160220,2,0,L|464:104,1,63.2500019302369,0|0,0:0|0:0,0:0:0:0:
280,88,160382,6,0,L|412:88,1,126.500003860474,2|0,1:2|0:0,0:0:0:0:
344,88,160625,2,0,L|196:88,1,126.500003860474,0|0,0:0|0:0,0:0:0:0:
380,316,160868,2,0,L|380:236,1,63.2500019302369,0|0,0:0|0:0,0:0:0:0:
188,184,161030,6,0,L|336:184,1,126.500003860474,2|0,1:2|0:0,0:0:0:0:
120,128,161274,2,0,L|264:128,1,126.500003860474,2|0,0:2|0:0,0:0:0:0:
440,132,161517,2,0,L|352:132,1,63.2500019302369,2|0,0:2|0:0,0:0:0:0:
184,364,161679,5,10,0:2:0:0:
153,371,161719,1,0,3:2:0:0:
121,369,161760,1,0,3:2:0:0:
92,358,161800,1,0,3:2:0:0:
67,338,161841,1,0,3:2:0:0:
50,312,161881,1,0,3:2:0:0:
41,282,161922,1,0,3:2:0:0:
232,268,162003,5,2,1:2:0:0:
261,256,162043,1,0,3:2:0:0:
280,232,162084,1,0,3:2:0:0:
285,201,162124,1,0,3:2:0:0:
274,172,162165,1,0,3:2:0:0:
250,152,162205,1,0,3:2:0:0:
219,147,162246,1,0,3:2:0:0:
32,92,162328,6,0,L|188:92,1,126.500003860474,6|0,1:2|0:0,0:0:0:0:
220,88,162571,2,0,L|76:88,1,126.500003860474,0|0,0:0|0:0,0:0:0:0:
252,204,162814,2,0,L|360:204,1,63.2500019302369,0|0,0:0|0:0,0:0:0:0:
472,148,162976,6,0,L|328:148,1,126.500003860474,2|0,1:2|0:0,0:0:0:0:
408,148,163220,2,0,L|260:148,1,126.500003860474,0|0,0:0|0:0,0:0:0:0:
436,108,163463,2,0,L|436:28,1,63.2500019302369,0|0,0:0|0:0,0:0:0:0:
272,296,163625,6,0,L|428:296,1,126.500003860474,2|0,1:2|0:0,0:0:0:0:
336,296,163868,2,0,L|184:296,1,126.500003860474,0|0,0:0|0:0,0:0:0:0:
40,300,164111,2,0,L|136:300,1,63.2500019302369,0|0,0:0|0:0,0:0:0:0:
296,232,164274,6,0,L|156:232,1,126.500003860474,2|0,1:2|0:0,0:0:0:0:
332,172,164517,2,0,P|360:108|304:72,1,126.500003860474,2|0,0:2|0:0,0:0:0:0:
152,80,164760,2,0,L|60:80,1,63.2500019302369,2|0,0:2|0:0,0:0:0:0:
248,356,164922,6,0,L|392:356,1,126.500003860474,2|0,1:2|0:0,0:0:0:0:
312,360,165165,2,0,L|456:360,1,126.500003860474,0|0,0:0|0:0,0:0:0:0:
272,288,165409,2,0,L|188:288,1,63.2500019302369,0|0,0:0|0:0,0:0:0:0:
372,212,165571,6,0,L|220:212,1,126.500003860474,2|0,1:2|0:0,0:0:0:0:
184,212,165814,2,0,L|320:212,1,126.500003860474,0|0,0:0|0:0,0:0:0:0:
484,136,166057,2,0,L|392:136,1,63.2500019302369,0|0,0:0|0:0,0:0:0:0:
224,136,166220,6,0,L|80:136,1,126.500003860474,2|0,1:2|0:0,0:0:0:0:
288,248,166463,2,0,L|136:248,1,126.500003860474,2|0,0:2|0:0,0:0:0:0:
352,336,166706,2,0,L|352:264,1,63.2500019302369,2|0,0:2|0:0,0:0:0:0:
104,360,166868,6,0,P|72:300|124:268,1,126.500003860474,2|0,1:2|0:0,0:0:0:0:
276,212,167111,2,0,L|120:212,1,126.500003860474,2|0,0:2|0:0,0:0:0:0:
316,144,167355,2,0,L|384:144,1,63.2500019302369,2|0,0:2|0:0,0:0:0:0:
200,104,167517,6,0,L|48:104,1,126.500003860474,4|0,1:2|0:0,0:0:0:0:
136,104,167760,2,0,L|-12:104,1,126.500003860474,0|0,0:0|0:0,0:0:0:0:
172,232,168003,2,0,L|256:232,1,63.2500019302369,0|0,0:0|0:0,0:0:0:0:
72,180,168165,6,0,L|224:180,1,126.500003860474,2|0,1:2|0:0,0:0:0:0:
136,180,168409,2,0,L|264:180,1,126.500003860474,0|0,0:0|0:0,0:0:0:0:
100,112,168652,2,0,L|-8:112,1,63.2500019302369,0|0,0:0|0:0,0:0:0:0:
200,108,168814,6,0,L|336:108,1,126.500003860474,2|0,1:2|0:0,0:0:0:0:
388,108,169057,2,0,L|240:108,1,126.500003860474,0|0,0:0|0:0,0:0:0:0:
428,60,169301,2,0,L|500:60,1,63.2500019302369,0|0,0:0|0:0,0:0:0:0:
296,248,169463,6,0,L|160:248,1,126.500003860474,2|0,1:2|0:0,0:0:0:0:
332,196,169706,2,0,L|480:196,1,126.500003860474,2|0,0:2|0:0,0:0:0:0:
292,132,169949,2,0,L|196:132,1,63.2500019302369,2|0,0:2|0:0,0:0:0:0:
48,328,170111,6,0,L|228:328,1,126.500003860474,2|0,1:2|0:0,0:0:0:0:
112,324,170355,2,0,L|276:324,1,126.500003860474,0|0,0:0|0:0,0:0:0:0:
80,240,170598,2,0,L|184:240,1,63.2500019302369,0|0,0:0|0:0,0:0:0:0:
304,152,170760,6,0,L|156:152,1,126.500003860474,2|0,1:2|0:0,0:0:0:0:
177,152,171003,2,0,L|328:152,1,126.500003860474,0|0,0:0|0:0,0:0:0:0:
468,156,171247,2,0,L|396:156,1,63.2500019302369,0|0,0:0|0:0,0:0:0:0:
216,360,171409,6,0,P|188:292|248:268,1,126.500003860474,2|0,1:2|0:0,0:0:0:0:
284,264,171652,1,2,0:2:0:0:
448,216,171733,6,0,L|484:216,2,31.6250009651184,0|0|0,1:2|0:0|0:0,0:0:0:0:
284,220,171895,2,0,L|232:220,2,31.6250009651184,2|0|0,0:2|0:0|0:0,0:0:0:0:
448,216,172057,5,2,3:2:0:0:
466,190,172097,1,0,0:0:0:0:
472,159,172138,1,0,0:0:0:0:
464,129,172178,1,0,0:0:0:0:
444,104,172219,1,0,0:0:0:0:
416,90,172259,1,0,0:0:0:0:
385,89,172300,1,0,0:0:0:0:
200,304,172382,5,2,3:2:0:0:
231,304,172422,1,0,3:2:0:0:
263,304,172463,1,0,3:2:0:0:
294,304,172503,1,0,3:2:0:0:
326,304,172544,1,0,3:2:0:0:
358,304,172584,1,0,3:2:0:0:
389,304,172625,1,0,3:2:0:0:
192,252,172706,6,0,P|168:184|208:148,1,126.500003860474,6|0,1:2|0:0,0:0:0:0:
372,156,172949,1,2,0:2:0:0:
308,156,173030,2,0,L|308:72,1,63.2500019302369,0|0,1:2|0:0,0:0:0:0:
488,84,173193,2,0,L|408:84,1,63.2500019302369,2|0,0:2|0:0,0:0:0:0:
240,296,173355,6,0,L|400:296,1,126.500003860474,2|0,1:2|0:0,0:0:0:0:
192,228,173598,2,0,L|120:228,2,63.2500019302369,2|0|0,0:2|1:0|0:0,0:0:0:0:
368,180,173841,2,0,L|452:180,1,63.2500019302369,2|0,0:2|0:0,0:0:0:0:
236,120,174003,6,0,L|100:120,1,126.500003860474,2|0,1:2|0:0,0:0:0:0:
288,64,174247,1,2,0:2:0:0:
224,64,174328,1,0,1:2:0:0:
161,64,174409,1,0,0:0:0:0:
328,252,174490,2,0,L|408:252,1,63.2500019302369,2|0,0:2|0:0,0:0:0:0:
200,192,174652,6,0,L|368:192,1,126.500003860474,2|0,1:2|0:0,0:0:0:0:
152,144,174895,2,0,L|16:144,1,126.500003860474,2|0,0:2|0:0,0:0:0:0:
204,80,175138,2,0,L|120:80,1,63.2500019302369,2|0,0:2|0:0,0:0:0:0:
332,364,175301,6,0,P|356:300|276:276,1,126.500003860474,2|0,1:2|0:0,0:0:0:0:
144,272,175544,1,2,0:2:0:0:
207,272,175625,1,0,1:2:0:0:
270,272,175706,1,0,0:0:0:0:
104,216,175787,2,0,L|32:216,1,63.2500019302369,2|0,0:2|0:0,0:0:0:0:
212,164,175949,6,0,L|68:164,1,126.500003860474,2|0,1:2|0:0,0:0:0:0:
256,164,176193,2,0,L|256:92,1,63.2500019302369,2|0,0:2|1:0,0:0:0:0:
192,100,176355,1,0,0:0:0:0:
364,100,176436,2,0,L|464:100,1,63.2500019302369,2|0,0:2|0:0,0:0:0:0:
232,368,176598,6,0,P|200:296|272:268,1,126.500003860474,2|0,1:2|0:0,0:0:0:0:
400,268,176841,2,0,P|436:208|376:180,1,126.500003860474,2|0,0:2|0:0,0:0:0:0:
224,176,177084,2,0,L|320:176,1,63.2500019302369,2|0,0:2|0:0,0:0:0:0:
104,112,177247,6,0,L|260:112,1,126.500003860474,2|0,1:2|0:0,0:0:0:0:
56,52,177490,2,0,L|192:52,1,126.500003860474,2|0,0:2|0:0,0:0:0:0:
368,288,177733,2,0,L|460:288,1,63.2500019302369,2|0,0:2|0:0,0:0:0:0:
240,240,177895,6,0,L|408:240,1,126.500003860474,4|0,1:2|0:0,0:0:0:0:
188,164,178138,2,0,L|112:164,2,63.2500019302369,2|0|0,0:2|1:2|0:0,0:0:0:0:
368,112,178382,2,0,L|256:112,1,63.2500019302369,2|0,0:2|0:0,0:0:0:0:
112,352,178544,6,0,P|88:288|140:248,1,126.500003860474,2|0,1:2|0:0,0:0:0:0:
308,248,178787,1,2,0:2:0:0:
244,248,178868,1,0,1:2:0:0:
181,248,178949,1,0,0:0:0:0:
356,196,179030,2,0,L|448:196,1,63.2500019302369,2|0,0:2|0:0,0:0:0:0:
236,148,179193,6,0,L|400:148,1,126.500003860474,2|0,1:2|0:0,0:0:0:0:
192,88,179436,1,2,0:2:0:0:
128,88,179517,1,0,1:2:0:0:
64,88,179598,1,0,0:0:0:0:
252,80,179679,2,0,L|340:80,1,63.2500019302369,2|0,0:2|0:0,0:0:0:0:
88,236,179841,6,0,P|56:172|100:136,1,126.500003860474,2|0,1:2|0:0,0:0:0:0:
280,312,180084,1,2,0:2:0:0:
216,312,180165,1,0,1:2:0:0:
153,312,180246,1,0,0:0:0:0:
360,264,180328,2,0,L|272:264,1,63.2500019302369,2|0,0:2|0:0,0:0:0:0:
496,244,180490,6,0,L|340:244,1,126.500003860474,2|0,1:2|0:0,0:0:0:0:
196,180,180733,1,2,0:2:0:0:
259,180,180814,1,0,1:2:0:0:
322,180,180895,1,0,0:0:0:0:
148,116,180976,2,0,L|48:116,1,63.2500019302369,2|0,0:2|0:0,0:0:0:0:
276,364,181138,6,0,P|308:304|260:276,1,126.500003860474,2|0,1:2|0:0,0:0:0:0:
88,272,181382,2,0,L|24:272,2,63.2500019302369,2|0|0,0:2|1:0|0:0,0:0:0:0:
280,360,181625,2,0,L|384:360,1,63.2500019302369,2|0,0:2|0:0,0:0:0:0:
152,288,181787,6,0,L|328:288,1,126.500003860474,2|0,1:2|0:0,0:0:0:0:
464,228,182030,2,0,L|304:228,1,126.500003860474,2|0,0:2|0:0,0:0:0:0:
148,224,182274,2,0,L|60:224,1,63.2500019302369,2|0,0:2|0:0,0:0:0:0:
304,360,182436,5,2,3:2:0:0:
335,361,182476,1,0,3:2:0:0:
366,356,182517,1,0,3:2:0:0:
395,344,182557,1,0,3:2:0:0:
422,326,182598,1,0,3:2:0:0:
443,304,182638,1,0,3:2:0:0:
460,277,182679,1,0,3:2:0:0:
272,272,182760,5,2,3:2:0:0:
240,275,182800,1,0,3:2:0:0:
209,271,182841,1,0,3:2:0:0:
179,261,182881,1,0,3:2:0:0:
152,244,182922,1,0,3:2:0:0:
130,221,182962,1,0,3:2:0:0:
114,194,183003,1,0,3:2:0:0:
308,196,183084,6,0,P|344:136|284:100,1,126.500003860474,6|0,1:2|0:0,0:0:0:0:
148,100,183328,1,2,0:2:0:0:
84,100,183409,2,0,L|84:20,1,63.2500019302369,0|0,1:2|0:0,0:0:0:0:
248,316,183571,2,0,L|332:316,1,63.2500019302369,2|0,0:2|0:0,0:0:0:0:
480,256,183733,6,0,L|336:256,1,126.500003860474,2|0,1:2|0:0,0:0:0:0:
180,204,183976,1,2,0:2:0:0:
243,204,184057,1,0,1:2:0:0:
306,204,184138,1,0,0:0:0:0:
132,144,184220,2,0,L|56:144,1,63.2500019302369,2|0,0:2|0:0,0:0:0:0:
260,144,184382,6,0,L|116:144,1,126.500003860474,2|0,1:2|0:0,0:0:0:0:
304,76,184625,2,0,L|392:76,2,63.2500019302369,2|0|0,0:2|1:2|0:0,0:0:0:0:
132,80,184868,2,0,L|44:80,1,63.2500019302369,2|0,0:2|0:0,0:0:0:0:
260,248,185030,6,0,L|108:248,1,126.500003860474,2|0,1:2|0:0,0:0:0:0:
328,188,185274,2,0,L|480:188,1,126.500003860474,2|0,0:2|0:0,0:0:0:0:
248,124,185517,2,0,L|148:124,1,63.2500019302369,2|0,0:2|0:0,0:0:0:0:
424,124,185679,6,0,P|452:64|404:24,1,126.500003860474,2|0,1:2|0:0,0:0:0:0:
228,304,185922,2,0,L|152:304,2,63.2500019302369,2|0|0,0:2|1:2|0:0,0:0:0:0:
416,124,186165,2,0,L|336:124,1,63.2500019302369,2|0,0:2|0:0,0:0:0:0:
160,232,186328,6,0,L|320:232,1,126.500003860474,2|0,1:2|0:0,0:0:0:0:
480,168,186571,1,2,0:2:0:0:
416,168,186652,1,0,1:2:0:0:
353,168,186733,1,0,0:0:0:0:
160,172,186814,2,0,L|72:172,1,63.2500019302369,2|0,0:2|0:0,0:0:0:0:
320,356,186976,6,0,P|348:288|280:256,1,126.500003860474,2|0,1:2|0:0,0:0:0:0:
140,232,187220,2,0,L|288:232,1,126.500003860474,2|0,0:2|0:0,0:0:0:0:
72,192,187463,2,0,L|72:124,1,63.2500019302369,2|0,0:2|0:0,0:0:0:0:
296,288,187625,6,0,L|112:288,1,126.500003860474,2|0,1:2|0:0,0:0:0:0:
360,224,187868,2,0,P|376:156|332:108,1,126.500003860474,2|0,0:2|0:0,0:0:0:0:
160,232,188111,2,0,L|68:232,1,63.2500019302369,2|0,0:2|0:0,0:0:0:0:
292,152,188274,6,0,L|472:152,1,126.500003860474,4|0,1:2|0:0,0:0:0:0:
256,92,188517,2,0,L|168:92,2,63.2500019302369,2|0|0,0:2|1:2|0:0,0:0:0:0:
420,148,188760,2,0,L|320:148,1,63.2500019302369,2|0,0:2|0:0,0:0:0:0:
160,360,188922,6,0,P|132:296|188:252,1,126.500003860474,2|0,1:2|0:0,0:0:0:0:
336,208,189165,1,2,0:2:0:0:
272,208,189246,1,0,1:2:0:0:
209,208,189327,1,0,0:0:0:0:
384,140,189409,2,0,L|296:140,1,63.2500019302369,2|0,0:2|0:0,0:0:0:0:
128,316,189571,6,0,L|268:316,1,126.500003860474,2|0,1:2|0:0,0:0:0:0:
84,184,189814,2,0,L|0:184,2,63.2500019302369,2|0|0,0:2|1:2|0:0,0:0:0:0:
248,192,190057,2,0,L|332:192,1,63.2500019302369,2|0,0:2|0:0,0:0:0:0:
112,136,190220,6,0,L|272:136,1,126.500003860474,2|0,1:2|0:0,0:0:0:0:
428,88,190463,2,0,L|284:88,1,126.500003860474,2|0,0:2|0:0,0:0:0:0:
112,88,190706,2,0,L|188:88,1,63.2500019302369,2|0,0:2|0:0,0:0:0:0:
392,236,190868,6,0,L|248:236,1,126.500003860474,2|0,1:2|0:0,0:0:0:0:
436,176,191111,1,2,0:2:0:0:
500,176,191193,2,0,L|500:76,1,63.2500019302369,0|0,1:2|0:0,0:0:0:0:
320,292,191355,2,0,L|408:292,1,63.2500019302369,2|0,0:2|0:0,0:0:0:0:
192,232,191517,6,0,L|44:232,1,126.500003860474,2|0,1:2|0:0,0:0:0:0:
240,172,191760,1,2,0:2:0:0:
303,172,191841,1,0,1:2:0:0:
366,172,191922,1,0,0:0:0:0:
192,104,192003,2,0,L|192:36,1,63.2500019302369,2|0,0:2|0:0,0:0:0:0:
372,324,192165,6,0,L|512:324,1,126.500003860474,2|0,1:2|0:0,0:0:0:0:
436,324,192409,1,2,0:2:0:0:
244,272,192490,1,0,1:2:0:0:
212,272,192530,1,0,0:0:0:0:
180,272,192571,1,0,0:0:0:0:
356,208,192652,1,2,0:2:0:0:
387,208,192692,1,0,0:0:0:0:
419,208,192733,1,0,0:0:0:0:
248,216,192814,5,2,3:2:0:0:
216,216,192854,1,0,3:2:0:0:
185,210,192895,1,0,3:2:0:0:
156,198,192935,1,0,3:2:0:0:
131,179,192976,1,0,3:2:0:0:
110,155,193016,1,0,3:2:0:0:
94,128,193057,1,0,3:2:0:0:
288,164,193138,5,2,3:2:0:0:
319,164,193178,1,0,3:2:0:0:
344,145,193219,1,0,3:2:0:0:
353,115,193259,1,0,3:2:0:0:
342,86,193300,1,0,3:2:0:0:
316,69,193340,1,0,3:2:0:0:
285,71,193381,1,0,3:2:0:0:
84,372,193463,6,0,P|68:300|128:248,1,126.500003860474,0|0,1:2|0:0,0:0:0:0:
160,260,193706,2,0,L|20:260,1,126.500003860474,2|0,0:2|0:0,0:0:0:0:
96,260,193949,2,0,L|176:260,1,63.2500019302369,2|0,0:2|0:0,0:0:0:0:
340,268,194111,6,0,P|368:188|304:144,1,126.500003860474,0|0,1:2|0:0,0:0:0:0:
284,164,194355,2,0,L|424:164,1,126.500003860474,2|0,0:2|0:0,0:0:0:0:
472,164,194598,2,0,L|384:164,1,63.2500019302369,2|0,0:2|0:0,0:0:0:0:
228,360,194760,6,0,P|192:300|256:272,1,126.500003860474,0|0,1:2|0:0,0:0:0:0:
288,272,195003,2,0,P|320:216|264:176,1,126.500003860474,2|0,0:2|0:0,0:0:0:0:
220,180,195247,2,0,L|136:180,1,63.2500019302369,2|0,0:2|0:0,0:0:0:0:
360,104,195409,6,0,L|220:104,1,126.500003860474,0|0,1:2|0:0,0:0:0:0:
172,104,195652,2,0,L|312:104,1,126.500003860474,2|0,0:2|0:0,0:0:0:0:
360,104,195895,2,0,L|272:104,1,63.2500019302369,2|0,0:2|0:0,0:0:0:0:
112,360,196057,6,0,P|80:288|152:256,1,126.500003860474,2|0,1:2|0:2,0:0:0:0:
168,256,196301,1,0,0:0:0:0:
368,260,196382,2,0,P|408:204|348:168,1,126.500003860474,2|0,1:2|0:2,0:0:0:0:
312,168,196625,1,0,0:0:0:0:
132,168,196706,6,0,L|4:168,1,126.500003860474,2|0,1:2|0:2,0:0:0:0:
68,168,196949,1,0,0:0:0:0:
280,88,197030,2,0,L|408:88,1,126.500003860474,2|0,1:2|0:2,0:0:0:0:
344,88,197273,1,0,0:0:0:0:
160,368,197355,6,0,L|152:288,1,63.2500019302369,2|0,1:2|0:0,0:0:0:0:
324,304,197517,2,0,L|336:216,1,63.2500019302369,2|0,1:2|0:0,0:0:0:0:
132,368,197679,2,0,L|96:304,1,63.2500019302369,2|0,1:2|0:0,0:0:0:0:
352,308,197841,2,0,L|392:244,1,63.2500019302369,2|0,1:2|0:0,0:0:0:0:
108,372,198003,6,0,L|56:324,1,63.2500019302369,2|0,1:2|0:0,0:0:0:0:
380,308,198165,2,0,L|448:256,1,63.2500019302369,2|0,1:2|0:0,0:0:0:0:
80,376,198328,2,0,L|4:368,1,63.2500019302369,2|0,1:2|0:0,0:0:0:0:
420,312,198490,2,0,L|492:312,1,63.2500019302369,2|0,1:2|0:0,0:0:0:0:
224,252,198652,5,2,1:2:0:0:
256,192,198814,12,0,199949,0:0:0:0:
256,192,206436,12,0,208706,0:0:0:0:
312,328,209030,6,0,L|312:264,1,51.7499984207154,0|0,0:0|0:0,0:0:0:0:
260,276,209193,1,0,0:0:0:0:
208,276,209274,2,0,L|208:188,1,51.7499984207154,0|0,0:0|0:0,0:0:0:0:
260,228,209436,1,0,0:0:0:0:
312,228,209517,1,0,0:0:0:0:
260,228,209598,1,0,0:0:0:0:
208,228,209679,5,0,0:0:0:0:
260,228,209760,1,0,0:0:0:0:
208,228,209841,1,0,0:0:0:0:
156,228,209922,1,0,0:0:0:0:
208,228,210003,2,0,L|208:148,1,51.7499984207154,0|0,0:0|0:0,0:0:0:0:
156,176,210165,2,0,L|156:108,1,51.7499984207154,0|0,0:0|0:0,0:0:0:0:
312,128,210328,6,0,L|384:128,2,54.6249985413552,0|0|0,0:0|0:0|0:0,0:0:0:0:
256,128,210571,2,0,L|196:128,2,54.6249985413552,0|0|0,0:0|0:0|0:0,0:0:0:0:
312,128,210814,2,0,L|312:40,1,54.6249985413552,0|0,0:0|0:0,0:0:0:0:
256,72,210976,5,0,0:0:0:0:
312,72,211057,1,0,0:0:0:0:
368,72,211138,2,0,L|368:4,1,54.6249985413552,0|0,0:0|0:0,0:0:0:0:
312,12,211301,2,0,L|224:12,1,54.6249985413552,0|0,0:0|0:0,0:0:0:0:
312,12,211463,2,0,L|388:12,1,54.6249985413552,0|0,0:0|0:0,0:0:0:0:
196,272,211625,6,0,L|116:272,2,57.5,0|0|0,0:0|0:0|0:0,0:0:0:0:
253,272,211868,1,0,0:0:0:0:
195,272,211949,1,0,0:0:0:0:
138,272,212030,1,0,0:0:0:0:
196,272,212111,1,0,0:0:0:0:
253,272,212192,1,0,0:0:0:0:
311,272,212274,5,0,0:0:0:0:
252,272,212355,1,0,0:0:0:0:
196,272,212436,2,0,L|196:176,1,57.5,0|0,0:0|0:0,0:0:0:0:
252,216,212598,2,0,L|344:216,1,57.5,0|0,0:0|0:0,0:0:0:0:
368,216,212760,2,0,L|300:216,1,57.5,0|0,0:0|0:0,0:0:0:0:
128,148,212922,6,0,L|56:148,2,60.3749981575013,0|0|0,0:0|0:0|0:0,0:0:0:0:
188,148,213165,2,0,L|120:148,2,60.3749981575013,0|0|0,0:0|0:0|0:0,0:0:0:0:
248,148,213409,6,0,L|316:148,2,60.3749981575013,0|0|0,0:0|0:0|0:0,0:0:0:0:
308,148,213652,2,0,L|380:148,2,60.3749981575013,0|0|0,0:0|0:0|0:0,0:0:0:0:
248,148,213895,2,0,L|248:64,1,60.3749981575013,0|0,0:0|0:0,0:0:0:0:
308,84,214057,2,0,L|388:84,1,60.3749981575013,0|0,0:0|0:0,0:0:0:0:
128,288,214220,6,0,L|36:288,2,63.2500019302369,0|0|0,0:0|0:0|0:0,0:0:0:0:
212,288,214463,2,0,L|212:200,1,63.2500019302369,0|0,0:0|0:0,0:0:0:0:
128,220,214625,1,0,0:0:0:0:
212,224,214706,6,0,L|300:224,2,63.2500019302369,0|0|0,0:0|0:0|0:0,0:0:0:0:
132,220,214949,1,0,0:0:0:0:
48,220,215030,2,0,L|48:124,1,63.2500019302369,0|0,0:0|0:0,0:0:0:0:
132,160,215193,2,0,L|132:84,1,63.2500019302369,0|0,0:0|0:0,0:0:0:0:
52,104,215355,2,0,L|52:24,1,63.2500019302369,0|0,0:0|0:0,0:0:0:0:
244,332,215517,5,0,0:0:0:0:
307,332,215598,1,0,0:0:0:0:
370,332,215679,1,0,0:0:0:0:
288,332,215760,1,0,0:0:0:0:
224,332,215841,1,0,0:0:0:0:
161,332,215922,1,0,0:0:0:0:
244,332,216003,6,0,L|344:332,2,63.2500019302369,0|0|0,0:0|0:0|0:0,0:0:0:0:
328,336,216247,2,0,L|400:336,2,63.2500019302369,0|0|0,0:0|0:0|0:0,0:0:0:0:
244,336,216490,2,0,L|244:244,1,63.2500019302369,0|0,0:0|0:0,0:0:0:0:
328,276,216652,2,0,L|328:196,1,63.2500019302369,0|0,0:0|0:0,0:0:0:0:
132,200,216814,6,0,L|48:200,2,63.2500019302369,0|0|0,0:0|0:0|0:0,0:0:0:0:
216,200,217057,1,0,0:0:0:0:
279,200,217138,1,0,0:0:0:0:
342,200,217219,1,0,0:0:0:0:
260,200,217301,1,0,0:0:0:0:
196,200,217382,1,0,0:0:0:0:
133,200,217463,5,0,0:0:0:0:
216,204,217544,2,0,L|304:204,2,63.2500019302369,0|0|0,0:0|0:0|0:0,0:0:0:0:
132,204,217787,2,0,L|132:104,1,63.2500019302369,0|0,0:0|0:0,0:0:0:0:
296,140,217949,2,0,L|388:140,1,63.2500019302369,0|0,0:0|0:0,0:0:0:0:
192,360,219409,6,0,P|168:288|228:240,1,126.500003860474
256,252,219652,1,0,0:0:0:0:
194,251,219733,1,0,0:0:0:0:
356,180,219895,1,0,0:0:0:0:
292,180,219976,1,0,0:0:0:0:
356,180,220057,2,0,B|484:180|484:180|484:108,1,168.666671813965,0|0,0:0|1:0,0:0:0:0:
240,356,220382,1,0,1:0:0:0:
209,350,220422,1,0,1:0:0:0:
186,328,220463,1,0,1:0:0:0:
178,298,220503,1,0,1:0:0:0:
188,268,220544,1,0,1:0:0:0:
212,249,220584,1,0,1:2:0:0:
243,245,220625,1,0,1:0:0:0:
436,172,220706,5,6,1:2:0:0:
372,172,220787,1,0,0:0:0:0:
309,172,220868,1,0,0:0:0:0:
136,112,220949,1,0,0:0:0:0:
199,112,221030,1,2,1:2:0:0:
262,112,221111,1,0,0:0:0:0:
88,56,221193,5,0,0:0:0:0:
264,56,221274,2,0,L|372:56,1,63.2500019302369,0|2,0:0|1:2,0:0:0:0:
156,232,221436,1,0,0:0:0:0:
328,232,221517,2,0,L|408:232,1,63.2500019302369,0|0,0:0|0:0,0:0:0:0:
200,172,221679,6,0,L|108:172,1,63.2500019302369,2|0,1:2|0:0,0:0:0:0:
328,112,221841,2,0,L|248:112,1,63.2500019302369,2|0,0:2|0:0,0:0:0:0:
456,120,222003,5,2,1:2:0:0:
264,112,222084,2,0,L|176:112,1,63.2500019302369,0|0,0:0|0:0,0:0:0:0:
380,60,222247,2,0,L|380:144,1,63.2500019302369,0|2,0:0|1:2,0:0:0:0:
316,124,222409,1,0,0:0:0:0:
496,212,222490,2,0,L|416:212,1,63.2500019302369,0|0,0:0|0:0,0:0:0:0:
264,304,222652,6,0,L|356:304,1,63.2500019302369,2|0,1:2|0:0,0:0:0:0:
160,240,222814,2,0,L|88:240,1,63.2500019302369,0|0,0:0|0:0,0:0:0:0:
288,200,222976,6,0,L|288:108,1,63.2500019302369,2|0,1:2|0:0,0:0:0:0:
100,148,223138,2,0,L|100:56,1,63.2500019302369,2|0,0:2|0:0,0:0:0:0:
292,80,223301,5,2,1:2:0:0:
356,80,223382,1,0,0:0:0:0:
356,80,223463,1,0,0:0:0:0:
164,364,223544,1,0,0:0:0:0:
228,364,223625,1,2,1:2:0:0:
292,364,223706,1,0,0:0:0:0:
104,304,223787,5,0,0:0:0:0:
272,252,223868,2,0,L|364:252,1,63.2500019302369,0|2,0:0|1:2,0:0:0:0:
500,200,224030,1,0,0:0:0:0:
336,192,224111,2,0,L|256:192,1,63.2500019302369,0|0,0:0|0:0,0:0:0:0:
468,116,224274,6,0,L|396:116,1,63.2500019302369,2|0,1:2|0:0,0:0:0:0:
216,116,224436,2,0,L|304:116,1,63.2500019302369,2|0,0:2|0:0,0:0:0:0:
88,60,224598,6,0,L|4:60,2,63.2500019302369,2|0|0,1:2|0:0|0:0,0:0:0:0:
280,260,224841,2,0,L|352:260,2,63.2500019302369,0|2|0,0:0|1:2|0:0,0:0:0:0:
88,120,225084,5,0,0:0:0:0:
151,120,225165,1,0,0:0:0:0:
214,120,225246,1,2,1:2:0:0:
20,184,225328,1,0,0:0:0:0:
83,184,225409,1,0,0:0:0:0:
146,184,225490,1,0,0:0:0:0:
328,324,225571,6,0,L|256:324,1,63.2500019302369,2|0,1:2|0:0,0:0:0:0:
456,264,225733,2,0,L|376:264,1,63.2500019302369,2|0,1:2|0:0,0:0:0:0:
164,256,225895,5,6,1:2:0:0:
100,256,225976,1,0,0:0:0:0:
37,256,226057,1,0,0:0:0:0:
212,192,226138,1,0,0:0:0:0:
148,192,226219,1,2,1:2:0:0:
85,192,226300,1,0,0:0:0:0:
256,140,226382,5,0,0:0:0:0:
424,148,226463,2,0,L|496:148,1,63.2500019302369,0|2,0:0|1:2,0:0:0:0:
316,88,226625,1,0,0:0:0:0:
488,44,226706,2,0,L|408:44,1,63.2500019302369,0|0,0:0|0:0,0:0:0:0:
232,340,226868,6,0,L|152:340,1,63.2500019302369,2|0,1:2|0:0,0:0:0:0:
360,272,227030,2,0,L|260:272,1,63.2500019302369,2|0,0:2|0:0,0:0:0:0:
104,216,227193,5,2,1:2:0:0:
296,212,227274,2,0,L|220:212,1,63.2500019302369,0|0,0:0|0:0,0:0:0:0:
44,168,227436,1,0,0:0:0:0:
212,168,227517,2,0,L|132:168,1,63.2500019302369,2|0,1:2|0:0,0:0:0:0:
324,128,227679,5,0,0:0:0:0:
492,84,227760,2,0,L|420:84,1,63.2500019302369,0|2,0:0|1:2,0:0:0:0:
260,84,227922,1,0,0:0:0:0:
92,80,228003,2,0,L|164:80,1,63.2500019302369,0|0,0:0|0:0,0:0:0:0:
344,292,228165,6,0,L|264:292,1,63.2500019302369,2|0,1:2|0:0,0:0:0:0:
472,224,228328,2,0,L|388:224,1,63.2500019302369,2|0,0:2|0:0,0:0:0:0:
220,240,228490,5,2,1:2:0:0:
156,240,228571,1,0,0:0:0:0:
220,240,228652,1,0,0:0:0:0:
408,176,228733,1,0,0:0:0:0:
412,112,228814,1,2,1:2:0:0:
348,112,228895,1,0,0:0:0:0:
164,112,228976,5,0,0:0:0:0:
336,340,229057,2,0,L|416:340,1,63.2500019302369,0|2,0:0|1:2,0:0:0:0:
232,192,229220,1,0,0:0:0:0:
400,300,229301,2,0,L|488:300,1,63.2500019302369,0|0,0:0|0:0,0:0:0:0:
272,300,229463,1,2,1:2:0:0:
240,299,229503,1,0,1:0:0:0:
208,298,229544,1,0,1:0:0:0:
177,298,229584,1,0,1:2:0:0:
145,297,229625,1,0,1:0:0:0:
113,296,229665,1,0,1:0:0:0:
145,297,229706,1,0,1:0:0:0:
336,136,229787,5,10,1:2:0:0:
144,136,229868,2,0,L|76:136,1,63.2500019302369,0|0,0:0|0:0,0:0:0:0:
272,80,230030,1,10,1:2:0:0:
84,80,230111,2,0,L|-8:80,1,63.2500019302369,0|0,0:0|0:0,0:0:0:0:
196,80,230274,5,10,1:2:0:0:
368,312,230355,2,0,L|464:312,1,63.2500019302369,0|0,0:0|0:0,0:0:0:0:
236,264,230517,1,10,1:2:0:0:
424,252,230598,2,0,L|512:252,1,63.2500019302369,0|0,0:0|0:0,0:0:0:0:
296,188,230760,6,0,L|384:188,1,63.2500019302369,10|0,1:2|0:0,0:0:0:0:
164,188,230922,2,0,L|92:188,1,63.2500019302369,10|0,1:2|0:0,0:0:0:0:
288,124,231084,6,0,L|288:48,1,63.2500019302369,6|0,1:2|0:0,0:0:0:0:
224,64,231247,1,0,0:0:0:0:
416,284,231328,1,0,0:0:0:0:
352,284,231409,1,2,1:2:0:0:
289,284,231490,1,0,0:0:0:0:
468,224,231571,5,0,0:0:0:0:
292,224,231652,2,0,L|200:224,1,63.2500019302369,0|2,0:0|1:2,0:0:0:0:
392,160,231814,1,0,0:0:0:0:
216,164,231895,2,0,L|120:164,1,63.2500019302369,0|0,0:0|0:0,0:0:0:0:
344,96,232057,6,0,L|424:96,1,63.2500019302369,2|0,1:2|0:0,0:0:0:0:
216,40,232220,2,0,L|292:40,1,63.2500019302369,2|0,0:2|0:0,0:0:0:0:
96,336,232382,5,2,1:2:0:0:
268,332,232463,2,0,L|360:332,1,63.2500019302369,0|0,0:0|0:0,0:0:0:0:
152,252,232625,2,0,L|72:252,2,63.2500019302369,0|2|0,0:0|1:2|0:0,0:0:0:0:
344,184,232868,6,0,L|240:184,1,63.2500019302369,0|0,0:0|0:0,0:0:0:0:
112,192,233030,1,2,1:2:0:0:
280,120,233111,2,0,L|380:120,1,63.2500019302369,0|0,0:0|0:0,0:0:0:0:
168,76,233274,1,0,0:0:0:0:
364,72,233355,6,0,L|460:72,1,63.2500019302369,2|0,1:2|0:0,0:0:0:0:
236,316,233517,2,0,L|136:320,1,63.2500019302369,2|0,0:2|0:0,0:0:0:0:
364,224,233679,5,2,1:2:0:0:
300,224,233760,1,0,0:0:0:0:
237,224,233841,1,0,0:0:0:0:
424,160,233922,2,0,L|504:160,2,63.2500019302369,0|2|0,0:0|1:2|0:0,0:0:0:0:
228,104,234165,6,0,L|320:104,1,63.2500019302369,0|0,0:0|0:0,0:0:0:0:
464,92,234328,1,2,1:2:0:0:
240,48,234409,2,0,L|324:48,1,63.2500019302369,0|0,0:0|0:0,0:0:0:0:
484,44,234571,1,0,0:0:0:0:
288,248,234652,6,0,L|208:248,1,63.2500019302369,2|0,1:2|0:0,0:0:0:0:
412,184,234814,2,0,L|324:184,1,63.2500019302369,2|0,0:2|0:0,0:0:0:0:
152,356,234976,5,2,1:2:0:0:
88,356,235057,1,0,0:0:0:0:
88,292,235138,1,0,0:0:0:0:
260,288,235220,1,0,0:0:0:0:
324,292,235301,1,2,1:2:0:0:
324,228,235382,1,0,0:0:0:0:
148,172,235463,5,0,0:0:0:0:
211,172,235544,1,0,0:0:0:0:
274,172,235625,1,2,1:2:0:0:
472,108,235706,1,0,0:0:0:0:
408,108,235787,1,0,0:0:0:0:
345,108,235868,1,0,0:0:0:0:
160,104,235949,6,0,L|232:104,1,63.2500019302369,2|0,1:2|0:0,0:0:0:0:
28,48,236111,2,0,L|116:48,1,63.2500019302369,2|0,1:2|0:0,0:0:0:0:
280,344,236274,5,6,1:2:0:0:
216,344,236355,1,0,0:0:0:0:
153,344,236436,1,0,0:0:0:0:
332,288,236517,1,0,0:0:0:0:
268,288,236598,1,2,1:2:0:0:
268,224,236679,5,0,0:0:0:0:
460,152,236760,2,0,L|356:152,1,63.2500019302369,0|0,0:0|0:0,0:0:0:0:
224,152,236922,1,2,1:2:0:0:
400,92,237003,2,0,L|308:92,1,63.2500019302369,0|0,0:0|0:0,0:0:0:0:
160,96,237165,1,0,0:0:0:0:
352,36,237247,6,0,L|448:36,1,63.2500019302369,2|0,1:2|0:0,0:0:0:0:
232,288,237409,2,0,L|320:288,1,63.2500019302369,2|0,0:2|0:0,0:0:0:0:
472,208,237571,5,2,1:2:0:0:
292,208,237652,2,0,L|192:208,1,63.2500019302369,0|0,0:0|0:0,0:0:0:0:
404,140,237814,1,0,0:0:0:0:
232,136,237895,2,0,L|152:136,1,63.2500019302369,2|0,1:2|0:0,0:0:0:0:
336,80,238057,5,0,0:0:0:0:
504,80,238138,2,0,L|396:80,1,63.2500019302369,0|2,0:0|1:2,0:0:0:0:
248,48,238301,1,0,0:0:0:0:
76,48,238382,2,0,L|164:48,1,63.2500019302369,0|0,0:0|0:0,0:0:0:0:
324,280,238544,6,0,L|244:280,1,63.2500019302369,2|0,1:2|0:0,0:0:0:0:
456,228,238706,2,0,L|364:228,1,63.2500019302369,2|0,0:2|0:0,0:0:0:0:
160,356,238868,6,0,L|76:356,1,63.2500019302369,2|0,1:2|0:0,0:0:0:0:
284,296,239030,2,0,L|200:296,1,63.2500019302369,0|0,1:2|0:0,0:0:0:0:
408,248,239193,6,0,L|492:248,1,63.2500019302369,2|0,1:2|0:0,0:0:0:0:
280,208,239355,2,0,L|280:140,1,63.2500019302369,0|0,1:2|0:0,0:0:0:0:
468,88,239517,6,0,L|392:88,1,63.2500019302369,2|0,1:2|0:0,0:0:0:0:
212,52,239679,2,0,L|300:52,1,63.2500019302369,0|0,1:2|0:0,0:0:0:0:
88,52,239841,6,0,L|8:52,1,63.2500019302369,2|0,1:2|1:0,0:0:0:0:
216,304,240003,2,0,L|312:304,1,63.2500019302369,0|0,1:0|1:0,0:0:0:0:
88,248,240165,5,10,1:2:0:0:
151,248,240246,1,0,0:0:0:0:
214,248,240327,1,0,0:0:0:0:
20,184,240409,1,10,1:2:0:0:
83,184,240490,1,0,0:0:0:0:
146,184,240571,1,0,0:0:0:0:
332,180,240652,6,0,L|424:180,2,63.2500019302369,10|0|0,1:2|0:0|0:0,0:0:0:0:
156,120,240895,2,0,L|80:120,2,63.2500019302369,10|0|0,1:2|0:0|0:0,0:0:0:0:
332,176,241138,6,0,L|332:96,1,63.2500019302369,10|0,1:2|0:0,0:0:0:0:
156,116,241301,2,0,L|156:36,1,63.2500019302369,10|0,1:2|0:0,0:0:0:0:
344,280,241463,5,4,1:2:0:0:
280,280,241544,1,0,0:0:0:0:
217,280,241625,1,0,0:0:0:0:
396,204,241706,2,0,L|304:204,2,63.2500019302369,2|0|0,0:0|1:2|0:0,0:0:0:0:
208,140,241949,6,0,L|288:140,1,63.2500019302369,2|0,0:0|0:0,0:0:0:0:
448,136,242111,1,0,1:2:0:0:
272,84,242193,2,0,L|184:84,1,63.2500019302369,2|0,0:0|0:0,0:0:0:0:
32,88,242355,1,0,0:0:0:0:
224,288,242436,6,0,L|224:208,1,63.2500019302369,2|0,1:2|0:0,0:0:0:0:
36,224,242598,2,0,L|36:160,1,63.2500019302369,2|0,0:0|0:0,0:0:0:0:
228,156,242760,5,2,1:2:0:0:
48,96,242841,2,0,L|120:96,1,63.2500019302369,0|0,0:0|0:0,0:0:0:0:
300,324,243003,1,2,0:0:0:0:
364,324,243084,1,0,1:2:0:0:
300,324,243165,1,0,0:0:0:0:
104,256,243247,6,0,L|104:160,1,63.2500019302369,2|0,0:0|0:0,0:0:0:0:
292,196,243409,1,0,1:2:0:0:
124,132,243490,2,0,L|208:132,1,63.2500019302369,2|0,0:0|0:0,0:0:0:0:
16,60,243652,1,2,0:0:0:0:
208,332,243733,6,0,L|280:332,1,63.2500019302369,2|0,1:2|0:0,0:0:0:0:
84,248,243895,2,0,L|160:248,1,63.2500019302369,2|0,0:0|0:0,0:0:0:0:
340,144,244057,6,0,L|252:144,2,63.2500019302369,2|0|0,1:2|0:0|0:0,0:0:0:0:
144,84,244301,2,0,L|32:84,2,63.2500019302369,2|0|0,0:0|1:2|0:0,0:0:0:0:
340,300,244544,5,2,0:0:0:0:
160,296,244625,2,0,L|248:296,1,63.2500019302369,0|0,0:0|1:2,0:0:0:0:
404,248,244787,1,2,0:0:0:0:
212,248,244868,2,0,L|292:248,1,63.2500019302369,0|0,0:0|0:0,0:0:0:0:
476,176,245030,6,0,L|400:176,1,63.2500019302369,2|0,1:2|0:0,0:0:0:0:
224,176,245193,2,0,L|120:176,1,63.2500019302369,2|0,0:0|0:0,0:0:0:0:
356,120,245355,5,2,1:2:0:0:
176,120,245436,2,0,L|176:32,1,63.2500019302369,0|0,0:0|0:0,0:0:0:0:
384,120,245598,1,2,0:0:0:0:
204,120,245679,2,0,L|284:120,1,63.2500019302369,0|0,1:2|0:0,0:0:0:0:
436,120,245841,5,2,0:0:0:0:
260,56,245922,2,0,L|156:56,1,63.2500019302369,0|0,0:0|1:2,0:0:0:0:
20,60,246084,1,2,0:0:0:0:
200,220,246165,2,0,L|292:224,1,63.2500019302369,0|0,0:0|0:0,0:0:0:0:
72,280,246328,6,0,L|72:176,1,63.2500019302369,2|0,1:2|0:0,0:0:0:0:
264,220,246490,2,0,L|164:220,1,63.2500019302369,2|0,1:2|0:0,0:0:0:0:
392,160,246652,6,0,L|472:160,2,63.2500019302369,6|0|0,1:2|0:0|0:0,0:0:0:0:
200,100,246895,1,2,0:0:0:0:
264,100,246976,1,0,1:2:0:0:
328,100,247057,1,0,0:0:0:0:
136,48,247138,5,2,0:0:0:0:
328,36,247220,2,0,L|328:128,1,63.2500019302369,0|0,0:0|1:2,1:0:0:0:
144,208,247382,1,2,0:0:0:0:
324,208,247463,2,0,L|224:208,1,63.2500019302369,0|0,0:0|0:0,0:0:0:0:
448,204,247625,6,0,L|448:124,1,63.2500019302369,2|0,1:2|0:0,0:0:0:0:
256,132,247787,2,0,L|176:132,1,63.2500019302369,2|0,0:0|0:0,0:0:0:0:
408,72,247949,6,0,L|332:72,1,63.2500019302369,2|0,1:2|0:0,0:0:0:0:
160,76,248111,1,0,0:0:0:0:
340,24,248193,2,0,L|252:24,1,63.2500019302369,2|0,0:0|1:2,0:0:0:0:
84,28,248355,1,0,0:0:0:0:
252,232,248436,6,0,L|328:232,1,63.2500019302369,2|0,0:0|0:0,0:0:0:0:
480,224,248598,1,0,1:2:0:0:
292,164,248679,2,0,L|196:164,1,63.2500019302369,2|0,0:0|0:0,0:0:0:0:
48,172,248841,1,0,0:0:0:0:
236,112,248922,6,0,L|348:112,1,63.2500019302369,2|0,1:2|0:0,0:0:0:0:
108,56,249084,2,0,L|216:56,1,63.2500019302369,2|0,0:0|0:0,0:0:0:0:
368,256,249247,6,0,L|472:256,2,63.2500019302369,2|0|0,1:2|0:0|0:0,0:0:0:0:
184,200,249490,2,0,L|100:200,2,63.2500019302369,2|0|0,0:0|1:2|0:0,0:0:0:0:
372,140,249733,5,2,0:0:0:0:
180,76,249814,2,0,L|272:76,1,63.2500019302369,0|0,0:0|1:2,0:0:0:0:
436,68,249976,1,2,0:0:0:0:
243,76,250057,2,0,L|352:76,1,63.2500019302369,0|0,0:0|0:0,0:0:0:0:
112,352,250220,5,2,1:2:0:0:
81,355,250260,1,0,1:2:0:0:
54,339,250301,1,0,1:2:0:0:
42,310,250341,1,0,1:2:0:0:
50,280,250382,1,0,1:2:0:0:
75,262,250422,1,0,1:2:0:0:
106,261,250463,1,0,1:2:0:0:
284,256,250544,5,10,1:2:0:0:
92,192,250625,2,0,L|180:192,1,63.2500019302369,0|0,0:0|0:0,0:0:0:0:
348,192,250787,1,10,1:2:0:0:
88,132,250868,2,0,L|160:132,1,63.2500019302369,0|0,0:0|0:0,0:0:0:0:
328,132,251030,5,10,1:2:0:0:
504,128,251111,2,0,L|436:128,1,63.2500019302369,0|0,0:0|0:0,0:0:0:0:
244,88,251274,1,10,1:2:0:0:
436,88,251355,2,0,L|336:88,1,63.2500019302369,0|0,0:0|0:0,0:0:0:0:
180,92,251517,6,0,L|96:92,1,63.2500019302369,10|0,1:2|0:0,0:0:0:0:
308,36,251679,2,0,L|204:36,1,63.2500019302369,10|0,1:2|0:0,0:0:0:0:
432,320,251841,6,0,L|508:320,2,63.2500019302369,14|0|0,1:2|0:0|0:0,0:0:0:0:
244,312,252084,1,2,0:0:0:0:
432,320,252165,6,0,L|344:320,1,63.2500019302369,8|0,1:2|0:0,0:0:0:0:
172,248,252328,2,0,L|244:248,1,63.2500019302369,2|0,0:0|0:0,0:0:0:0:
44,192,252490,5,8,1:2:0:0:
232,188,252571,2,0,L|232:112,1,63.2500019302369,2|0,0:0|0:0,0:0:0:0:
168,124,252733,1,0,0:0:0:0:
364,120,252814,2,0,L|444:120,1,63.2500019302369,10|0,1:2|0:0,0:0:0:0:
232,48,252976,2,0,L|168:48,1,63.2500019302369,2|0,0:0|0:0,0:0:0:0:
360,280,253138,5,10,1:2:0:0:
296,280,253219,1,0,0:0:0:0:
233,280,253300,1,0,0:0:0:0:
428,216,253382,1,2,0:0:0:0:
236,220,253463,2,0,L|152:220,1,63.2500019302369,8|0,1:2|0:0,0:0:0:0:
368,160,253625,2,0,L|464:160,1,63.2500019302369,2|0,0:0|0:0,0:0:0:0:
239,96,253787,5,8,1:2:0:0:
431,160,253868,2,0,L|504:160,2,63.2500019302369,2|0|0,0:0|0:0|0:0,0:0:0:0:
216,332,254111,2,0,L|116:332,1,63.2500019302369,10|0,1:2|0:0,0:0:0:0:
344,244,254274,2,0,L|252:244,1,63.2500019302369,2|0,0:0|0:0,0:0:0:0:
448,176,254436,5,10,1:2:0:0:
385,176,254517,1,0,0:0:0:0:
322,176,254598,1,0,0:0:0:0:
496,100,254679,1,2,0:0:0:0:
304,104,254760,2,0,L|224:104,1,63.2500019302369,8|0,1:2|0:0,0:0:0:0:
432,56,254922,2,0,L|432:144,1,63.2500019302369,2|0,0:0|0:0,0:0:0:0:
256,240,255084,5,8,1:2:0:0:
88,236,255165,2,0,L|24:236,2,63.2500019302369,2|0|0,0:0|0:0|0:0,0:0:0:0:
252,176,255409,2,0,L|348:176,1,63.2500019302369,10|0,1:2|0:0,0:0:0:0:
120,112,255571,2,0,L|200:112,1,63.2500019302369,2|0,0:0|0:0,0:0:0:0:
380,340,255733,6,0,L|488:340,2,63.2500019302369,10|0|0,1:2|0:0|0:0,0:0:0:0:
192,268,255976,1,2,0:0:0:0:
380,220,256057,2,0,L|288:220,1,63.2500019302369,8|0,1:2|0:0,0:0:0:0:
132,148,256220,2,0,L|220:148,1,63.2500019302369,2|0,0:0|0:0,0:0:0:0:
24,96,256382,5,8,1:2:0:0:
216,96,256463,2,0,L|216:16,1,63.2500019302369,2|0,0:0|0:0,0:0:0:0:
152,32,256625,1,0,0:0:0:0:
344,344,256706,2,0,L|452:344,1,63.2500019302369,10|0,1:2|0:0,0:0:0:0:
212,276,256868,2,0,L|120:276,1,63.2500019302369,2|0,1:2|0:0,0:0:0:0:
352,176,257030,5,14,1:2:0:0:
288,176,257111,1,0,0:0:0:0:
225,176,257192,1,8,0:2:0:0:
416,112,257274,1,2,0:0:0:0:
228,120,257355,2,0,L|140:120,1,63.2500019302369,8|0,1:2|0:0,0:0:0:0:
352,48,257517,2,0,L|244:48,1,63.2500019302369,10|0,0:2|0:0,0:0:0:0:
96,56,257679,5,8,1:2:0:0:
288,352,257760,2,0,L|288:260,1,63.2500019302369,2|8,0:0|0:2,0:0:0:0:
224,288,257922,1,0,0:0:0:0:
416,292,258003,2,0,L|504:292,1,63.2500019302369,10|0,1:2|0:0,0:0:0:0:
284,208,258165,2,0,L|208:208,1,63.2500019302369,10|0,0:2|0:0,0:0:0:0:
28,156,258328,5,10,1:2:0:0:
91,156,258409,1,0,0:0:0:0:
28,156,258490,1,8,0:2:0:0:
208,272,258571,1,2,0:0:0:0:
382,164,258652,2,0,L|284:164,1,63.2500019302369,8|0,1:2|0:0,0:0:0:0:
128,124,258814,2,0,L|128:48,1,63.2500019302369,10|0,0:2|0:0,0:0:0:0:
324,60,258976,5,8,1:2:0:0:
124,128,259057,2,0,L|36:128,2,63.2500019302369,2|8|0,0:0|0:2|0:0,0:0:0:0:
308,352,259301,2,0,L|220:352,1,63.2500019302369,10|0,1:2|0:0,0:0:0:0:
440,296,259463,2,0,L|512:296,1,63.2500019302369,10|0,0:2|0:0,0:0:0:0:
288,224,259625,6,0,L|376:224,1,63.2500019302369,10|0,1:2|0:0,0:0:0:0:
152,160,259787,2,0,L|68:160,1,63.2500019302369,10|8,1:2|0:2,0:0:0:0:
280,96,259949,2,0,L|368:96,1,63.2500019302369,10|8,1:2|0:2,0:0:0:0:
148,64,260111,2,0,L|148:160,1,63.2500019302369,10|8,1:2|0:2,0:0:0:0:
336,280,260274,6,0,L|220:280,1,63.2500019302369,10|0,1:2|0:0,0:0:0:0:
464,216,260436,2,0,L|364:216,1,63.2500019302369,10|0,1:2|0:0,0:0:0:0:
212,216,260598,1,10,1:2:0:0:
181,208,260638,1,8,1:2:0:0:
160,185,260679,1,8,1:2:0:0:
153,155,260719,1,8,1:2:0:0:
164,126,260760,1,8,1:2:0:0:
189,107,260800,1,8,1:2:0:0:
220,104,260841,1,8,1:2:0:0:
388,96,260922,5,10,1:2:0:0:
208,348,261003,2,0,L|208:256,1,63.2500019302369,0|0,0:0|0:0,0:0:0:0:
424,96,261165,1,10,1:2:0:0:
244,348,261247,2,0,L|244:264,1,63.2500019302369,0|0,0:0|0:0,0:0:0:0:
432,280,261409,5,10,1:2:0:0:
260,240,261490,2,0,L|176:240,1,63.2500019302369,0|0,0:0|0:0,0:0:0:0:
24,236,261652,1,10,1:2:0:0:
208,172,261733,2,0,L|308:172,1,63.2500019302369,0|0,0:0|0:0,0:0:0:0:
80,120,261895,6,0,L|8:120,1,63.2500019302369,10|0,1:2|0:0,0:0:0:0:
204,64,262057,2,0,L|128:64,1,63.2500019302369,10|0,1:2|0:0,0:0:0:0:
344,352,262220,6,0,L|344:232,1,115,4|0,1:2|0:0,0:0:0:0:
184,232,262544,2,0,L|184:108,1,115,0|0,1:2|0:0,0:0:0:0:
344,120,262868,2,0,L|184:120,1,115,0|0,1:2|0:0,0:0:0:0:
392,120,263193,2,0,L|528:120,1,115,0|0,1:2|0:0,0:0:0:0:
216,332,263517,5,0,1:2:0:0:
376,336,263679,1,0,0:0:0:0:
216,340,263841,1,0,1:2:0:0:
376,336,264003,2,0,L|376:248,1,57.5,0|0,0:0|0:0,0:0:0:0:
312,280,264165,6,0,L|472:280,1,115,0|0,1:2|0:0,0:0:0:0:
364,280,264409,1,0,0:0:0:0:
428,276,264490,2,0,L|428:136,1,115,0|0,1:2|0:0,0:0:0:0:
152,312,264814,6,0,L|308:312,1,115,0|0,1:2|0:0,0:0:0:0:
204,312,265057,1,0,0:0:0:0:
267,312,265138,2,0,L|268:148,1,115,0|0,1:2|0:0,0:0:0:0:
204,200,265382,1,0,0:0:0:0:
140,200,265463,6,0,L|292:200,1,115,0|0,1:2|0:0,0:0:0:0:
192,200,265706,1,0,0:0:0:0:
255,200,265787,2,0,P|272:136|232:72,1,115,0|0,1:2|0:0,0:0:0:0:
176,92,266030,1,0,0:0:0:0:
368,236,266111,6,0,L|432:236,2,57.5,0|0|0,1:2|0:0|0:0,0:0:0:0:
240,236,266436,2,0,L|240:72,1,115,0|0,1:2|0:0,0:0:0:0:
368,128,266760,6,0,L|212:128,1,115,0|0,1:2|0:0,0:0:0:0:
316,124,267003,1,0,0:0:0:0:
252,124,267084,1,0,1:2:0:0:
188,120,267165,1,0,0:0:0:0:
252,124,267247,1,0,0:0:0:0:
188,124,267328,1,0,0:0:0:0:
368,352,267409,6,0,P|384:276|336:236,1,115,4|0,1:2|0:0,0:0:0:0:
300,252,267652,1,0,0:0:0:0:
236,252,267733,2,0,L|388:252,1,115,0|0,1:2|0:0,0:0:0:0:
288,252,267976,1,0,0:0:0:0:
224,252,268057,6,0,P|216:168|248:152,1,115,0|0,1:2|0:0,0:0:0:0:
296,156,268301,1,0,0:0:0:0:
360,160,268382,2,0,L|196:160,1,115,0|0,1:2|0:0,0:0:0:0:
308,160,268625,1,0,0:0:0:0:
128,360,268706,6,0,L|128:292,1,57.5,0|0,1:2|0:0,0:0:0:0:
192,300,268868,2,0,L|192:224,1,57.5,0|0,0:0|0:0,0:0:0:0:
128,244,269030,2,0,L|128:164,1,57.5,0|0,1:2|0:0,0:0:0:0:
192,188,269193,1,0,0:0:0:0:
128,186,269274,1,0,0:0:0:0:
192,188,269355,6,0,L|340:188,1,115,0|0,1:2|0:0,0:0:0:0:
244,188,269598,1,0,0:0:0:0:
307,188,269679,2,0,P|316:120|296:72,1,115,0|0,1:2|0:0,0:0:0:0:
40,288,270003,6,0,L|188:288,1,115,0|0,1:2|0:0,0:0:0:0:
220,288,270247,1,0,0:0:0:0:
155,288,270328,2,0,P|124:216|160:184,1,115,0|0,1:2|0:0,0:0:0:0:
204,196,270571,1,0,0:0:0:0:
268,196,270652,6,0,L|112:192,1,115,0|0,1:2|0:0,0:0:0:0:
216,196,270895,1,0,0:0:0:0:
153,193,270976,2,0,L|20:192,1,115,0|0,1:2|0:0,0:0:0:0:
100,196,271220,1,0,0:0:0:0:
272,364,271301,6,0,P|292:296|240:244,1,115,0|0,1:2|0:0,0:0:0:0:
208,264,271544,1,0,0:0:0:0:
384,224,271625,2,0,L|228:224,1,115,8|0,0:0|0:0,0:0:0:0:
332,220,271868,1,0,0:0:0:0:
160,224,271949,6,0,P|152:152|176:100,1,115,0|0,0:0|1:2,0:0:0:0:
232,112,272193,1,0,1:2:0:0:
408,60,272274,1,0,1:2:0:0:
248,20,272436,1,0,1:2:0:0:
504,276,272598,6,0,L|364:276,1,115,4|0,1:2|0:0,0:0:0:0:
324,276,272841,1,0,0:0:0:0:
260,276,272922,2,0,L|404:276,1,115,0|0,1:2|0:0,0:0:0:0:
312,276,273165,1,0,0:0:0:0:
375,276,273247,6,0,P|392:208|348:152,1,115,0|0,1:2|0:0,0:0:0:0:
308,172,273490,1,0,0:0:0:0:
244,172,273571,2,0,L|400:172,1,115,0|0,1:2|0:0,0:0:0:0:
424,172,273814,1,0,0:0:0:0:
256,360,273895,6,0,L|256:276,1,57.5,0|0,1:2|0:0,0:0:0:0:
320,304,274057,2,0,L|320:216,1,57.5,0|0,0:0|0:0,0:0:0:0:
256,240,274220,2,0,L|256:152,1,57.5,0|0,1:2|0:0,0:0:0:0:
320,184,274382,1,0,0:0:0:0:
256,180,274463,1,0,0:0:0:0:
192,180,274544,6,0,L|336:184,1,115,0|0,1:2|0:0,0:0:0:0:
244,180,274787,1,0,0:0:0:0:
308,180,274868,2,0,L|444:180,1,115,0|0,1:2|0:0,0:0:0:0:
88,352,275193,6,0,L|248:352,1,115,0|0,1:2|0:0,0:0:0:0:
268,352,275436,1,0,0:0:0:0:
203,352,275517,2,0,P|188:288|224:232,1,115,0|0,1:2|0:0,0:0:0:0:
272,244,275760,1,0,0:0:0:0:
336,244,275841,6,0,L|188:244,1,115,0|0,1:2|0:0,0:0:0:0:
284,240,276084,1,0,0:0:0:0:
220,240,276165,2,0,L|220:96,1,115,0|0,1:2|0:0,0:0:0:0:
284,124,276409,1,0,0:0:0:0:
100,64,276490,6,0,L|100:140,1,57.5,0|0,1:2|0:0,0:0:0:0:
164,124,276652,1,0,0:0:0:0:
328,300,276814,2,0,L|184:300,1,115,0|0,1:2|0:0,0:0:0:0:
392,300,277138,6,0,P|412:236|368:172,1,115,0|0,1:2|0:0,0:0:0:0:
332,192,277382,1,0,0:0:0:0:
396,192,277463,1,0,1:2:0:0:
460,192,277544,1,0,0:0:0:0:
396,192,277625,1,0,0:0:0:0:
460,192,277706,1,0,0:0:0:0:
268,276,277787,6,0,L|108:276,1,115,4|0,1:2|0:0,0:0:0:0:
216,276,278030,1,0,0:0:0:0:
153,276,278111,2,0,L|304:276,1,115,0|0,1:2|0:0,0:0:0:0:
332,276,278355,1,0,0:0:0:0:
268,276,278436,6,0,P|252:208|288:136,1,115,0|0,1:2|0:0,0:0:0:0:
328,168,278679,1,0,0:0:0:0:
392,168,278760,2,0,L|240:164,1,115,0|0,1:2|0:0,0:0:0:0:
212,164,279003,1,0,0:0:0:0:
400,360,279084,6,0,L|400:280,1,57.5,0|0,1:2|0:0,0:0:0:0:
336,304,279247,2,0,L|336:216,1,57.5,0|0,0:0|0:0,0:0:0:0:
400,240,279409,2,0,L|400:152,1,57.5,0|0,1:2|0:0,0:0:0:0:
336,180,279571,1,0,0:0:0:0:
400,184,279652,1,0,0:0:0:0:
336,180,279733,6,0,L|200:184,1,115,0|0,1:2|0:0,0:0:0:0:
284,184,279976,1,0,0:0:0:0:
221,183,280057,2,0,L|96:184,1,115,0|0,1:2|0:0,0:0:0:0:
356,356,280382,6,0,P|380:288|312:248,1,115,0|0,1:2|0:0,0:0:0:0:
296,256,280625,1,0,0:0:0:0:
232,252,280706,2,0,L|376:252,1,115,0|0,1:2|0:0,0:0:0:0:
284,252,280949,1,0,0:0:0:0:
220,252,281030,6,0,P|196:184|240:152,1,115,0|0,1:2|0:0,0:0:0:0:
284,160,281274,1,0,0:0:0:0:
219,158,281355,2,0,L|74:159,1,115,0|0,1:2|0:0,0:0:0:0:
40,160,281598,1,0,0:0:0:0:
240,348,281679,6,0,L|428:348,1,153.333333333333,0|0,1:2|0:0,0:0:0:0:
276,296,282003,2,0,B|160:296|160:296|160:224,1,153.333333333333,0|0,1:2|0:0,0:0:0:0:
256,232,282328,2,0,P|303:192|232:144,1,153.333333333333,0|0,1:2|0:0,0:0:0:0:
172,136,282652,2,0,L|172:384,1,230,0|0,1:2|0:0,0:0:0:0:
