osu file format v14

[General]
AudioFilename: audio.mp3
AudioLeadIn: 0
PreviewTime: -1
Countdown: 1
SampleSet: Normal
StackLeniency: 0.7
Mode: 1
LetterboxInBreaks: 0
WidescreenStoryboard: 0

[Editor]
Bookmarks: 19746,54655,64201,73343,90797,160627,219524,236979
DistanceSpacing: 0.5
BeatDivisor: 4
GridSize: 32
TimelineZoom: 1.9

[Metadata]
Title:Drunk Crunk Franken
TitleUnicode:Drunk Crunk Franken
Artist:t+pazolite
ArtistUnicode:t+pazolite
Creator:driodx
Version:A Night of Debauchery
Source:
Tags:
BeatmapID:2010094
BeatmapSetID:960126

[Difficulty]
HPDrainRate:5
CircleSize:5
OverallDifficulty:7
ApproachRate:5
SliderMultiplier:1.4
SliderTickRate:1

[Events]
//Background and Video events
//Break Periods
//Storyboard Layer 0 (Background)
//Storyboard Layer 1 (Fail)
//Storyboard Layer 2 (Pass)
//Storyboard Layer 3 (Foreground)
//Storyboard Sound Samples

[TimingPoints]
2257,272.727272727273,4,1,0,30,1,0
2257,-142.857142857143,4,1,0,30,0,0
19439,-100,4,1,0,50,0,0
19712,-90.9090909090909,4,1,0,75,0,0
24485,-91.743119266055,4,1,0,70,0,0
24758,-92.5925925925926,4,1,0,65,0,0
25030,-93.4579439252336,4,1,0,60,0,0
25303,-94.3396226415094,4,1,0,55,0,0
25576,-95.2380952380952,4,1,0,50,0,0
25848,-96.1538461538461,4,1,0,45,0,0
27621,-96.1538461538461,4,1,0,50,0,0
27758,-95.2380952380952,4,1,0,55,0,0
27894,-94.3396226415094,4,1,0,60,0,0
28030,-93.4579439252336,4,1,0,65,0,0
28167,-92.5925925925926,4,1,0,70,0,0
28303,-91.743119266055,4,1,0,75,0,0
28439,-90.9090909090909,4,1,0,75,0,0
54688,-111.111111111111,4,1,0,20,0,0
64239,285.714285714286,4,1,0,65,1,0
64239,-100,4,1,0,65,0,0
72239,279.06976744186,4,1,0,65,1,0
72239,-105.263157894737,4,1,0,65,0,0
73355,272.727272727273,4,1,0,100,1,0
81945,-95.2380952380952,4,1,0,100,0,0
82082,-90.9090909090909,4,1,0,100,0,0
86718,-86.9565217391304,4,1,0,100,0,0
90809,-100,4,1,0,100,0,0
95173,-95.2380952380952,4,1,0,100,0,0
99536,-90.9090909090909,4,1,0,100,0,0
103900,-86.9565217391304,4,1,0,100,0,0
108264,-83.3333333333333,4,1,0,100,0,1
124627,-90.9090909090909,4,1,0,100,0,0
125718,-83.3333333333333,4,1,0,100,0,1
143173,-83.3333333333333,4,1,0,100,0,0
143309,-100,4,1,0,100,0,0
160627,272.727272727273,8,1,0,100,1,0
160627,-90.9090909090909,4,1,0,100,0,1
186809,-90.9090909090909,4,1,0,100,0,1
195536,-90.9090909090909,4,1,0,100,0,0
210808,272.727272727273,4,1,0,100,1,0
236989,-83.3333333333333,4,1,0,100,0,1
271898,-100,4,1,0,100,0,0

[HitObjects]
192,256,2257,5,0,0:0:0:0:
192,256,2802,1,0,0:0:0:0:
320,256,2938,1,8,0:0:0:0:
320,256,3211,1,8,0:0:0:0:
192,256,3893,1,0,0:0:0:0:
320,256,4166,1,8,0:0:0:0:
192,256,4438,1,0,0:0:0:0:
320,256,4984,1,8,0:0:0:0:
192,256,5120,1,0,0:0:0:0:
320,256,5393,1,8,0:0:0:0:
192,256,6075,1,0,0:0:0:0:
320,256,6347,1,8,0:0:0:0:
320,256,6620,1,8,0:0:0:0:
192,256,7166,1,0,0:0:0:0:
192,256,7302,1,0,0:0:0:0:
320,256,7575,1,8,0:0:0:0:
320,256,7984,1,8,0:0:0:0:
320,256,8257,1,8,0:0:0:0:
192,256,8393,1,0,0:0:0:0:
320,256,8529,1,8,0:0:0:0:
320,256,8666,1,8,0:0:0:0:
320,256,10984,1,8,0:0:0:0:
192,256,11529,1,0,0:0:0:0:
320,256,11666,1,8,0:0:0:0:
320,256,11938,1,8,0:0:0:0:
192,256,12620,1,0,0:0:0:0:
320,256,12893,1,8,0:0:0:0:
192,256,13166,1,0,0:0:0:0:
320,256,13711,1,8,0:0:0:0:
192,256,13847,1,0,0:0:0:0:
320,256,14120,1,8,0:0:0:0:
192,256,14802,1,0,0:0:0:0:
320,256,15075,1,8,0:0:0:0:
320,256,15347,1,8,0:0:0:0:
320,256,15893,1,8,0:0:0:0:
192,256,16029,1,0,0:0:0:0:
320,256,16302,1,8,0:0:0:0:
320,256,16711,1,8,0:0:0:0:
320,256,16984,1,8,0:0:0:0:
192,256,17120,1,0,0:0:0:0:
192,256,17257,1,0,0:0:0:0:
320,256,17393,1,8,0:0:0:0:
320,256,19438,1,8,0:0:0:0:
192,128,19711,1,4,0:0:0:0:
192,256,19984,1,0,0:0:0:0:
192,256,20257,1,0,0:0:0:0:
320,256,20393,1,8,0:0:0:0:
320,256,20666,1,8,0:0:0:0:
320,256,21211,1,8,0:0:0:0:
320,256,21484,1,8,0:0:0:0:
320,256,21757,1,8,0:0:0:0:
320,256,22029,1,8,0:0:0:0:
320,256,22302,1,8,0:0:0:0:
320,256,22575,1,8,0:0:0:0:
320,256,22847,1,8,0:0:0:0:
320,256,23120,1,8,0:0:0:0:
320,256,23393,1,8,0:0:0:0:
320,256,23529,1,8,0:0:0:0:
192,256,23666,1,0,0:0:0:0:
320,256,23802,1,8,0:0:0:0:
192,256,24075,1,0,0:0:0:0:
320,256,24211,1,8,0:0:0:0:
320,256,24484,1,8,0:0:0:0:
320,256,24757,1,8,0:0:0:0:
320,256,25029,1,8,0:0:0:0:
320,256,25302,1,8,0:0:0:0:
320,256,25575,1,8,0:0:0:0:
320,256,25847,1,8,0:0:0:0:
320,256,26120,1,8,0:0:0:0:
192,256,26257,1,0,0:0:0:0:
192,256,26529,1,0,0:0:0:0:
192,256,26802,1,0,0:0:0:0:
192,256,26938,1,0,0:0:0:0:
192,256,27075,1,0,0:0:0:0:
320,256,27347,1,8,0:0:0:0:
192,256,27484,1,0,0:0:0:0:
192,256,27620,1,0,0:0:0:0:
320,256,27757,1,8,0:0:0:0:
192,256,27893,1,0,0:0:0:0:
320,256,28029,1,8,0:0:0:0:
192,256,28166,1,0,0:0:0:0:
320,256,28302,1,8,0:0:0:0:
192,128,28438,1,4,0:0:0:0:
192,256,28711,1,0,0:0:0:0:
192,256,28847,1,0,0:0:0:0:
192,256,28984,1,0,0:0:0:0:
320,256,29120,1,8,0:0:0:0:
320,256,29529,1,8,0:0:0:0:
320,256,29938,1,8,0:0:0:0:
320,256,30211,1,8,0:0:0:0:
320,256,30484,1,8,0:0:0:0:
320,256,30757,1,8,0:0:0:0:
320,256,31029,1,8,0:0:0:0:
320,256,31302,1,8,0:0:0:0:
320,256,31575,1,8,0:0:0:0:
320,256,31847,1,8,0:0:0:0:
320,256,32120,1,8,0:0:0:0:
320,256,32257,1,8,0:0:0:0:
192,256,32393,1,0,0:0:0:0:
192,256,32529,1,0,0:0:0:0:
192,256,32802,1,0,0:0:0:0:
320,256,32938,1,8,0:0:0:0:
320,256,33211,1,8,0:0:0:0:
320,256,33484,1,8,0:0:0:0:
320,256,33757,1,8,0:0:0:0:
320,256,34029,1,8,0:0:0:0:
320,256,34302,1,8,0:0:0:0:
320,256,34575,1,8,0:0:0:0:
320,256,34847,1,8,0:0:0:0:
320,256,35120,1,8,0:0:0:0:
320,256,35393,1,8,0:0:0:0:
320,256,35666,1,8,0:0:0:0:
320,256,35938,1,8,0:0:0:0:
320,256,36075,1,8,0:0:0:0:
192,256,36211,1,0,0:0:0:0:
192,256,36347,1,0,0:0:0:0:
320,256,36484,1,8,0:0:0:0:
192,256,36620,1,0,0:0:0:0:
192,256,36666,1,0,0:0:0:0:
192,256,36711,1,0,0:0:0:0:
320,256,36757,1,8,0:0:0:0:
320,256,36893,1,8,0:0:0:0:
320,256,37029,1,8,0:0:0:0:
192,128,37166,1,4,0:0:0:0:
192,256,37302,1,0,0:0:0:0:
192,256,37438,1,0,0:0:0:0:
192,256,37575,1,0,0:0:0:0:
192,256,37711,1,0,0:0:0:0:
320,256,37847,1,8,0:0:0:0:
192,256,37984,1,0,0:0:0:0:
320,256,38120,1,8,0:0:0:0:
320,256,38666,1,8,0:0:0:0:
320,256,38938,1,8,0:0:0:0:
320,256,39211,1,8,0:0:0:0:
320,256,39484,1,8,0:0:0:0:
320,256,39757,1,8,0:0:0:0:
320,256,40029,1,8,0:0:0:0:
320,256,40302,1,8,0:0:0:0:
320,256,40575,1,8,0:0:0:0:
320,256,40847,1,8,0:0:0:0:
320,256,40984,1,8,0:0:0:0:
192,256,41120,1,0,0:0:0:0:
320,256,41257,1,8,0:0:0:0:
192,256,41393,1,0,0:0:0:0:
192,256,41529,1,0,0:0:0:0:
320,256,41666,1,8,0:0:0:0:
320,256,41938,1,8,0:0:0:0:
320,256,42211,1,8,0:0:0:0:
320,256,42484,1,8,0:0:0:0:
320,256,42757,1,8,0:0:0:0:
320,256,43029,1,8,0:0:0:0:
320,256,43302,1,8,0:0:0:0:
320,256,43575,1,8,0:0:0:0:
320,256,43847,1,8,0:0:0:0:
320,256,44120,1,8,0:0:0:0:
320,256,44393,1,8,0:0:0:0:
320,256,44666,1,8,0:0:0:0:
320,256,44938,1,8,0:0:0:0:
192,256,45075,1,0,0:0:0:0:
320,256,45211,1,8,0:0:0:0:
192,256,45347,1,0,0:0:0:0:
320,256,45484,1,8,0:0:0:0:
192,256,45620,1,0,0:0:0:0:
320,256,45757,1,8,0:0:0:0:
192,128,45893,1,4,0:0:0:0:
192,256,46029,1,0,0:0:0:0:
192,256,46166,1,0,0:0:0:0:
192,256,46234,1,0,0:0:0:0:
192,256,46302,1,0,0:0:0:0:
320,256,46438,1,8,0:0:0:0:
192,256,46575,1,0,0:0:0:0:
192,256,46711,1,0,0:0:0:0:
192,256,46779,1,0,0:0:0:0:
192,256,46847,1,0,0:0:0:0:
320,256,46984,1,8,0:0:0:0:
192,256,47120,1,0,0:0:0:0:
192,256,47257,1,0,0:0:0:0:
320,256,47393,1,8,0:0:0:0:
320,256,47666,1,8,0:0:0:0:
320,256,47938,1,8,0:0:0:0:
320,256,48211,1,8,0:0:0:0:
320,256,48484,1,8,0:0:0:0:
320,256,48757,1,8,0:0:0:0:
320,256,49029,1,8,0:0:0:0:
320,256,49302,1,8,0:0:0:0:
320,256,49575,1,8,0:0:0:0:
320,256,49711,1,8,0:0:0:0:
192,256,49847,1,0,0:0:0:0:
320,256,49984,1,8,0:0:0:0:
192,256,50257,1,0,0:0:0:0:
320,256,50393,1,8,0:0:0:0:
192,256,50529,1,0,0:0:0:0:
320,256,50666,1,8,0:0:0:0:
192,256,50802,1,0,0:0:0:0:
192,256,50938,1,0,0:0:0:0:
192,256,51075,1,0,0:0:0:0:
320,256,51211,1,8,0:0:0:0:
192,256,51347,1,0,0:0:0:0:
320,256,51484,1,8,0:0:0:0:
192,256,51620,1,0,0:0:0:0:
320,256,51757,1,8,0:0:0:0:
192,256,51893,1,0,0:0:0:0:
192,256,52029,1,0,0:0:0:0:
192,256,52166,1,0,0:0:0:0:
192,256,52302,1,0,0:0:0:0:
192,256,52438,1,0,0:0:0:0:
192,256,52507,1,0,0:0:0:0:
192,256,52575,1,0,0:0:0:0:
192,256,52643,1,0,0:0:0:0:
320,256,52711,1,8,0:0:0:0:
192,256,52779,1,0,0:0:0:0:
192,256,52847,1,0,0:0:0:0:
192,256,52916,1,0,0:0:0:0:
320,256,52984,1,8,0:0:0:0:
320,256,53052,1,8,0:0:0:0:
192,256,53120,1,0,0:0:0:0:
192,256,53188,1,0,0:0:0:0:
320,256,53257,1,8,0:0:0:0:
320,256,53325,1,8,0:0:0:0:
320,256,53393,1,8,0:0:0:0:
192,256,53461,1,0,0:0:0:0:
320,256,53529,1,8,0:0:0:0:
320,256,53802,1,8,0:0:0:0:
192,256,53938,1,0,0:0:0:0:
320,256,54075,1,8,0:0:0:0:
192,256,54211,1,0,0:0:0:0:
192,256,54279,1,0,0:0:0:0:
320,256,54347,1,8,0:0:0:0:
320,128,54620,1,12,0:0:0:0:
256,192,56257,12,8,57347,0:0:0:0:
256,192,58575,12,0,59529,0:0:0:0:
256,192,61029,12,0,61984,0:0:0:0:
192,256,64239,5,0,0:0:0:0:
192,256,64524,1,0,0:0:0:0:
320,256,64667,1,8,0:0:0:0:
192,256,64810,1,0,0:0:0:0:
320,256,65096,1,8,0:0:0:0:
192,256,65381,1,0,0:0:0:0:
192,256,65667,1,0,0:0:0:0:
320,256,65953,1,8,0:0:0:0:
192,256,66239,1,0,0:0:0:0:
192,256,66524,1,0,0:0:0:0:
320,256,66810,1,8,0:0:0:0:
192,256,66953,1,0,0:0:0:0:
192,256,67096,1,0,0:0:0:0:
320,256,67381,1,8,0:0:0:0:
320,256,67667,1,8,0:0:0:0:
192,256,67953,1,0,0:0:0:0:
320,256,68096,1,8,0:0:0:0:
320,256,68239,1,8,0:0:0:0:
192,256,68810,1,0,0:0:0:0:
192,256,69096,1,0,0:0:0:0:
320,256,69239,1,8,0:0:0:0:
192,256,69381,1,0,0:0:0:0:
320,256,69667,1,8,0:0:0:0:
320,256,69953,1,8,0:0:0:0:
192,256,70239,1,0,0:0:0:0:
320,256,70524,1,8,0:0:0:0:
192,256,70810,1,0,0:0:0:0:
192,256,71096,1,0,0:0:0:0:
192,256,71381,1,0,0:0:0:0:
192,256,71524,1,0,0:0:0:0:
320,256,71667,1,8,0:0:0:0:
192,256,71953,1,0,0:0:0:0:
320,256,72239,1,8,0:0:0:0:
192,256,72378,1,0,0:0:0:0:
320,256,72518,1,8,0:0:0:0:
320,256,72657,1,8,0:0:0:0:
192,256,72797,1,0,0:0:0:0:
192,256,73076,1,0,0:0:0:0:
192,128,73355,1,4,0:0:0:0:
192,256,73627,1,0,0:0:0:0:
320,256,73764,1,8,0:0:0:0:
192,256,73900,1,0,0:0:0:0:
320,256,74173,1,8,0:0:0:0:
192,256,74445,1,0,0:0:0:0:
192,256,74718,1,0,0:0:0:0:
320,256,74991,1,8,0:0:0:0:
320,256,75127,1,8,0:0:0:0:
192,256,75264,1,0,0:0:0:0:
192,256,75536,1,0,0:0:0:0:
320,256,75809,1,8,0:0:0:0:
192,256,75945,1,0,0:0:0:0:
192,256,76082,1,0,0:0:0:0:
320,256,76355,1,8,0:0:0:0:
320,256,76627,1,8,0:0:0:0:
192,256,76900,1,0,0:0:0:0:
192,256,77036,1,0,0:0:0:0:
320,256,77173,1,8,0:0:0:0:
192,256,77718,1,0,0:0:0:0:
192,256,77991,1,0,0:0:0:0:
320,256,78127,1,8,0:0:0:0:
192,128,78264,1,4,0:0:0:0:
320,256,78536,1,8,0:0:0:0:
320,256,78809,1,8,0:0:0:0:
192,256,79082,1,0,0:0:0:0:
320,128,79355,1,12,0:0:0:0:
192,256,79491,1,0,0:0:0:0:
192,256,79627,1,0,0:0:0:0:
192,256,79900,1,0,0:0:0:0:
192,256,80173,1,0,0:0:0:0:
192,256,80309,1,0,0:0:0:0:
320,128,80445,1,12,0:0:0:0:
192,256,80718,1,0,0:0:0:0:
320,256,80991,1,8,0:0:0:0:
192,256,81127,1,0,0:0:0:0:
320,256,81264,1,8,0:0:0:0:
320,256,81400,1,8,0:0:0:0:
320,128,81536,1,12,0:0:0:0:
192,256,81673,1,0,0:0:0:0:
192,256,81945,1,0,0:0:0:0:
320,128,82082,1,12,0:0:0:0:
320,256,82355,1,8,0:0:0:0:
192,256,82423,1,0,0:0:0:0:
320,256,82491,1,8,0:0:0:0:
192,256,82559,1,0,0:0:0:0:
320,256,82627,1,8,0:0:0:0:
320,256,82673,1,8,0:0:0:0:
320,256,82718,1,8,0:0:0:0:
192,256,82764,1,0,0:0:0:0:
320,256,82900,1,8,0:0:0:0:
192,256,83036,1,0,0:0:0:0:
320,256,83173,1,8,0:0:0:0:
320,256,83241,1,8,0:0:0:0:
320,256,83309,1,8,0:0:0:0:
192,256,83445,1,0,0:0:0:0:
192,256,83582,1,0,0:0:0:0:
192,256,83718,1,0,0:0:0:0:
320,256,83764,1,8,0:0:0:0:
320,256,83809,1,8,0:0:0:0:
320,256,83855,1,8,0:0:0:0:
192,256,83991,1,0,0:0:0:0:
320,256,84127,1,8,0:0:0:0:
320,256,84195,1,8,0:0:0:0:
192,256,84264,1,0,0:0:0:0:
192,256,84400,1,0,0:0:0:0:
320,256,84536,1,8,0:0:0:0:
192,256,84673,1,0,0:0:0:0:
192,256,84741,1,0,0:0:0:0:
320,256,84809,1,8,0:0:0:0:
320,256,84855,1,8,0:0:0:0:
192,256,84900,1,0,0:0:0:0:
192,256,84945,1,0,0:0:0:0:
192,256,85082,1,0,0:0:0:0:
192,256,85127,1,0,0:0:0:0:
320,256,85218,1,8,0:0:0:0:
320,256,85264,1,8,0:0:0:0:
192,256,85355,1,0,0:0:0:0:
320,256,85491,1,8,0:0:0:0:
192,256,85627,1,0,0:0:0:0:
192,256,85695,1,0,0:0:0:0:
192,256,85764,1,0,0:0:0:0:
192,256,85832,1,0,0:0:0:0:
320,256,85900,1,8,0:0:0:0:
320,128,86173,1,12,0:0:0:0:
192,256,86445,1,0,0:0:0:0:
192,256,86718,1,0,0:0:0:0:
320,256,86855,1,8,0:0:0:0:
192,256,86991,1,0,0:0:0:0:
192,256,87059,1,0,0:0:0:0:
192,256,87127,1,0,0:0:0:0:
320,256,87264,1,8,0:0:0:0:
320,256,87309,1,8,0:0:0:0:
192,256,87355,1,0,0:0:0:0:
192,256,87400,1,0,0:0:0:0:
192,256,87536,1,0,0:0:0:0:
320,256,87673,1,8,0:0:0:0:
192,256,87809,1,0,0:0:0:0:
192,256,87945,1,0,0:0:0:0:
320,256,88082,1,8,0:0:0:0:
320,256,88218,1,8,0:0:0:0:
192,256,88286,1,0,0:0:0:0:
320,256,88355,1,8,0:0:0:0:
320,256,88491,1,8,0:0:0:0:
320,256,88559,1,8,0:0:0:0:
192,256,88627,1,0,0:0:0:0:
192,256,88764,1,0,0:0:0:0:
192,256,88900,1,0,0:0:0:0:
192,256,88968,1,0,0:0:0:0:
320,256,89036,1,8,0:0:0:0:
320,256,89105,1,8,0:0:0:0:
192,256,89173,1,0,0:0:0:0:
192,256,89309,1,0,0:0:0:0:
320,256,89445,1,8,0:0:0:0:
192,256,89582,1,0,0:0:0:0:
256,192,89718,12,0,90673,0:0:0:0:
192,128,90809,5,4,0:0:0:0:
192,256,91082,1,0,0:0:0:0:
192,256,91150,1,0,0:0:0:0:
192,256,91218,1,0,0:0:0:0:
192,256,91286,1,0,0:0:0:0:
320,256,91355,1,8,0:0:0:0:
192,256,91627,1,0,0:0:0:0:
192,256,91695,1,0,0:0:0:0:
192,256,91764,1,0,0:0:0:0:
192,256,91832,1,0,0:0:0:0:
320,256,91900,1,8,0:0:0:0:
320,256,92173,1,8,0:0:0:0:
320,256,92445,1,8,0:0:0:0:
192,256,92582,1,0,0:0:0:0:
320,256,92718,1,8,0:0:0:0:
192,256,92855,1,0,0:0:0:0:
192,256,92991,1,0,0:0:0:0:
192,256,93264,1,0,0:0:0:0:
192,256,93332,1,0,0:0:0:0:
192,256,93400,1,0,0:0:0:0:
192,256,93468,1,0,0:0:0:0:
320,256,93536,1,8,0:0:0:0:
192,256,93809,1,0,0:0:0:0:
192,256,93945,1,0,0:0:0:0:
320,256,94082,1,8,0:0:0:0:
192,256,94218,1,0,0:0:0:0:
320,256,94355,1,8,0:0:0:0:
192,256,94491,1,0,0:0:0:0:
192,256,94627,1,0,0:0:0:0:
320,128,94900,1,12,0:0:0:0:
192,128,95173,1,4,0:0:0:0:
320,256,95445,1,8,0:0:0:0:
192,256,95514,1,0,0:0:0:0:
192,256,95582,1,0,0:0:0:0:
192,256,95650,1,0,0:0:0:0:
320,256,95718,1,8,0:0:0:0:
320,256,95991,1,8,0:0:0:0:
192,256,96059,1,0,0:0:0:0:
192,256,96127,1,0,0:0:0:0:
192,256,96195,1,0,0:0:0:0:
320,256,96264,1,8,0:0:0:0:
320,256,96536,1,8,0:0:0:0:
320,256,96809,1,8,0:0:0:0:
192,256,96945,1,0,0:0:0:0:
320,256,97082,1,8,0:0:0:0:
320,256,97218,1,8,0:0:0:0:
192,128,97355,1,4,0:0:0:0:
192,256,97627,1,0,0:0:0:0:
192,256,97695,1,0,0:0:0:0:
320,256,97764,1,8,0:0:0:0:
192,256,97832,1,0,0:0:0:0:
320,256,97900,1,8,0:0:0:0:
192,256,98173,1,0,0:0:0:0:
192,256,98241,1,0,0:0:0:0:
320,256,98309,1,8,0:0:0:0:
192,256,98377,1,0,0:0:0:0:
320,256,98445,1,8,0:0:0:0:
192,256,98582,1,0,0:0:0:0:
320,256,98718,1,8,0:0:0:0:
192,256,98855,1,0,0:0:0:0:
320,256,98991,1,8,0:0:0:0:
192,256,99127,1,0,0:0:0:0:
320,128,99264,1,12,0:0:0:0:
192,128,99536,1,4,0:0:0:0:
192,256,99809,1,0,0:0:0:0:
320,256,99877,1,8,0:0:0:0:
320,256,99945,1,8,0:0:0:0:
192,256,100014,1,0,0:0:0:0:
320,256,100082,1,8,0:0:0:0:
192,256,100355,1,0,0:0:0:0:
320,256,100423,1,8,0:0:0:0:
320,256,100491,1,8,0:0:0:0:
192,256,100559,1,0,0:0:0:0:
320,256,100627,1,8,0:0:0:0:
320,256,100900,1,8,0:0:0:0:
320,256,101173,1,8,0:0:0:0:
192,256,101309,1,0,0:0:0:0:
320,256,101445,1,8,0:0:0:0:
192,256,101582,1,0,0:0:0:0:
192,128,101718,1,4,0:0:0:0:
192,256,101855,1,0,0:0:0:0:
192,256,101991,1,0,0:0:0:0:
320,256,102059,1,8,0:0:0:0:
192,256,102127,1,0,0:0:0:0:
320,256,102195,1,8,0:0:0:0:
320,256,102264,1,8,0:0:0:0:
320,256,102400,1,8,0:0:0:0:
192,256,102536,1,0,0:0:0:0:
320,256,102605,1,8,0:0:0:0:
192,256,102673,1,0,0:0:0:0:
320,256,102741,1,8,0:0:0:0:
320,256,102809,1,8,0:0:0:0:
320,256,102945,1,8,0:0:0:0:
320,256,103082,1,8,0:0:0:0:
320,256,103150,1,8,0:0:0:0:
192,256,103218,1,0,0:0:0:0:
192,256,103286,1,0,0:0:0:0:
192,256,103355,1,0,0:0:0:0:
320,128,103627,1,12,0:0:0:0:
192,128,103900,1,4,0:0:0:0:
192,256,104036,1,0,0:0:0:0:
192,256,104173,1,0,0:0:0:0:
320,256,104241,1,8,0:0:0:0:
192,256,104309,1,0,0:0:0:0:
192,256,104377,1,0,0:0:0:0:
320,256,104445,1,8,0:0:0:0:
192,256,104582,1,0,0:0:0:0:
192,256,104718,1,0,0:0:0:0:
192,256,104786,1,0,0:0:0:0:
320,256,104855,1,8,0:0:0:0:
320,256,104923,1,8,0:0:0:0:
320,256,104991,1,8,0:0:0:0:
192,256,105127,1,0,0:0:0:0:
320,256,105264,1,8,0:0:0:0:
192,256,105400,1,0,0:0:0:0:
320,256,105536,1,8,0:0:0:0:
192,256,105673,1,0,0:0:0:0:
320,256,105809,1,8,0:0:0:0:
320,256,105877,1,8,0:0:0:0:
192,256,105945,1,0,0:0:0:0:
192,256,106014,1,0,0:0:0:0:
192,256,106082,1,0,0:0:0:0:
192,256,106150,1,0,0:0:0:0:
320,256,106218,1,8,0:0:0:0:
320,256,106286,1,8,0:0:0:0:
192,256,106355,1,0,0:0:0:0:
192,256,106423,1,0,0:0:0:0:
192,256,106491,1,0,0:0:0:0:
192,256,106559,1,0,0:0:0:0:
320,256,106627,1,8,0:0:0:0:
192,256,106695,1,0,0:0:0:0:
192,256,106764,1,0,0:0:0:0:
192,256,106832,1,0,0:0:0:0:
320,256,106900,1,8,0:0:0:0:
192,256,106968,1,0,0:0:0:0:
192,256,107036,1,0,0:0:0:0:
192,256,107105,1,0,0:0:0:0:
320,256,107173,1,8,0:0:0:0:
320,256,107241,1,8,0:0:0:0:
192,256,107309,1,0,0:0:0:0:
192,256,107377,1,0,0:0:0:0:
320,256,107445,1,8,0:0:0:0:
320,256,107514,1,8,0:0:0:0:
192,256,107582,1,0,0:0:0:0:
192,256,107650,1,0,0:0:0:0:
192,256,107718,1,0,0:0:0:0:
320,256,107786,1,8,0:0:0:0:
192,256,107855,1,0,0:0:0:0:
320,128,107991,1,12,0:0:0:0:
192,128,108264,5,4,0:0:0:0:
320,256,108400,1,8,0:0:0:0:
192,256,108536,1,0,0:0:0:0:
192,256,108605,1,0,0:0:0:0:
192,256,108673,1,0,0:0:0:0:
192,256,108741,1,0,0:0:0:0:
320,256,108809,1,8,0:0:0:0:
192,256,108945,1,0,0:0:0:0:
192,256,109082,1,0,0:0:0:0:
192,256,109150,1,0,0:0:0:0:
192,256,109218,1,0,0:0:0:0:
192,256,109286,1,0,0:0:0:0:
320,256,109355,1,8,0:0:0:0:
192,256,109491,1,0,0:0:0:0:
320,256,109627,1,8,0:0:0:0:
192,256,109764,1,0,0:0:0:0:
192,256,109900,1,0,0:0:0:0:
320,256,109968,1,8,0:0:0:0:
192,256,110036,1,0,0:0:0:0:
192,256,110173,1,0,0:0:0:0:
320,256,110241,1,8,0:0:0:0:
320,256,110309,1,8,0:0:0:0:
320,256,110377,1,8,0:0:0:0:
192,256,110445,1,0,0:0:0:0:
192,256,110582,1,0,0:0:0:0:
320,256,110650,1,8,0:0:0:0:
192,256,110718,1,0,0:0:0:0:
192,256,110786,1,0,0:0:0:0:
320,256,110855,1,8,0:0:0:0:
192,256,110923,1,0,0:0:0:0:
320,256,110991,1,8,0:0:0:0:
320,256,111059,1,8,0:0:0:0:
320,256,111127,1,8,0:0:0:0:
192,256,111195,1,0,0:0:0:0:
320,256,111264,1,8,0:0:0:0:
320,256,111332,1,8,0:0:0:0:
192,256,111400,1,0,0:0:0:0:
192,256,111468,1,0,0:0:0:0:
320,256,111536,1,8,0:0:0:0:
192,256,111673,1,0,0:0:0:0:
192,256,111809,1,0,0:0:0:0:
320,256,111877,1,8,0:0:0:0:
192,256,111945,1,0,0:0:0:0:
320,256,112014,1,8,0:0:0:0:
320,256,112082,1,8,0:0:0:0:
192,256,112218,1,0,0:0:0:0:
320,128,112355,1,12,0:0:0:0:
192,256,112491,1,0,0:0:0:0:
320,256,112627,1,8,0:0:0:0:
192,256,112695,1,0,0:0:0:0:
192,256,112764,1,0,0:0:0:0:
192,256,112900,1,0,0:0:0:0:
320,256,112968,1,8,0:0:0:0:
192,256,113036,1,0,0:0:0:0:
320,256,113105,1,8,0:0:0:0:
320,256,113173,1,8,0:0:0:0:
192,256,113309,1,0,0:0:0:0:
192,256,113445,1,0,0:0:0:0:
192,256,113514,1,0,0:0:0:0:
320,256,113582,1,8,0:0:0:0:
192,256,113650,1,0,0:0:0:0:
320,256,113718,1,8,0:0:0:0:
192,256,113855,1,0,0:0:0:0:
320,256,113991,1,8,0:0:0:0:
192,256,114127,1,0,0:0:0:0:
320,256,114264,1,8,0:0:0:0:
320,256,114332,1,8,0:0:0:0:
192,256,114400,1,0,0:0:0:0:
192,256,114536,1,0,0:0:0:0:
192,256,114605,1,0,0:0:0:0:
320,256,114673,1,8,0:0:0:0:
320,256,114809,1,8,0:0:0:0:
192,256,114945,1,0,0:0:0:0:
192,256,115082,1,0,0:0:0:0:
192,256,115150,1,0,0:0:0:0:
192,256,115218,1,0,0:0:0:0:
192,256,115286,1,0,0:0:0:0:
320,256,115355,1,8,0:0:0:0:
320,256,115491,1,8,0:0:0:0:
320,256,115559,1,8,0:0:0:0:
320,256,115627,1,8,0:0:0:0:
192,256,115695,1,0,0:0:0:0:
192,256,115764,1,0,0:0:0:0:
320,256,115832,1,8,0:0:0:0:
320,256,115900,1,8,0:0:0:0:
192,256,116036,1,0,0:0:0:0:
192,256,116105,1,0,0:0:0:0:
320,256,116173,1,8,0:0:0:0:
192,256,116309,1,0,0:0:0:0:
192,256,116377,1,0,0:0:0:0:
320,256,116445,1,8,0:0:0:0:
320,256,116514,1,8,0:0:0:0:
192,256,116582,1,0,0:0:0:0:
192,256,116650,1,0,0:0:0:0:
320,256,116718,1,8,0:0:0:0:
192,128,116991,1,4,0:0:0:0:
192,256,117127,1,0,0:0:0:0:
320,256,117264,1,8,0:0:0:0:
192,256,117332,1,0,0:0:0:0:
192,256,117400,1,0,0:0:0:0:
192,256,117468,1,0,0:0:0:0:
320,256,117536,1,8,0:0:0:0:
192,256,117673,1,0,0:0:0:0:
192,256,117809,1,0,0:0:0:0:
320,256,117877,1,8,0:0:0:0:
192,256,117945,1,0,0:0:0:0:
192,256,118014,1,0,0:0:0:0:
320,256,118082,1,8,0:0:0:0:
192,256,118218,1,0,0:0:0:0:
320,256,118355,1,8,0:0:0:0:
192,256,118491,1,0,0:0:0:0:
320,256,118627,1,8,0:0:0:0:
192,256,118695,1,0,0:0:0:0:
192,256,118764,1,0,0:0:0:0:
192,256,118900,1,0,0:0:0:0:
192,256,118968,1,0,0:0:0:0:
320,256,119036,1,8,0:0:0:0:
192,256,119173,1,0,0:0:0:0:
192,256,119309,1,0,0:0:0:0:
192,256,119445,1,0,0:0:0:0:
320,256,119514,1,8,0:0:0:0:
320,256,119582,1,8,0:0:0:0:
192,256,119650,1,0,0:0:0:0:
320,256,119718,1,8,0:0:0:0:
320,256,119855,1,8,0:0:0:0:
320,256,119923,1,8,0:0:0:0:
320,256,119991,1,8,0:0:0:0:
192,256,120059,1,0,0:0:0:0:
192,256,120127,1,0,0:0:0:0:
192,256,120195,1,0,0:0:0:0:
320,256,120264,1,8,0:0:0:0:
192,256,120400,1,0,0:0:0:0:
192,256,120536,1,0,0:0:0:0:
192,256,120673,1,0,0:0:0:0:
192,256,120741,1,0,0:0:0:0:
320,256,120809,1,8,0:0:0:0:
320,256,120945,1,8,0:0:0:0:
320,128,121082,1,12,0:0:0:0:
320,256,121218,1,8,0:0:0:0:
192,256,121355,1,0,0:0:0:0:
192,256,121491,1,0,0:0:0:0:
192,256,121627,1,0,0:0:0:0:
192,256,121695,1,0,0:0:0:0:
192,256,121764,1,0,0:0:0:0:
192,256,121832,1,0,0:0:0:0:
320,256,121900,1,8,0:0:0:0:
320,128,122173,1,12,0:0:0:0:
192,256,122309,1,0,0:0:0:0:
192,256,122377,1,0,0:0:0:0:
320,256,122445,1,8,0:0:0:0:
192,256,122582,1,0,0:0:0:0:
192,256,122650,1,0,0:0:0:0:
320,256,122718,1,8,0:0:0:0:
320,256,122786,1,8,0:0:0:0:
192,256,122855,1,0,0:0:0:0:
192,256,122923,1,0,0:0:0:0:
320,256,122991,1,8,0:0:0:0:
192,256,123127,1,0,0:0:0:0:
320,128,123264,1,12,0:0:0:0:
192,256,123400,1,0,0:0:0:0:
192,256,123536,1,0,0:0:0:0:
192,256,123673,1,0,0:0:0:0:
192,256,123809,1,0,0:0:0:0:
320,256,123855,1,8,0:0:0:0:
320,256,124082,1,8,0:0:0:0:
320,256,124150,1,8,0:0:0:0:
320,256,124218,1,8,0:0:0:0:
192,256,124355,1,0,0:0:0:0:
192,256,124400,1,0,0:0:0:0:
320,256,124491,1,8,0:0:0:0:
320,256,124536,1,8,0:0:0:0:
192,128,124627,1,4,0:0:0:0:
192,256,124900,1,0,0:0:0:0:
320,256,125036,1,8,0:0:0:0:
192,256,125173,1,0,0:0:0:0:
320,128,125445,1,12,0:0:0:0:
192,128,125718,1,4,0:0:0:0:
192,256,125855,1,0,0:0:0:0:
192,256,125923,1,0,0:0:0:0:
192,256,125991,1,0,0:0:0:0:
192,256,126059,1,0,0:0:0:0:
320,256,126127,1,8,0:0:0:0:
320,256,126264,1,8,0:0:0:0:
320,128,126536,1,12,0:0:0:0:
320,256,126809,1,8,0:0:0:0:
192,256,126945,1,0,0:0:0:0:
320,256,127082,1,8,0:0:0:0:
320,256,127218,1,8,0:0:0:0:
320,256,127286,1,8,0:0:0:0:
320,256,127355,1,8,0:0:0:0:
320,128,127627,1,12,0:0:0:0:
192,256,127900,1,0,0:0:0:0:
192,256,128036,1,0,0:0:0:0:
192,256,128173,1,0,0:0:0:0:
192,256,128241,1,0,0:0:0:0:
320,256,128309,1,8,0:0:0:0:
192,256,128377,1,0,0:0:0:0:
320,256,128445,1,8,0:0:0:0:
320,256,128582,1,8,0:0:0:0:
320,128,128718,1,12,0:0:0:0:
192,256,128855,1,0,0:0:0:0:
192,256,128991,1,0,0:0:0:0:
320,128,129127,1,12,0:0:0:0:
192,256,129264,1,0,0:0:0:0:
320,128,129400,1,12,0:0:0:0:
320,256,129536,1,8,0:0:0:0:
192,256,129673,1,0,0:0:0:0:
320,128,129809,1,12,0:0:0:0:
192,256,130082,1,0,0:0:0:0:
320,256,130218,1,8,0:0:0:0:
192,256,130355,1,0,0:0:0:0:
192,256,130423,1,0,0:0:0:0:
192,256,130491,1,0,0:0:0:0:
192,256,130559,1,0,0:0:0:0:
320,256,130627,1,8,0:0:0:0:
320,128,130900,1,12,0:0:0:0:
320,256,131173,1,8,0:0:0:0:
192,256,131241,1,0,0:0:0:0:
192,256,131309,1,0,0:0:0:0:
192,256,131377,1,0,0:0:0:0:
320,256,131445,1,8,0:0:0:0:
192,256,131582,1,0,0:0:0:0:
320,256,131718,1,8,0:0:0:0:
320,128,131991,1,12,0:0:0:0:
192,256,132264,1,0,0:0:0:0:
192,256,132400,1,0,0:0:0:0:
192,256,132536,1,0,0:0:0:0:
320,256,132673,1,8,0:0:0:0:
320,256,132741,1,8,0:0:0:0:
320,256,132809,1,8,0:0:0:0:
320,128,133082,1,12,0:0:0:0:
192,256,133218,1,0,0:0:0:0:
320,256,133355,1,8,0:0:0:0:
192,256,133491,1,0,0:0:0:0:
320,256,133627,1,8,0:0:0:0:
192,256,133764,1,0,0:0:0:0:
192,256,133900,1,0,0:0:0:0:
320,256,133968,1,8,0:0:0:0:
192,256,134036,1,0,0:0:0:0:
320,128,134173,1,12,0:0:0:0:
192,256,134445,1,0,0:0:0:0:
192,256,134582,1,0,0:0:0:0:
192,256,134718,1,0,0:0:0:0:
192,256,134786,1,0,0:0:0:0:
320,256,134855,1,8,0:0:0:0:
320,256,134923,1,8,0:0:0:0:
320,256,134991,1,8,0:0:0:0:
320,128,135264,1,12,0:0:0:0:
320,256,135536,1,8,0:0:0:0:
192,256,135673,1,0,0:0:0:0:
192,256,135741,1,0,0:0:0:0:
192,256,135809,1,0,0:0:0:0:
320,256,135945,1,8,0:0:0:0:
192,256,136082,1,0,0:0:0:0:
192,256,136218,1,0,0:0:0:0:
320,128,136355,1,12,0:0:0:0:
192,256,136627,1,0,0:0:0:0:
320,256,136764,1,8,0:0:0:0:
192,256,136832,1,0,0:0:0:0:
320,256,136900,1,8,0:0:0:0:
192,256,137036,1,0,0:0:0:0:
192,256,137105,1,0,0:0:0:0:
320,256,137173,1,8,0:0:0:0:
320,128,137445,1,12,0:0:0:0:
192,256,137582,1,0,0:0:0:0:
192,256,137718,1,0,0:0:0:0:
320,128,137855,1,12,0:0:0:0:
192,256,137991,1,0,0:0:0:0:
320,128,138127,1,12,0:0:0:0:
320,256,138264,1,8,0:0:0:0:
192,256,138400,1,0,0:0:0:0:
320,128,138536,1,12,0:0:0:0:
192,256,138809,1,0,0:0:0:0:
192,256,138877,1,0,0:0:0:0:
192,256,138945,1,0,0:0:0:0:
192,256,139014,1,0,0:0:0:0:
192,256,139082,1,0,0:0:0:0:
192,256,139150,1,0,0:0:0:0:
192,256,139218,1,0,0:0:0:0:
192,256,139286,1,0,0:0:0:0:
320,256,139355,1,8,0:0:0:0:
320,128,139627,1,12,0:0:0:0:
192,256,139900,1,0,0:0:0:0:
192,256,139968,1,0,0:0:0:0:
192,256,140036,1,0,0:0:0:0:
192,256,140105,1,0,0:0:0:0:
320,256,140173,1,8,0:0:0:0:
320,256,140241,1,8,0:0:0:0:
320,256,140309,1,8,0:0:0:0:
320,256,140377,1,8,0:0:0:0:
320,256,140445,1,8,0:0:0:0:
320,128,140718,1,12,0:0:0:0:
192,256,140991,1,0,0:0:0:0:
192,256,141059,1,0,0:0:0:0:
192,256,141127,1,0,0:0:0:0:
192,256,141195,1,0,0:0:0:0:
320,256,141264,1,8,0:0:0:0:
320,256,141309,1,8,0:0:0:0:
320,128,141536,1,12,0:0:0:0:
192,256,141809,1,0,0:0:0:0:
192,256,141855,1,0,0:0:0:0:
320,256,141945,1,8,0:0:0:0:
320,256,141991,1,8,0:0:0:0:
192,128,142082,1,4,0:0:0:0:
192,256,142218,1,0,0:0:0:0:
192,256,142355,1,0,0:0:0:0:
320,256,142491,1,8,0:0:0:0:
320,256,142627,1,8,0:0:0:0:
320,256,142764,1,8,0:0:0:0:
192,128,142900,1,4,0:0:0:0:
192,256,143036,1,0,0:0:0:0:
320,128,143173,1,12,0:0:0:0:
256,192,143309,12,0,147536,0:0:0:0:
192,128,151900,5,4,0:0:0:0:
192,256,152173,1,0,0:0:0:0:
192,256,152445,1,0,0:0:0:0:
192,256,152718,1,0,0:0:0:0:
320,256,152991,1,8,0:0:0:0:
192,256,153264,1,0,0:0:0:0:
192,256,153536,1,0,0:0:0:0:
192,256,153809,1,0,0:0:0:0:
192,256,154082,1,0,0:0:0:0:
192,256,154355,1,0,0:0:0:0:
320,256,154627,1,8,0:0:0:0:
192,256,154900,1,0,0:0:0:0:
192,256,155173,1,0,0:0:0:0:
192,256,155445,1,0,0:0:0:0:
320,256,155718,1,8,0:0:0:0:
192,256,155991,1,0,0:0:0:0:
320,256,156264,1,8,0:0:0:0:
192,256,156400,1,0,0:0:0:0:
192,256,156536,1,0,0:0:0:0:
192,256,156673,1,0,0:0:0:0:
320,256,156809,1,8,0:0:0:0:
192,256,156945,1,0,0:0:0:0:
192,256,157082,1,0,0:0:0:0:
192,256,157218,1,0,0:0:0:0:
320,256,157355,1,8,0:0:0:0:
192,256,157491,1,0,0:0:0:0:
192,256,157627,1,0,0:0:0:0:
192,256,157764,1,0,0:0:0:0:
320,256,157900,1,8,0:0:0:0:
192,256,158036,1,0,0:0:0:0:
192,256,158173,1,0,0:0:0:0:
320,256,158309,1,8,0:0:0:0:
192,256,158445,1,0,0:0:0:0:
192,256,158536,1,0,0:0:0:0:
192,256,158627,1,0,0:0:0:0:
320,256,158718,1,8,0:0:0:0:
320,256,158809,1,8,0:0:0:0:
320,256,158900,1,8,0:0:0:0:
192,256,158991,1,0,0:0:0:0:
192,256,159082,1,0,0:0:0:0:
192,256,159173,1,0,0:0:0:0:
320,256,159264,1,8,0:0:0:0:
320,256,159355,1,8,0:0:0:0:
320,256,159445,1,8,0:0:0:0:
320,256,159536,1,8,0:0:0:0:
192,256,159605,1,0,0:0:0:0:
192,256,159673,1,0,0:0:0:0:
192,256,159741,1,0,0:0:0:0:
320,256,159809,1,8,0:0:0:0:
192,256,159877,1,0,0:0:0:0:
320,256,159945,1,8,0:0:0:0:
192,256,160014,1,0,0:0:0:0:
320,256,160082,1,8,0:0:0:0:
320,128,160355,1,12,0:0:0:0:
192,128,160627,1,4,0:0:0:0:
192,256,160900,1,0,0:0:0:0:
320,128,161173,1,12,0:0:0:0:
192,256,161445,1,0,0:0:0:0:
320,256,161627,1,8,0:0:0:0:
192,256,161900,1,0,0:0:0:0:
320,256,161991,1,8,0:0:0:0:
320,256,162173,1,8,0:0:0:0:
192,256,162264,1,0,0:0:0:0:
192,256,162536,1,0,0:0:0:0:
320,256,162809,1,8,0:0:0:0:
192,256,162991,1,0,0:0:0:0:
320,256,163082,1,8,0:0:0:0:
320,128,163355,1,12,0:0:0:0:
192,256,163627,1,0,0:0:0:0:
320,256,163809,1,8,0:0:0:0:
192,256,164081,1,0,0:0:0:0:
320,256,164172,1,8,0:0:0:0:
320,256,164354,1,8,0:0:0:0:
192,256,164445,1,0,0:0:0:0:
192,256,164536,1,0,0:0:0:0:
192,256,164627,1,0,0:0:0:0:
320,256,164717,1,8,0:0:0:0:
320,256,164808,1,8,0:0:0:0:
320,256,164899,1,8,0:0:0:0:
192,128,164990,1,4,0:0:0:0:
192,256,165172,1,0,0:0:0:0:
320,256,165263,1,8,0:0:0:0:
320,128,165536,1,12,0:0:0:0:
192,256,165808,1,0,0:0:0:0:
320,256,165990,1,8,0:0:0:0:
192,256,166263,1,0,0:0:0:0:
320,256,166354,1,8,0:0:0:0:
320,256,166536,1,8,0:0:0:0:
192,256,166627,1,0,0:0:0:0:
192,256,166899,1,0,0:0:0:0:
192,256,167172,1,0,0:0:0:0:
192,256,167354,1,0,0:0:0:0:
320,256,167445,1,8,0:0:0:0:
320,128,167717,1,12,0:0:0:0:
192,256,167990,1,0,0:0:0:0:
320,256,168172,1,8,0:0:0:0:
320,256,168445,1,8,0:0:0:0:
192,256,168536,1,0,0:0:0:0:
192,256,168717,1,0,0:0:0:0:
320,256,168808,1,8,0:0:0:0:
320,256,169081,1,8,0:0:0:0:
192,256,169172,1,0,0:0:0:0:
320,256,169263,1,8,0:0:0:0:
192,128,169354,1,4,0:0:0:0:
192,256,169536,1,0,0:0:0:0:
320,256,169627,1,8,0:0:0:0:
320,128,169899,1,12,0:0:0:0:
192,256,170172,1,0,0:0:0:0:
320,256,170354,1,8,0:0:0:0:
192,256,170627,1,0,0:0:0:0:
320,256,170717,1,8,0:0:0:0:
320,256,170899,1,8,0:0:0:0:
192,256,170990,1,0,0:0:0:0:
192,256,171263,1,0,0:0:0:0:
320,256,171308,1,8,0:0:0:0:
192,128,171536,1,4,0:0:0:0:
192,256,171717,1,0,0:0:0:0:
320,256,171808,1,8,0:0:0:0:
320,128,172081,1,12,0:0:0:0:
192,256,172354,1,0,0:0:0:0:
320,256,172536,1,8,0:0:0:0:
192,256,172808,1,0,0:0:0:0:
320,256,172899,1,8,0:0:0:0:
320,256,173081,1,8,0:0:0:0:
192,256,173172,1,0,0:0:0:0:
192,256,173263,1,0,0:0:0:0:
320,256,173354,1,8,0:0:0:0:
192,256,173445,1,0,0:0:0:0:
192,256,173536,1,0,0:0:0:0:
320,256,173627,1,8,0:0:0:0:
192,128,173717,1,4,0:0:0:0:
192,256,173899,1,0,0:0:0:0:
320,256,173990,1,8,0:0:0:0:
320,128,174263,1,12,0:0:0:0:
192,256,174536,1,0,0:0:0:0:
320,256,174717,1,8,0:0:0:0:
192,256,174990,1,0,0:0:0:0:
320,256,175081,1,8,0:0:0:0:
320,256,175263,1,8,0:0:0:0:
192,256,175354,1,0,0:0:0:0:
192,256,175627,1,0,0:0:0:0:
320,256,175672,1,8,0:0:0:0:
192,128,175899,1,4,0:0:0:0:
192,256,176081,1,0,0:0:0:0:
320,256,176172,1,8,0:0:0:0:
320,128,176445,1,12,0:0:0:0:
192,256,176717,1,0,0:0:0:0:
320,128,176899,1,12,0:0:0:0:
192,256,177172,1,0,0:0:0:0:
320,128,177263,1,12,0:0:0:0:
192,256,177445,1,0,0:0:0:0:
320,128,177536,1,12,0:0:0:0:
320,256,177717,1,8,0:0:0:0:
192,256,177808,1,0,0:0:0:0:
192,256,177899,1,0,0:0:0:0:
192,256,177990,1,0,0:0:0:0:
320,128,178081,1,12,0:0:0:0:
192,256,178354,1,0,0:0:0:0:
320,256,178399,1,8,0:0:0:0:
320,128,178627,1,12,0:0:0:0:
192,256,178899,1,0,0:0:0:0:
320,256,179081,1,8,0:0:0:0:
192,256,179354,1,0,0:0:0:0:
320,256,179445,1,8,0:0:0:0:
320,256,179627,1,8,0:0:0:0:
192,256,179717,1,0,0:0:0:0:
192,256,179808,1,0,0:0:0:0:
192,256,179899,1,0,0:0:0:0:
320,256,179990,1,8,0:0:0:0:
192,128,180263,1,4,0:0:0:0:
192,256,180445,1,0,0:0:0:0:
320,256,180536,1,8,0:0:0:0:
320,128,180808,1,12,0:0:0:0:
192,256,181081,1,0,0:0:0:0:
320,256,181263,1,8,0:0:0:0:
192,256,181536,1,0,0:0:0:0:
320,256,181627,1,8,0:0:0:0:
320,256,181808,1,8,0:0:0:0:
192,256,181899,1,0,0:0:0:0:
192,256,181990,1,0,0:0:0:0:
192,256,182081,1,0,0:0:0:0:
320,256,182172,1,8,0:0:0:0:
320,256,182263,1,8,0:0:0:0:
320,256,182354,1,8,0:0:0:0:
192,128,182445,1,4,0:0:0:0:
320,256,182627,1,8,0:0:0:0:
192,256,182717,1,0,0:0:0:0:
320,128,182990,1,12,0:0:0:0:
192,256,183263,1,0,0:0:0:0:
320,256,183445,1,8,0:0:0:0:
192,256,183717,1,0,0:0:0:0:
320,256,183808,1,8,0:0:0:0:
320,256,183990,1,8,0:0:0:0:
192,256,184081,1,0,0:0:0:0:
192,256,184354,1,0,0:0:0:0:
320,256,184399,1,8,0:0:0:0:
192,128,184627,1,4,0:0:0:0:
192,256,184808,1,0,0:0:0:0:
320,256,184899,1,8,0:0:0:0:
320,128,185172,1,12,0:0:0:0:
192,256,185445,1,0,0:0:0:0:
320,128,185627,1,12,0:0:0:0:
320,256,185899,1,8,0:0:0:0:
192,128,185990,1,4,0:0:0:0:
192,256,186172,1,0,0:0:0:0:
320,128,186263,1,12,0:0:0:0:
320,256,186536,1,8,0:0:0:0:
192,256,186627,1,0,0:0:0:0:
320,256,186717,1,8,0:0:0:0:
192,128,186808,1,4,0:0:0:0:
192,256,186990,1,0,0:0:0:0:
320,256,187081,1,8,0:0:0:0:
320,128,187354,1,12,0:0:0:0:
192,256,187627,1,0,0:0:0:0:
320,256,187808,1,8,0:0:0:0:
192,256,188081,1,0,0:0:0:0:
320,256,188172,1,8,0:0:0:0:
320,256,188354,1,8,0:0:0:0:
192,128,188445,1,4,0:0:0:0:
192,256,188717,1,0,0:0:0:0:
320,256,188763,1,8,0:0:0:0:
192,128,188990,1,4,0:0:0:0:
192,256,189172,1,0,0:0:0:0:
320,256,189263,1,8,0:0:0:0:
192,256,189445,1,0,0:0:0:0:
320,128,189536,1,12,0:0:0:0:
192,256,189808,1,0,0:0:0:0:
320,256,189990,1,8,0:0:0:0:
192,256,190263,1,0,0:0:0:0:
320,256,190354,1,8,0:0:0:0:
320,256,190536,1,8,0:0:0:0:
192,256,190627,1,0,0:0:0:0:
192,256,190717,1,0,0:0:0:0:
320,256,190808,1,8,0:0:0:0:
192,256,190899,1,0,0:0:0:0:
192,256,190990,1,0,0:0:0:0:
320,256,191081,1,8,0:0:0:0:
192,128,191172,1,4,0:0:0:0:
192,256,191354,1,0,0:0:0:0:
320,256,191445,1,8,0:0:0:0:
320,128,191717,1,12,0:0:0:0:
192,256,191990,1,0,0:0:0:0:
320,256,192172,1,8,0:0:0:0:
192,256,192445,1,0,0:0:0:0:
320,256,192536,1,8,0:0:0:0:
320,256,192717,1,8,0:0:0:0:
192,128,192808,1,4,0:0:0:0:
192,256,193081,1,0,0:0:0:0:
320,256,193127,1,8,0:0:0:0:
192,128,193354,1,4,0:0:0:0:
192,256,193536,1,0,0:0:0:0:
320,256,193627,1,8,0:0:0:0:
192,256,193808,1,0,0:0:0:0:
320,128,193899,1,12,0:0:0:0:
192,256,194172,1,0,0:0:0:0:
320,128,194354,1,12,0:0:0:0:
192,256,194627,1,0,0:0:0:0:
320,128,194717,1,12,0:0:0:0:
192,256,194899,1,0,0:0:0:0:
320,128,194990,1,12,0:0:0:0:
320,256,195172,1,8,0:0:0:0:
192,128,195263,1,4,0:0:0:0:
192,256,195445,1,0,0:0:0:0:
320,128,195536,1,12,0:0:0:0:
192,256,195717,1,0,0:0:0:0:
320,256,195808,1,8,0:0:0:0:
192,256,195990,1,0,0:0:0:0:
192,256,196081,1,0,0:0:0:0:
320,256,196263,1,8,0:0:0:0:
320,256,196536,1,8,0:0:0:0:
320,256,196808,1,8,0:0:0:0:
192,256,197172,1,0,0:0:0:0:
320,256,197445,1,8,0:0:0:0:
192,128,197717,1,4,0:0:0:0:
320,256,198172,1,8,0:0:0:0:
192,128,198263,1,4,0:0:0:0:
192,256,198445,1,0,0:0:0:0:
320,256,198536,1,8,0:0:0:0:
320,128,198717,1,12,0:0:0:0:
320,256,198990,1,8,0:0:0:0:
192,128,199354,1,4,0:0:0:0:
320,256,199536,1,8,0:0:0:0:
320,256,199627,1,8,0:0:0:0:
320,128,199899,1,12,0:0:0:0:
192,256,200081,1,0,0:0:0:0:
320,256,200172,1,8,0:0:0:0:
192,256,200354,1,0,0:0:0:0:
320,128,200445,1,12,0:0:0:0:
192,256,200627,1,0,0:0:0:0:
320,256,200717,1,8,0:0:0:0:
320,256,200899,1,8,0:0:0:0:
320,256,201172,1,8,0:0:0:0:
320,256,201263,1,8,0:0:0:0:
320,256,201536,1,8,0:0:0:0:
192,256,201717,1,0,0:0:0:0:
320,256,201808,1,8,0:0:0:0:
320,256,201990,1,8,0:0:0:0:
320,128,202081,1,12,0:0:0:0:
192,256,202263,1,0,0:0:0:0:
320,256,202354,1,8,0:0:0:0:
192,256,202536,1,0,0:0:0:0:
320,128,202627,1,12,0:0:0:0:
320,256,202808,1,8,0:0:0:0:
192,256,202899,1,0,0:0:0:0:
320,256,203172,1,8,0:0:0:0:
192,256,203263,1,0,0:0:0:0:
192,256,203354,1,0,0:0:0:0:
320,256,203445,1,8,0:0:0:0:
192,256,203536,1,0,0:0:0:0:
320,256,203627,1,8,0:0:0:0:
192,256,203717,1,0,0:0:0:0:
320,128,203990,1,12,0:0:0:0:
192,128,204263,1,4,0:0:0:0:
320,256,204717,1,8,0:0:0:0:
192,256,204808,1,0,0:0:0:0:
320,256,204990,1,8,0:0:0:0:
320,256,205081,1,8,0:0:0:0:
320,256,205263,1,8,0:0:0:0:
192,256,205899,1,0,0:0:0:0:
320,256,206172,1,8,0:0:0:0:
192,256,206445,1,0,0:0:0:0:
320,256,206899,1,8,0:0:0:0:
192,256,206990,1,0,0:0:0:0:
192,256,207172,1,0,0:0:0:0:
320,256,207263,1,8,0:0:0:0:
320,256,207445,1,8,0:0:0:0:
192,256,208081,1,0,0:0:0:0:
320,256,208354,1,8,0:0:0:0:
320,256,208627,1,8,0:0:0:0:
320,256,209081,1,8,0:0:0:0:
192,256,209172,1,0,0:0:0:0:
192,256,209354,1,0,0:0:0:0:
320,256,209445,1,8,0:0:0:0:
320,256,209627,1,8,0:0:0:0:
320,256,209990,1,8,0:0:0:0:
320,256,210263,1,8,0:0:0:0:
192,256,210445,1,0,0:0:0:0:
320,256,210536,1,8,0:0:0:0:
320,256,210717,1,8,0:0:0:0:
192,128,210808,1,4,0:0:0:0:
192,256,211080,1,0,0:0:0:0:
192,256,211353,1,0,0:0:0:0:
192,256,211626,1,0,0:0:0:0:
192,256,211898,1,0,0:0:0:0:
192,256,212171,1,0,0:0:0:0:
192,256,212444,1,0,0:0:0:0:
320,256,212717,1,8,0:0:0:0:
192,256,212989,1,0,0:0:0:0:
192,256,213262,1,0,0:0:0:0:
192,256,213535,1,0,0:0:0:0:
192,256,213717,1,0,0:0:0:0:
320,256,213808,1,8,0:0:0:0:
192,256,214080,1,0,0:0:0:0:
192,256,214353,1,0,0:0:0:0:
192,256,214626,1,0,0:0:0:0:
320,256,214762,1,8,0:0:0:0:
320,256,214830,1,8,0:0:0:0:
320,256,214898,1,8,0:0:0:0:
320,256,215035,1,8,0:0:0:0:
192,256,215171,1,0,0:0:0:0:
192,256,215308,1,0,0:0:0:0:
192,256,215444,1,0,0:0:0:0:
192,256,215580,1,0,0:0:0:0:
192,256,215717,1,0,0:0:0:0:
320,256,215853,1,8,0:0:0:0:
192,256,215989,1,0,0:0:0:0:
192,256,216126,1,0,0:0:0:0:
192,256,216262,1,0,0:0:0:0:
320,256,216398,1,8,0:0:0:0:
192,256,216535,1,0,0:0:0:0:
192,256,216671,1,0,0:0:0:0:
192,256,216808,1,0,0:0:0:0:
192,256,216944,1,0,0:0:0:0:
320,256,217080,1,8,0:0:0:0:
320,256,217217,1,8,0:0:0:0:
192,256,217353,1,0,0:0:0:0:
192,256,217421,1,0,0:0:0:0:
192,256,217489,1,0,0:0:0:0:
192,256,217558,1,0,0:0:0:0:
320,256,217626,1,8,0:0:0:0:
320,256,217694,1,8,0:0:0:0:
192,256,217762,1,0,0:0:0:0:
192,256,217830,1,0,0:0:0:0:
192,256,217898,1,0,0:0:0:0:
192,256,217967,1,0,0:0:0:0:
320,256,218035,1,8,0:0:0:0:
320,256,218103,1,8,0:0:0:0:
192,256,218171,1,0,0:0:0:0:
192,256,218239,1,0,0:0:0:0:
320,128,218308,1,12,0:0:0:0:
192,256,218580,1,0,0:0:0:0:
320,128,218717,1,12,0:0:0:0:
192,256,218989,1,0,0:0:0:0:
320,256,219126,1,8,0:0:0:0:
320,128,219262,1,12,0:0:0:0:
192,128,219535,1,4,0:0:0:0:
