osu file format v14

[General]
AudioFilename: t+pazolite - Drunk Crunk Franken.mp3
AudioLeadIn: 0
PreviewTime: 107985
Countdown: 0
SampleSet: Normal
StackLeniency: 0.7
Mode: 0
LetterboxInBreaks: 0
WidescreenStoryboard: 0

[Editor]
Bookmarks: 19718,54628,64231,143164,151891,204255,218436
DistanceSpacing: 0.7
BeatDivisor: 4
GridSize: 4
TimelineZoom: 1

[Metadata]
Title:Drunk Crunk Franken
TitleUnicode:Drunk Crunk Franken
Artist:t+pazolite
ArtistUnicode:t+pazolite
Creator:Kyshiro
Version:Wasted
Source:
Tags:
BeatmapID:739816
BeatmapSetID:334351

[Difficulty]
HPDrainRate:5.5
CircleSize:4
OverallDifficulty:9.2
ApproachRate:9.6
SliderMultiplier:1.8
SliderTickRate:1

[Events]
//Background and Video events
0,0,"abstract-anime.jpg",0,0
//Break Periods
2,54830,63725
2,143367,151385
2,204458,217794
//Storyboard Layer 0 (Background)
//Storyboard Layer 1 (Fail)
//Storyboard Layer 2 (Pass)
//Storyboard Layer 3 (Foreground)
//Storyboard Sound Samples

[TimingPoints]
85,272.727272727273,4,1,1,75,1,0
53539,-133.333333333333,4,1,1,75,0,0
64234,285.714285714286,4,1,1,75,1,0
64234,-125,4,2,1,50,0,0
73349,272.727272727273,4,1,1,75,1,0
73758,-117.647058823529,4,1,1,60,0,0
82076,-100,4,1,1,75,0,0
90803,-100,4,1,1,60,0,0
94894,-71.4285714285714,4,1,1,60,0,0
95099,-71.4285714285714,4,2,1,5,0,0
95167,-100,4,1,1,60,0,0
107985,-133.333333333333,4,1,1,100,0,0
108258,-80,4,1,1,75,0,1
112349,-100,4,1,1,75,0,1
112621,-80,4,1,1,75,0,1
120803,-111.111111111111,4,1,1,75,0,1
121349,-80,4,1,1,75,0,1
124621,-111.111111111111,4,1,1,60,0,0
125712,-80,4,1,1,75,0,1
129530,-111.111111111111,4,1,1,75,0,1
130076,-80,4,1,1,75,0,1
138258,-111.111111111111,4,1,1,75,0,1
138803,-80,4,1,1,75,0,1
143167,-111.111111111111,4,1,1,100,0,0
151894,-90.9090909090909,4,1,1,60,0,0
152167,-117.647058823529,4,1,1,40,0,0
156803,-105.263157894737,4,1,1,45,0,0
157349,-90.9090909090909,4,1,1,50,0,0
157894,-76.9230769230769,4,1,1,55,0,0
158439,-90.9090909090909,4,1,1,60,0,0
160349,-111.111111111111,4,1,1,60,0,0
160621,-90.9090909090909,4,1,1,60,0,0
195530,-111.111111111111,4,1,1,60,0,0
218303,-71.4285714285714,4,1,1,100,0,0
218917,-71.4285714285714,4,2,1,5,0,0
218985,-83.3333333333333,4,1,1,60,0,0
219258,-100,4,1,1,60,0,0
223894,-80,4,1,1,60,0,0
224167,-100,4,1,1,60,0,0
228258,-80,4,1,1,60,0,0
228530,-100,4,1,1,60,0,0
230712,-83.3333333333333,4,1,1,60,0,0
230985,-76.9230769230769,4,1,1,60,0,0
231258,-71.4285714285714,4,1,1,60,0,0
231530,-83.3333333333333,4,1,1,60,0,0
231803,-74.0740740740741,4,1,1,60,0,0
232076,-66.6666666666667,4,1,1,60,0,0
232349,-60.6060606060606,4,1,1,60,0,0
232621,-83.3333333333333,4,1,1,60,0,0
236985,-71.4285714285714,4,1,1,75,0,1
253349,-71.4285714285714,4,1,1,75,0,0
254167,-83.3333333333333,4,1,1,75,0,0
254439,-71.4285714285714,4,1,1,75,0,1
257712,-90.9090909090909,4,1,1,75,0,1
258530,-80,4,1,1,75,0,1
258803,-71.4285714285714,4,1,1,75,0,1
263167,-80,4,1,1,75,0,1
265349,-86.9565217391304,4,1,1,75,0,1
267530,-71.4285714285714,4,1,1,75,0,1
270803,-83.3333333333333,4,1,1,75,0,1
271894,-71.4285714285714,4,1,1,75,0,0
276258,-71.4285714285714,4,1,1,5,0,0

[Colours]
Combo1 : 205,155,221
Combo2 : 220,137,137
Combo3 : 132,122,243
Combo4 : 155,205,232

[HitObjects]
174,95,19448,5,6,3:0:0:0:
174,95,19721,6,0,P|191:151|183:189,1,90,4|0,0:0|0:0,0:0:0:0:
25,204,19994,2,0,P|64:161|101:149,1,90,8|0,0:0|0:0,0:0:0:0:
196,280,20266,2,0,P|139:266|110:240,1,90
277,139,20539,1,8,0:0:0:0:
445,238,20675,1,0,0:0:0:0:
389,27,20812,6,0,L|402:125,1,90
304,346,21085,2,0,L|315:256,1,90,8|0,0:0|0:0,0:0:0:0:
97,113,21357,1,0,0:0:0:0:
277,139,21494,2,0,P|223:157|179:155,1,90,0|8,0:0|0:0,0:0:0:0:
383,168,21766,2,0,P|353:216|318:243,1,90
158,269,22039,5,0,0:0:0:0:
97,113,22175,2,0,L|90:12,1,90,8|0,0:0|0:0,0:0:0:0:
259,240,22448,2,0,L|252:329,1,90
214,140,22721,2,0,L|207:39,1,90,8|0,0:0|0:0,0:0:0:0:
376,267,22994,6,0,L|369:356,1,90
307,177,23266,2,0,P|390:156|469:204,1,180,8|0,0:0|0:0,0:0:0:0:
376,267,23675,1,0,0:0:0:0:
177,294,23812,1,8,0:0:0:0:
286,341,23948,1,0,0:0:0:0:
66,255,24085,6,0,P|52:198|56:166,1,90
217,45,24357,2,0,P|219:89|206:132,1,90,8|0,0:0|0:0,0:0:0:0:
285,259,24630,1,0,0:0:0:0:
476,155,24766,2,0,L|382:165,1,90,0|8,0:0|0:0,0:0:0:0:
195,249,25039,2,0,L|289:259,1,90
431,275,25312,5,0,0:0:0:0:
244,136,25448,2,0,L|52:152,1,180,8|0,0:0|0:0,0:0:0:0:
158,53,25857,1,0,0:0:0:0:
325,206,25994,2,0,P|342:274|332:309,1,90,8|0,0:0|0:0,0:0:0:0:
172,328,26266,6,0,L|69:320,1,90
364,288,26539,2,0,L|467:280,1,90,8|0,0:0|0:0,0:0:0:0:
133,246,26812,2,0,L|30:238,1,90
325,206,27085,2,0,L|428:198,1,90,8|0,0:0|0:0,0:0:0:0:
211,33,27357,6,0,P|187:130|229:195,1,180,0|8,0:0|0:0,0:0:0:0:
298,106,27766,1,0,0:0:0:0:
118,202,27903,2,0,P|132:256|124:300,1,90
352,156,28175,2,0,P|348:111|361:68,1,90,8|0,0:0|0:0,0:0:0:0:
488,311,28448,6,0,B|432:298|432:298|372:316|372:316|312:303,1,180,4|8,0:0|0:0,0:0:0:0:
169,171,28857,1,0,0:0:0:0:
378,140,28994,2,0,L|365:238,1,90
141,343,29266,2,0,L|129:253,1,90,8|0,0:0|0:0,0:0:0:0:
251,85,29539,6,0,P|287:174|246:263,1,180,0|8,0:0|0:0,0:0:0:0:
424,200,29948,2,0,P|474:197|513:211,1,90
195,303,30221,2,0,P|145:306|106:292,1,90,0|8,0:0|0:0,0:0:0:0:
359,107,30494,6,0,P|409:104|448:118,1,90
130,210,30767,2,0,P|80:213|41:199,1,90,0|8,0:0|0:0,0:0:0:0:
187,54,31039,1,0,0:0:0:0:
277,218,31175,2,0,L|271:318,1,90
474,147,31448,2,0,L|468:57,1,90,8|0,0:0|0:0,0:0:0:0:
171,241,31721,6,0,L|165:341,1,90
368,170,31994,2,0,L|362:80,1,90,8|0,0:0|0:0,0:0:0:0:
80,148,32266,1,0,0:0:0:0:
303,228,32403,1,0,0:0:0:0:
170,241,32539,1,8,0:0:0:0:
246,328,32675,1,0,0:0:0:0:
228,139,32812,5,0,0:0:0:0:
355,329,32948,2,0,P|430:332|455:323,1,90,0|8,0:0|0:0,0:0:0:0:
398,123,33221,2,0,P|395:198|404:223,1,90
157,321,33494,2,0,L|58:315,1,90,0|8,0:0|0:0,0:0:0:0:
228,139,33766,2,0,L|327:133,1,90
281,251,34039,5,0,0:0:0:0:
0,210,34175,2,0,P|98:188|165:248,1,180,8|0,0:0|0:0,0:0:0:0:
68,287,34585,1,0,0:0:0:0:
138,36,34721,2,0,P|135:85|153:131,1,90,8|0,0:0|0:0,0:0:0:0:
270,338,34994,6,0,P|283:295|280:250,1,90
376,127,35266,2,0,L|482:134,1,90,8|0,0:0|0:0,0:0:0:0:
179,283,35539,2,0,L|73:276,1,90
216,34,35812,2,0,P|260:101|236:197,1,180,8|0,0:0|0:0,0:0:0:0:
154,125,36221,5,0,0:0:0:0:
341,257,36357,1,8,0:0:0:0:
178,283,36494,1,0,0:0:0:0:
273,157,36630,2,0,L|293:128,4,22.5
100,222,36903,2,0,P|88:168|59:125,1,90,8|0,0:0|0:0,0:0:0:0:
276,344,37175,6,0,P|344:367|434:310,1,180,4|8,0:0|0:0,0:0:0:0:
446,129,37585,1,0,0:0:0:0:
348,212,37721,2,0,L|340:258,2,45
178,125,37994,2,0,L|170:80,2,45,8|0|0,0:0|0:0|0:0,0:0:0:0:
442,236,38266,6,0,L|434:282,2,45
87,120,38539,2,0,L|79:75,2,45,8|0|0,0:0|0:0|0:0,0:0:0:0:
419,111,38812,6,0,L|411:157,2,45
138,243,39085,2,0,L|130:198,2,45,8|0|0,0:0|0:0|0:0,0:0:0:0:
292,128,39358,5,0,0:0:0:0:
331,121,39426,1,0,0:0:0:0:
370,114,39494,1,0,0:0:0:0:
220,256,39631,1,8,0:0:0:0:
181,263,39699,1,0,0:0:0:0:
142,270,39767,1,0,0:0:0:0:
320,228,39903,1,0,0:0:0:0:
327,267,39971,1,0,0:0:0:0:
334,306,40039,1,0,0:0:0:0:
192,156,40176,1,8,0:0:0:0:
185,117,40244,1,0,0:0:0:0:
178,78,40312,1,0,0:0:0:0:
430,201,40448,5,0,0:0:0:0:
247,334,40585,1,0,0:0:0:0:
271,78,40721,2,0,L|264:179,1,90,8|0,0:0|0:0,0:0:0:0:
102,352,40994,1,0,0:0:0:0:
72,184,41130,1,0,0:0:0:0:
58,273,41266,1,8,0:0:0:0:
28,105,41402,1,0,0:0:0:0:
167,69,41539,6,0,L|158:120,2,45
217,298,41812,2,0,L|209:253,2,45,8|0|0,0:0|0:0|0:0,0:0:0:0:
259,44,42085,2,0,L|250:95,2,45
312,321,42358,2,0,L|304:276,2,45,8|0|0,0:0|0:0|0:0,0:0:0:0:
339,71,42630,6,0,L|347:27,2,45
391,289,42903,2,0,L|399:334,2,45,8|0|0,0:0|0:0|0:0,0:0:0:0:
425,47,43175,2,0,L|433:3,2,45
480,311,43448,2,0,L|488:356,2,45,8|0|0,0:0|0:0|0:0,0:0:0:0:
347,186,43721,5,0,0:0:0:0:
302,177,43789,1,0,0:0:0:0:
257,168,43857,1,0,0:0:0:0:
430,151,43994,2,0,L|485:146,2,45,8|0|0,0:0|0:0|0:0,0:0:0:0:
212,277,44266,1,0,0:0:0:0:
257,268,44334,1,0,0:0:0:0:
302,259,44402,1,0,0:0:0:0:
137,186,44539,2,0,L|82:181,2,45,8|0|0,0:0|0:0|0:0,0:0:0:0:
312,89,44812,5,0,0:0:0:0:
307,133,44880,1,0,0:0:0:0:
302,177,44948,1,0,0:0:0:0:
185,73,45085,2,0,P|176:49|164:26,2,45,8|0|0,0:0|0:0|0:0,0:0:0:0:
415,241,45357,1,0,0:0:0:0:
410,197,45425,1,0,0:0:0:0:
405,153,45493,1,0,0:0:0:0:
302,336,45630,2,0,P|293:360|281:383,2,45,8|0|0,0:0|0:0|0:0,0:0:0:0:
38,249,45903,6,0,P|132:223|209:274,1,180,4|8,0:0|0:0,0:0:0:0:
113,333,46312,1,0,0:0:0:0:
62,141,46448,2,0,L|47:93,2,45
176,28,46721,1,8,0:0:0:0:
264,164,46857,1,0,0:0:0:0:
506,62,46994,6,0,P|443:36|334:80,1,180,0|8,0:0|0:0,0:0:0:0:
430,157,47403,1,0,0:0:0:0:
200,109,47539,2,0,L|151:97,2,45
326,245,47812,2,0,L|375:233,2,45,8|0|0,0:0|0:0|0:0,0:0:0:0:
194,285,48085,5,0,0:0:0:0:
413,332,48221,1,0,0:0:0:0:
100,314,48357,2,0,P|188:299|277:344,1,180,8|0,0:0|0:0,0:0:0:0:
21,367,48766,1,0,0:0:0:0:
49,137,48903,2,0,P|68:184|66:231,1,90,8|0,0:0|0:0,0:0:0:0:
172,93,49175,6,0,P|175:80|186:49,2,45
76,35,49448,1,8,0:0:0:0:
146,201,49585,1,0,0:0:0:0:
303,117,49721,2,0,P|313:138|319:165,2,45
231,276,49994,2,0,P|236:254|246:233,2,45,8|0|0,0:0|0:0|0:0,0:0:0:0:
461,292,50266,6,0,P|406:289|358:272,1,90
57,214,50539,2,0,P|100:202|145:200,1,90,8|0,0:0|0:0,0:0:0:0:
385,200,50812,1,0,0:0:0:0:
193,108,50948,1,0,0:0:0:0:
255,337,51085,2,0,L|254:232,1,90,8|0,0:0|0:0,0:0:0:0:
481,78,51357,6,0,B|442:101|442:101|392:101,1,90
116,172,51630,2,0,B|160:172|160:172|199:195,1,90,8|0,0:0|0:0,0:0:0:0:
348,262,51903,1,0,0:0:0:0:
261,57,52039,1,0,0:0:0:0:
271,214,52175,2,0,L|270:314,1,90,8|0,0:0|0:0,0:0:0:0:
339,92,52448,5,0,0:0:0:0:
183,262,52585,1,0,0:0:0:0:
413,36,52721,2,0,L|427:131,1,90,8|0,0:0|0:0,0:0:0:0:
179,166,52994,1,0,0:0:0:0:
147,162,53062,1,0,0:0:0:0:
115,158,53130,1,0,0:0:0:0:
83,154,53198,1,0,0:0:0:0:
51,150,53266,1,8,0:0:0:0:
132,68,53403,1,0,0:0:0:0:
129,250,53539,6,0,P|134:295|129:326,1,67.5000025749208,2|0,0:3|0:0,0:0:0:0:
198,65,53812,2,0,P|153:70|122:65,1,67.5000025749208,2|0,0:3|0:0,0:0:0:0:
383,134,54085,2,0,P|378:89|383:58,1,67.5000025749208,2|0,0:3|0:0,0:0:0:0:
314,319,54358,2,0,P|359:314|390:319,1,67.5000025749208,2|0,0:3|0:0,0:0:0:0:
256,192,54630,5,4,0:0:0:0:
60,140,64234,6,0,P|135:123|212:161,1,144,2|0,0:0|0:0,0:0:0:0:
233,262,64662,1,0,0:0:0:0:
314,102,64805,2,0,P|307:145|312:176,1,72,2|0,0:0|0:0,0:0:0:0:
121,307,65091,2,0,P|128:264|123:233,1,72,2|0,0:0|0:0,0:0:0:0:
26,265,65376,5,2,0:0:0:0:
352,333,65662,1,2,0:0:0:0:
256,256,65805,1,0,0:0:0:0:
160,333,65948,1,2,0:0:0:0:
486,265,66234,1,2,0:0:0:0:
367,39,66519,6,0,P|347:121|376:179,1,144,2|0,0:0|0:0,0:0:0:0:
446,105,66948,1,2,0:0:0:0:
270,44,67091,2,0,P|229:40|195:48,1,72,2|0,0:0|0:0,0:0:0:0:
104,116,67376,2,0,P|68:122|33:118,1,72,2|0,0:0|0:0,0:0:0:0:
205,148,67662,2,0,L|197:231,1,72,2|0,0:0|0:0,0:0:0:0:
304,357,67948,2,0,L|297:285,1,72,2|2,0:0|0:0,0:0:0:0:
106,296,68234,1,2,0:0:0:0:
121,284,68805,6,0,P|139:208|111:139,1,144,2|0,0:0|0:0,0:0:0:0:
27,219,69234,1,2,0:0:0:0:
25,53,69376,2,0,P|15:110|21:135,1,72,2|0,0:0|0:0,0:0:0:0:
223,227,69662,2,0,P|233:170|227:145,1,72,2|0,0:0|0:0,0:0:0:0:
389,32,69948,6,0,L|419:174,1,144,2|0,0:0|0:0,0:0:0:0:
489,42,70376,1,2,0:0:0:0:
327,167,70519,2,0,L|317:238,1,72,2|0,0:0|0:0,0:0:0:0:
509,314,70805,2,0,L|499:243,1,72,2|0,0:0|0:0,0:0:0:0:
293,85,71091,6,0,P|218:71|162:108,1,144,2|0,0:0|0:0,0:0:0:0:
70,61,71519,1,2,0:0:0:0:
240,162,71662,2,0,P|248:213|241:240,1,72,2|0,0:0|0:0,0:0:0:0:
96,324,71948,2,0,P|88:273|95:246,1,72,2|0,0:0|0:0,0:0:0:0:
368,240,72234,5,2,0:0:0:0:
337,334,72376,1,2,0:0:0:0:
240,162,72519,1,2,0:0:0:0:
271,256,72661,1,0,0:0:0:0:
339,138,72805,1,2,0:0:0:0:
234,351,73091,5,2,0:0:0:0:
18,66,73349,6,0,P|94:48|181:94,1,180,4|0,0:0|0:0,0:0:0:0:
297,41,73758,1,0,0:0:0:0:
87,162,73894,2,0,L|102:251,1,76.5000014591217
234,351,74167,2,0,L|246:275,1,76.5000014591217,8|0,0:0|0:0,0:0:0:0:
400,166,74439,5,0,0:0:0:0:
414,180,74712,2,0,P|426:231|424:263,1,76.5000014591217,8|0,0:0|0:0,0:0:0:0:
265,285,74985,1,0,0:0:0:0:
218,128,75121,2,0,P|218:89|229:53,1,76.5000014591217,8|0,0:0|0:0,0:0:0:0:
376,44,75394,1,0,0:0:0:0:
171,234,75530,6,0,P|110:249|19:207,1,153.000002918243,8|0,0:0|0:0,0:0:0:0:
111,133,75939,1,0,0:0:0:0:
334,192,76076,2,0,L|250:205,1,76.5000014591217
477,279,76349,2,0,L|393:266,1,76.5000014591217,8|0,0:0|0:0,0:0:0:0:
250,97,76621,5,0,0:0:0:0:
271,79,76894,2,0,P|320:72|358:85,1,76.5000014591217,8|0,0:0|0:0,0:0:0:0:
228,218,77167,1,0,0:0:0:0:
119,118,77303,2,0,P|88:79|80:39,1,76.5000014591217,8|0,0:0|0:0,0:0:0:0:
271,78,77576,1,0,0:0:0:0:
228,218,77712,6,0,P|209:263|179:290,1,76.5000014591217,8|0,0:0|0:0,0:0:0:0:
13,241,77985,2,0,L|93:249,1,76.5000014591217
353,329,78258,2,0,L|273:337,1,76.5000014591217
291,153,78530,1,8,0:0:0:0:
316,141,78803,6,0,P|383:131|466:168,1,153.000002918243,0|8,0:0|0:0,0:0:0:0:
269,248,79212,1,0,0:0:0:0:
190,158,79349,2,0,P|177:96|187:68,1,76.5000014591217,0|8,0:0|0:0,0:0:0:0:
357,225,79621,2,0,P|360:262|346:298,1,76.5000014591217
176,318,79894,2,0,L|16:303,1,153.000002918243,8|0,0:0|0:0,0:0:0:0:
130,232,80303,1,0,0:0:0:0:
28,158,80439,2,0,L|108:150,1,76.5000014591217,8|0,0:0|0:0,0:0:0:0:
290,84,80712,2,0,L|210:76,1,76.5000014591217
130,232,80985,5,8,0:0:0:0:
290,297,81121,1,0,0:0:0:0:
199,150,81258,1,8,0:0:0:0:
187,324,81394,1,0,0:0:0:0:
298,190,81530,2,0,P|348:180|381:185,1,76.5000014591217,8|0,0:0|0:0,0:0:0:0:
97,315,81803,2,0,P|47:325|14:320,1,76.5000014591217,8|0,0:0|0:0,0:0:0:0:
152,38,82076,6,0,B|172:98|172:98|160:156|160:156|180:218,1,180,4|8,0:0|0:0,0:0:0:0:
71,107,82485,1,0,0:0:0:0:
275,155,82621,2,0,P|326:158|365:146,1,90
509,57,82894,2,0,P|465:45|421:49,1,90,8|0,0:0|0:0,0:0:0:0:
318,240,83167,5,0,0:0:0:0:
504,270,83303,2,0,L|492:167,1,90,0|8,0:0|0:0,0:0:0:0:
316,43,83576,1,0,0:0:0:0:
318,240,83712,1,0,0:0:0:0:
118,141,83849,1,0,0:0:0:0:
242,141,83985,1,8,0:0:0:0:
161,301,84121,1,0,0:0:0:0:
50,68,84258,6,0,P|86:165|60:242,1,180,0|8,0:0|0:0,0:0:0:0:
175,65,84667,1,0,0:0:0:0:
202,301,84803,2,0,P|179:232|182:200,1,90
298,17,85076,2,0,P|294:61|275:102,1,90,8|0,0:0|0:0,0:0:0:0:
318,240,85349,6,0,L|499:224,1,180,0|8,0:0|0:0,0:0:0:0:
348,148,85758,1,0,0:0:0:0:
474,317,85894,1,8,0:0:0:0:
269,344,86030,1,0,0:0:0:0:
216,121,86167,2,0,L|238:218,1,90,8|0,0:0|0:0,0:0:0:0:
115,327,86439,6,0,L|121:274,2,45
41,107,86712,2,0,P|39:159|20:200,1,90,8|0,0:0|0:0,0:0:0:0:
155,33,86985,2,0,P|228:17|294:57,1,135
296,58,87258,2,0,L|305:86,4,22.5,8|0|0|0|0,0:0|0:0|0:0|0:0|0:0,0:0:0:0:
393,196,87530,6,0,L|403:96,1,90
192,251,87803,2,0,L|200:340,1,90,8|0,0:0|0:0,0:0:0:0:
502,228,88076,2,0,L|512:128,1,90
301,283,88349,2,0,L|309:372,1,90,8|0,0:0|0:0,0:0:0:0:
265,157,88621,6,0,P|220:136|100:174,1,180,0|8,0:0|0:0,0:0:0:0:
192,251,89030,1,0,0:0:0:0:
20,127,89167,2,0,P|9:189|25:231,1,90
182,114,89439,2,0,P|193:52|177:10,1,90,8|0,0:0|0:0,0:0:0:0:
332,264,89712,5,8,0:0:0:0:
472,228,89849,1,0,0:0:0:0:
429,90,89985,1,8,0:0:0:0:
289,126,90122,1,0,0:0:0:0:
164,354,90258,1,8,0:0:0:0:
24,318,90395,1,0,0:0:0:0:
67,180,90531,1,8,0:0:0:0:
207,216,90668,1,0,0:0:0:0:
380,178,90803,5,6,0:2:0:0:
218,65,90939,1,0,0:0:0:0:
218,65,91008,1,0,0:0:0:0:
218,65,91076,1,0,0:0:0:0:
218,65,91144,1,0,0:0:0:0:
218,65,91212,1,0,0:0:0:0:
278,267,91349,1,2,0:2:0:0:
336,84,91485,1,0,0:0:0:0:
336,84,91553,1,0,0:0:0:0:
336,84,91621,1,0,0:0:0:0:
336,84,91689,1,0,0:0:0:0:
336,84,91758,1,0,0:0:0:0:
166,192,91894,6,0,P|107:198|61:188,1,90,2|0,0:2|0:0,0:0:0:0:
301,269,92167,2,0,P|335:318|350:362,1,90,2|0,0:2|0:0,0:0:0:0:
301,114,92439,2,0,P|325:59|356:25,1,90,2|0,0:2|0:0,0:0:0:0:
467,155,92712,1,0,0:0:0:0:
470,177,92780,1,0,0:0:0:0:
473,199,92849,1,0,0:0:0:0:
476,221,92917,1,0,0:0:0:0:
479,243,92985,6,0,P|437:265|378:264,1,90,2|0,0:2|0:0,0:0:0:0:
145,168,93258,1,0,0:0:0:0:
142,146,93326,1,0,0:0:0:0:
139,124,93395,1,0,0:0:0:0:
136,102,93463,1,0,0:0:0:0:
133,80,93531,2,0,P|175:58|234:59,1,90,2|0,0:2|0:0,0:0:0:0:
256,290,93803,1,0,0:0:0:0:
238,304,93871,1,0,0:0:0:0:
217,313,93939,1,0,0:0:0:0:
194,317,94008,1,0,0:0:0:0:
171,317,94076,6,0,P|119:310|61:325,1,90,2|0,0:2|0:0,0:0:0:0:
406,203,94349,2,0,P|426:251|468:294,1,90,2|0,0:2|0:0,0:0:0:0:
206,77,94621,2,0,P|238:35|254:-22,1,90,2|0,0:2|0:0,0:0:0:0:
250,0,94894,6,0,B|254:49|236:80|236:80|257:96|257:96|236:133|239:178,1,188.999994232178,8|0,0:0|0:0,0:0:0:0:
270,189,95167,6,0,L|369:178,1,90,6|0,0:2|0:0,0:0:0:0:
149,284,95439,1,0,0:0:0:0:
149,284,95508,1,0,0:0:0:0:
149,284,95576,1,0,0:0:0:0:
149,284,95644,1,0,0:0:0:0:
149,284,95712,2,0,L|247:295,1,90,2|0,0:2|0:0,0:0:0:0:
451,238,95985,1,0,0:0:0:0:
456,216,96053,1,0,0:0:0:0:
461,194,96121,1,0,0:0:0:0:
466,172,96189,1,0,0:0:0:0:
472,150,96258,6,0,P|424:133|376:138,1,90,2|0,0:2|0:0,0:0:0:0:
185,384,96530,2,0,P|223:350|243:306,1,90,2|0,0:2|0:0,0:0:0:0:
111,25,96803,2,0,P|120:76|149:115,1,90,2|0,0:2|0:0,0:0:0:0:
256,192,97076,1,8,0:0:0:0:
256,192,97144,1,0,0:0:0:0:
256,192,97212,1,0,0:0:0:0:
385,356,97349,6,0,P|375:306|347:267,1,90,6|0,0:2|0:0,0:0:0:0:
55,232,97621,2,0,P|103:249|151:244,1,90
329,0,97894,2,0,P|290:33|270:77,1,90,2|0,0:2|0:0,0:0:0:0:
379,180,98167,1,0,0:0:0:0:
383,160,98235,1,0,0:0:0:0:
387,140,98303,1,0,0:0:0:0:
391,120,98371,1,0,0:0:0:0:
395,100,98439,6,0,P|423:156|451:180,1,90,2|0,0:2|0:0,0:0:0:0:
198,344,98712,2,0,P|228:311|245:269,1,90,2|0,0:2|0:0,0:0:0:0:
154,140,98985,2,0,L|47:129,1,90,2|0,0:2|0:0,0:0:0:0:
403,296,99258,2,0,L|510:285,1,90,8|0,0:0|0:0,0:0:0:0:
298,42,99530,6,0,L|313:145,1,90,6|0,0:2|0:0,0:0:0:0:
134,345,99803,1,0,0:0:0:0:
142,324,99871,1,0,0:0:0:0:
145,301,99939,1,0,0:0:0:0:
146,278,100008,1,0,0:0:0:0:
144,255,100076,2,2,P|130:204|104:164,1,90,2|2,0:2|0:2,0:2:0:0:
386,32,100349,1,0,0:0:0:0:
378,53,100417,1,0,0:0:0:0:
375,76,100485,1,0,0:0:0:0:
374,99,100554,1,0,0:0:0:0:
376,122,100622,6,0,P|390:173|416:213,1,90,6|0,0:2|0:0,0:0:0:0:
135,123,100894,2,0,P|172:85|194:42,1,90,2|0,0:2|0:0,0:0:0:0:
256,330,101167,2,0,P|205:317|157:320,1,90,2|0,0:2|0:0,0:0:0:0:
387,364,101439,2,0,P|431:363|474:351,1,90,8|0,0:0|0:0,0:0:0:0:
333,159,101712,6,0,L|351:262,1,90,6|0,0:2|0:0,0:0:0:0:
147,248,101985,1,0,0:0:0:0:
150,225,102053,1,0,0:0:0:0:
154,202,102121,1,0,0:0:0:0:
158,179,102189,1,0,0:0:0:0:
162,156,102258,2,0,L|177:67,1,90,6|0,0:2|0:0,0:0:0:0:
427,155,102530,1,0,0:0:0:0:
430,178,102598,1,0,0:0:0:0:
434,201,102666,1,0,0:0:0:0:
438,224,102734,1,0,0:0:0:0:
442,247,102803,6,0,L|457:335,1,90,6|0,0:2|0:0,0:0:0:0:
74,123,103076,2,0,L|89:34,1,90,6|0,0:2|0:0,0:0:0:0:
335,246,103349,2,0,L|350:334,1,90,8|0,0:0|0:0,0:0:0:0:
128,347,103621,1,6,0:3:0:0:
115,324,103894,6,0,P|106:269|114:228,1,90,4|0,0:0|0:0,0:0:0:0:
251,102,104167,1,0,0:0:0:0:
282,98,104235,1,0,0:0:0:0:
313,95,104303,1,0,0:0:0:0:
344,92,104371,1,0,0:0:0:0:
375,89,104439,1,6,0:2:0:0:
216,18,104576,1,0,0:0:0:0:
411,173,104712,1,0,0:0:0:0:
422,202,104780,1,0,0:0:0:0:
427,233,104849,1,0,0:0:0:0:
424,264,104917,1,0,0:0:0:0:
412,293,104985,1,6,0:2:0:0:
470,99,105121,5,0,0:0:0:0:
316,234,105258,2,0,L|330:339,1,90,2|0,0:2|0:0,0:0:0:0:
194,128,105530,1,6,0:2:0:0:
159,282,105667,1,0,0:0:0:0:
39,174,105803,2,0,L|20:82,1,90,2|0,0:2|0:0,0:0:0:0:
300,46,106076,5,6,0:2:0:0:
310,85,106144,1,0,0:0:0:0:
311,125,106212,1,0,0:0:0:0:
300,164,106280,1,0,0:0:0:0:
277,197,106349,2,0,P|250:222|230:229,3,45
80,316,106621,1,6,0:2:0:0:
121,299,106689,1,0,0:0:0:0:
166,292,106758,1,0,0:0:0:0:
210,296,106826,1,0,0:0:0:0:
252,310,106894,2,0,P|284:317|320:317,3,45
402,269,107167,5,6,0:2:0:0:
413,225,107235,1,0,0:0:0:0:
424,181,107303,2,0,L|438:130,1,45
266,32,107439,1,6,0:2:0:0:
277,76,107507,1,0,0:0:0:0:
288,120,107575,2,0,L|299:163,1,45
151,208,107712,1,6,0:2:0:0:
121,174,107780,1,0,0:0:0:0:
166,169,107849,1,0,0:0:0:0:
42,355,107985,6,0,L|30:283,1,67.5000025749208,6|0,0:3|0:0,0:0:0:0:
30,288,108258,6,0,P|93:273|151:297,1,112.5,6|0,0:2|0:0,0:0:0:0:
259,186,108530,2,0,L|253:125,2,56.25,8|0|0,0:0|0:0|0:0,0:0:0:0:
319,320,108803,1,2,0:2:0:0:
434,124,108939,1,0,0:0:0:0:
458,367,109076,2,0,L|445:250,1,112.5,8|0,0:0|0:0,0:0:0:0:
148,68,109349,6,0,P|166:144|159:182,1,112.5,2|0,0:2|0:0,0:0:0:0:
403,100,109621,2,0,P|347:95|294:112,1,112.5,10|0,0:2|0:0,0:0:0:0:
293,355,109894,2,0,L|279:228,1,112.5,2|0,0:2|0:0,0:0:0:0:
434,244,110167,1,8,0:0:0:0:
192,326,110303,1,0,0:0:0:0:
152,322,110371,1,0,0:0:0:0:
112,318,110439,6,0,L|-4:307,1,112.5,2|0,0:2|0:0,0:0:0:0:
96,74,110712,1,8,0:0:0:0:
200,212,110849,1,0,0:0:0:0:
200,212,110917,1,0,0:0:0:0:
200,212,110985,1,2,0:2:0:0:
14,218,111121,1,2,0:2:0:0:
243,77,111258,1,10,0:2:0:0:
275,98,111326,1,0,0:0:0:0:
312,108,111394,1,0,0:0:0:0:
351,108,111462,1,0,0:0:0:0:
389,98,111530,6,0,P|443:68|476:26,1,112.5,4|0,0:0|0:0,0:0:0:0:
206,167,111803,2,0,P|121:145|10:226,1,225,12|2,0:0|0:2,0:0:0:0:
131,274,112212,1,2,0:2:0:0:
60,54,112349,6,0,L|36:154,1,90,8|0,0:0|0:0,0:0:0:0:
359,245,112621,6,0,P|361:187|338:134,1,112.5,6|0,0:2|0:0,0:0:0:0:
131,274,112894,1,8,0:0:0:0:
396,27,113030,1,0,0:0:0:0:
292,351,113167,1,2,0:2:0:0:
243,77,113303,1,0,0:0:0:0:
493,208,113439,2,0,L|512:92,1,112.5,8|0,0:0|0:0,0:0:0:0:
60,85,113712,6,0,P|130:98|177:87,1,112.5,2|0,0:2|0:0,0:0:0:0:
119,309,113985,2,0,P|110:253|123:199,1,112.5,10|0,0:2|0:0,0:0:0:0:
357,204,114258,2,0,L|237:183,1,112.5,2|0,0:2|0:0,0:0:0:0:
274,350,114530,1,8,0:0:0:0:
500,184,114667,1,0,0:0:0:0:
504,150,114735,1,0,0:0:0:0:
509,116,114803,6,0,P|397:95|304:161,1,225,2|8,0:2|0:0,0:0:0:0:
431,241,115212,1,0,0:0:0:0:
193,197,115349,2,0,L|121:188,1,56.25,2|0,0:2|0:2,0:0:0:0:
265,54,115485,2,0,L|337:45,1,56.25,2|0,0:2|0:2,0:0:0:0:
446,112,115621,1,10,0:2:0:0:
405,116,115689,1,0,0:0:0:0:
364,121,115757,1,0,0:0:0:0:
323,125,115825,1,0,0:0:0:0:
282,130,115894,6,0,P|224:129|152:99,1,112.5,2|0,0:2|0:0,0:0:0:0:
383,284,116167,2,0,P|436:266|492:265,1,112.5,10|0,0:2|0:0,0:0:0:0:
426,35,116439,2,0,L|404:163,1,112.5,2|0,0:2|0:0,0:0:0:0:
255,263,116712,1,8,0:0:0:0:
255,263,116849,1,0,0:0:0:0:
0,77,116985,6,0,P|70:50|206:121,1,225,6|8,0:2|0:0,0:0:0:0:
105,287,117394,1,0,0:0:0:0:
105,287,117462,1,0,0:0:0:0:
105,287,117530,2,0,L|89:166,1,112.5,2|0,0:2|0:0,0:0:0:0:
273,348,117803,2,0,L|287:236,1,112.5,8|0,0:0|0:0,0:0:0:0:
462,88,118076,6,0,P|397:104|342:93,1,112.5,2|0,0:2|0:0,0:0:0:0:
424,337,118349,2,0,P|408:272|419:217,1,112.5,10|0,0:2|0:0,0:0:0:0:
188,160,118621,2,0,L|298:195,1,112.5,2|0,0:2|0:0,0:0:0:0:
210,313,118894,1,8,0:0:0:0:
65,75,119030,1,0,0:0:0:0:
44,340,119167,6,0,L|73:219,1,112.5,2|0,0:2|0:0,0:0:0:0:
330,290,119439,1,8,0:0:0:0:
320,251,119507,1,0,0:0:0:0:
311,213,119575,1,0,0:0:0:0:
302,175,119643,1,0,0:0:0:0:
293,136,119712,2,0,L|264:15,1,112.5,2|2,0:2|0:2,0:0:0:0:
161,363,119985,1,10,0:2:0:0:
171,324,120053,1,0,0:0:0:0:
180,286,120121,1,0,0:0:0:0:
189,248,120189,1,0,0:0:0:0:
198,209,120258,6,0,P|196:143|178:96,1,112.5
482,117,120530,2,0,P|428:134|372:134,1,112.5,8|0,0:0|0:0,0:0:0:0:
304,337,120803,6,0,L|316:251,1,80.9999975280763,2|0,0:2|0:0,0:0:0:0:
278,318,121076,6,0,L|290:232,1,80.9999975280763,10|0,0:2|0:0,0:0:0:0:
16,79,121349,6,0,P|98:113|136:109,1,112.5,6|0,0:2|0:0,0:0:0:0:
405,245,121621,1,8,0:0:0:0:
398,217,121689,1,0,0:0:0:0:
391,189,121758,1,0,0:0:0:0:
385,161,121826,1,0,0:0:0:0:
378,133,121894,2,0,P|322:138|274:166,1,112.5,2|0,0:2|0:0,0:0:0:0:
79,251,122167,1,8,0:0:0:0:
97,271,122235,1,0,0:0:0:0:
115,291,122303,1,0,0:0:0:0:
133,311,122371,1,0,0:0:0:0:
151,331,122439,6,0,L|181:214,1,112.5,2|0,0:2|0:0,0:0:0:0:
435,40,122712,2,0,L|462:148,1,112.5,10|0,0:2|0:0,0:0:0:0:
33,343,122985,2,0,L|63:226,1,112.5,2|0,0:2|0:0,0:0:0:0:
317,52,123258,2,0,L|344:160,1,112.5,8|0,0:0|0:0,0:0:0:0:
67,88,123530,6,0,P|157:75|193:87,1,112.5,2|0,0:2|0:0,0:0:0:0:
131,191,123803,1,8,0:0:0:0:
131,191,123939,1,0,0:0:0:0:
368,151,124076,2,0,L|254:177,1,112.5,2|0,0:2|0:0,0:0:0:0:
288,64,124349,1,8,0:0:0:0:
129,289,124485,1,0,0:0:0:0:
413,379,124621,6,0,P|420:330|409:294,1,80.9999975280763,6|0,0:2|0:0,0:0:0:0:
366,229,124894,2,0,P|358:189|367:150,1,80.9999975280763,10|0,0:2|0:0,0:0:0:0:
431,95,125167,2,0,L|515:88,1,80.9999975280763,2|0,0:2|0:0,0:0:0:0:
348,60,125439,2,0,L|226:49,1,121.499996292114,10|0,0:2|0:0,0:0:0:0:
191,59,125712,6,0,P|162:116|168:167,1,112.5,6|0,0:2|0:0,0:0:0:0:
115,309,125985,1,8,0:0:0:0:
328,173,126121,1,0,0:0:0:0:
0,106,126258,2,0,P|58:112|115:100,1,112.5,2|0,0:2|0:0,0:0:0:0:
259,310,126530,1,8,0:0:0:0:
263,40,126667,1,0,0:0:0:0:
411,196,126803,6,0,P|433:130|467:91,1,112.5,2|0,0:2|0:0,0:0:0:0:
202,130,127076,2,0,P|246:163|300:178,1,112.5,10|0,0:2|0:0,0:0:0:0:
326,378,127349,2,0,L|345:257,1,112.5,2|0,0:2|0:0,0:0:0:0:
352,92,127621,1,8,0:0:0:0:
352,92,127758,1,0,0:0:0:0:
135,36,127894,6,0,P|88:110|157:239,1,225,2|8,0:2|0:0,0:0:0:0:
423,222,128303,1,0,0:0:0:0:
202,130,128439,1,2,0:2:0:0:
235,368,128576,1,2,0:2:0:0:
290,114,128712,1,10,0:2:0:0:
293,153,128780,1,0,0:0:0:0:
297,192,128849,1,0,0:0:0:0:
301,231,128917,1,0,0:0:0:0:
305,270,128985,6,0,P|363:302|416:293,1,112.5
236,55,129258,2,0,P|180:52|133:81,1,112.5,8|0,0:0|0:0,0:0:0:0:
159,290,129530,6,0,P|158:245|145:209,1,80.9999975280763,2|0,0:2|0:0,0:0:0:0:
184,288,129803,6,0,P|183:243|170:207,1,80.9999975280763,10|0,0:2|0:0,0:0:0:0:
21,275,130076,5,6,0:2:0:0:
302,352,130212,1,0,0:0:0:0:
206,147,130349,1,8,0:0:0:0:
0,280,130485,1,0,0:0:0:0:
306,210,130621,2,0,P|322:147|310:96,1,112.5,2|0,0:2|0:0,0:0:0:0:
512,287,130894,2,0,P|457:277|403:293,1,112.5,8|0,0:0|0:0,0:0:0:0:
200,146,131167,5,2,0:2:0:0:
424,183,131303,1,0,0:0:0:0:
145,222,131439,1,10,0:2:0:0:
478,106,131575,1,0,0:0:0:0:
121,93,131712,1,2,0:2:0:0:
502,235,131848,1,0,0:0:0:0:
290,370,131985,1,8,0:0:0:0:
294,330,132053,1,0,0:0:0:0:
298,290,132121,1,0,0:0:0:0:
302,250,132189,1,0,0:0:0:0:
306,210,132258,6,0,L|317:94,1,112.5,2|0,0:2|0:0,0:0:0:0:
11,110,132530,1,8,0:0:0:0:
22,135,132599,1,0,0:0:0:0:
40,156,132667,1,0,0:0:0:0:
63,171,132735,1,0,0:0:0:0:
89,179,132803,2,0,P|153:179|206:149,1,112.5,2|2,0:2|0:2,0:0:0:0:
511,278,133076,1,10,0:2:0:0:
470,247,133144,1,0,0:0:0:0:
421,231,133212,1,0,0:0:0:0:
370,237,133280,1,0,0:0:0:0:
325,262,133349,6,0,P|265:245|203:261,1,112.5,2|0,0:2|0:0,0:0:0:0:
300,47,133621,2,0,P|283:107|299:169,1,112.5,10|0,0:2|0:0,0:0:0:0:
512,92,133894,2,0,L|395:109,1,112.5,2|0,0:2|0:0,0:0:0:0:
194,134,134167,1,8,0:0:0:0:
194,134,134303,1,0,0:0:0:0:
337,230,134439,5,6,0:2:0:0:
14,168,134576,1,0,0:0:0:0:
216,5,134712,1,8,0:0:0:0:
165,261,134849,1,0,0:0:0:0:
383,99,134985,2,0,P|311:109|262:97,1,112.5,2|0,0:2|0:0,0:0:0:0:
110,178,135258,1,8,0:0:0:0:
387,296,135394,1,0,0:0:0:0:
61,313,135530,6,0,P|129:304|185:320,1,112.5,2|0,0:2|0:0,0:0:0:0:
121,98,135803,2,0,P|130:166|114:222,1,112.5,10|0,0:2|0:0,0:0:0:0:
348,167,136076,2,0,P|280:176|224:160,1,112.5,2|0,0:2|0:0,0:0:0:0:
289,38,136349,1,8,0:0:0:0:
487,135,136485,1,0,0:0:0:0:
482,168,136553,1,0,0:0:0:0:
477,201,136621,6,0,L|462:316,1,112.5,2|0,0:2|0:0,0:0:0:0:
289,38,136894,1,8,0:0:0:0:
318,287,137030,1,0,0:0:0:0:
149,177,137167,2,0,L|134:292,1,112.5,2|2,0:2|0:2,0:0:0:0:
3,95,137439,1,10,0:2:0:0:
5,123,137508,1,0,0:0:0:0:
7,150,137576,1,0,0:0:0:0:
10,177,137644,1,0,0:0:0:0:
13,204,137712,6,0,P|72:211|131:187,1,112.5,2|0,0:2|0:0,0:0:0:0:
198,318,137985,2,0,P|241:277|260:216,1,112.5,8|0,0:0|0:0,0:0:0:0:
245,34,138258,6,0,P|246:79|260:112,1,80.9999975280763,2|0,0:2|0:0,0:0:0:0:
206,37,138530,6,0,P|207:82|221:115,1,80.9999975280763,10|0,0:2|0:0,0:0:0:0:
480,159,138803,6,0,P|411:158|365:174,1,112.5,6|0,0:2|0:0,0:0:0:0:
442,286,139076,1,8,0:0:0:0:
321,52,139212,1,0,0:0:0:0:
278,339,139349,2,0,L|303:213,1,112.5,2|0,0:2|0:0,0:0:0:0:
127,68,139621,2,0,L|148:178,1,112.5,8|0,0:0|0:0,0:0:0:0:
429,55,139894,6,0,P|347:43|302:61,1,112.5,2|0,0:2|0:0,0:0:0:0:
367,278,140167,2,0,P|356:223|370:169,1,112.5,10|0,0:2|0:0,0:0:0:0:
113,218,140439,2,0,P|195:230|240:212,1,112.5,2|0,0:2|0:0,0:0:0:0:
93,18,140712,1,8,0:0:0:0:
25,138,140849,1,0,0:0:0:0:
27,165,140917,1,0,0:0:0:0:
29,192,140985,6,0,L|41:316,1,112.5,2|0,0:2|0:0,0:0:0:0:
198,78,141258,1,8,0:0:0:0:
195,105,141326,1,0,0:0:0:0:
192,132,141394,1,0,0:0:0:0:
189,159,141462,1,0,0:0:0:0:
186,186,141530,1,2,0:2:0:0:
256,336,141667,1,2,0:2:0:0:
359,137,141803,1,10,0:2:0:0:
362,164,141871,1,0,0:0:0:0:
365,191,141939,1,0,0:0:0:0:
368,218,142007,1,0,0:0:0:0:
371,245,142075,1,4,0:3:0:0:
485,154,142212,5,2,0:2:0:0:
250,172,142349,1,0,0:0:0:0:
380,334,142485,1,2,0:2:0:0:
508,137,142621,5,0,0:0:0:0:
221,161,142758,1,2,0:2:0:0:
381,358,142894,1,0,0:0:0:0:
356,101,143030,1,2,0:2:0:0:
89,223,143167,5,12,0:0:0:0:
135,89,151894,6,0,L|118:196,1,99.0000030212403,4|0,0:0|0:0,0:0:0:0:
102,290,152167,1,0,0:0:0:0:
102,290,152439,1,0,0:0:0:0:
347,218,152712,1,0,0:0:0:0:
200,180,152985,5,0,0:0:0:0:
237,326,153258,1,0,0:0:0:0:
237,326,153530,1,0,0:0:0:0:
467,301,153803,1,0,0:0:0:0:
469,148,153939,1,0,0:0:0:0:
347,218,154076,5,0,0:0:0:0:
125,90,154349,1,0,0:0:0:0:
125,90,154621,1,0,0:0:0:0:
366,109,154894,1,0,0:0:0:0:
229,227,155167,5,0,0:0:0:0:
253,28,155439,1,0,0:0:0:0:
253,28,155712,2,0,L|244:108,1,76.5000014591217,10|0,0:0|0:0,0:0:0:0:
220,303,155985,2,0,L|229:223,1,76.5000014591217,10|0,0:0|0:0,0:0:0:0:
146,156,156258,6,0,P|87:148|56:153,1,76.5000014591217,8|0,0:0|0:0,0:0:0:0:
337,258,156530,2,0,P|396:266|427:261,1,76.5000014591217,8|0,0:0|0:0,0:0:0:0:
136,178,156803,6,0,P|77:184|48:196,1,85.4999977169037,10|0,0:0|0:0,0:0:0:0:
346,235,157075,2,0,P|405:229|434:217,1,85.4999977169037,10|0,0:0|0:0,0:0:0:0:
133,199,157349,6,0,P|69:217|39:237,1,99.0000030212403,8|0,0:0|0:0,0:0:0:0:
349,214,157621,2,0,P|415:195|445:175,1,99.0000030212403,8|0,0:0|0:0,0:0:0:0:
134,219,157894,6,0,P|65:255|35:284,1,116.999994644165,8|0,0:0|0:0,0:0:0:0:
348,194,158166,2,0,P|417:158|446:130,1,116.999994644165,8|0,0:0|0:0,0:0:0:0:
192,35,158439,6,0,L|200:109,2,66.0000020141602,8|0|0,0:0|0:0|0:0,0:0:0:0:
280,83,158712,2,0,L|272:157,2,66.0000020141602,8|0|0,0:0|0:0|0:0,0:0:0:0:
191,177,158985,2,0,L|199:251,2,66.0000020141602,8|0|0,0:0|0:0|0:0,0:0:0:0:
279,225,159258,2,0,L|271:299,2,66.0000020141602,8|0|0,0:0|0:0|0:0,0:0:0:0:
195,328,159530,5,4,0:0:0:0:
58,225,159712,1,2,0:2:0:0:
58,225,159803,2,0,P|47:175|50:150,1,66.0000020141602,2|0,0:2|0:0,0:0:0:0:
129,104,159985,1,2,0:2:0:0:
190,178,160076,2,0,L|172:315,1,132.00000402832,4|0,0:0|0:0,0:0:0:0:
292,231,160349,2,0,L|274:100,1,107.999996704102,12|0,0:3|0:0,0:0:0:0:
469,17,160621,6,0,P|483:83|454:143,1,132.00000402832,4|0,0:0|0:0,0:0:0:0:
386,304,160894,2,0,P|400:240|374:181,1,132.00000402832
177,267,161167,2,0,B|223:267|223:267|261:248|261:248|309:249,1,132.00000402832,8|0,0:0|0:0,0:0:0:0:
292,347,161439,1,0,0:0:0:0:
76,210,161621,5,0,0:0:0:0:
76,210,161712,2,0,P|63:151|99:86,1,132.00000402832
155,160,161985,1,0,0:0:0:0:
257,54,162167,1,0,0:0:0:0:
257,54,162258,1,8,0:0:0:0:
399,350,162530,2,0,B|403:307|403:307|425:271|425:271|428:224,1,132.00000402832
230,224,162803,6,0,P|298:257|355:243,1,132.00000402832
356,108,163076,2,0,B|358:142|358:142|368:172,2,66.0000020141602
444,130,163349,1,8,0:0:0:0:
286,10,163530,1,0,0:0:0:0:
286,10,163621,2,0,L|264:143,1,132.00000402832
205,299,163894,6,0,L|183:168,1,132.00000402832
139,65,164167,2,0,P|79:44|16:70,1,132.00000402832
0,240,164439,1,8,0:0:0:0:
38,214,164530,1,0,0:0:0:0:
64,176,164621,1,0,0:0:0:0:
80,132,164712,1,0,0:0:0:0:
114,163,164803,1,0,0:0:0:0:
156,181,164894,1,0,0:0:0:0:
202,185,164985,6,0,P|239:136|238:66,1,132.00000402832,4|0,0:0|0:0,0:0:0:0:
326,171,165258,2,0,P|324:235|362:288,1,132.00000402832
439,75,165530,2,0,B|439:144|439:144|415:211,1,132.00000402832,8|0,0:0|0:0,0:0:0:0:
477,301,165803,1,0,0:0:0:0:
271,331,165985,5,0,0:0:0:0:
271,331,166076,2,0,P|195:306|131:318,1,132.00000402832
130,210,166349,2,0,P|61:252|30:308,1,132.00000402832
217,232,166621,2,0,B|239:169|239:169|225:100,1,132.00000402832,8|0,0:0|0:0,0:0:0:0:
334,25,166894,2,0,B|331:59|312:88|312:88|326:157,1,132.00000402832
245,24,167167,6,0,P|173:22|111:78,1,132.00000402832,4|0,0:0|0:0,0:0:0:0:
56,146,167439,2,0,P|49:107|33:82,2,66.0000020141602
164,150,167712,2,0,P|154:239|188:289,1,132.00000402832,8|0,0:0|0:0,0:0:0:0:
72,295,167985,1,0,0:0:0:0:
266,306,168167,6,0,B|312:308|341:284|341:284|385:291|385:291|421:269|459:279,1,198.000006042481
436,365,168530,1,0,0:0:0:0:
284,214,168712,1,0,0:0:0:0:
284,214,168803,2,0,P|264:145|291:90,1,132.00000402832,8|0,0:0|0:0,0:0:0:0:
377,46,169076,1,0,0:0:0:0:
401,85,169167,1,0,0:0:0:0:
394,130,169258,1,0,0:0:0:0:
356,157,169349,6,0,L|205:148,1,132.00000402832,4|0,0:0|0:0,0:0:0:0:
155,94,169621,1,0,0:0:0:0:
146,310,169803,1,0,0:0:0:0:
146,310,169894,2,0,P|161:239|136:177,1,132.00000402832,8|0,0:0|0:0,0:0:0:0:
228,23,170167,2,0,P|243:94|218:156,1,132.00000402832
242,232,170439,5,0,0:0:0:0:
37,282,170621,1,0,0:0:0:0:
37,282,170712,1,0,0:0:0:0:
293,330,170894,1,0,0:0:0:0:
293,330,170985,2,0,L|434:320,1,132.00000402832,8|0,0:0|0:0,0:0:0:0:
512,241,171258,2,0,L|371:231,1,132.00000402832
302,161,171530,6,0,P|290:90|327:42,1,132.00000402832,4|0,0:0|0:0,0:0:0:0:
436,117,171803,2,0,P|392:123|367:112,2,66.0000020141602
370,206,172076,2,0,P|269:202|227:219,1,132.00000402832,8|0,0:0|0:0,0:0:0:0:
180,270,172349,1,0,0:0:0:0:
82,113,172530,5,0,0:0:0:0:
82,113,172621,2,0,L|57:242,1,132.00000402832
168,207,172894,2,0,L|193:336,1,132.00000402832
298,343,173167,1,8,0:0:0:0:
343,350,173258,1,0,0:0:0:0:
388,358,173349,1,0,0:0:0:0:
433,366,173439,1,0,0:0:0:0:
407,327,173530,1,0,0:0:0:0:
380,288,173621,1,0,0:0:0:0:
347,255,173712,6,0,P|320:182|336:127,1,132.00000402832,4|0,0:0|0:0,0:0:0:0:
207,213,173985,2,0,P|219:276|193:336,1,132.00000402832
93,185,174258,2,0,L|74:44,1,132.00000402832,8|0,0:0|0:0,0:0:0:0:
166,86,174530,1,0,0:0:0:0:
121,274,174712,5,0,0:0:0:0:
121,274,174803,1,0,0:0:0:0:
262,117,174985,1,0,0:0:0:0:
262,117,175076,1,0,0:0:0:0:
25,233,175258,1,0,0:0:0:0:
25,233,175349,1,8,0:0:0:0:
245,221,175530,1,0,0:0:0:0:
245,221,175621,2,0,P|321:213|378:235,1,132.00000402832
355,132,175894,6,0,P|431:140|488:118,1,132.00000402832,4|0,0:0|0:0,0:0:0:0:
512,205,176167,2,0,L|497:273,2,66.0000020141602
401,230,176439,2,0,L|426:371,1,132.00000402832,8|0,0:0|0:0,0:0:0:0:
337,329,176712,1,0,0:0:0:0:
81,254,176894,6,0,P|156:228|239:309,1,198.000006042481
147,321,177258,1,0,0:0:0:0:
83,132,177439,1,0,0:0:0:0:
83,132,177530,1,8,0:0:0:0:
289,174,177712,1,0,0:0:0:0:
244,187,177803,1,0,0:0:0:0:
264,145,177894,1,0,0:0:0:0:
284,103,177985,1,0,0:0:0:0:
304,61,178076,1,4,0:0:0:0:
462,137,178258,5,0,0:0:0:0:
462,137,178349,2,0,P|472:210|439:264,1,132.00000402832
377,186,178621,2,0,L|393:35,1,132.00000402832,8|0,0:0|0:0,0:0:0:0:
473,51,178894,1,0,0:0:0:0:
264,145,179076,5,0,0:0:0:0:
264,145,179167,2,0,P|187:149|135:116,1,132.00000402832
0,258,179439,2,0,P|58:228|122:235,1,132.00000402832
352,268,179712,2,0,P|275:272|223:239,1,132.00000402832,8|0,0:0|0:0,0:0:0:0:
169,316,179985,1,0,0:0:0:0:
420,16,180258,6,0,L|437:156,1,132.00000402832,4|0,0:0|0:0,0:0:0:0:
337,192,180530,2,0,L|345:126,2,66.0000020141602
276,77,180803,2,0,P|193:58|146:79,1,132.00000402832,8|0,0:0|0:0,0:0:0:0:
97,135,181076,1,0,0:0:0:0:
323,275,181258,5,0,0:0:0:0:
323,275,181349,2,0,L|468:263,1,132.00000402832
359,365,181621,2,0,L|214:353,1,132.00000402832
125,319,181894,1,8,0:0:0:0:
82,301,181985,1,0,0:0:0:0:
39,283,182076,1,0,0:0:0:0:
46,240,182167,1,0,0:0:0:0:
92,238,182258,1,0,0:0:0:0:
138,236,182349,1,0,0:0:0:0:
183,234,182439,6,0,P|199:159|176:105,1,132.00000402832,4|0,0:0|0:0,0:0:0:0:
300,16,182712,2,0,P|279:77|296:140,1,132.00000402832
380,194,182985,2,0,L|527:185,1,132.00000402832,8|0,0:0|0:0,0:0:0:0:
474,105,183258,1,0,0:0:0:0:
297,228,183439,5,0,0:0:0:0:
297,228,183530,1,0,0:0:0:0:
168,56,183712,1,0,0:0:0:0:
168,56,183803,1,0,0:0:0:0:
288,262,183985,1,0,0:0:0:0:
288,262,184076,1,8,0:0:0:0:
474,105,184258,1,0,0:0:0:0:
474,105,184349,1,0,0:0:0:0:
73,176,184621,6,0,L|212:162,1,132.00000402832,4|0,0:0|0:0,0:0:0:0:
297,140,184894,2,0,L|231:130,2,66.0000020141602
395,213,185167,2,0,L|263:226,1,132.00000402832,8|0,0:0|0:0,0:0:0:0:
205,288,185439,1,0,0:0:0:0:
12,189,185621,6,0,P|96:156|188:220,1,198.000006042481
234,113,185985,2,0,P|252:47|294:0,1,132.00000402832
122,95,186258,2,0,P|164:144|181:207,1,132.00000402832,8|0,0:0|0:0,0:0:0:0:
127,281,186530,2,0,L|61:270,2,66.0000020141602
202,328,186803,6,0,L|346:313,1,132.00000402832,4|0,0:0|0:0,0:0:0:0:
512,251,187076,2,0,L|368:236,1,132.00000402832
304,189,187349,2,0,P|294:119|322:61,1,132.00000402832,8|0,0:0|0:0,0:0:0:0:
395,30,187621,1,0,0:0:0:0:
202,110,187803,5,0,0:0:0:0:
202,110,187894,2,0,L|179:240,1,132.00000402832
26,276,188167,2,0,L|150:230,1,132.00000402832
261,347,188439,2,0,L|159:262,1,132.00000402832,8|0,0:0|0:0,0:0:0:0:
106,162,188712,1,0,0:0:0:0:
447,45,188985,6,0,P|471:129|447:178,1,132.00000402832,4|0,0:0|0:0,0:0:0:0:
386,209,189258,2,0,L|307:203,2,66.0000020141602
355,121,189530,2,0,L|216:138,1,132.00000402832,8|0,0:0|0:0,0:0:0:0:
151,87,189803,1,0,0:0:0:0:
128,298,189985,5,0,0:0:0:0:
128,298,190076,2,0,P|156:216|139:159,1,132.00000402832
214,41,190349,2,0,P|242:123|225:180,1,132.00000402832
328,153,190621,1,8,0:0:0:0:
372,139,190712,1,0,0:0:0:0:
416,125,190803,1,0,0:0:0:0:
445,152,190894,1,0,0:0:0:0:
420,191,190985,1,0,0:0:0:0:
396,230,191076,1,0,0:0:0:0:
372,269,191167,6,0,P|458:250|510:259,1,132.00000402832,4|0,0:0|0:0,0:0:0:0:
350,360,191439,2,0,P|284:365|221:347,1,132.00000402832
170,269,191712,2,0,L|147:129,1,132.00000402832,8|0,0:0|0:0,0:0:0:0:
74,93,191985,1,0,0:0:0:0:
43,309,192167,5,0,0:0:0:0:
43,309,192258,2,0,P|70:241|58:176,1,132.00000402832
164,39,192530,2,0,P|156:103|182:163,1,132.00000402832
283,201,192803,2,0,L|424:188,1,132.00000402832,8|0,0:0|0:0,0:0:0:0:
327,284,193076,2,0,L|186:271,1,132.00000402832
116,227,193349,5,4,0:0:0:0:
415,279,193530,1,0,0:0:0:0:
415,279,193621,2,0,L|486:264,2,66.0000020141602
348,205,193894,2,0,P|330:121|346:73,1,132.00000402832,8|0,0:0|0:0,0:0:0:0:
411,33,194167,1,0,0:0:0:0:
202,142,194349,6,0,L|243:340,1,198.000006042481
177,257,194712,2,0,P|103:242|45:257,1,132.00000402832
271,265,194985,2,0,P|345:280|403:265,1,132.00000402832,8|0,0:0|0:0,0:0:0:0:
427,187,195258,1,0,0:0:0:0:
438,142,195349,1,0,0:0:0:0:
449,97,195439,1,0,0:0:0:0:
461,52,195530,1,4,0:0:0:0:
103,114,195803,5,0,0:0:0:0:
250,176,195985,1,0,0:0:0:0:
250,176,196076,2,0,P|264:243|246:292,1,107.999996704102,8|0,0:0|0:0,0:0:0:0:
186,334,196349,1,0,0:0:0:0:
204,82,196530,5,0,0:0:0:0:
204,82,196621,2,0,P|279:78|346:143,2,161.999995056153,0|0|8,0:0|0:0|0:0,0:0:0:0:
93,262,197439,1,0,0:0:0:0:
410,288,197712,2,0,L|248:268,2,161.999995056153,0|0|8,0:0|0:0|0:0,0:0:0:0:
484,206,198439,1,0,0:0:0:0:
484,206,198530,2,0,L|499:93,1,107.999996704102
386,29,198803,6,0,L|400:136,1,107.999996704102
329,203,199076,2,0,P|251:205|214:182,1,107.999996704102
176,130,199349,1,8,0:0:0:0:
21,325,199621,1,0,0:0:0:0:
41,58,199894,6,0,L|73:224,1,161.999995056153
199,178,200349,1,0,0:0:0:0:
199,178,200439,2,0,L|182:310,1,107.999996704102,8|0,0:0|0:0,0:0:0:0:
247,338,200712,1,0,0:0:0:0:
383,257,200894,5,0,0:0:0:0:
383,257,200985,2,0,P|406:189|393:146,1,107.999996704102
330,96,201258,2,0,P|307:164|320:207,1,107.999996704102
392,33,201530,2,0,P|324:10|281:23,1,107.999996704102,8|0,0:0|0:0,0:0:0:0:
229,80,201803,2,0,P|176:87|127:65,1,107.999996704102
53,110,202076,6,0,L|74:274,2,161.999995056153,0|0|8,0:0|0:0|0:0,0:0:0:0:
171,159,202803,1,0,0:0:0:0:
171,159,202894,2,0,L|187:42,1,107.999996704102
263,32,203167,6,0,P|297:36|331:31,2,53.9999983520508,2|0|2,0:2|0:0|0:2,0:0:0:0:
259,110,203439,2,0,P|255:144|260:178,2,53.9999983520508,8|0|0,0:0|0:0|0:0,0:0:0:0:
340,110,203712,1,0,0:0:0:0:
161,276,203985,1,12,0:3:0:0:
333,275,204258,5,4,0:0:0:0:
125,175,218303,6,2,B|125:237|125:237|90:300,2,125.999996154785,4|4|4,0:3|0:3|0:3,0:0:0:0:
229,71,218712,2,2,B|229:163|229:163|279:250,1,188.999994232178,4|0,0:3|0:0,0:0:0:0:
344,201,218985,6,0,P|421:194|459:210,1,107.999996704102,4|0,0:3|0:0,0:0:0:0:
379,384,219258,6,0,L|394:292,1,90,2|0,0:2|0:0,0:0:0:0:
139,19,219530,6,0,L|153:107,1,90,4|0,0:0|0:0,0:0:0:0:
149,245,219803,1,0,0:0:0:0:
58,174,219939,1,0,0:0:0:0:
240,180,220076,2,0,P|331:165|422:212,1,180
285,329,220485,6,0,P|302:261|298:228,1,90
385,20,220758,2,0,P|385:64|400:107,1,90
493,243,221030,1,0,0:0:0:0:
195,115,221167,2,0,L|96:103,1,90
360,190,221439,2,0,L|459:178,1,90
246,224,221712,6,0,L|237:270,2,45,2|0|0,0:2|0:0|0:0,0:0:0:0:
313,86,221985,2,0,L|304:41,2,45,2|0|0,0:2|0:0|0:0,0:0:0:0:
133,236,222258,2,0,P|130:304|146:339,1,90,2|0,0:2|0:0,0:0:0:0:
400,126,222530,2,0,P|403:58|387:23,1,90,2|0,0:2|0:0,0:0:0:0:
76,160,222803,2,0,L|186:150,1,90,2|0,0:2|0:0,0:0:0:0:
434,212,223076,2,0,L|324:202,1,90,2|0,0:2|0:0,0:0:0:0:
288,12,223349,2,0,L|298:122,1,90,2|0,0:2|0:0,0:0:0:0:
236,370,223621,2,0,L|246:260,1,90,2|0,0:2|0:0,0:0:0:0:
71,44,223894,6,0,P|120:83|184:88,1,112.5,4|0,0:0|0:0,0:0:0:0:
340,177,224167,2,0,P|264:170|236:178,1,90
156,253,224439,1,0,0:0:0:0:
443,283,224712,1,0,0:0:0:0:
443,283,224849,6,0,L|459:187,1,90
278,31,225121,2,0,L|292:119,1,90
266,267,225394,5,0,0:0:0:0:
83,204,225530,1,0,0:0:0:0:
203,157,225667,1,0,0:0:0:0:
285,280,225803,5,0,0:0:0:0:
59,202,225939,1,0,0:0:0:0:
208,141,226076,6,0,L|222:90,2,45,2|0|0,0:2|0:0|0:0,0:0:0:0:
83,204,226349,2,0,L|27:203,2,45,2|0|0,0:2|0:0|0:0,0:0:0:0:
266,267,226621,2,0,L|307:296,2,45,2|0|0,0:2|0:0|0:0,0:0:0:0:
394,140,226894,5,2,0:2:0:0:
354,160,226962,1,0,0:0:0:0:
314,181,227030,1,0,0:0:0:0:
102,112,227167,1,2,0:2:0:0:
82,71,227235,1,0,0:0:0:0:
63,30,227303,1,0,0:0:0:0:
169,259,227439,1,2,0:2:0:0:
152,301,227508,1,0,0:0:0:0:
135,342,227576,1,0,0:0:0:0:
240,129,227712,6,0,L|223:37,1,90,2|0,0:2|0:0,0:0:0:0:
408,256,227985,2,0,L|391:344,1,90,2|0,0:2|0:0,0:0:0:0:
58,259,228258,6,0,P|151:253|187:266,1,112.5,4|0,0:0|0:0,0:0:0:0:
269,346,228530,1,8,0:0:0:0:
295,151,228667,1,0,0:0:0:0:
394,352,228803,2,0,L|369:248,1,90,8|0,0:0|0:0,0:0:0:0:
392,95,229076,1,8,0:0:0:0:
184,200,229212,1,0,0:0:0:0:
154,56,229349,6,0,L|259:70,1,90,8|0,0:0|0:0,0:0:0:0:
480,194,229621,2,0,L|390:205,1,90,8|0,0:0|0:0,0:0:0:0:
211,307,229894,1,8,0:0:0:0:
102,141,230030,1,0,0:0:0:0:
97,263,230167,2,0,L|86:360,1,90,8|0,0:0|0:0,0:0:0:0:
227,184,230439,6,0,L|216:94,1,90,12|0,0:0|0:0,0:0:0:0:
390,65,230712,6,0,L|402:172,1,107.999996704102,10|0,0:2|0:0,0:0:0:0:
134,207,230985,6,0,L|119:79,1,116.999994644165,10|0,0:2|0:0,0:0:0:0:
298,68,231258,6,0,L|313:194,1,125.999996154785,10|0,0:2|0:0,0:0:0:0:
451,340,231530,6,0,P|481:296|489:243,1,107.999996704102,10|0,0:2|0:0,0:0:0:0:
273,33,231803,6,0,P|238:82|229:142,1,121.500000463486,10|0,0:2|0:0,0:0:0:0:
331,313,232076,6,0,P|248:295|203:257,1,135.000005149842,10|0,0:2|0:0,0:0:0:0:
377,85,232349,6,0,P|466:104|514:144,1,148.500001416206,10|0,0:2|0:0,0:0:0:0:
55,282,232621,6,0,P|20:187|74:83,1,215.999993408203,12|8,0:0|0:0,0:0:0:0:
340,119,233030,1,0,0:0:0:0:
154,191,233167,1,8,0:0:0:0:
219,81,233303,1,0,0:0:0:0:
276,230,233439,1,8,0:0:0:0:
299,36,233576,1,0,0:0:0:0:
359,207,233712,6,0,P|370:262|365:318,1,107.999996704102,12|0,0:0|0:0,0:0:0:0:
170,263,233985,2,0,P|227:277|282:267,1,107.999996704102,8|0,0:0|0:0,0:0:0:0:
279,73,234258,2,0,L|263:195,1,107.999996704102,8|0,0:0|0:0,0:0:0:0:
81,338,234530,2,0,L|66:230,1,107.999996704102,8|0,0:0|0:0,0:0:0:0:
161,44,234803,6,0,L|155:102,2,53.9999983520508,6|0|0,0:2|0:0|0:0,0:0:0:0:
43,25,235076,1,10,0:2:0:0:
136,199,235212,1,0,0:0:0:0:
279,73,235349,2,0,L|286:17,2,53.9999983520508,10|0|0,0:2|0:0|0:0,0:0:0:0:
331,216,235621,1,10,0:2:0:0:
430,95,235758,1,0,0:0:0:0:
232,255,235894,6,0,L|242:308,2,53.9999983520508,14|0|0,0:2|0:0|0:0,0:0:0:0:
115,142,236167,1,2,0:2:0:0:
22,172,236303,1,2,0:2:0:0:
22,269,236439,1,2,0:2:0:0:
115,299,236576,1,2,0:2:0:0:
172,220,236712,1,10,0:2:0:0:
172,220,236985,6,0,P|247:206|300:225,1,125.999996154785,4|0,0:0|0:0,0:0:0:0:
238,1,237258,2,0,P|252:76|233:129,1,125.999996154785,8|0,0:0|0:0,0:0:0:0:
467,91,237530,2,0,L|335:134,1,125.999996154785
120,55,237803,1,8,0:0:0:0:
366,25,237939,1,0,0:0:0:0:
82,136,238076,5,0,0:0:0:0:
327,106,238212,1,0,0:0:0:0:
151,203,238349,1,8,0:0:0:0:
397,174,238485,1,0,0:0:0:0:
268,355,238621,2,0,L|280:219,1,125.999996154785
53,77,238894,2,0,L|64:202,1,125.999996154785,8|0,0:0|0:0,0:0:0:0:
385,189,239167,6,0,P|276:121|172:182,1,251.999992309571,6|8,0:2|0:0,0:0:0:0:
381,313,239576,1,0,0:0:0:0:
483,134,239712,2,0,L|492:69,2,62.9999980773926,2|0|0,0:2|0:0|0:0,0:0:0:0:
489,312,239985,1,8,0:0:0:0:
371,52,240121,1,0,0:0:0:0:
292,298,240258,6,0,L|300:360,2,62.9999980773926,2|0|0,0:2|0:0|0:0,0:0:0:0:
219,97,240530,2,0,L|228:32,2,62.9999980773926,10|0|0,0:2|0:0|0:0,0:0:0:0:
29,266,240803,2,0,L|91:257,2,62.9999980773926,2|0|0,0:2|0:0|0:0,0:0:0:0:
343,171,241076,1,8,0:0:0:0:
64,124,241212,1,0,0:0:0:0:
181,359,241349,5,4,0:0:0:0:
222,78,241485,1,0,0:0:0:0:
320,363,241621,2,0,L|300:226,1,125.999996154785,8|0,0:0|0:0,0:0:0:0:
450,83,241894,2,0,L|431:207,1,125.999996154785
261,34,242167,1,8,0:0:0:0:
187,218,242303,6,0,P|113:233|54:208,1,125.999996154785
329,81,242576,2,0,P|403:66|462:91,1,125.999996154785,0|8,0:0|0:0,0:0:0:0:
339,232,242849,1,0,0:0:0:0:
145,17,242985,2,0,L|128:152,1,125.999996154785
354,357,243258,2,0,L|338:231,1,125.999996154785,8|0,0:0|0:0,0:0:0:0:
130,318,243530,6,0,L|197:311,2,62.9999980773926,6|0|0,0:2|0:0|0:0,0:0:0:0:
432,243,243803,2,0,L|365:236,2,62.9999980773926,10|0|0,0:2|0:0|0:0,0:0:0:0:
152,205,244076,1,10,0:2:0:0:
374,156,244212,1,10,0:2:0:0:
67,147,244349,1,10,0:2:0:0:
453,93,244485,1,8,0:0:0:0:
245,43,244621,5,4,0:0:0:0:
293,310,244758,1,2,2:2:0:0:
272,9,244894,1,2,2:2:0:0:
263,341,245031,1,2,2:2:0:0:
151,147,245167,2,2,L|116:140,4,31.4999990386963,2|2|2|2|2,2:2|2:2|2:2|2:2|2:2,2:2:0:0:
353,131,245439,2,2,L|486:110,1,125.999996154785,2|2,2:2|2:2,2:2:0:0:
273,340,245712,6,0,P|248:238|258:205,1,125.999996154785,4|0,0:0|0:0,0:0:0:0:
107,75,245985,2,0,P|110:137|86:194,1,125.999996154785,8|0,0:0|0:0,0:0:0:0:
245,75,246258,1,0,0:0:0:0:
148,337,246394,1,0,0:0:0:0:
415,277,246530,1,8,0:0:0:0:
75,209,246667,6,0,L|211:192,1,125.999996154785
508,128,246939,2,0,L|372:111,1,125.999996154785,0|8,0:0|0:0,0:0:0:0:
376,321,247212,1,0,0:0:0:0:
274,113,247349,2,0,L|266:47,2,62.9999980773926
171,290,247621,2,0,L|163:352,2,62.9999980773926,8|0|0,0:0|0:0|0:0,0:0:0:0:
157,99,247894,5,2,0:2:0:0:
147,71,247962,1,0,0:0:0:0:
137,44,248030,1,0,0:0:0:0:
93,187,248167,1,8,0:2:0:0:
104,215,248235,1,0,0:0:0:0:
114,242,248303,1,0,0:0:0:0:
286,107,248439,1,2,0:2:0:0:
271,69,248507,1,0,0:0:0:0:
257,32,248575,1,0,0:0:0:0:
222,208,248712,1,8,0:2:0:0:
238,251,248780,1,0,0:0:0:0:
254,296,248848,1,0,0:0:0:0:
374,142,248985,6,0,L|384:77,2,62.9999980773926,2|0|0,0:2|0:0|0:0,0:0:0:0:
509,254,249258,2,0,L|446:244,2,62.9999980773926,10|0|0,0:2|0:0|0:0,0:0:0:0:
222,208,249530,2,0,L|284:217,2,62.9999980773926,2|0|0,0:2|0:0|0:0,0:0:0:0:
353,313,249803,2,0,L|343:375,2,62.9999980773926,8|0|0,0:0|0:0|0:0,0:0:0:0:
126,261,250076,6,0,P|110:184|130:136,1,125.999996154785,4|0,0:0|0:0,0:0:0:0:
373,22,250349,2,0,P|390:81|373:141,1,125.999996154785,8|0,0:0|0:0,0:0:0:0:
234,73,250621,1,0,0:0:0:0:
497,177,250758,1,0,0:0:0:0:
328,216,250894,1,8,0:0:0:0:
419,372,251030,6,0,L|429:226,1,125.999996154785
156,22,251303,2,0,L|164:147,1,125.999996154785,0|8,0:0|0:0,0:0:0:0:
113,312,251576,1,0,0:0:0:0:
310,147,251712,1,0,0:0:0:0:
63,81,251849,1,0,0:0:0:0:
234,253,251985,2,0,P|254:320|243:375,1,125.999996154785,8|0,0:0|0:0,0:0:0:0:
69,202,252258,6,0,L|6:191,2,62.9999980773926,6|0|0,0:2|0:0|0:0,0:0:0:0:
265,59,252530,2,0,L|328:48,2,62.9999980773926,10|0|0,0:2|0:0|0:0,0:0:0:0:
349,235,252803,1,10,0:2:0:0:
104,99,252939,1,10,0:2:0:0:
434,214,253076,1,10,0:2:0:0:
20,113,253212,1,10,0:2:0:0:
231,170,253349,5,2,2:2:0:0:
231,170,253485,1,2,2:2:0:0:
231,170,253621,1,2,2:2:0:0:
231,170,253758,1,2,2:2:0:0:
231,170,253894,1,2,2:2:0:0:
354,133,254030,1,2,2:2:0:0:
306,325,254167,2,0,L|316:218,1,107.999996704102,12|0,0:0|0:0,0:0:0:0:
27,250,254439,6,0,P|102:277|158:266,1,125.999996154785,4|0,0:0|0:0,0:0:0:0:
127,50,254712,2,0,P|131:112|106:169,1,125.999996154785,8|0,0:0|0:0,0:0:0:0:
346,191,254985,2,0,L|209:197,1,125.999996154785
283,329,255258,1,8,0:0:0:0:
317,67,255394,6,0,P|389:50|453:63,1,125.999996154785
220,196,255667,2,0,P|157:203|97:186,1,125.999996154785,0|8,0:0|0:0,0:0:0:0:
188,70,255939,1,0,0:0:0:0:
347,190,256076,1,0,0:0:0:0:
127,119,256212,1,0,0:0:0:0:
403,133,256349,1,8,0:0:0:0:
114,42,256485,1,0,0:0:0:0:
423,209,256621,6,0,P|434:275|420:332,1,125.999996154785
152,270,256894,2,0,P|218:259|275:273,1,125.999996154785,8|0,0:0|0:0,0:0:0:0:
260,19,257167,2,0,L|296:152,1,125.999996154785
127,119,257439,1,8,0:0:0:0:
423,209,257576,1,0,0:0:0:0:
99,203,257712,6,0,L|-1:192,1,99.0000030212403,4|2,0:0|0:2,0:0:0:0:
403,125,257985,2,2,L|503:114,1,99.0000030212403,2|2,2:2|2:2,2:2:0:0:
141,292,258258,2,2,L|41:281,1,99.0000030212403,2|2,2:2|2:2,2:2:0:0:
337,49,258531,2,2,B|378:40|378:40|409:45|409:45|448:38,1,112.5,0|0,0:0|0:0,0:0:0:0:
297,284,258803,6,0,P|278:202|293:153,1,125.999996154785,4|0,0:0|0:0,0:0:0:0:
44,208,259076,2,0,P|126:189|175:204,1,125.999996154785,8|0,0:0|0:0,0:0:0:0:
196,72,259349,1,0,0:0:0:0:
211,304,259485,1,0,0:0:0:0:
368,176,259621,1,8,0:0:0:0:
321,371,259758,6,0,L|308:235,1,125.999996154785
119,36,260030,2,0,L|107:161,1,125.999996154785,0|8,0:0|0:0,0:0:0:0:
416,272,260303,1,0,0:0:0:0:
404,68,260439,2,0,P|325:56|278:74,1,125.999996154785
211,304,260712,1,8,0:0:0:0:
148,106,260849,1,0,0:0:0:0:
69,359,260985,6,0,L|102:224,1,125.999996154785
286,190,261258,1,8,0:0:0:0:
30,140,261394,1,0,0:0:0:0:
181,38,261530,1,0,0:0:0:0:
143,252,261667,1,0,0:0:0:0:
277,30,261803,1,8,0:0:0:0:
50,268,261939,1,0,0:0:0:0:
212,164,262076,6,0,B|262:155|306:181|306:181|357:159|357:159|399:186|452:173,1,251.999992309571,0|8,0:0|0:0,0:0:0:0:
424,60,262485,1,0,0:0:0:0:
245,256,262621,2,0,L|250:295,4,31.4999990386963
139,127,262894,1,8,0:0:0:0:
322,348,263030,1,0,0:0:0:0:
332,58,263167,6,0,L|311:174,1,112.5,4|0,0:0|0:0,0:0:0:0:
233,53,263439,1,8,0:0:0:0:
380,264,263576,1,0,0:0:0:0:
47,170,263712,2,0,P|124:137|250:207,1,225,0|8,0:0|0:0,0:0:0:0:
135,262,264121,1,0,0:0:0:0:
322,348,264258,6,0,L|359:344,4,28.125
135,262,264530,2,0,L|98:258,4,28.125,8|0|0|0|0,0:0|0:0|0:0|0:0|0:0,0:0:0:0:
369,177,264803,2,0,L|406:173,4,28.125
214,44,265076,2,0,L|230:162,1,112.5,8|0,0:0|0:0,0:0:0:0:
477,232,265349,6,0,P|363:216|289:274,1,207.000003948212,4|8,0:0|0:0,0:0:0:0:
401,334,265758,1,0,0:0:0:0:
200,219,265894,2,0,P|199:296|214:329,1,103.500001974106
369,177,266167,2,0,P|370:100|355:67,1,103.500001974106,8|0,0:0|0:0,0:0:0:0:
88,107,266439,5,2,0:2:0:0:
252,86,266576,1,2,0:2:0:0:
111,182,266712,1,8,0:0:0:0:
331,72,266849,1,2,0:2:0:0:
140,258,266985,1,2,0:2:0:0:
411,56,267121,1,0,0:0:0:0:
286,342,267258,2,0,L|299:237,1,103.500001974106,8|0,0:0|0:0,0:0:0:0:
178,25,267530,6,0,P|166:121|184:158,1,125.999996154785,4|0,0:0|0:0,0:0:0:0:
448,155,267803,2,0,P|352:143|315:161,1,125.999996154785,8|0,0:0|0:0,0:0:0:0:
239,356,268076,2,0,L|249:217,1,125.999996154785
263,55,268349,1,8,0:0:0:0:
343,282,268485,1,0,0:0:0:0:
162,225,268621,6,0,L|22:213,1,125.999996154785,4|0,0:0|0:0,0:0:0:0:
322,165,268894,2,0,L|462:153,1,125.999996154785,8|0,0:0|0:0,0:0:0:0:
263,254,269167,1,0,0:0:0:0:
385,73,269303,1,0,0:0:0:0:
480,268,269439,1,8,0:0:0:0:
369,357,269576,1,0,0:0:0:0:
160,119,269712,5,6,0:2:0:0:
199,334,269849,1,2,0:2:0:0:
322,165,269985,1,10,0:2:0:0:
42,255,270121,1,2,0:2:0:0:
266,79,270258,2,0,L|270:40,4,31.4999990386963
100,347,270530,2,0,L|103:378,4,31.4999990386963,8|0|0|0|0,0:0|0:0|0:0|0:0|0:0,0:0:0:0:
176,218,270802,6,2,L|285:232,1,107.999996704102,6|2,0:2|2:0,2:0:0:0:
392,326,271075,2,2,L|406:217,1,107.999996704102,2|2,2:0|2:0,2:0:0:0:
432,101,271348,2,2,L|384:94,4,26.9999991760254,2|2|2|2|2,2:0|2:0|2:0|2:0|2:0,2:0:0:0:
274,0,271621,2,2,L|260:109,1,107.999996704102,2|2,2:0|2:0,2:0:0:0:
54,83,271894,5,4,0:0:0:0:
256,192,271962,12,0,276258,0:0:0:0:
