osu file format v14

[General]
AudioFilename: audio.mp3
AudioLeadIn: 0
PreviewTime: 62450
Countdown: 1
SampleSet: None
StackLeniency: 0.7
Mode: 0
LetterboxInBreaks: 0
WidescreenStoryboard: 0

[Editor]
Bookmarks: 13478,27684
DistanceSpacing: 1.5
BeatDivisor: 4
GridSize: 16
TimelineZoom: 1

[Metadata]
Title:Count down 321
TitleUnicode:Count down 321
Artist:t+pazolite
ArtistUnicode:t+pazolite
Creator:Ameyy
Version:
Source:
Tags:
BeatmapID:1245214
BeatmapSetID:588132

[Difficulty]
HPDrainRate:6
CircleSize:4
OverallDifficulty:7
ApproachRate:9.5
SliderMultiplier:1.5
SliderTickRate:1

[Events]
//Background and Video events
0,0,"thumb-1920-206136.jpg",0,0
//Break Periods
//Storyboard Layer 0 (Background)
//Storyboard Layer 1 (Fail)
//Storyboard Layer 2 (Pass)
//Storyboard Layer 3 (Foreground)
//Storyboard Sound Samples

[TimingPoints]
21,186.915887850467,4,2,0,80,1,0
13478,-200,4,1,0,100,0,0
19460,-142.857142857143,4,1,0,100,0,0
25254,-100,4,1,0,100,0,1
27684,-200,4,1,0,100,0,1
28432,-100,4,1,0,100,0,1
29927,-200,4,1,0,100,0,1
31422,-100,4,1,0,100,0,1
35908,-142.857142857143,4,1,0,100,0,1
36983,-100,4,1,0,100,0,1

[HitObjects]
131,70,13478,6,0,P|102:138|134:208,1,150
206,138,14039,1,0,0:0:0:0:
204,250,14226,2,0,L|184:327,1,75
294,292,14600,2,0,L|275:368,1,75
373,307,14974,5,0,0:0:0:0:
314,210,15161,1,0,0:0:0:0:
409,150,15348,2,0,L|392:234,1,75
487,161,15721,5,0,0:0:0:0:
351,97,15908,1,8,0:0:0:0:
493,246,16095,1,8,0:0:0:0:
384,26,16282,1,0,0:0:0:0:
279,68,16469,6,0,L|212:103,2,75
169,40,17030,1,0,0:0:0:0:
157,152,17217,2,0,P|211:176|238:170,1,75
169,40,17591,2,0,P|115:16|88:22,1,75
64,124,17964,5,0,0:0:0:0:
15,225,18151,1,0,0:0:0:0:
127,216,18338,1,0,0:0:0:0:
26,52,18525,1,0,0:0:0:0:
26,52,18712,2,0,P|-7:79|-16:116,1,75,0|8,0:0|0:0,0:0:0:0:
127,216,19086,2,0,L|79:145,1,75,8|0,0:0|0:0,0:0:0:0:
98,286,19460,6,0,P|157:285|194:250,1,104.999996795654
210,239,19740,1,0,0:0:0:0:
234,248,19834,2,0,L|333:303,1,104.999996795654
411,166,20207,1,0,0:0:0:0:
411,166,20301,1,0,0:0:0:0:
411,166,20394,1,0,0:0:0:0:
256,133,20581,1,0,0:0:0:0:
256,133,20675,1,0,0:0:0:0:
256,133,20768,1,0,0:0:0:0:
465,218,20955,6,0,P|486:174|459:110,1,104.999996795654
201,79,21329,2,0,P|180:123|207:187,1,104.999996795654
415,73,21703,1,0,0:0:0:0:
415,73,21796,2,0,L|472:44,1,52.4999983978272
201,79,22077,1,0,0:0:0:0:
201,79,22170,2,0,L|144:50,1,52.4999983978272
51,174,22450,5,0,0:0:0:0:
134,307,22637,2,0,L|189:299,2,52.4999983978272
263,215,23011,1,0,0:0:0:0:
69,263,23198,2,0,P|56:316|92:374,1,104.999996795654
263,215,23572,2,0,L|150:205,1,104.999996795654
344,298,23946,2,0,L|457:308,1,104.999996795654
467,272,24226,1,0,0:0:0:0:
466,245,24320,2,0,L|401:151,1,104.999996795654
287,55,24693,5,0,0:0:0:0:
302,211,24880,1,0,0:0:0:0:
62,233,25067,1,14,0:0:0:0:
94,148,25441,5,0,0:0:0:0:
100,138,25488,1,0,0:0:0:0:
107,129,25535,1,0,0:0:0:0:
115,122,25581,1,0,0:0:0:0:
124,115,25628,1,0,0:0:0:0:
133,109,25675,1,0,0:0:0:0:
142,103,25721,1,0,0:0:0:0:
152,98,25768,1,0,0:0:0:0:
162,94,25815,1,0,0:0:0:0:
172,90,25862,1,0,0:0:0:0:
182,87,25908,1,0,0:0:0:0:
193,84,25955,1,0,0:0:0:0:
204,81,26002,1,0,0:0:0:0:
215,79,26049,1,0,0:0:0:0:
226,77,26095,1,0,0:0:0:0:
237,77,26142,1,0,0:0:0:0:
248,77,26189,1,0,0:0:0:0:
259,77,26235,1,0,0:0:0:0:
270,78,26282,1,0,0:0:0:0:
280,80,26329,1,0,0:0:0:0:
291,81,26376,1,0,0:0:0:0:
301,83,26422,1,0,0:0:0:0:
311,86,26469,1,0,0:0:0:0:
321,90,26516,1,0,0:0:0:0:
330,95,26563,1,0,0:0:0:0:
339,100,26609,1,0,0:0:0:0:
347,107,26656,1,0,0:0:0:0:
355,115,26703,1,0,0:0:0:0:
362,123,26749,1,0,0:0:0:0:
368,132,26796,1,0,0:0:0:0:
373,141,26843,1,0,0:0:0:0:
378,151,26890,1,0,0:0:0:0:
382,161,26936,1,0,0:0:0:0:
385,171,26983,1,0,0:0:0:0:
387,181,27030,1,0,0:0:0:0:
387,192,27077,1,0,0:0:0:0:
386,203,27123,1,0,0:0:0:0:
384,214,27170,1,0,0:0:0:0:
381,225,27217,1,0,0:0:0:0:
377,235,27263,1,0,0:0:0:0:
372,245,27310,1,0,0:0:0:0:
368,255,27357,1,0,0:0:0:0:
362,265,27404,1,0,0:0:0:0:
355,274,27450,1,0,0:0:0:0:
346,282,27497,1,0,0:0:0:0:
336,288,27544,1,0,0:0:0:0:
325,293,27591,1,0,0:0:0:0:
314,296,27637,1,0,0:0:0:0:
308,294,27684,6,0,L|193:268,1,112.5
51,322,28058,2,0,L|166:348,1,112.5
113,243,28432,2,0,L|94:200,3,37.5
101,203,28619,1,0,0:0:0:0:
107,200,28665,1,0,0:0:0:0:
113,197,28712,1,0,0:0:0:0:
119,193,28759,1,0,0:0:0:0:
125,189,28806,1,0,0:0:0:0:
131,186,28852,1,0,0:0:0:0:
137,183,28899,1,0,0:0:0:0:
143,180,28946,1,0,0:0:0:0:
149,177,28992,1,0,0:0:0:0:
155,174,29039,1,0,0:0:0:0:
162,171,29086,1,0,0:0:0:0:
169,168,29133,1,0,0:0:0:0:
175,165,29179,1,0,0:0:0:0:
182,162,29226,1,0,0:0:0:0:
189,159,29273,1,0,0:0:0:0:
196,156,29320,1,0,0:0:0:0:
202,153,29366,1,0,0:0:0:0:
209,150,29413,1,0,0:0:0:0:
216,147,29460,1,0,0:0:0:0:
223,145,29506,1,0,0:0:0:0:
230,142,29553,1,0,0:0:0:0:
237,140,29600,1,0,0:0:0:0:
244,138,29647,1,0,0:0:0:0:
251,136,29693,1,0,0:0:0:0:
257,133,29740,1,0,0:0:0:0:
264,130,29787,1,0,0:0:0:0:
271,128,29834,1,0,0:0:0:0:
278,127,29880,1,0,0:0:0:0:
281,125,29927,6,0,P|364:109|413:135,1,131.25
342,294,30348,2,0,L|341:168,1,112.5
420,325,30675,2,0,P|393:359|355:374,1,75
280,347,30955,2,0,P|230:334|203:337,1,75
127,357,31189,2,0,L|93:283,1,75
95,281,31422,5,0,0:0:0:0:
101,276,31469,1,0,0:0:0:0:
107,271,31516,1,0,0:0:0:0:
113,266,31563,1,0,0:0:0:0:
119,261,31609,1,0,0:0:0:0:
125,256,31656,1,0,0:0:0:0:
131,251,31703,1,0,0:0:0:0:
137,247,31749,1,0,0:0:0:0:
143,242,31796,1,0,0:0:0:0:
149,237,31843,1,0,0:0:0:0:
155,232,31890,1,0,0:0:0:0:
161,228,31936,1,0,0:0:0:0:
167,223,31983,1,0,0:0:0:0:
173,218,32030,1,0,0:0:0:0:
179,214,32077,1,0,0:0:0:0:
185,210,32123,1,0,0:0:0:0:
191,206,32170,1,0,0:0:0:0:
197,202,32217,1,0,0:0:0:0:
203,198,32263,1,0,0:0:0:0:
209,194,32310,1,0,0:0:0:0:
215,190,32357,1,0,0:0:0:0:
221,186,32404,1,0,0:0:0:0:
227,182,32450,1,0,0:0:0:0:
233,178,32497,1,0,0:0:0:0:
239,174,32544,1,0,0:0:0:0:
245,170,32591,1,0,0:0:0:0:
251,166,32637,1,0,0:0:0:0:
257,162,32684,1,0,0:0:0:0:
263,158,32731,1,0,0:0:0:0:
269,154,32778,1,0,0:0:0:0:
275,150,32824,1,0,0:0:0:0:
281,145,32871,1,0,0:0:0:0:
287,141,32918,1,0,0:0:0:0:
293,137,32964,1,0,0:0:0:0:
299,133,33011,1,0,0:0:0:0:
305,129,33058,1,0,0:0:0:0:
311,125,33105,1,0,0:0:0:0:
317,121,33151,1,0,0:0:0:0:
323,117,33198,1,0,0:0:0:0:
329,113,33245,1,0,0:0:0:0:
335,109,33292,1,0,0:0:0:0:
341,105,33338,1,0,0:0:0:0:
347,101,33385,1,0,0:0:0:0:
353,97,33432,1,0,0:0:0:0:
359,93,33478,1,0,0:0:0:0:
365,89,33525,1,0,0:0:0:0:
371,85,33572,1,0,0:0:0:0:
377,81,33619,1,0,0:0:0:0:
383,77,33665,1,0,0:0:0:0:
291,248,34039,5,0,0:0:0:0:
104,119,34413,2,0,L|77:67,1,37.5
143,85,34506,2,0,L|138:40,1,37.5
190,72,34600,2,0,L|189:16,1,37.5
234,68,34693,2,0,L|234:12,1,37.5
277,68,34787,2,0,L|277:24,1,37.5
318,69,34880,2,0,L|350:19,1,37.5
364,89,34974,2,0,L|420:134,18,37.5
408,149,35862,6,0,L|361:202,1,52.4999983978272
238,240,36002,2,0,L|284:197,1,52.4999983978272
318,69,36189,2,0,L|274:108,1,52.4999983978272
139,137,36376,2,0,L|181:102,1,52.4999983978272
224,160,36563,1,0,0:0:0:0:
168,208,36657,6,0,P|97:200|69:163,1,104.999996795654
16,224,36936,1,0,0:0:0:0:
71,272,37030,2,0,P|132:318|288:192,1,300
