osu file format v14

[General]
AudioFilename: audio.mp3
AudioLeadIn: 0
PreviewTime: 106908
Countdown: 0
SampleSet: Soft
StackLeniency: 0.7
Mode: 3
LetterboxInBreaks: 0
SpecialStyle: 0
WidescreenStoryboard: 1

[Editor]
Bookmarks: 19757,35806
DistanceSpacing: 0.8
BeatDivisor: 4
GridSize: 32
TimelineZoom: 1.799998

[Metadata]
Title:Contrapasso -inferno-
TitleUnicode:Contrapasso -inferno-
Artist:t+pazolite
ArtistUnicode:t+pazolite
Creator:Lirai
Version:ADVANCED
Source:CHUNITHM PLUS
Tags:de-cade decade sega オリジナルサウンドトラック C93 Comiket 93 Comic market original sound track world of metaverse Good Evening, HOLLOWood CHS-0031 C.H.S CHS tpz electronic hardcore instrumental video game
BeatmapID:2353974
BeatmapSetID:1104341

[Difficulty]
HPDrainRate:8
CircleSize:4
OverallDifficulty:8
ApproachRate:5
SliderMultiplier:1.4
SliderTickRate:1

[Events]
//Background and Video events
0,0,"73548731.jpg",0,0
//Break Periods
//Storyboard Layer 0 (Background)
//Storyboard Layer 1 (Fail)
//Storyboard Layer 2 (Pass)
//Storyboard Layer 3 (Foreground)
//Storyboard Layer 4 (Overlay)
//Storyboard Sound Samples

[TimingPoints]
242,246.913580246914,4,2,1,40,1,0
106908,-100,4,2,1,60,0,1
122711,-100,4,2,1,60,0,0

[HitObjects]
448,192,242,5,0,0:0:0:0:
448,192,1229,1,0,0:0:0:0:
448,192,2217,1,0,0:0:0:0:
448,192,3204,1,0,0:0:0:0:
64,192,4192,1,0,0:0:0:0:
192,192,4192,1,0,0:0:0:0:
320,192,4439,1,0,0:0:0:0:
64,192,4686,1,0,0:0:0:0:
448,192,4686,128,0,4933:0:0:0:0:
320,192,4933,128,0,5180:0:0:0:0:
64,192,5180,1,0,0:0:0:0:
448,192,5180,128,0,5427:0:0:0:0:
192,192,5427,1,0,0:0:0:0:
64,192,5674,128,0,5921:0:0:0:0:
320,192,5674,1,0,0:0:0:0:
192,192,5921,128,0,6167:0:0:0:0:
320,192,6167,1,0,0:0:0:0:
448,192,6167,128,0,6414:0:0:0:0:
64,192,6414,1,0,0:0:0:0:
192,192,6661,1,0,0:0:0:0:
448,192,6661,128,0,6908:0:0:0:0:
320,192,6908,1,0,0:0:0:0:
192,192,7155,128,0,7402:0:0:0:0:
448,192,7155,1,0,0:0:0:0:
320,192,7402,1,0,0:0:0:0:
64,192,7649,128,0,7896:0:0:0:0:
448,192,7649,1,0,0:0:0:0:
192,192,7896,1,0,0:0:0:0:
320,192,8143,1,2,0:0:0:0:
448,192,8143,1,0,0:0:0:0:
192,192,8390,1,0,0:0:0:0:
64,192,8637,1,0,0:0:0:0:
448,192,8637,128,0,8883:0:0:0:0:
192,192,8883,1,2,0:0:0:0:
320,192,8883,128,0,9130:0:0:0:0:
64,192,9130,1,2,0:0:0:0:
448,192,9130,128,0,9377:0:0:0:0:
192,192,9377,1,0,0:0:0:0:
64,192,9624,128,0,9871:0:0:0:0:
320,192,9624,1,0,0:0:0:0:
192,192,9871,128,0,10118:0:0:0:0:
320,192,10118,1,2,0:0:0:0:
448,192,10118,128,0,10365:0:0:0:0:
64,192,10365,1,0,0:0:0:0:
192,192,10612,128,0,10859:0:0:0:0:
320,192,10612,1,0,0:0:0:0:
64,192,10859,1,2,0:0:0:0:
448,192,10859,1,0,0:0:0:0:
192,192,11106,1,2,0:0:0:0:
320,192,11106,128,0,11353:0:0:0:0:
448,192,11353,1,0,0:0:0:0:
64,192,11600,128,0,11846:0:0:0:0:
192,192,11600,1,0,0:0:0:0:
320,192,11846,1,0,0:0:0:0:
192,192,12093,1,2,0:0:0:0:
448,192,12093,128,0,13081:0:0:0:0:
320,192,12340,1,0,0:0:0:0:
192,192,12464,1,0,0:0:0:0:
64,192,12587,128,0,12834:0:0:0:0:
320,192,12834,128,2,13081:0:0:0:0:
64,192,13081,128,2,14069:0:0:0:0:
192,192,13081,1,0,0:0:0:0:
448,192,13328,1,0,0:0:0:0:
320,192,13451,1,0,0:0:0:0:
192,192,13575,128,0,13822:0:0:0:0:
320,192,13822,128,0,14069:0:0:0:0:
192,192,14069,1,2,0:0:0:0:
448,192,14069,128,0,15056:0:0:0:0:
64,192,14316,1,0,0:0:0:0:
192,192,14439,1,0,0:0:0:0:
320,192,14562,128,0,14809:0:0:0:0:
192,192,14809,1,2,0:0:0:0:
64,192,15056,128,2,16044:0:0:0:0:
320,192,15056,1,0,0:0:0:0:
192,192,15180,1,0,0:0:0:0:
448,192,15303,1,0,0:0:0:0:
320,192,15427,1,0,0:0:0:0:
192,192,15550,128,0,15797:0:0:0:0:
320,192,15797,128,0,16044:0:0:0:0:
192,192,16044,1,2,0:0:0:0:
448,192,16044,128,0,18019:0:0:0:0:
64,192,17032,1,0,0:0:0:0:
192,192,17525,1,0,0:0:0:0:
320,192,18019,128,0,19007:0:0:0:0:
64,192,19007,128,0,19254:0:0:0:0:
192,192,19007,1,0,0:0:0:0:
192,192,19254,128,0,19501:0:0:0:0:
320,192,19254,1,0,0:0:0:0:
320,192,19501,128,0,19748:0:0:0:70:lowsn.wav
448,192,19501,1,0,0:0:0:0:
64,192,19748,1,4,0:0:0:0:
448,192,19748,1,0,0:0:0:0:
64,192,19995,128,2,20982:0:0:0:0:
320,192,19995,1,0,0:0:0:0:
448,192,19995,1,0,0:0:0:0:
192,192,20242,1,2,0:0:0:0:
320,192,20242,1,0,0:0:0:0:
192,192,20488,1,8,0:0:0:0:
448,192,20488,1,0,0:0:0:0:
320,192,20612,1,2,0:0:0:0:
192,192,20982,1,2,0:0:0:0:
320,192,20982,1,0,0:0:0:0:
448,192,21229,1,0,0:0:0:70:lowsn.wav
64,192,21353,1,0,0:0:0:70:lowsn.wav
320,192,21476,1,8,0:0:0:0:
448,192,21476,1,0,0:0:0:0:
64,192,21600,1,2,0:0:0:0:
192,192,21600,1,0,0:0:0:0:
64,192,21846,1,2,0:0:0:0:
192,192,21846,1,0,0:0:0:0:
448,192,21846,128,0,22958:0:0:0:0:
192,192,22217,1,2,0:0:0:0:
320,192,22217,1,0,0:0:0:0:
64,192,22464,1,8,0:0:0:0:
320,192,22464,1,0,0:0:0:0:
192,192,22587,1,2,0:0:0:0:
192,192,22958,1,2,0:0:0:0:
320,192,22958,1,0,0:0:0:0:
64,192,23204,1,8,0:0:0:0:
192,192,23266,1,8,0:0:0:0:
320,192,23328,1,8,0:0:0:0:
448,192,23390,1,8,0:0:0:0:
64,192,23451,1,2,0:0:0:0:
448,192,23575,1,2,0:0:0:0:
320,192,23637,1,2,0:0:0:0:
192,192,23698,1,2,0:0:0:0:
320,192,23822,1,2,0:0:0:0:
64,192,23945,128,2,24933:0:0:0:0:
448,192,23945,1,0,0:0:0:0:
192,192,23945,1,0,0:0:0:0:
320,192,24192,1,2,0:0:0:0:
192,192,24439,1,8,0:0:0:0:
448,192,24439,1,0,0:0:0:0:
320,192,24562,1,2,0:0:0:0:
192,192,24933,1,2,0:0:0:0:
448,192,24933,1,0,0:0:0:0:
320,192,25180,128,0,25303:0:0:0:70:lowsn.wav
64,192,25303,128,0,25427:0:0:0:70:lowsn.wav
448,192,25427,128,0,25550:0:0:0:70:lowsn.wav
192,192,25550,1,2,0:0:0:0:
320,192,25550,1,0,0:0:0:0:
64,192,25797,1,2,0:0:0:0:
192,192,25797,1,0,0:0:0:0:
448,192,25797,128,0,26908:0:0:0:0:
64,192,26167,1,8,0:0:0:0:
192,192,26229,1,8,0:0:0:0:
320,192,26291,1,2,0:0:0:0:
64,192,26414,1,2,0:0:0:0:
192,192,26414,1,0,0:0:0:0:
64,192,26661,128,0,26785:0:0:0:0:
192,192,26785,128,0,26908:0:0:0:0:
320,192,26908,1,2,0:0:0:0:
448,192,27032,1,0,0:0:0:0:
192,192,27155,1,2,0:0:0:0:
64,192,27279,1,0,0:0:0:0:
192,192,27402,1,0,0:0:0:0:
320,192,27525,1,0,0:0:0:0:
448,192,27649,1,0,0:0:0:0:
64,192,27896,128,2,28883:0:0:0:0:
320,192,27896,1,0,0:0:0:0:
192,192,28019,1,0,0:0:0:0:
448,192,28143,1,2,0:0:0:0:
320,192,28266,1,0,0:0:0:0:
192,192,28390,1,2,0:0:0:0:
448,192,28513,1,0,0:0:0:0:
320,192,28637,1,2,0:0:0:0:
192,192,28760,1,0,0:0:0:0:
320,192,28883,1,2,0:0:0:0:
448,192,28883,1,0,0:0:0:0:
192,192,29130,1,0,0:0:0:70:lowsn.wav
320,192,29254,1,0,0:0:0:70:lowsn.wav
64,192,29377,1,8,0:0:0:0:
448,192,29377,1,0,0:0:0:0:
192,192,29501,1,2,0:0:0:0:
320,192,29501,1,0,0:0:0:0:
64,192,29748,1,2,0:0:0:0:
448,192,29748,128,0,30859:0:0:0:0:
192,192,29995,1,0,0:0:0:0:
320,192,30118,1,2,0:0:0:0:
64,192,30242,1,0,0:0:0:0:
192,192,30365,1,2,0:0:0:0:
320,192,30488,1,0,0:0:0:0:
64,192,30612,1,2,0:0:0:0:
320,192,30735,1,0,0:0:0:0:
64,192,30859,1,8,0:0:0:0:
192,192,30859,1,0,0:0:0:0:
64,192,31106,1,8,0:0:0:0:
192,192,31167,1,8,0:0:0:0:
320,192,31229,1,8,0:0:0:0:
448,192,31291,1,8,0:0:0:0:
192,192,31353,1,2,0:0:0:0:
320,192,31476,1,2,0:0:0:0:
192,192,31538,1,2,0:0:0:0:
64,192,31600,1,2,0:0:0:0:
320,192,31723,1,2,0:0:0:0:
192,192,31846,128,2,32834:0:0:0:0:
448,192,31846,1,0,0:0:0:0:
64,192,31970,1,0,0:0:0:0:
448,192,32093,1,2,0:0:0:0:
320,192,32217,1,0,0:0:0:0:
64,192,32340,1,2,0:0:0:0:
320,192,32464,1,0,0:0:0:0:
448,192,32587,1,2,0:0:0:0:
64,192,32711,1,0,0:0:0:0:
320,192,32834,1,2,0:0:0:0:
448,192,32834,1,0,0:0:0:0:
192,192,33081,128,0,33204:0:0:0:70:lowsn.wav
64,192,33204,128,0,33328:0:0:0:70:lowsn.wav
448,192,33328,128,0,33451:0:0:0:70:lowsn.wav
192,192,33451,1,2,0:0:0:0:
320,192,33451,1,0,0:0:0:0:
64,192,33698,1,2,0:0:0:0:
192,192,33698,1,0,0:0:0:0:
320,192,33822,1,2,0:0:0:0:
448,192,33822,128,0,34562:0:0:0:0:
64,192,34069,1,8,0:0:0:0:
192,192,34130,1,8,0:0:0:0:
320,192,34192,1,2,0:0:0:0:
64,192,34316,1,2,0:0:0:0:
192,192,34316,1,0,0:0:0:0:
192,192,34562,128,0,34686:0:0:0:0:
320,192,34686,128,0,34809:0:0:0:0:
64,192,34809,1,2,0:0:0:0:
448,192,34809,1,0,0:0:0:0:
192,192,34933,1,0,0:0:0:0:
320,192,35056,1,2,0:0:0:0:
448,192,35180,1,0,0:0:0:0:
320,192,35303,1,2,0:0:0:0:
192,192,35427,1,0,0:0:0:0:
64,192,35550,1,4,0:0:0:0:
448,192,35550,1,0,0:0:0:0:
64,192,35797,1,2,0:0:0:0:
320,192,35797,1,0,0:0:0:0:
448,192,35797,1,0,0:0:0:0:
192,192,35921,1,0,0:0:0:0:
448,192,36044,1,2,0:0:0:0:
320,192,36044,1,0,0:0:0:0:
64,192,36167,1,0,0:0:0:0:
192,192,36291,1,2,0:0:0:0:
320,192,36414,1,0,0:0:0:0:
64,192,36414,1,0,0:0:0:0:
448,192,36538,1,2,0:0:0:0:
64,192,36661,1,0,0:0:0:0:
320,192,36661,1,0,0:0:0:0:
192,192,36785,1,2,0:0:0:0:
320,192,36908,1,0,0:0:0:0:
448,192,36908,1,0,0:0:0:0:
64,192,37032,1,2,0:0:0:0:
192,192,37032,1,0,0:0:0:0:
448,192,37155,1,0,0:0:0:0:
192,192,37279,1,2,0:0:0:0:
320,192,37279,1,0,0:0:0:0:
64,192,37402,1,0,0:0:0:0:
320,192,37525,1,2,0:0:0:0:
448,192,37525,1,0,0:0:0:0:
64,192,37649,1,2,0:0:0:0:
192,192,37649,1,0,0:0:0:0:
320,192,37772,1,2,0:0:0:0:
448,192,37772,1,0,0:0:0:0:
64,192,37896,1,0,0:0:0:0:
448,192,38019,1,2,0:0:0:0:
448,192,38143,1,0,0:0:0:0:
192,192,38266,1,2,0:0:0:0:
320,192,38390,1,0,0:0:0:0:
64,192,38513,1,2,0:0:0:0:
320,192,38637,1,0,0:0:0:0:
192,192,38760,1,2,0:0:0:0:
448,192,38760,1,0,0:0:0:0:
64,192,38883,1,0,0:0:0:0:
320,192,39007,1,2,0:0:0:0:
192,192,39130,1,0,0:0:0:0:
448,192,39254,1,2,0:0:0:0:
64,192,39377,1,2,0:0:0:0:
192,192,39439,1,2,0:0:0:0:
320,192,39501,1,2,0:0:0:0:
448,192,39501,1,0,0:0:0:0:
64,192,39624,1,2,0:0:0:0:
192,192,39624,1,0,0:0:0:0:
320,192,39748,1,2,0:0:0:0:
448,192,39748,1,0,0:0:0:0:
64,192,39871,1,0,0:0:0:0:
192,192,39995,1,2,0:0:0:0:
320,192,39995,1,0,0:0:0:0:
448,192,40118,1,0,0:0:0:0:
64,192,40242,1,2,0:0:0:0:
192,192,40365,1,0,0:0:0:0:
320,192,40365,1,0,0:0:0:0:
448,192,40488,1,2,0:0:0:0:
64,192,40612,1,0,0:0:0:0:
192,192,40612,1,0,0:0:0:0:
320,192,40735,1,2,0:0:0:0:
64,192,40859,1,0,0:0:0:0:
448,192,40859,1,0,0:0:0:0:
192,192,40982,1,2,0:0:0:0:
320,192,40982,1,0,0:0:0:0:
64,192,41106,1,0,0:0:0:0:
320,192,41229,1,2,0:0:0:0:
448,192,41229,1,0,0:0:0:0:
192,192,41353,1,0,0:0:0:0:
64,192,41476,1,2,0:0:0:0:
448,192,41476,1,0,0:0:0:0:
192,192,41600,1,2,0:0:0:0:
320,192,41600,1,0,0:0:0:0:
64,192,41723,1,2,0:0:0:0:
448,192,41723,128,0,41970:0:0:0:0:
192,192,41970,1,8,0:0:0:0:
320,192,41970,1,0,0:0:0:0:
64,192,42093,1,2,0:0:0:0:
448,192,42093,1,0,0:0:0:0:
320,192,42340,1,8,0:0:0:0:
192,192,42402,1,8,0:0:0:0:
64,192,42464,1,2,0:0:0:0:
448,192,42464,1,0,0:0:0:0:
192,192,42587,1,2,0:0:0:0:
320,192,42587,1,0,0:0:0:0:
64,192,42711,1,2,0:0:0:0:
448,192,42711,1,0,0:0:0:0:
192,192,42958,1,2,0:0:0:0:
320,192,42958,1,0,0:0:0:0:
64,192,43204,128,0,43328:0:0:0:0:
448,192,43328,128,0,43451:0:0:0:0:
192,192,43451,128,0,43698:0:0:0:0:
64,192,43698,1,8,0:0:0:0:
448,192,43698,1,2,0:0:0:0:
320,192,43822,1,0,0:0:0:0:
192,192,43945,1,8,0:0:0:0:
448,192,43945,1,2,0:0:0:0:
64,192,44069,1,0,0:0:0:0:
320,192,44192,1,8,0:0:0:0:
448,192,44192,1,2,0:0:0:0:
192,192,44316,1,0,0:0:0:0:
64,192,44439,1,8,0:0:0:0:
448,192,44439,1,2,0:0:0:0:
320,192,44562,1,0,0:0:0:0:
64,192,44686,1,8,0:0:0:0:
192,192,44686,1,2,0:0:0:0:
448,192,44809,1,0,0:0:0:0:
192,192,44933,1,8,0:0:0:0:
320,192,44933,1,2,0:0:0:0:
64,192,45056,1,0,0:0:0:0:
192,192,45180,1,8,0:0:0:0:
448,192,45180,1,2,0:0:0:0:
320,192,45303,1,0,0:0:0:0:
64,192,45427,1,8,0:0:0:0:
448,192,45427,1,2,0:0:0:0:
192,192,45550,1,2,0:0:0:0:
320,192,45550,1,0,0:0:0:0:
64,192,45674,1,8,0:0:0:0:
448,192,45674,1,2,0:0:0:0:
192,192,45797,1,0,0:0:0:0:
64,192,45921,1,8,0:0:0:0:
320,192,45921,1,2,0:0:0:0:
448,192,46044,1,0,0:0:0:0:
64,192,46167,1,8,0:0:0:0:
192,192,46167,1,2,0:0:0:0:
320,192,46291,1,0,0:0:0:0:
64,192,46414,1,8,0:0:0:0:
448,192,46414,1,2,0:0:0:0:
192,192,46538,1,0,0:0:0:0:
320,192,46661,1,8,0:0:0:0:
448,192,46661,1,2,0:0:0:0:
192,192,46785,1,0,0:0:0:0:
64,192,46908,1,8,0:0:0:0:
320,192,46908,1,2,0:0:0:0:
448,192,47032,1,0,0:0:0:0:
64,192,47155,1,8,0:0:0:0:
192,192,47155,1,2,0:0:0:0:
320,192,47279,1,0,0:0:0:0:
64,192,47402,1,8,0:0:0:0:
448,192,47402,1,2,0:0:0:0:
192,192,47525,1,2,0:0:0:0:
320,192,47525,1,0,0:0:0:0:
64,192,47649,1,8,0:0:0:0:
448,192,47649,1,2,0:0:0:0:
192,192,47772,1,8,0:0:0:0:
320,192,47896,1,8,0:0:0:0:
448,192,47896,1,2,0:0:0:0:
192,192,48019,1,8,0:0:0:0:
64,192,48143,1,8,0:0:0:0:
448,192,48143,1,2,0:0:0:0:
320,192,48266,1,8,0:0:0:0:
192,192,48390,1,8,0:0:0:0:
448,192,48390,1,2,0:0:0:0:
64,192,48513,1,8,0:0:0:0:
320,192,48513,1,2,0:0:0:0:
192,192,48637,1,8,0:0:0:0:
448,192,48637,1,2,0:0:0:0:
64,192,48760,1,8,0:0:0:0:
320,192,48883,1,8,0:0:0:0:
448,192,48883,1,2,0:0:0:0:
192,192,49007,1,8,0:0:0:0:
64,192,49130,1,8,0:0:0:0:
320,192,49130,1,2,0:0:0:0:
448,192,49254,1,10,0:0:0:0:
320,192,49316,1,2,0:0:0:0:
64,192,49377,1,8,0:0:0:0:
192,192,49377,1,2,0:0:0:0:
320,192,49501,1,10,0:0:0:0:
64,192,49624,1,2,0:0:0:0:
448,192,49624,1,0,0:0:0:0:
320,192,49809,1,2,0:0:0:0:
64,192,49871,1,2,0:0:0:0:
192,192,49871,1,0,0:0:0:0:
320,192,49995,1,2,0:0:0:0:
448,192,49995,1,0,0:0:0:0:
64,192,50118,1,2,0:0:0:0:
192,192,50118,1,0,0:0:0:0:
320,192,50242,1,0,0:0:0:0:
64,192,50365,1,2,0:0:0:0:
192,192,50427,1,2,0:0:0:0:
448,192,50488,1,2,0:0:0:0:
320,192,50550,1,2,0:0:0:0:
64,192,50612,1,2,0:0:0:0:
192,192,50612,1,0,0:0:0:0:
320,192,50735,1,2,0:0:0:0:
448,192,50735,1,0,0:0:0:0:
64,192,50859,1,2,0:0:0:0:
192,192,50859,1,0,0:0:0:0:
448,192,50982,1,2,0:0:0:0:
320,192,51044,1,2,0:0:0:0:
192,192,51106,128,0,51353:0:0:0:0:
64,192,51353,1,8,0:0:0:0:
448,192,51353,1,2,0:0:0:0:
192,192,51600,128,2,52093:0:0:0:0:
320,192,51600,128,0,52093:0:0:0:0:
448,192,52093,128,0,52340:0:0:0:0:
64,192,52340,128,0,52587:0:0:0:0:
320,192,52587,128,0,53081:0:0:0:0:
192,192,53081,128,0,53328:0:0:0:0:
320,192,53328,128,0,53575:0:0:0:0:
64,192,53575,1,0,0:0:0:0:
448,192,53575,128,0,54069:0:0:0:0:
64,192,54069,128,0,54562:0:0:0:0:
320,192,54562,128,0,55056:0:0:0:0:
192,192,55056,128,0,55550:0:0:0:0:
448,192,55550,1,0,0:0:0:0:
448,192,56044,128,0,56291:0:0:0:0:
320,192,56291,128,0,56538:0:0:0:0:
192,192,56538,128,0,57032:0:0:0:0:
64,192,57032,128,0,57279:0:0:0:0:
192,192,57279,128,0,57525:0:0:0:0:
320,192,57525,1,0,0:0:0:0:
448,192,57525,128,0,58019:0:0:0:0:
64,192,58019,128,0,58513:0:0:0:0:
448,192,58513,128,0,59007:0:0:0:0:
192,192,59007,128,0,59501:0:0:0:0:
64,192,59501,1,0,0:0:0:0:
320,192,59501,1,0,0:0:0:0:
320,192,59748,1,0,0:0:0:0:
64,192,59995,1,0,0:0:0:0:
448,192,59995,1,0,0:0:0:0:
192,192,60242,1,0,0:0:0:0:
320,192,60242,1,0,0:0:0:0:
448,192,60365,1,0,0:0:0:0:
64,192,60488,1,0,0:0:0:0:
320,192,60488,1,0,0:0:0:0:
192,192,60612,1,0,0:0:0:0:
448,192,60735,1,0,0:0:0:0:
64,192,60982,1,0,0:0:0:0:
320,192,60982,1,0,0:0:0:0:
192,192,61106,1,0,0:0:0:0:
320,192,61229,1,0,0:0:0:0:
448,192,61229,1,0,0:0:0:0:
192,192,61353,1,0,0:0:0:0:
64,192,61476,1,0,0:0:0:0:
448,192,61476,1,0,0:0:0:0:
320,192,61723,1,0,0:0:0:0:
192,192,61970,1,0,0:0:0:0:
448,192,61970,1,0,0:0:0:0:
64,192,62217,1,0,0:0:0:0:
192,192,62340,1,0,0:0:0:0:
320,192,62464,1,0,0:0:0:0:
448,192,62464,1,0,0:0:0:0:
192,192,62587,1,0,0:0:0:0:
64,192,62711,1,0,0:0:0:0:
320,192,62958,1,0,0:0:0:0:
448,192,62958,1,0,0:0:0:0:
192,192,63081,1,0,0:0:0:0:
320,192,63204,1,0,0:0:0:0:
192,192,63328,1,0,0:0:0:0:
64,192,63451,1,0,0:0:0:0:
448,192,63451,128,0,64439:0:0:0:0:
192,192,63698,1,0,0:0:0:0:
320,192,63945,1,0,0:0:0:0:
64,192,64192,1,0,0:0:0:0:
192,192,64316,1,0,0:0:0:0:
64,192,64439,1,0,0:0:0:0:
320,192,64439,128,0,64933:0:0:0:0:
192,192,64562,1,0,0:0:0:0:
448,192,64686,1,0,0:0:0:0:
64,192,64933,128,0,65427:0:0:0:0:
192,192,64933,1,0,0:0:0:0:
448,192,65056,1,0,0:0:0:0:
320,192,65180,1,0,0:0:0:0:
192,192,65303,1,0,0:0:0:0:
320,192,65427,1,0,0:0:0:0:
448,192,65427,128,0,66414:0:0:0:0:
64,192,66414,1,0,0:0:0:0:
192,192,66538,1,0,0:0:0:70:lowsn.wav
320,192,66600,1,0,0:0:0:70:lowsn.wav
448,192,66661,1,0,0:0:0:70:lowsn.wav
320,192,66785,1,0,0:0:0:70:lowsn.wav
192,192,66846,1,0,0:0:0:70:lowsn.wav
64,192,66908,1,0,0:0:0:0:
192,192,67032,1,0,0:0:0:0:
320,192,67155,1,0,0:0:0:0:
448,192,67279,1,0,0:0:0:0:
64,192,67402,1,2,0:0:0:0:
192,192,67402,1,0,0:0:0:0:
320,192,67525,1,2,0:0:0:0:
448,192,67525,1,0,0:0:0:0:
64,192,67649,1,8,0:0:0:0:
192,192,67772,1,2,0:0:0:0:
320,192,67772,1,0,0:0:0:0:
448,192,68019,1,2,0:0:0:0:
320,192,68081,1,2,0:0:0:0:
64,192,68143,1,2,0:0:0:0:
192,192,68204,1,0,0:0:0:70:lowsn.wav
320,192,68266,1,0,0:0:0:70:lowsn.wav
448,192,68328,1,0,0:0:0:70:lowsn.wav
64,192,68390,1,2,0:0:0:0:
192,192,68390,1,0,0:0:0:0:
320,192,68513,1,8,0:0:0:0:
192,192,68575,1,8,0:0:0:0:
448,192,68637,1,8,0:0:0:0:
64,192,68760,1,2,0:0:0:0:
320,192,68760,1,0,0:0:0:0:
192,192,68883,1,2,0:0:0:0:
448,192,68883,1,0,0:0:0:0:
64,192,69130,1,2,0:0:0:0:
320,192,69130,1,0,0:0:0:0:
448,192,69254,1,8,0:0:0:0:
320,192,69316,1,8,0:0:0:0:
64,192,69377,1,2,0:0:0:0:
192,192,69377,1,0,0:0:0:0:
320,192,69624,1,2,0:0:0:0:
448,192,69624,1,0,0:0:0:0:
64,192,69748,1,2,0:0:0:0:
192,192,69748,1,0,0:0:0:0:
320,192,69871,1,8,0:0:0:0:
64,192,69995,1,2,0:0:0:0:
448,192,69995,1,0,0:0:0:0:
192,192,70242,1,2,0:0:0:0:
320,192,70242,1,0,0:0:0:0:
64,192,70365,1,8,0:0:0:0:
448,192,70488,1,2,0:0:0:0:
320,192,70550,1,2,0:0:0:0:
64,192,70612,1,2,0:0:0:0:
192,192,70612,1,0,0:0:0:0:
320,192,70735,1,8,0:0:0:0:
192,192,70797,1,8,0:0:0:0:
320,192,70859,1,2,0:0:0:0:
448,192,70859,1,0,0:0:0:0:
64,192,70982,1,0,0:0:0:70:lowsn.wav
192,192,71044,1,0,0:0:0:70:lowsn.wav
320,192,71106,1,0,0:0:0:70:lowsn.wav
448,192,71167,1,0,0:0:0:70:lowsn.wav
64,192,71229,1,0,0:0:0:70:lowsn.wav
192,192,71291,1,0,0:0:0:70:lowsn.wav
320,192,71353,1,2,0:0:0:0:
448,192,71353,1,0,0:0:0:0:
64,192,71476,1,2,0:0:0:0:
192,192,71476,1,0,0:0:0:0:
320,192,71600,1,8,0:0:0:0:
64,192,71723,1,2,0:0:0:0:
448,192,71723,1,0,0:0:0:0:
320,192,71846,128,0,71970:0:0:0:0:
192,192,71970,1,2,0:0:0:0:
448,192,71970,1,0,0:0:0:0:
64,192,72093,1,2,0:0:0:0:
192,192,72155,1,2,0:0:0:0:
320,192,72217,1,2,0:0:0:0:
448,192,72217,1,0,0:0:0:0:
192,192,72464,1,0,0:0:0:70:lowsn.wav
64,192,72587,1,0,0:0:0:70:lowsn.wav
448,192,72587,128,0,72834:0:0:0:0:
64,192,72834,1,2,0:0:0:0:
192,192,72834,1,0,0:0:0:0:
320,192,72958,1,8,0:0:0:0:
64,192,73081,1,2,0:0:0:0:
448,192,73081,1,0,0:0:0:0:
192,192,73204,1,2,0:0:0:0:
320,192,73204,1,0,0:0:0:0:
192,192,73451,1,0,0:0:0:0:
448,192,73451,1,0,0:0:0:0:
64,192,73698,1,0,0:0:0:0:
320,192,73698,1,0,0:0:0:0:
192,192,73822,128,0,73945:0:0:0:0:
64,192,74069,1,2,0:0:0:0:
448,192,74069,1,0,0:0:0:0:
320,192,74316,1,8,0:0:0:0:
64,192,74439,1,2,0:0:0:0:
448,192,74439,1,0,0:0:0:0:
192,192,74562,1,8,0:0:0:0:
320,192,74686,1,2,0:0:0:0:
448,192,74686,1,0,0:0:0:0:
64,192,74809,1,2,0:0:0:0:
192,192,74809,1,0,0:0:0:0:
320,192,74933,1,8,0:0:0:0:
192,192,74995,1,8,0:0:0:0:
64,192,75056,1,8,0:0:0:0:
448,192,75118,1,8,0:0:0:0:
192,192,75180,1,8,0:0:0:0:
320,192,75242,1,8,0:0:0:0:
64,192,75303,1,2,0:0:0:0:
448,192,75303,1,0,0:0:0:0:
192,192,75427,1,2,0:0:0:0:
320,192,75427,1,0,0:0:0:0:
64,192,75550,1,8,0:0:0:0:
448,192,75674,1,2,0:0:0:0:
320,192,75735,1,2,0:0:0:0:
64,192,75797,1,2,0:0:0:0:
192,192,75797,1,0,0:0:0:0:
320,192,76044,1,2,0:0:0:0:
192,192,76044,1,0,0:0:0:0:
64,192,76167,1,0,0:0:0:0:
448,192,76291,1,8,0:0:0:0:
320,192,76353,1,8,0:0:0:0:
64,192,76414,1,2,0:0:0:0:
192,192,76414,1,0,0:0:0:0:
448,192,76538,1,8,0:0:0:0:
64,192,76661,1,2,0:0:0:0:
192,192,76661,1,0,0:0:0:0:
320,192,76785,1,2,0:0:0:0:
448,192,76785,1,0,0:0:0:0:
64,192,76908,128,0,77032:0:0:0:0:
192,192,77032,1,2,0:0:0:0:
448,192,77032,1,0,0:0:0:0:
320,192,77155,128,0,77279:0:0:0:0:
64,192,77402,1,2,0:0:0:0:
448,192,77402,1,0,0:0:0:0:
192,192,77525,1,2,0:0:0:0:
320,192,77525,1,0,0:0:0:0:
64,192,77649,1,2,0:0:0:0:
448,192,77649,1,0,0:0:0:0:
192,192,77772,1,8,0:0:0:0:
448,192,77896,1,2,0:0:0:0:
320,192,77896,1,0,0:0:0:0:
192,192,78019,1,8,0:0:0:0:
448,192,78081,1,8,0:0:0:0:
320,192,78143,1,2,0:0:0:0:
64,192,78143,1,0,0:0:0:0:
192,192,78266,1,0,0:0:0:70:lowsn.wav
64,192,78328,1,0,0:0:0:70:lowsn.wav
448,192,78390,1,0,0:0:0:70:lowsn.wav
320,192,78451,1,0,0:0:0:70:lowsn.wav
64,192,78513,1,2,0:0:0:0:
192,192,78513,1,0,0:0:0:0:
320,192,78637,1,8,0:0:0:0:
64,192,78760,1,2,0:0:0:0:
448,192,78760,1,0,0:0:0:0:
320,192,78883,1,8,0:0:0:0:
192,192,78945,1,8,0:0:0:0:
64,192,79007,1,10,0:0:0:0:
448,192,79069,1,8,0:0:0:0:
320,192,79130,1,8,0:0:0:0:
192,192,79192,1,8,0:0:0:0:
64,192,79254,1,2,0:0:0:0:
448,192,79254,1,0,0:0:0:0:
192,192,79377,1,2,0:0:0:0:
320,192,79377,1,0,0:0:0:0:
64,192,79501,1,8,0:0:0:0:
320,192,79624,1,2,0:0:0:0:
448,192,79624,1,0,0:0:0:0:
64,192,79871,1,2,0:0:0:0:
192,192,79871,1,0,0:0:0:0:
320,192,79995,1,2,0:0:0:0:
448,192,80056,1,2,0:0:0:0:
64,192,80118,1,2,0:0:0:0:
192,192,80180,1,2,0:0:0:0:
320,192,80242,1,2,0:0:0:0:
448,192,80242,1,0,0:0:0:0:
64,192,80365,128,0,80488:0:0:0:0:
448,192,80488,1,2,0:0:0:0:
320,192,80550,1,0,0:0:0:70:lowsn.wav
192,192,80612,1,0,0:0:0:70:lowsn.wav
64,192,80674,1,0,0:0:0:70:lowsn.wav
320,192,80735,1,2,0:0:0:0:
448,192,80735,1,0,0:0:0:0:
192,192,80921,1,2,0:0:0:0:
320,192,80921,1,0,0:0:0:0:
448,192,81044,1,8,0:0:0:0:
64,192,81106,128,2,81970:0:0:0:0:
192,192,81106,1,0,0:0:0:0:
320,192,81353,1,0,0:0:0:0:
192,192,81476,1,0,0:0:0:0:
448,192,81723,1,0,0:0:0:0:
192,192,81970,128,0,82093:0:0:0:0:
320,192,82093,1,0,0:0:0:0:
64,192,82217,1,0,0:0:0:0:
448,192,82340,128,0,82464:0:0:0:0:
192,192,82464,128,0,82587:0:0:0:0:
448,192,82587,128,0,82711:0:0:0:0:
64,192,82711,128,0,82834:0:0:0:0:
192,192,82834,128,0,82958:0:0:0:0:
320,192,82958,128,0,83081:0:0:0:0:
448,192,83081,128,0,83204:0:0:0:0:
64,192,83204,128,8,83945:0:0:0:0:
192,192,83204,1,2,0:0:0:0:
192,192,83451,1,8,0:0:0:0:
320,192,83698,1,8,0:0:0:0:
320,192,83945,1,8,0:0:0:0:
448,192,83945,128,0,84069:0:0:0:0:
192,192,84192,1,8,0:0:0:0:
448,192,84192,128,0,85180:0:0:0:0:
64,192,84439,128,0,84686:0:0:0:0:
320,192,84686,1,0,0:0:0:0:
192,192,84809,1,0,0:0:0:0:
320,192,84933,1,0,0:0:0:0:
192,192,85056,1,0,0:0:0:0:
64,192,85180,128,8,86414:0:0:0:0:
320,192,85180,1,2,0:0:0:0:
448,192,85427,1,8,0:0:0:0:
192,192,85674,1,8,0:0:0:0:
192,192,85921,1,8,0:0:0:0:
448,192,86167,1,8,0:0:0:0:
192,192,86414,1,0,0:0:0:70:lowsn.wav
448,192,86414,1,0,0:0:0:0:
320,192,86661,1,0,0:0:0:70:lowsn.wav
192,192,86785,1,0,0:0:0:70:lowsn.wav
64,192,86908,1,0,0:0:0:70:lowsn.wav
448,192,86908,1,0,0:0:0:0:
320,192,87032,1,0,0:0:0:0:
64,192,87155,1,8,0:0:0:0:
192,192,87155,1,2,0:0:0:0:
192,192,87279,1,8,0:0:0:0:
448,192,87402,1,8,0:0:0:0:
448,192,87525,1,8,0:0:0:0:
64,192,87649,1,8,0:0:0:0:
64,192,87772,1,8,0:0:0:0:
192,192,87896,1,8,0:0:0:0:
320,192,87896,1,4,0:0:0:0:
320,192,88019,1,8,0:0:0:0:
64,192,88143,1,8,0:0:0:0:
448,192,88143,1,2,0:0:0:0:
64,192,88266,1,8,0:0:0:0:
320,192,88390,1,8,0:0:0:0:
320,192,88513,1,8,0:0:0:0:
192,192,88637,1,8,0:0:0:0:
192,192,88760,1,8,0:0:0:0:
320,192,88883,1,8,0:0:0:0:
448,192,88883,1,4,0:0:0:0:
320,192,89007,1,8,0:0:0:0:
64,192,89130,1,2,0:0:0:0:
448,192,89130,1,0,0:0:0:0:
192,192,89192,1,0,0:0:0:0:
320,192,89254,1,0,0:0:0:0:
64,192,89377,1,2,0:0:0:0:
192,192,89377,1,0,0:0:0:0:
320,192,89439,1,0,0:0:0:0:
448,192,89501,1,0,0:0:0:0:
64,192,89624,128,0,90118:0:0:0:0:
192,192,89624,1,0,0:0:0:0:
448,192,90118,1,0,0:0:0:0:
320,192,90180,1,0,0:0:0:0:
192,192,90242,1,0,0:0:0:0:
64,192,90303,1,0,0:0:0:0:
448,192,90365,1,0,0:0:0:0:
320,192,90427,1,0,0:0:0:0:
192,192,90488,1,0,0:0:0:0:
64,192,90550,1,0,0:0:0:0:
448,192,90612,1,0,0:0:0:70:lowsn.wav
192,192,90674,1,0,0:0:0:70:lowsn.wav
320,192,90735,1,0,0:0:0:70:lowsn.wav
192,192,90797,1,0,0:0:0:70:lowsn.wav
64,192,90859,1,4,0:0:0:0:
448,192,90859,1,0,0:0:0:0:
64,192,91106,1,2,0:0:0:0:
448,192,91106,1,0,0:0:0:0:
320,192,91229,1,0,0:0:0:0:
64,192,91353,1,2,0:0:0:0:
192,192,91353,1,0,0:0:0:0:
320,192,91476,1,0,0:0:0:0:
64,192,91600,1,2,0:0:0:0:
448,192,91600,1,0,0:0:0:0:
192,192,91723,1,0,0:0:0:0:
320,192,91846,1,2,0:0:0:0:
448,192,91846,1,0,0:0:0:0:
64,192,91970,1,0,0:0:0:0:
320,192,92093,1,2,0:0:0:0:
448,192,92093,1,0,0:0:0:0:
192,192,92217,1,0,0:0:0:0:
64,192,92340,1,2,0:0:0:0:
320,192,92340,1,0,0:0:0:0:
448,192,92464,1,0,0:0:0:0:
64,192,92587,1,2,0:0:0:0:
192,192,92587,1,0,0:0:0:0:
320,192,92711,1,0,0:0:0:0:
64,192,92834,1,2,0:0:0:0:
448,192,92834,1,0,0:0:0:0:
192,192,92958,1,2,0:0:0:0:
320,192,92958,1,0,0:0:0:0:
64,192,93081,1,2,0:0:0:0:
448,192,93081,1,0,0:0:0:0:
192,192,93204,1,0,0:0:0:0:
320,192,93328,1,2,0:0:0:0:
448,192,93328,1,0,0:0:0:0:
64,192,93451,1,0,0:0:0:0:
192,192,93575,1,2,0:0:0:0:
320,192,93575,1,0,0:0:0:0:
448,192,93698,1,0,0:0:0:0:
64,192,93822,1,2,0:0:0:0:
192,192,93822,1,0,0:0:0:0:
448,192,93945,1,0,0:0:0:0:
64,192,94069,1,2,0:0:0:0:
192,192,94069,1,0,0:0:0:0:
320,192,94192,1,0,0:0:0:0:
64,192,94316,1,2,0:0:0:0:
448,192,94316,1,0,0:0:0:0:
192,192,94439,1,0,0:0:0:0:
320,192,94562,1,2,0:0:0:0:
448,192,94562,1,0,0:0:0:0:
64,192,94686,1,2,0:0:0:0:
192,192,94748,1,2,0:0:0:0:
320,192,94809,1,2,0:0:0:0:
448,192,94809,1,0,0:0:0:0:
64,192,94933,1,2,0:0:0:0:
192,192,94933,1,0,0:0:0:0:
320,192,95056,1,2,0:0:0:0:
448,192,95056,1,0,0:0:0:0:
192,192,95180,1,0,0:0:0:0:
64,192,95303,1,2,0:0:0:0:
448,192,95303,1,0,0:0:0:0:
320,192,95427,1,0,0:0:0:0:
64,192,95550,1,2,0:0:0:0:
192,192,95550,1,0,0:0:0:0:
448,192,95674,1,0,0:0:0:0:
192,192,95797,1,2,0:0:0:0:
320,192,95797,1,0,0:0:0:0:
64,192,95921,1,0,0:0:0:0:
192,192,96044,1,2,0:0:0:0:
320,192,96044,1,0,0:0:0:0:
448,192,96167,1,0,0:0:0:0:
64,192,96291,1,2,0:0:0:0:
320,192,96291,1,0,0:0:0:0:
192,192,96414,1,0,0:0:0:0:
64,192,96538,1,2,0:0:0:0:
448,192,96538,1,0,0:0:0:0:
320,192,96661,1,0,0:0:0:0:
64,192,96785,1,2,0:0:0:0:
192,192,96785,1,0,0:0:0:0:
320,192,96908,1,2,0:0:0:0:
448,192,96908,1,0,0:0:0:0:
64,192,97032,1,2,0:0:0:0:
192,192,97032,1,0,0:0:0:0:
448,192,97155,128,0,97279:0:0:0:0:
64,192,97279,1,8,0:0:0:0:
320,192,97279,1,0,0:0:0:0:
192,192,97402,128,2,97525:0:0:0:0:
448,192,97402,1,0,0:0:0:0:
320,192,97525,128,0,97649:0:0:0:0:
192,192,97649,128,8,97772:0:0:0:0:
64,192,97772,128,2,97896:0:0:0:0:
448,192,97772,1,0,0:0:0:0:
320,192,97896,128,0,98019:0:0:0:0:
64,192,98019,1,2,0:0:0:0:
192,192,98019,128,0,98266:0:0:0:0:
320,192,98266,1,2,0:0:0:0:
448,192,98266,128,0,98513:0:0:0:0:
64,192,98513,128,4,98760:0:0:0:0:
192,192,98513,1,0,0:0:0:0:
320,192,98637,1,0,0:0:0:0:
448,192,98760,1,0,0:0:0:0:
64,192,99007,1,2,0:0:0:0:
448,192,99007,1,0,0:0:0:0:
192,192,99130,1,0,0:0:0:0:
320,192,99254,1,2,0:0:0:0:
448,192,99254,1,0,0:0:0:0:
192,192,99377,1,0,0:0:0:0:
64,192,99501,1,2,0:0:0:0:
320,192,99501,1,0,0:0:0:0:
448,192,99624,1,0,0:0:0:0:
192,192,99748,1,2,0:0:0:0:
320,192,99748,1,0,0:0:0:0:
64,192,99871,1,0,0:0:0:0:
192,192,99995,1,2,0:0:0:0:
320,192,99995,1,0,0:0:0:0:
448,192,100118,1,0,0:0:0:0:
64,192,100242,1,2,0:0:0:0:
192,192,100242,1,0,0:0:0:0:
320,192,100365,1,0,0:0:0:0:
192,192,100488,1,2,0:0:0:0:
448,192,100488,1,0,0:0:0:0:
64,192,100612,1,0,0:0:0:0:
320,192,100735,1,2,0:0:0:0:
448,192,100735,1,0,0:0:0:0:
64,192,100859,1,2,0:0:0:0:
192,192,100859,1,0,0:0:0:0:
320,192,100982,1,2,0:0:0:0:
448,192,100982,1,0,0:0:0:0:
192,192,101106,1,0,0:0:0:0:
64,192,101229,1,2,0:0:0:0:
448,192,101229,1,0,0:0:0:0:
320,192,101353,1,0,0:0:0:0:
64,192,101476,1,2,0:0:0:0:
192,192,101476,1,0,0:0:0:0:
320,192,101600,1,0,0:0:0:0:
192,192,101723,1,2,0:0:0:0:
448,192,101723,1,0,0:0:0:0:
64,192,101846,1,0,0:0:0:0:
192,192,101970,1,2,0:0:0:0:
448,192,101970,1,0,0:0:0:0:
320,192,102093,1,0,0:0:0:0:
64,192,102217,1,2,0:0:0:0:
448,192,102217,1,0,0:0:0:0:
192,192,102340,1,0,0:0:0:0:
320,192,102464,1,2,0:0:0:0:
448,192,102464,1,0,0:0:0:0:
64,192,102587,1,0,0:0:0:0:
192,192,102711,1,2,0:0:0:0:
320,192,102711,1,0,0:0:0:0:
64,192,102834,1,2,0:0:0:0:
448,192,102834,1,0,0:0:0:0:
192,192,102958,1,2,0:0:0:0:
320,192,102958,1,0,0:0:0:0:
448,192,103081,1,0,0:0:0:0:
64,192,103204,1,2,0:0:0:0:
192,192,103204,1,0,0:0:0:0:
320,192,103328,1,0,0:0:0:0:
64,192,103451,1,2,0:0:0:0:
448,192,103451,1,0,0:0:0:0:
192,192,103575,1,0,0:0:0:0:
320,192,103698,1,2,0:0:0:0:
448,192,103698,1,0,0:0:0:0:
64,192,103822,1,0,0:0:0:0:
320,192,103945,1,2,0:0:0:0:
448,192,103945,1,0,0:0:0:0:
192,192,104069,1,0,0:0:0:0:
64,192,104192,1,2,0:0:0:0:
320,192,104192,1,0,0:0:0:0:
448,192,104316,1,0,0:0:0:0:
64,192,104439,1,2,0:0:0:0:
192,192,104439,1,0,0:0:0:0:
320,192,104562,1,0,0:0:0:0:
64,192,104686,1,2,0:0:0:0:
448,192,104686,1,0,0:0:0:0:
192,192,104809,1,2,0:0:0:0:
320,192,104809,1,0,0:0:0:0:
64,192,104933,1,2,0:0:0:0:
448,192,104933,1,0,0:0:0:0:
192,192,105056,128,8,105180:0:0:0:0:
320,192,105180,128,8,105303:0:0:0:0:
64,192,105303,1,2,0:0:0:0:
448,192,105303,128,0,105427:0:0:0:0:
320,192,105427,128,0,105550:0:0:0:0:
192,192,105550,128,0,105674:0:0:0:0:
64,192,105674,128,2,105797:0:0:0:0:
448,192,105674,1,0,0:0:0:0:
192,192,105797,128,0,105921:0:0:0:0:
320,192,105921,1,0,0:0:0:0:
320,192,106167,1,0,0:0:0:0:
64,192,106414,128,0,106908:0:0:0:0:
320,192,106414,1,0,0:0:0:0:
320,192,106661,1,0,0:0:0:0:
192,192,106908,1,2,0:0:0:0:
448,192,106908,128,0,107032:0:0:0:0:
320,192,107032,128,0,107155:0:0:0:0:
64,192,107155,1,2,0:0:0:0:
192,192,107155,128,0,107279:0:0:0:0:
448,192,107279,128,0,107402:0:0:0:0:
64,192,107402,1,2,0:0:0:0:
320,192,107402,128,0,107525:0:0:0:0:
192,192,107525,128,0,107649:0:0:0:0:
64,192,107649,128,2,107772:0:0:0:0:
448,192,107649,1,0,0:0:0:0:
320,192,107772,1,0,0:0:0:0:
192,192,107896,1,2,0:0:0:0:
448,192,107896,128,0,108019:0:0:0:0:
64,192,108019,128,0,108143:0:0:0:0:
192,192,108143,128,2,108266:0:0:0:0:
320,192,108143,1,0,0:0:0:0:
448,192,108266,128,0,108390:0:0:0:0:
64,192,108390,128,2,108513:0:0:0:0:
320,192,108390,1,0,0:0:0:0:
448,192,108513,1,0,0:0:0:0:
320,192,108575,1,0,0:0:0:0:
192,192,108637,128,2,108760:0:0:0:0:
64,192,108637,1,0,0:0:0:0:
320,192,108760,128,2,108883:0:0:0:0:
448,192,108760,1,0,0:0:0:0:
192,192,108883,1,2,0:0:0:0:
64,192,108883,128,0,109007:0:0:0:0:
448,192,109007,128,0,109130:0:0:0:0:
64,192,109130,1,2,0:0:0:0:
192,192,109130,128,0,109254:0:0:0:0:
320,192,109254,128,0,109377:0:0:0:0:
64,192,109377,1,2,0:0:0:0:
448,192,109377,128,0,109501:0:0:0:0:
192,192,109501,128,0,109624:0:0:0:0:
64,192,109624,128,2,109748:0:0:0:0:
448,192,109624,1,0,0:0:0:0:
320,192,109748,1,0,0:0:0:0:
192,192,109871,1,2,0:0:0:0:
448,192,109871,1,0,0:0:0:0:
64,192,109995,1,2,0:0:0:0:
192,192,110056,1,2,0:0:0:0:
320,192,110118,1,2,0:0:0:0:
448,192,110118,1,0,0:0:0:0:
64,192,110242,1,2,0:0:0:0:
192,192,110242,1,0,0:0:0:0:
320,192,110365,1,2,0:0:0:0:
448,192,110365,1,0,0:0:0:0:
192,192,110488,128,0,110612:0:0:0:0:
64,192,110612,1,2,0:0:0:0:
448,192,110612,1,0,0:0:0:0:
320,192,110735,128,0,110859:0:0:0:0:
64,192,110859,128,2,110982:0:0:0:0:
448,192,110859,1,0,0:0:0:0:
192,192,110982,128,0,111106:0:0:0:0:
320,192,111106,128,2,111229:0:0:0:0:
448,192,111106,1,0,0:0:0:0:
64,192,111229,128,0,111353:0:0:0:0:
192,192,111353,128,2,111476:0:0:0:0:
448,192,111353,1,0,0:0:0:0:
320,192,111476,128,0,111600:0:0:0:0:
64,192,111600,1,2,0:0:0:0:
448,192,111600,128,0,111723:0:0:0:0:
192,192,111723,1,2,0:0:0:0:
64,192,111846,1,2,0:0:0:0:
320,192,111846,128,0,111970:0:0:0:0:
192,192,111970,128,0,112093:0:0:0:0:
64,192,112093,1,2,0:0:0:0:
448,192,112093,128,0,112217:0:0:0:0:
320,192,112217,128,0,112340:0:0:0:0:
64,192,112340,128,2,112464:0:0:0:0:
448,192,112340,1,0,0:0:0:0:
192,192,112464,1,2,0:0:0:0:
320,192,112525,1,2,0:0:0:0:
448,192,112587,1,2,0:0:0:0:
64,192,112587,1,0,0:0:0:0:
192,192,112711,1,2,0:0:0:0:
320,192,112711,1,0,0:0:0:0:
64,192,112834,1,2,0:0:0:0:
448,192,112834,1,0,0:0:0:0:
192,192,112958,1,8,0:0:0:0:
320,192,113019,1,8,0:0:0:0:
64,192,113081,1,8,0:0:0:0:
192,192,113204,1,2,0:0:0:0:
448,192,113204,1,0,0:0:0:0:
320,192,113328,1,0,0:0:0:0:
64,192,113451,1,8,0:0:0:0:
192,192,113451,1,0,0:0:0:0:
448,192,113575,1,2,0:0:0:0:
320,192,113637,1,2,0:0:0:0:
192,192,113698,1,2,0:0:0:0:
64,192,113760,1,2,0:0:0:0:
320,192,113822,1,2,0:0:0:0:
448,192,113822,1,0,0:0:0:0:
192,192,114069,1,2,0:0:0:0:
320,192,114069,1,0,0:0:0:0:
64,192,114316,128,4,114562:0:0:0:0:
448,192,114316,128,0,114562:0:0:0:0:
192,192,114562,1,0,0:0:0:0:
320,192,114562,1,0,0:0:0:0:
64,192,114809,1,8,0:0:0:0:
448,192,114809,1,2,0:0:0:0:
320,192,114933,1,0,0:0:0:0:
192,192,115056,1,8,0:0:0:0:
448,192,115056,1,2,0:0:0:0:
64,192,115180,1,0,0:0:0:0:
320,192,115303,1,8,0:0:0:0:
448,192,115303,1,2,0:0:0:0:
192,192,115427,1,0,0:0:0:0:
64,192,115550,1,8,0:0:0:0:
448,192,115550,1,2,0:0:0:0:
320,192,115674,1,0,0:0:0:0:
64,192,115797,128,8,115921:0:0:0:0:
192,192,115797,1,2,0:0:0:0:
448,192,115921,1,0,0:0:0:0:
192,192,116044,1,8,0:0:0:0:
320,192,116044,1,2,0:0:0:0:
64,192,116167,1,0,0:0:0:0:
320,192,116291,1,8,0:0:0:0:
448,192,116291,1,2,0:0:0:0:
192,192,116414,1,2,0:0:0:0:
320,192,116476,1,2,0:0:0:0:
64,192,116538,1,8,0:0:0:0:
448,192,116538,1,2,0:0:0:0:
192,192,116661,1,2,0:0:0:0:
320,192,116661,1,0,0:0:0:0:
64,192,116785,1,8,0:0:0:0:
448,192,116785,1,2,0:0:0:0:
320,192,116908,1,0,0:0:0:0:
64,192,117032,1,8,0:0:0:0:
192,192,117032,1,2,0:0:0:0:
320,192,117155,1,0,0:0:0:0:
64,192,117279,1,8,0:0:0:0:
448,192,117279,1,2,0:0:0:0:
320,192,117340,1,2,0:0:0:0:
192,192,117402,1,2,0:0:0:0:
320,192,117525,1,8,0:0:0:0:
448,192,117525,1,2,0:0:0:0:
64,192,117649,1,2,0:0:0:0:
192,192,117649,1,0,0:0:0:0:
320,192,117772,1,8,0:0:0:0:
448,192,117772,128,2,117896:0:0:0:0:
64,192,117896,128,0,118019:0:0:0:0:
192,192,118019,128,2,118143:0:0:0:0:
448,192,118019,1,0,0:0:0:0:
320,192,118143,128,0,118266:0:0:0:0:
64,192,118266,1,2,0:0:0:0:
448,192,118266,1,0,0:0:0:0:
64,192,118390,1,0,0:0:0:0:
192,192,118513,1,4,0:0:0:0:
320,192,118513,1,2,0:0:0:0:
448,192,118637,128,0,118760:0:0:0:0:
64,192,118760,1,2,0:0:0:0:
320,192,118760,1,0,0:0:0:0:
192,192,118883,1,2,0:0:0:0:
64,192,119007,1,2,0:0:0:0:
448,192,119007,1,0,0:0:0:0:
320,192,119130,1,2,0:0:0:0:
64,192,119254,1,2,0:0:0:0:
448,192,119254,1,0,0:0:0:0:
192,192,119377,1,2,0:0:0:0:
64,192,119501,1,2,0:0:0:0:
448,192,119501,1,0,0:0:0:0:
320,192,119562,1,2,0:0:0:0:
192,192,119624,1,2,0:0:0:0:
64,192,119686,1,2,0:0:0:0:
320,192,119748,1,2,0:0:0:0:
448,192,119748,1,0,0:0:0:0:
192,192,119871,1,2,0:0:0:0:
64,192,119995,1,2,0:0:0:0:
448,192,119995,1,0,0:0:0:0:
320,192,120118,1,2,0:0:0:0:
64,192,120242,1,2,0:0:0:0:
192,192,120242,1,0,0:0:0:0:
320,192,120303,1,2,0:0:0:0:
448,192,120365,1,2,0:0:0:0:
64,192,120427,1,2,0:0:0:0:
192,192,120488,1,2,0:0:0:0:
448,192,120550,1,2,0:0:0:0:
320,192,120612,1,2,0:0:0:0:
192,192,120674,1,2,0:0:0:0:
64,192,120735,1,2,0:0:0:0:
448,192,120735,1,0,0:0:0:0:
320,192,120859,128,2,120982:0:0:0:0:
64,192,120982,1,2,0:0:0:0:
448,192,120982,1,0,0:0:0:0:
192,192,121106,128,2,121229:0:0:0:0:
320,192,121229,1,2,0:0:0:0:
448,192,121229,1,0,0:0:0:0:
64,192,121291,1,2,0:0:0:0:
192,192,121353,1,2,0:0:0:0:
320,192,121414,1,2,0:0:0:0:
448,192,121476,1,2,0:0:0:0:
64,192,121538,1,2,0:0:0:0:
192,192,121600,1,2,0:0:0:0:
320,192,121661,1,2,0:0:0:0:
64,192,121723,1,2,0:0:0:0:
448,192,121723,1,0,0:0:0:0:
192,192,121846,1,0,0:0:0:0:
320,192,121970,1,0,0:0:0:0:
448,192,121970,1,0,0:0:0:0:
64,192,122093,1,0,0:0:0:0:
192,192,122217,1,2,0:0:0:0:
320,192,122217,1,0,0:0:0:0:
64,192,122464,1,4,0:0:0:0:
448,192,122464,1,0,0:0:0:0:
64,192,122711,1,2,0:0:0:0:
192,192,122711,1,0,0:0:0:0:
448,192,122711,1,0,0:0:0:0:
320,192,122834,1,2,0:0:0:0:
64,192,122958,1,2,0:0:0:0:
448,192,122958,1,0,0:0:0:0:
192,192,123081,1,2,0:0:0:0:
320,192,123204,1,2,0:0:0:0:
64,192,123328,1,2,0:0:0:0:
448,192,123328,1,0,0:0:0:0:
192,192,123451,1,2,0:0:0:0:
320,192,123575,1,2,0:0:0:0:
448,192,123575,1,0,0:0:0:0:
64,192,123698,1,2,0:0:0:0:
192,192,123822,1,2,0:0:0:0:
320,192,123822,1,0,0:0:0:0:
64,192,123945,1,2,0:0:0:0:
448,192,123945,1,0,0:0:0:0:
320,192,124069,1,2,0:0:0:0:
64,192,124192,1,2,0:0:0:0:
448,192,124192,1,0,0:0:0:0:
192,192,124316,1,2,0:0:0:0:
448,192,124439,1,2,0:0:0:0:
320,192,124501,1,2,0:0:0:0:
64,192,124562,1,2,0:0:0:0:
192,192,124624,1,2,0:0:0:0:
320,192,124686,1,2,0:0:0:0:
448,192,124686,1,0,0:0:0:0:
64,192,124809,1,2,0:0:0:0:
192,192,124933,1,2,0:0:0:0:
320,192,124933,1,0,0:0:0:0:
448,192,125056,1,2,0:0:0:0:
64,192,125180,1,2,0:0:0:0:
320,192,125303,1,2,0:0:0:0:
448,192,125303,1,0,0:0:0:0:
64,192,125427,1,2,0:0:0:0:
192,192,125488,1,2,0:0:0:0:
320,192,125550,1,2,0:0:0:0:
448,192,125612,1,2,0:0:0:0:
64,192,125674,1,2,0:0:0:0:
192,192,125674,1,0,0:0:0:0:
320,192,125797,128,2,125921:0:0:0:0:
64,192,125921,1,2,0:0:0:0:
448,192,125921,1,0,0:0:0:0:
192,192,126044,128,2,126167:0:0:0:0:
64,192,126167,1,2,0:0:0:0:
448,192,126167,1,0,0:0:0:0:
320,192,126291,128,2,126414:0:0:0:0:
64,192,126414,1,2,0:0:0:0:
192,192,126476,1,2,0:0:0:0:
320,192,126538,1,2,0:0:0:0:
448,192,126600,1,2,0:0:0:0:
64,192,126661,1,2,0:0:0:0:
192,192,126661,1,0,0:0:0:0:
320,192,126785,1,2,0:0:0:0:
64,192,126908,1,2,0:0:0:0:
448,192,126908,1,0,0:0:0:0:
192,192,127032,1,2,0:0:0:0:
320,192,127155,1,2,0:0:0:0:
448,192,127155,1,0,0:0:0:0:
64,192,127279,1,2,0:0:0:0:
448,192,127402,1,2,0:0:0:0:
320,192,127464,1,2,0:0:0:0:
192,192,127525,1,2,0:0:0:0:
64,192,127587,1,2,0:0:0:0:
320,192,127649,1,2,0:0:0:0:
448,192,127649,1,0,0:0:0:0:
192,192,127772,1,2,0:0:0:0:
64,192,127896,1,2,0:0:0:0:
448,192,127896,1,0,0:0:0:0:
320,192,128019,1,2,0:0:0:0:
64,192,128143,1,2,0:0:0:0:
192,192,128143,1,0,0:0:0:0:
320,192,128204,1,2,0:0:0:0:
448,192,128266,1,2,0:0:0:0:
64,192,128390,1,2,0:0:0:0:
192,192,128451,1,2,0:0:0:0:
320,192,128513,1,2,0:0:0:0:
448,192,128575,1,2,0:0:0:0:
64,192,128637,1,2,0:0:0:0:
192,192,128637,1,0,0:0:0:0:
320,192,128760,1,2,0:0:0:0:
64,192,128883,1,2,0:0:0:0:
448,192,128883,1,0,0:0:0:0:
192,192,129007,1,2,0:0:0:0:
64,192,129130,1,2,0:0:0:0:
448,192,129130,1,0,0:0:0:0:
320,192,129192,1,2,0:0:0:0:
192,192,129254,1,2,0:0:0:0:
448,192,129316,1,2,0:0:0:0:
64,192,129377,1,4,0:0:0:0:
320,192,129377,1,0,0:0:0:0:
192,192,129624,1,2,0:0:0:0:
320,192,129624,1,0,0:0:0:0:
320,192,129995,1,0,0:0:0:0:
448,192,129995,1,0,0:0:0:0:
64,192,130365,1,0,0:0:0:0:
192,192,130365,1,0,0:0:0:0:
64,192,130612,1,2,0:0:0:0:
448,192,130612,1,0,0:0:0:0:
320,192,130735,1,2,0:0:0:0:
192,192,130859,1,2,0:0:0:0:
448,192,130859,1,0,0:0:0:0:
64,192,130982,1,2,0:0:0:0:
192,192,131106,1,2,0:0:0:0:
320,192,131106,1,0,0:0:0:0:
448,192,131229,1,2,0:0:0:0:
64,192,131353,1,2,0:0:0:0:
192,192,131414,1,2,0:0:0:0:
320,192,131476,1,2,0:0:0:0:
448,192,131538,1,2,0:0:0:0:
64,192,131600,1,2,0:0:0:0:
192,192,131600,1,0,0:0:0:0:
320,192,131723,1,2,0:0:0:0:
64,192,131846,1,2,0:0:0:0:
448,192,131846,1,0,0:0:0:0:
192,192,131970,1,2,0:0:0:0:
320,192,132093,1,2,0:0:0:0:
448,192,132093,1,0,0:0:0:0:
64,192,132217,128,2,132340:0:0:0:0:
448,192,132340,1,2,0:0:0:0:
320,192,132402,1,2,0:0:0:0:
192,192,132464,1,2,0:0:0:0:
64,192,132525,1,2,0:0:0:0:
320,192,132587,1,2,0:0:0:0:
448,192,132587,1,0,0:0:0:0:
192,192,132711,1,2,0:0:0:0:
192,192,132834,1,2,0:0:0:0:
448,192,132834,1,0,0:0:0:0:
64,192,132958,1,2,0:0:0:0:
320,192,133081,1,2,0:0:0:0:
448,192,133081,1,0,0:0:0:0:
320,192,133204,1,2,0:0:0:0:
64,192,133328,1,2,0:0:0:0:
192,192,133390,1,2,0:0:0:0:
320,192,133451,1,2,0:0:0:0:
448,192,133513,1,2,0:0:0:0:
64,192,133575,1,2,0:0:0:0:
192,192,133575,1,0,0:0:0:0:
320,192,133698,1,2,0:0:0:0:
448,192,133698,128,0,133822:0:0:0:0:
192,192,133822,1,2,0:0:0:0:
64,192,133883,1,2,0:0:0:0:
448,192,133945,1,2,0:0:0:0:
320,192,134007,1,2,0:0:0:0:
64,192,134069,1,2,0:0:0:0:
192,192,134069,1,0,0:0:0:0:
320,192,134192,1,8,0:0:0:0:
192,192,134254,1,8,0:0:0:0:
64,192,134316,128,0,134562:0:0:0:0:
448,192,134316,1,0,0:0:0:0:
320,192,134562,1,2,0:0:0:0:
448,192,134562,1,0,0:0:0:0:
192,192,134624,1,2,0:0:0:0:
64,192,134686,1,2,0:0:0:0:
448,192,134748,1,2,0:0:0:0:
320,192,134809,1,2,0:0:0:0:
192,192,134871,1,2,0:0:0:0:
64,192,134933,1,2,0:0:0:0:
320,192,134995,1,2,0:0:0:0:
448,192,135056,1,2,0:0:0:0:
64,192,135118,1,2,0:0:0:0:
192,192,135180,1,2,0:0:0:0:
320,192,135242,1,2,0:0:0:0:
448,192,135303,1,2,0:0:0:0:
64,192,135427,1,2,0:0:0:0:
448,192,135550,1,2,0:0:0:0:
320,192,135550,1,0,0:0:0:0:
192,192,135612,1,2,0:0:0:0:
64,192,135674,1,2,0:0:0:0:
448,192,135735,1,2,0:0:0:0:
320,192,135797,1,2,0:0:0:0:
64,192,135859,1,2,0:0:0:0:
192,192,135921,1,2,0:0:0:0:
320,192,135982,1,2,0:0:0:0:
448,192,136044,1,2,0:0:0:0:
64,192,136167,1,2,0:0:0:0:
448,192,136291,1,2,0:0:0:0:
320,192,136291,1,0,0:0:0:0:
64,192,136538,1,2,0:0:0:0:
448,192,136538,1,0,0:0:0:0:
320,192,136600,1,2,0:0:0:0:
192,192,136661,1,2,0:0:0:0:
64,192,136723,1,2,0:0:0:0:
448,192,136785,1,2,0:0:0:0:
320,192,136846,1,2,0:0:0:0:
192,192,136908,1,2,0:0:0:0:
64,192,136970,1,2,0:0:0:0:
448,192,137032,1,2,0:0:0:0:
320,192,137093,1,2,0:0:0:0:
64,192,137155,1,2,0:0:0:0:
192,192,137217,1,2,0:0:0:0:
448,192,137279,1,2,0:0:0:0:
320,192,137340,1,2,0:0:0:0:
64,192,137402,1,2,0:0:0:0:
192,192,137464,1,2,0:0:0:0:
320,192,137525,128,2,138019:0:0:0:0:
448,192,137525,128,0,138019:0:0:0:0:
192,192,138019,128,0,138513:0:0:0:0:
64,192,138513,128,2,139254:0:0:0:0:
320,192,138513,128,0,139254:0:0:0:0:
448,192,138513,128,0,139254:0:0:0:0:
