osu file format v14

[General]
AudioFilename: audio.mp3
AudioLeadIn: 0
PreviewTime: 93698
Countdown: 0
SampleSet: Normal
StackLeniency: 0.7
Mode: 1
LetterboxInBreaks: 0
WidescreenStoryboard: 1

[Editor]
Bookmarks: 1211,5893,10576,19942,29308,38674,48040,57406,66771,76137,85503,94869,104235,113601,122967,132332
DistanceSpacing: 1.1
BeatDivisor: 4
GridSize: 32
TimelineZoom: 1.3

[Metadata]
Title:Chrome VOX
TitleUnicode:Chrome VOX
Artist:t+pazolite
ArtistUnicode:t+pazolite
Creator:gaston_2199
Version:Shoshinsha
Source:Cytus II
Tags:Instrumental Electronic Video Game see you again, HOLLOWood Comiket 94 C94 Rayark tpz hardcore j-core neko OST original sound track soundtrack C.H.S Cutie & Headshaking Sounds CHS-0033 VOEZ ayyri eiri-
BeatmapID:2590873
BeatmapSetID:1176081

[Difficulty]
HPDrainRate:9
CircleSize:2
OverallDifficulty:2
ApproachRate:10
SliderMultiplier:1.4
SliderTickRate:1

[Events]
//Background and Video events
0,0,"BG.jpg",0,-40
//Break Periods
//Storyboard Layer 0 (Background)
//Storyboard Layer 1 (Fail)
//Storyboard Layer 2 (Pass)
//Storyboard Layer 3 (Foreground)
//Storyboard Layer 4 (Overlay)
//Storyboard Sound Samples

[TimingPoints]
1211,292.682926829268,4,1,0,80,1,0
9552,-111.111111111111,4,1,0,60,0,0
10576,-111.111111111111,4,1,0,80,0,0
29308,-111.111111111111,4,1,0,70,0,0
38674,-111.111111111111,4,1,0,80,0,0
66771,-111.111111111111,4,1,0,70,0,0
76137,-111.111111111111,4,1,0,80,0,0
94869,-111.111111111111,4,1,0,90,0,1
103942,-111.111111111111,4,1,0,90,0,0
104235,-111.111111111111,4,1,0,90,0,1
112430,-111.111111111111,4,1,0,80,0,0
113601,-111.111111111111,4,1,0,90,0,1
121796,-111.111111111111,4,1,0,80,0,0
122967,-111.111111111111,4,1,0,90,0,1
132332,-111.111111111111,4,1,0,70,0,0
141406,-111.111111111111,4,1,0,80,0,0

[HitObjects]
256,192,1211,5,4,0:0:0:0:
174,100,1796,1,8,0:0:0:0:
256,192,2381,1,0,0:0:0:0:
288,128,3552,1,8,0:0:0:0:
224,64,4723,1,0,0:0:0:0:
224,64,5893,1,4,0:0:0:0:
186,66,6479,1,8,0:0:0:0:
320,160,7064,1,0,0:0:0:0:
256,96,8235,1,0,0:0:0:0:
256,96,8820,1,8,0:0:0:0:
256,96,9406,1,0,0:0:0:0:
256,96,10576,1,4,0:0:0:0:
288,96,11747,1,8,0:0:0:0:
352,96,12918,1,0,0:0:0:0:
210,57,13503,1,8,0:0:0:0:
256,96,14674,1,12,0:0:0:0:
320,64,16430,1,4,0:0:0:0:
288,160,17601,1,0,0:0:0:0:
288,160,18771,1,0,0:0:0:0:
288,160,19357,1,8,0:0:0:0:
288,160,19942,1,4,0:0:0:0:
320,64,21113,1,8,0:0:0:0:
320,64,22284,1,0,0:0:0:0:
320,64,22869,1,8,0:0:0:0:
320,64,24040,1,12,0:0:0:0:
320,64,25210,1,0,0:0:0:0:
320,64,25796,1,4,0:0:0:0:
320,64,26967,1,0,0:0:0:0:
320,64,27552,1,8,0:0:0:0:
72,136,28137,1,0,0:0:0:0:
320,64,29308,1,4,0:0:0:0:
320,64,31650,1,0,0:0:0:0:
320,64,32820,1,0,0:0:0:0:
320,64,33991,1,8,0:0:0:0:
320,64,36332,1,8,0:0:0:0:
320,64,37503,1,0,0:0:0:0:
320,64,38674,1,4,0:0:0:0:
320,64,40430,1,8,0:0:0:0:
352,96,41015,1,0,0:0:0:0:
256,192,42771,1,8,0:0:0:0:
384,64,43357,1,0,0:0:0:0:
384,64,43942,1,0,0:0:0:0:
384,64,44528,1,8,0:0:0:0:
256,192,45698,1,8,0:0:0:0:
320,96,46284,1,8,0:0:0:0:
256,192,48040,1,4,0:0:0:0:
256,192,48625,1,8,0:0:0:0:
256,192,49796,1,8,0:0:0:0:
256,160,50381,1,0,0:0:0:0:
320,96,52137,1,8,0:0:0:0:
256,192,52723,1,4,0:0:0:0:
256,192,53308,1,8,0:0:0:0:
256,192,54479,1,8,0:0:0:0:
192,64,55064,1,0,0:0:0:0:
192,64,55650,1,8,0:0:0:0:
256,192,57406,1,4,0:0:0:0:
256,192,57991,1,8,0:0:0:0:
256,192,59162,1,8,0:0:0:0:
256,160,59747,1,0,0:0:0:0:
320,96,60332,1,8,0:0:0:0:
320,96,61503,1,8,0:0:0:0:
256,192,62089,1,4,0:0:0:0:
256,192,63259,1,4,0:0:0:0:
192,64,64430,1,0,0:0:0:0:
192,64,65015,1,8,0:0:0:0:
192,64,65601,1,4,0:0:0:0:
256,96,67357,1,8,0:0:0:0:
320,96,69698,1,8,0:0:0:0:
224,192,72040,1,8,0:0:0:0:
224,192,74381,1,8,0:0:0:0:
352,224,76137,1,4,0:0:0:0:
288,96,77308,1,8,0:0:0:0:
173,106,78479,1,0,0:0:0:0:
177,96,79650,1,8,0:0:0:0:
189,58,80820,1,0,0:0:0:0:
401,26,81991,1,8,0:0:0:0:
276,52,83162,1,0,0:0:0:0:
224,192,84332,1,8,0:0:0:0:
352,224,85503,1,4,0:0:0:0:
288,64,87845,1,0,0:0:0:0:
288,64,90186,1,0,0:0:0:0:
288,64,91357,1,0,0:0:0:0:
288,64,92528,1,0,0:0:0:0:
288,64,93113,1,8,0:0:0:0:
288,64,94869,1,4,0:0:0:0:
180,119,96040,1,8,0:0:0:0:
224,64,97210,1,0,0:0:0:0:
188,136,98381,1,0,0:0:0:0:
34,253,98967,1,8,0:0:0:0:
96,128,99552,1,0,0:0:0:0:
245,33,100723,1,8,0:0:0:0:
224,64,101893,1,0,0:0:0:0:
224,64,103064,1,8,0:0:0:0:
96,128,103650,1,8,0:0:0:0:
288,64,104235,1,4,0:0:0:0:
215,60,105406,1,8,0:0:0:0:
224,64,106576,1,0,0:0:0:0:
276,24,107747,1,0,0:0:0:0:
184,15,108332,1,8,0:0:0:0:
96,128,108918,1,4,0:0:0:0:
256,64,110089,1,4,0:0:0:0:
256,32,111259,1,4,0:0:0:0:
224,64,111845,1,8,0:0:0:0:
224,64,112430,1,4,0:0:0:0:
96,128,113601,1,4,0:0:0:0:
288,96,114771,1,0,0:0:0:0:
288,96,115357,1,8,0:0:0:0:
288,64,117113,1,0,0:0:0:0:
276,14,117698,1,8,0:0:0:0:
96,128,118284,1,0,0:0:0:0:
288,96,119454,1,8,0:0:0:0:
256,64,120040,1,0,0:0:0:0:
256,64,121796,1,0,0:0:0:0:
448,32,122967,1,4,0:0:0:0:
233,46,124137,1,0,0:0:0:0:
288,96,124723,1,8,0:0:0:0:
288,64,126479,1,0,0:0:0:0:
288,64,127064,1,8,0:0:0:0:
96,128,127650,1,4,0:0:0:0:
288,96,128820,1,4,0:0:0:0:
256,64,129991,1,0,0:0:0:0:
320,96,130576,1,0,0:0:0:0:
173,46,131162,1,8,0:0:0:0:
320,96,131747,1,8,0:0:0:0:
448,32,132332,1,4,0:0:0:0:
288,96,134674,1,0,0:0:0:0:
288,96,137015,1,0,0:0:0:0:
256,96,138186,1,8,0:0:0:0:
256,96,139357,1,0,0:0:0:0:
256,96,139942,1,8,0:0:0:0:
256,96,140528,1,0,0:0:0:0:
256,96,141406,1,12,0:0:0:0:
