osu file format v14

[General]
AudioFilename: audio.mp3
AudioLeadIn: 0
PreviewTime: 93698
Countdown: 0
SampleSet: Normal
StackLeniency: 0.7
Mode: 1
LetterboxInBreaks: 0
WidescreenStoryboard: 1

[Editor]
Bookmarks: 1211,5893,10576,19942,29308,38674,48040,57406,66771,76137,85503,94869,104235,113601,122967,132332
DistanceSpacing: 1.1
BeatDivisor: 4
GridSize: 32
TimelineZoom: 2.699999

[Metadata]
Title:Chrome VOX
TitleUnicode:Chrome VOX
Artist:t+pazolite
ArtistUnicode:t+pazolite
Creator:gaston_2199
Version:Oni
Source:Cytus II
Tags:Instrumental Electronic Video Game see you again, HOLLOWood Comiket 94 C94 Rayark tpz hardcore j-core neko OST original sound track soundtrack C.H.S Cutie & Headshaking Sounds CHS-0033 VOEZ ayyri eiri-
BeatmapID:2452994
BeatmapSetID:1176081

[Difficulty]
HPDrainRate:5
CircleSize:2
OverallDifficulty:5.5
ApproachRate:10
SliderMultiplier:1.4
SliderTickRate:1

[Events]
//Background and Video events
0,0,"BG.jpg",0,-40
//Break Periods
//Storyboard Layer 0 (Background)
//Storyboard Layer 1 (Fail)
//Storyboard Layer 2 (Pass)
//Storyboard Layer 3 (Foreground)
//Storyboard Layer 4 (Overlay)
//Storyboard Sound Samples

[TimingPoints]
1211,292.682926829268,4,1,0,80,1,0
9110,-102.564102564103,4,1,0,71,0,0
9183,-105.263157894737,4,1,0,69,0,0
9256,-108.108108108108,4,1,0,66,0,0
9403,-111.111111111111,4,1,0,60,0,0
10281,-83.3333333333333,4,1,0,80,0,0
10573,-100,4,1,0,80,0,0
15256,-111.111111111111,4,1,0,80,0,0
16134,-83.3333333333333,4,1,0,80,0,0
16427,-100,4,1,0,80,0,0
29305,-125,4,1,0,70,0,0
38671,-111.111111111111,4,1,0,80,0,0
43354,-100,4,1,0,80,0,0
46866,-125,4,1,0,80,0,0
47744,-83.3333333333333,4,1,0,80,0,0
48037,-100,4,1,0,80,0,0
55207,-98.6842105263161,4,1,0,80,0,0
55281,-98.0392156862745,4,1,0,80,0,0
55354,-97.4025974025971,4,1,0,80,0,0
55500,-96.1538461538461,4,1,0,80,0,0
55647,-94.9367088607598,4,1,0,80,0,0
55720,-94.3396226415094,4,1,0,80,0,0
55793,-93.7499999999997,4,1,0,80,0,0
55866,-93.1677018633543,4,1,0,80,0,0
55939,-92.5925925925926,4,1,0,80,0,0
56086,-91.4634146341466,4,1,0,80,0,0
56232,-90.9090909090909,4,1,0,80,0,0
57110,-83.3333333333333,4,1,0,80,0,0
57403,-100,4,1,0,80,0,0
64574,-98.6842105263161,4,1,0,80,0,0
64648,-98.0392156862745,4,1,0,80,0,0
64721,-97.4025974025971,4,1,0,80,0,0
64867,-96.1538461538461,4,1,0,80,0,0
65014,-94.9367088607598,4,1,0,80,0,0
65087,-94.3396226415094,4,1,0,80,0,0
65160,-93.7499999999997,4,1,0,80,0,0
65233,-93.1677018633543,4,1,0,80,0,0
65306,-92.5925925925926,4,1,0,80,0,0
65453,-91.4634146341466,4,1,0,80,0,0
65601,-90.9090909090909,4,1,0,80,0,0
66037,-103.448275862069,4,1,0,80,0,0
66183,-107.142857142857,4,1,0,80,0,0
66476,-115.384615384615,4,1,0,80,0,0
66622,-120,4,1,0,80,0,0
66771,-125,4,1,0,70,0,0
75842,-121.212121212121,4,1,0,70,0,0
75915,-117.647058823529,4,1,0,70,0,0
75988,-114.285714285714,4,1,0,70,0,0
76134,-111.111111111111,4,1,0,80,0,0
90183,-100,4,1,0,80,0,0
93695,-125,4,1,0,80,0,0
94573,-83.3333333333333,4,1,0,80,0,0
94869,-100,4,1,0,90,0,1
103942,-100,4,1,0,90,0,0
104235,-100,4,1,0,90,0,1
111403,-98.7654320987654,4,1,0,90,0,1
111549,-97.5609756097561,4,1,0,90,0,1
111622,-96.969696969697,4,1,0,90,0,1
111695,-96.3855421686747,4,1,0,90,0,1
111842,-95.2380952380952,4,1,0,90,0,1
111915,-94.6745562130178,4,1,0,90,0,1
111988,-94.1176470588235,4,1,0,90,0,1
112061,-93.5672514619883,4,1,0,90,0,1
112134,-93.0232558139535,4,1,0,90,0,1
112207,-92.485549132948,4,1,0,90,0,1
112281,-91.9540229885057,4,1,0,90,0,1
112430,-90.9090909090909,4,1,0,80,0,0
113305,-83.3333333333333,4,1,0,80,0,0
113601,-100,4,1,0,90,0,1
121796,-100,4,1,0,80,0,0
122671,-86.9565217391304,4,1,0,80,0,0
122744,-90.9090909090909,4,1,0,80,0,0
122817,-95.2380952380952,4,1,0,80,0,0
122967,-100,4,1,0,90,0,1
130134,-99.1735537190086,4,1,0,90,0,1
130207,-98.7654320987654,4,1,0,90,0,1
130281,-98.3606557377046,4,1,0,90,0,1
130427,-97.5609756097561,4,1,0,90,0,1
130573,-96.7741935483874,4,1,0,90,0,1
130647,-96.3855421686747,4,1,0,90,0,1
130720,-95.9999999999997,4,1,0,90,0,1
130793,-95.6175298804784,4,1,0,90,0,1
130866,-95.2380952380952,4,1,0,90,0,1
131012,-94.4881889763783,4,1,0,90,0,1
131086,-94.1176470588235,4,1,0,90,0,1
131159,-93.7499999999997,4,1,0,90,0,1
131305,-93.0232558139535,4,1,0,90,0,1
131378,-92.6640926640924,4,1,0,90,0,1
131451,-92.3076923076926,4,1,0,90,0,1
131525,-91.9540229885057,4,1,0,90,0,1
131598,-91.6030534351142,4,1,0,90,0,1
131671,-91.2547528517113,4,1,0,90,0,1
131744,-90.9090909090909,4,1,0,90,0,1
132332,-90.9090909090909,4,1,0,70,0,0
132918,-125,4,1,0,70,0,0
137012,-123.456790123457,4,1,0,70,0,0
137159,-121.951219512195,4,1,0,70,0,0
137305,-120.481927710843,4,1,0,70,0,0
137451,-119.047619047619,4,1,0,70,0,0
137598,-117.647058823529,4,1,0,70,0,0
137817,-114.942528735632,4,1,0,70,0,0
138037,-112.359550561798,4,1,0,70,0,0
138183,-111.111111111111,4,1,0,70,0,0
138329,-109.756097560976,4,1,0,70,0,0
138476,-108.433734939759,4,1,0,70,0,0
138622,-107.142857142857,4,1,0,70,0,0
138768,-105.882352941176,4,1,0,70,0,0
138988,-103.448275862069,4,1,0,70,0,0
139207,-101.123595505618,4,1,0,70,0,0
139354,-100,4,1,0,70,0,0
139500,-99.1735537190083,4,1,0,70,0,0
139573,-98.7654320987654,4,1,0,70,0,0
139647,-98.3606557377049,4,1,0,70,0,0
139793,-97.5609756097561,4,1,0,70,0,0
139939,-96.7741935483871,4,1,0,70,0,0
140012,-96.3855421686747,4,1,0,70,0,0
140086,-96,4,1,0,70,0,0
140159,-95.6175298804781,4,1,0,70,0,0
140232,-95.2380952380952,4,1,0,70,0,0
140378,-94.488188976378,4,1,0,70,0,0
140525,-93.75,4,1,0,70,0,0
140598,-93.3852140077821,4,1,0,70,0,0
140671,-93.0232558139535,4,1,0,70,0,0
140744,-92.6640926640926,4,1,0,70,0,0
140817,-92.3076923076923,4,1,0,70,0,0
140890,-91.9540229885057,4,1,0,70,0,0
140964,-91.6030534351145,4,1,0,70,0,0
141110,-90.9090909090909,4,1,0,70,0,0
141403,-83.3333333333333,4,1,0,80,0,0

[HitObjects]
256,192,1211,5,4,0:0:0:0:
256,192,1357,1,0,0:0:0:0:
256,192,1503,1,8,0:0:0:0:
256,96,1796,1,0,0:0:0:0:
256,192,1869,1,0,0:0:0:0:
256,192,1942,1,0,0:0:0:0:
256,192,2015,1,0,0:0:0:0:
256,192,2089,1,8,0:0:0:0:
256,192,2235,1,8,0:0:0:0:
256,192,2381,1,0,0:0:0:0:
256,192,2528,1,0,0:0:0:0:
256,192,2674,1,8,0:0:0:0:
288,128,2967,1,0,0:0:0:0:
288,128,3113,1,8,0:0:0:0:
288,128,3259,1,8,0:0:0:0:
288,128,3406,1,8,0:0:0:0:
288,128,3552,1,0,0:0:0:0:
224,64,3698,1,0,0:0:0:0:
224,64,3845,1,8,0:0:0:0:
224,64,4137,1,8,0:0:0:0:
224,64,4284,1,0,0:0:0:0:
224,64,4430,1,8,0:0:0:0:
224,64,4576,1,0,0:0:0:0:
224,64,4723,1,0,0:0:0:0:
224,64,4869,1,0,0:0:0:0:
224,64,5015,1,8,0:0:0:0:
256,64,5089,1,0,0:0:0:0:
224,64,5162,1,0,0:0:0:0:
224,64,5235,1,0,0:0:0:0:
224,64,5308,1,8,0:0:0:0:
224,64,5454,1,0,0:0:0:0:
224,64,5601,1,8,0:0:0:0:
224,64,5893,1,4,0:0:0:0:
224,64,6040,1,0,0:0:0:0:
320,160,6186,1,8,0:0:0:0:
256,96,6479,1,0,0:0:0:0:
320,160,6552,1,0,0:0:0:0:
320,160,6625,1,0,0:0:0:0:
320,160,6771,1,12,0:0:0:0:
320,160,7064,1,0,0:0:0:0:
320,160,7210,1,0,0:0:0:0:
320,160,7357,1,8,0:0:0:0:
256,96,7650,1,0,0:0:0:0:
256,96,7796,1,0,0:0:0:0:
256,96,7942,1,12,0:0:0:0:
256,96,8235,1,0,0:0:0:0:
256,96,8381,1,0,0:0:0:0:
256,96,8528,1,8,0:0:0:0:
217,68,8674,1,0,0:0:0:0:
256,96,8820,1,8,0:0:0:0:
256,96,8967,1,0,0:0:0:0:
256,96,9113,1,8,0:0:0:0:
256,96,9186,1,0,0:0:0:0:
256,96,9259,1,8,0:0:0:0:
256,96,9406,1,0,0:0:0:0:
256,96,10284,1,12,0:0:0:0:
256,96,10576,1,4,0:0:0:0:
256,96,10723,1,0,0:0:0:0:
256,96,10869,1,8,0:0:0:0:
256,96,11162,1,0,0:0:0:0:
256,96,11308,1,0,0:0:0:0:
256,96,11454,1,8,0:0:0:0:
288,96,11747,1,8,0:0:0:0:
288,96,11893,1,8,0:0:0:0:
288,96,12040,1,0,0:0:0:0:
288,96,12186,1,8,0:0:0:0:
288,96,12332,1,0,0:0:0:0:
352,96,12625,1,8,0:0:0:0:
352,96,12918,1,0,0:0:0:0:
352,96,13064,1,0,0:0:0:0:
352,96,13210,1,8,0:0:0:0:
352,96,13503,1,8,0:0:0:0:
352,96,13650,1,0,0:0:0:0:
352,96,13796,1,8,0:0:0:0:
352,96,14089,1,0,0:0:0:0:
256,96,14235,1,8,0:0:0:0:
256,96,14308,1,0,0:0:0:0:
256,96,14381,1,8,0:0:0:0:
256,96,14528,1,8,0:0:0:0:
256,96,14674,1,4,0:0:0:0:
352,96,14820,1,0,0:0:0:0:
352,96,14967,1,12,0:0:0:0:
320,160,15259,1,8,0:0:0:0:
320,160,15552,1,0,0:0:0:0:
320,160,15698,1,0,0:0:0:0:
320,160,15845,1,8,0:0:0:0:
320,160,16137,1,12,0:0:0:0:
320,64,16430,1,12,0:0:0:0:
320,64,16576,1,8,0:0:0:0:
320,64,16723,1,0,0:0:0:0:
320,64,16869,1,8,0:0:0:0:
288,160,17015,1,0,0:0:0:0:
288,160,17308,1,8,0:0:0:0:
288,160,17601,1,0,0:0:0:0:
288,160,17747,1,0,0:0:0:0:
288,160,17893,1,8,0:0:0:0:
288,160,18186,1,8,0:0:0:0:
288,160,18332,1,0,0:0:0:0:
288,160,18479,1,8,0:0:0:0:
288,160,18771,1,0,0:0:0:0:
288,160,18918,1,8,0:0:0:0:
288,160,18991,1,0,0:0:0:0:
288,160,19064,1,8,0:0:0:0:
288,160,19210,1,8,0:0:0:0:
288,160,19284,1,8,0:0:0:0:
288,160,19357,1,0,0:0:0:0:
288,160,19503,1,0,0:0:0:0:
288,160,19650,1,8,0:0:0:0:
288,160,19942,1,4,0:0:0:0:
288,160,20089,1,0,0:0:0:0:
288,160,20235,1,8,0:0:0:0:
320,64,20528,1,0,0:0:0:0:
320,64,20674,1,0,0:0:0:0:
320,64,20820,1,8,0:0:0:0:
320,64,21113,1,8,0:0:0:0:
320,64,21259,1,8,0:0:0:0:
320,64,21406,1,0,0:0:0:0:
320,64,21552,1,8,0:0:0:0:
320,64,21698,1,0,0:0:0:0:
320,64,21991,1,8,0:0:0:0:
320,64,22284,1,0,0:0:0:0:
320,64,22430,1,0,0:0:0:0:
320,64,22576,1,8,0:0:0:0:
320,64,22869,1,8,0:0:0:0:
320,64,23015,1,0,0:0:0:0:
320,64,23162,1,8,0:0:0:0:
320,64,23454,1,0,0:0:0:0:
320,64,23601,1,8,0:0:0:0:
320,64,23674,1,0,0:0:0:0:
320,64,23747,1,8,0:0:0:0:
320,64,23893,1,8,0:0:0:0:
320,64,24040,1,4,0:0:0:0:
320,64,24186,1,0,0:0:0:0:
320,64,24332,1,12,0:0:0:0:
320,64,24625,1,8,0:0:0:0:
320,64,24771,1,0,0:0:0:0:
320,64,24918,1,0,0:0:0:0:
278,77,24991,1,0,0:0:0:0:
320,64,25064,1,8,0:0:0:0:
320,64,25210,1,8,0:0:0:0:
320,64,25284,1,0,0:0:0:0:
320,64,25430,1,0,0:0:0:0:
320,64,25503,1,8,0:0:0:0:
320,64,25796,1,12,0:0:0:0:
320,64,25942,1,8,0:0:0:0:
320,64,26089,1,0,0:0:0:0:
320,64,26235,1,8,0:0:0:0:
320,64,26381,1,0,0:0:0:0:
320,64,26674,1,8,0:0:0:0:
320,64,26967,1,0,0:0:0:0:
320,64,27259,1,8,0:0:0:0:
320,64,27406,1,0,0:0:0:0:
320,64,27552,1,8,0:0:0:0:
320,64,27625,1,8,0:0:0:0:
320,64,27698,1,0,0:0:0:0:
320,64,27771,1,0,0:0:0:0:
320,64,27845,1,8,0:0:0:0:
320,64,27991,1,0,0:0:0:0:
224,288,28137,1,8,0:0:0:0:
320,64,28430,1,0,0:0:0:0:
211,75,28576,1,8,0:0:0:0:
320,64,28723,1,0,0:0:0:0:
320,64,28796,1,0,0:0:0:0:
320,64,28869,1,0,0:0:0:0:
320,64,29015,1,8,0:0:0:0:
320,64,29308,1,4,0:0:0:0:
320,64,29893,1,8,0:0:0:0:
320,64,30479,1,0,0:0:0:0:
320,64,30771,1,0,0:0:0:0:
320,64,31064,1,8,0:0:0:0:
320,64,31357,1,8,0:0:0:0:
320,64,31650,1,0,0:0:0:0:
320,64,32235,1,8,0:0:0:0:
320,64,32820,1,8,0:0:0:0:
320,64,33113,1,0,0:0:0:0:
320,64,33406,1,8,0:0:0:0:
320,64,33698,1,8,0:0:0:0:
320,64,33991,1,0,0:0:0:0:
320,64,34576,1,8,0:0:0:0:
320,64,35162,1,0,0:0:0:0:
320,64,35454,1,0,0:0:0:0:
320,64,35747,1,8,0:0:0:0:
320,64,36040,1,0,0:0:0:0:
320,64,36332,1,8,0:0:0:0:
256,192,36918,1,8,0:0:0:0:
320,64,37503,1,0,0:0:0:0:
320,64,37796,1,0,0:0:0:0:
320,64,38089,1,8,0:0:0:0:
320,64,38674,1,4,0:0:0:0:
256,192,38967,1,8,0:0:0:0:
256,192,39259,1,0,0:0:0:0:
256,192,39552,1,8,0:0:0:0:
256,192,39845,1,0,0:0:0:0:
256,192,39991,1,0,0:0:0:0:
256,192,40137,1,8,0:0:0:0:
320,64,40430,1,0,0:0:0:0:
352,96,40576,1,8,0:0:0:0:
352,96,40723,1,0,0:0:0:0:
352,96,41015,1,0,0:0:0:0:
352,96,41308,1,8,0:0:0:0:
352,96,41601,1,0,0:0:0:0:
256,192,41893,1,8,0:0:0:0:
256,192,42186,1,0,0:0:0:0:
352,128,42332,1,0,0:0:0:0:
352,128,42479,1,8,0:0:0:0:
256,192,42771,1,0,0:0:0:0:
352,128,42918,1,8,0:0:0:0:
256,192,43064,1,0,0:0:0:0:
384,64,43357,1,8,0:0:0:0:
384,64,43503,1,8,0:0:0:0:
384,64,43650,1,0,0:0:0:0:
384,64,43942,1,8,0:0:0:0:
384,64,44089,1,8,0:0:0:0:
384,64,44235,1,0,0:0:0:0:
384,64,44528,1,8,0:0:0:0:
384,64,44674,1,8,0:0:0:0:
384,64,44820,1,0,0:0:0:0:
384,64,44967,1,0,0:0:0:0:
352,128,45113,1,8,0:0:0:0:
352,128,45259,1,0,0:0:0:0:
352,128,45406,1,8,0:0:0:0:
256,192,45698,1,8,0:0:0:0:
320,96,45845,1,0,0:0:0:0:
320,96,45918,1,0,0:0:0:0:
256,192,45991,1,8,0:0:0:0:
320,96,46137,1,0,0:0:0:0:
320,96,46284,1,8,0:0:0:0:
320,96,46357,1,8,0:0:0:0:
320,96,46430,1,0,0:0:0:0:
320,96,46503,1,0,0:0:0:0:
320,96,46576,1,8,0:0:0:0:
320,96,46723,1,8,0:0:0:0:
256,192,47015,1,0,0:0:0:0:
256,192,47454,1,0,0:0:0:0:
256,192,47747,1,12,0:0:0:0:
256,192,48040,1,4,0:0:0:0:
256,192,48186,1,8,0:0:0:0:
256,192,48332,1,8,0:0:0:0:
256,192,48479,1,0,0:0:0:0:
256,192,48625,1,8,0:0:0:0:
256,192,48771,1,0,0:0:0:0:
256,192,48845,1,8,0:0:0:0:
256,160,48918,1,0,0:0:0:0:
256,192,49064,1,8,0:0:0:0:
256,192,49357,1,8,0:0:0:0:
224,64,49650,1,8,0:0:0:0:
256,192,49796,1,0,0:0:0:0:
256,192,49942,1,0,0:0:0:0:
256,192,50089,1,8,0:0:0:0:
256,160,50162,1,8,0:0:0:0:
256,160,50235,1,8,0:0:0:0:
256,160,50381,1,0,0:0:0:0:
256,160,50528,1,8,0:0:0:0:
256,160,50674,1,8,0:0:0:0:
320,96,50820,1,0,0:0:0:0:
320,96,50967,1,8,0:0:0:0:
320,96,51113,1,0,0:0:0:0:
320,96,51186,1,8,0:0:0:0:
320,96,51259,1,0,0:0:0:0:
320,96,51406,1,8,0:0:0:0:
320,96,51698,1,8,0:0:0:0:
320,96,51918,1,0,0:0:0:0:
320,96,52137,1,8,0:0:0:0:
320,96,52284,1,0,0:0:0:0:
320,96,52430,1,8,0:0:0:0:
320,96,52576,1,8,0:0:0:0:
256,192,52723,1,4,0:0:0:0:
256,192,52869,1,8,0:0:0:0:
256,192,53015,1,8,0:0:0:0:
256,192,53162,1,0,0:0:0:0:
256,192,53308,1,8,0:0:0:0:
256,192,53454,1,0,0:0:0:0:
256,192,53528,1,8,0:0:0:0:
256,160,53601,1,0,0:0:0:0:
256,192,53747,1,8,0:0:0:0:
256,192,54040,1,8,0:0:0:0:
256,64,54332,1,8,0:0:0:0:
256,192,54479,1,0,0:0:0:0:
256,192,54625,1,0,0:0:0:0:
256,192,54771,1,8,0:0:0:0:
256,160,54845,1,8,0:0:0:0:
256,160,54918,1,8,0:0:0:0:
192,64,55064,1,8,0:0:0:0:
192,64,55210,1,0,0:0:0:0:
192,64,55284,1,0,0:0:0:0:
192,64,55357,1,8,0:0:0:0:
192,64,55503,1,0,0:0:0:0:
192,64,55650,1,8,0:0:0:0:
192,64,55723,1,0,0:0:0:0:
192,64,55796,1,8,0:0:0:0:
192,64,55869,1,8,0:0:0:0:
192,64,55942,1,0,0:0:0:0:
192,64,56089,1,8,0:0:0:0:
192,64,56235,1,4,0:0:0:0:
192,64,56528,1,4,0:0:0:0:
192,64,56820,1,12,0:0:0:0:
192,64,57113,1,12,0:0:0:0:
256,192,57406,1,4,0:0:0:0:
256,192,57552,1,8,0:0:0:0:
241,140,57625,1,0,0:0:0:0:
256,192,57698,1,8,0:0:0:0:
256,192,57845,1,0,0:0:0:0:
256,192,57991,1,8,0:0:0:0:
256,192,58137,1,0,0:0:0:0:
256,192,58210,1,8,0:0:0:0:
256,96,58284,1,0,0:0:0:0:
256,192,58430,1,8,0:0:0:0:
256,192,58723,1,8,0:0:0:0:
256,192,58869,1,0,0:0:0:0:
256,192,59015,1,8,0:0:0:0:
256,192,59162,1,0,0:0:0:0:
256,192,59308,1,0,0:0:0:0:
256,192,59454,1,8,0:0:0:0:
256,160,59528,1,8,0:0:0:0:
256,160,59601,1,8,0:0:0:0:
256,160,59747,1,0,0:0:0:0:
256,160,59893,1,8,0:0:0:0:
288,160,59967,1,0,0:0:0:0:
256,160,60040,1,8,0:0:0:0:
320,96,60186,1,0,0:0:0:0:
320,96,60332,1,8,0:0:0:0:
320,96,60479,1,0,0:0:0:0:
320,96,60552,1,8,0:0:0:0:
320,96,60625,1,0,0:0:0:0:
288,160,60698,1,0,0:0:0:0:
320,96,60771,1,8,0:0:0:0:
320,96,61064,1,8,0:0:0:0:
320,96,61284,1,0,0:0:0:0:
320,96,61503,1,8,0:0:0:0:
320,96,61650,1,0,0:0:0:0:
320,96,61796,1,8,0:0:0:0:
320,96,61942,1,8,0:0:0:0:
256,192,62089,1,4,0:0:0:0:
256,192,62235,1,0,0:0:0:0:
256,192,62381,1,8,0:0:0:0:
256,160,62528,1,8,0:0:0:0:
256,192,62674,1,4,0:0:0:0:
209,35,62820,1,0,0:0:0:0:
256,192,62967,1,8,0:0:0:0:
256,192,63259,1,4,0:0:0:0:
256,192,63406,1,0,0:0:0:0:
256,192,63552,1,8,0:0:0:0:
256,192,63698,1,8,0:0:0:0:
256,192,63845,1,4,0:0:0:0:
228,22,63991,1,0,0:0:0:0:
256,192,64137,1,8,0:0:0:0:
155,92,64210,1,8,0:0:0:0:
256,160,64284,1,0,0:0:0:0:
192,64,64430,1,8,0:0:0:0:
192,64,64576,1,0,0:0:0:0:
192,64,64650,1,0,0:0:0:0:
192,64,64723,1,8,0:0:0:0:
192,64,64869,1,0,0:0:0:0:
192,64,65015,1,8,0:0:0:0:
192,64,65089,1,0,0:0:0:0:
192,64,65162,1,8,0:0:0:0:
192,64,65235,1,8,0:0:0:0:
192,64,65308,1,0,0:0:0:0:
192,64,65454,1,8,0:0:0:0:
192,64,65601,1,4,0:0:0:0:
256,96,66040,1,8,0:0:0:0:
256,96,66186,1,8,0:0:0:0:
256,96,66479,1,8,0:0:0:0:
256,96,66625,1,0,0:0:0:0:
205,82,66771,1,0,0:0:0:0:
256,96,67064,1,8,0:0:0:0:
256,96,67210,1,0,0:0:0:0:
256,96,67357,1,8,0:0:0:0:
320,96,67650,1,8,0:0:0:0:
320,96,67796,1,0,0:0:0:0:
320,96,68089,1,8,0:0:0:0:
320,96,68381,1,0,0:0:0:0:
320,96,68528,1,8,0:0:0:0:
320,96,68820,1,8,0:0:0:0:
320,96,69406,1,8,0:0:0:0:
266,97,69552,1,0,0:0:0:0:
320,96,69698,1,8,0:0:0:0:
320,96,69991,1,8,0:0:0:0:
320,96,70137,1,0,0:0:0:0:
320,96,70430,1,8,0:0:0:0:
274,198,70576,1,8,0:0:0:0:
224,192,70869,1,8,0:0:0:0:
224,192,71015,1,8,0:0:0:0:
320,96,71162,1,0,0:0:0:0:
224,192,71747,1,8,0:0:0:0:
224,192,71893,1,0,0:0:0:0:
224,192,72040,1,8,0:0:0:0:
224,192,72332,1,8,0:0:0:0:
224,192,72479,1,0,0:0:0:0:
224,192,72771,1,8,0:0:0:0:
224,192,73064,1,0,0:0:0:0:
224,192,73210,1,8,0:0:0:0:
224,192,73503,1,0,0:0:0:0:
224,192,73942,1,8,0:0:0:0:
224,192,74089,1,0,0:0:0:0:
224,192,74235,1,0,0:0:0:0:
224,192,74381,1,8,0:0:0:0:
224,192,74674,1,8,0:0:0:0:
224,192,74820,1,0,0:0:0:0:
224,192,75113,1,8,0:0:0:0:
224,192,75406,1,8,0:0:0:0:
224,192,75552,1,0,0:0:0:0:
224,192,75845,1,8,0:0:0:0:
352,224,75918,1,8,0:0:0:0:
352,224,75991,1,0,0:0:0:0:
352,224,76137,1,4,0:0:0:0:
256,96,76430,1,8,0:0:0:0:
256,96,76576,1,0,0:0:0:0:
416,96,76723,1,8,0:0:0:0:
320,96,77015,1,8,0:0:0:0:
288,96,77162,1,0,0:0:0:0:
256,64,77454,1,0,0:0:0:0:
256,64,77601,1,8,0:0:0:0:
416,96,77747,1,0,0:0:0:0:
320,96,77893,1,0,0:0:0:0:
319,75,78040,1,0,0:0:0:0:
320,96,78186,1,8,0:0:0:0:
320,96,78479,1,0,0:0:0:0:
320,96,78771,1,8,0:0:0:0:
320,96,78918,1,0,0:0:0:0:
416,96,79064,1,8,0:0:0:0:
320,96,79357,1,8,0:0:0:0:
320,96,79503,1,0,0:0:0:0:
288,96,79796,1,0,0:0:0:0:
288,96,79942,1,8,0:0:0:0:
288,96,80089,1,8,0:0:0:0:
288,96,80235,1,0,0:0:0:0:
226,98,80381,1,0,0:0:0:0:
288,96,80528,1,8,0:0:0:0:
288,96,80820,1,0,0:0:0:0:
320,64,80967,1,8,0:0:0:0:
224,192,81113,1,8,0:0:0:0:
320,64,81259,1,0,0:0:0:0:
320,64,81406,1,8,0:0:0:0:
288,96,81698,1,8,0:0:0:0:
224,192,81845,1,0,0:0:0:0:
320,64,82137,1,0,0:0:0:0:
288,96,82284,1,8,0:0:0:0:
320,64,82430,1,0,0:0:0:0:
288,96,82576,1,0,0:0:0:0:
294,68,82723,1,0,0:0:0:0:
288,96,82869,1,8,0:0:0:0:
288,96,83162,1,0,0:0:0:0:
288,96,83454,1,8,0:0:0:0:
224,192,83601,1,0,0:0:0:0:
224,192,83747,1,8,0:0:0:0:
224,192,84040,1,8,0:0:0:0:
224,192,84186,1,0,0:0:0:0:
224,192,84479,1,8,0:0:0:0:
288,96,84625,1,8,0:0:0:0:
224,192,84771,1,8,0:0:0:0:
352,224,85064,1,0,0:0:0:0:
224,192,85210,1,8,0:0:0:0:
352,224,85503,1,4,0:0:0:0:
288,64,85796,1,0,0:0:0:0:
288,64,86089,1,8,0:0:0:0:
288,64,86381,1,8,0:0:0:0:
288,64,86674,1,0,0:0:0:0:
288,64,86967,1,8,0:0:0:0:
288,64,87259,1,8,0:0:0:0:
288,64,87552,1,8,0:0:0:0:
288,64,87845,1,0,0:0:0:0:
288,64,88137,1,0,0:0:0:0:
288,64,88430,1,8,0:0:0:0:
288,64,88723,1,8,0:0:0:0:
288,64,89015,1,0,0:0:0:0:
288,64,89308,1,8,0:0:0:0:
288,64,89601,1,8,0:0:0:0:
288,64,89893,1,8,0:0:0:0:
288,64,90186,1,0,0:0:0:0:
288,64,90332,1,8,0:0:0:0:
288,64,90479,1,8,0:0:0:0:
288,64,90771,1,8,0:0:0:0:
288,64,90918,1,0,0:0:0:0:
288,64,91064,1,8,0:0:0:0:
288,64,91210,1,8,0:0:0:0:
288,64,91357,1,0,0:0:0:0:
288,64,91503,1,8,0:0:0:0:
288,64,91650,1,8,0:0:0:0:
288,64,91942,1,8,0:0:0:0:
288,64,92089,1,0,0:0:0:0:
288,64,92235,1,8,0:0:0:0:
288,64,92381,1,8,0:0:0:0:
288,64,92528,1,0,0:0:0:0:
288,64,92674,1,8,0:0:0:0:
288,64,92747,1,0,0:0:0:0:
288,64,92820,1,8,0:0:0:0:
288,64,92967,1,0,0:0:0:0:
288,64,93113,1,8,0:0:0:0:
288,64,93186,1,8,0:0:0:0:
288,64,93259,1,0,0:0:0:0:
288,64,93332,1,0,0:0:0:0:
288,64,93406,1,8,0:0:0:0:
288,64,93479,1,0,0:0:0:0:
288,64,93552,1,8,0:0:0:0:
158,99,94430,1,0,0:0:0:0:
288,64,94576,1,12,0:0:0:0:
288,64,94869,1,4,0:0:0:0:
256,64,95162,1,8,0:0:0:0:
352,96,95308,1,0,0:0:0:0:
96,128,95454,1,8,0:0:0:0:
288,64,95528,1,0,0:0:0:0:
256,64,95674,1,0,0:0:0:0:
256,64,95747,1,8,0:0:0:0:
256,64,95893,1,8,0:0:0:0:
256,64,96040,1,0,0:0:0:0:
256,64,96186,1,0,0:0:0:0:
256,64,96332,1,8,0:0:0:0:
224,64,96625,1,8,0:0:0:0:
224,64,96698,1,8,0:0:0:0:
224,64,96771,1,0,0:0:0:0:
224,32,96918,1,0,0:0:0:0:
224,64,97064,1,8,0:0:0:0:
224,64,97210,1,0,0:0:0:0:
224,64,97503,1,8,0:0:0:0:
224,64,97650,1,0,0:0:0:0:
224,64,97796,1,8,0:0:0:0:
224,64,97869,1,0,0:0:0:0:
224,64,98015,1,0,0:0:0:0:
224,64,98089,1,8,0:0:0:0:
224,64,98235,1,8,0:0:0:0:
224,64,98381,1,0,0:0:0:0:
224,64,98528,1,0,0:0:0:0:
224,96,98601,1,0,0:0:0:0:
224,96,98674,1,8,0:0:0:0:
96,128,98820,1,0,0:0:0:0:
96,128,98967,1,8,0:0:0:0:
96,128,99113,1,8,0:0:0:0:
96,128,99186,1,0,0:0:0:0:
96,128,99259,1,8,0:0:0:0:
96,128,99406,1,8,0:0:0:0:
96,128,99552,1,0,0:0:0:0:
256,64,99845,1,8,0:0:0:0:
352,96,99991,1,0,0:0:0:0:
96,128,100137,1,8,0:0:0:0:
288,64,100210,1,0,0:0:0:0:
256,64,100357,1,0,0:0:0:0:
256,64,100430,1,8,0:0:0:0:
256,64,100576,1,0,0:0:0:0:
224,96,100650,1,8,0:0:0:0:
256,64,100723,1,0,0:0:0:0:
256,64,100869,1,0,0:0:0:0:
256,64,101015,1,8,0:0:0:0:
224,64,101308,1,8,0:0:0:0:
224,64,101381,1,8,0:0:0:0:
224,64,101454,1,0,0:0:0:0:
224,64,101601,1,0,0:0:0:0:
224,64,101747,1,8,0:0:0:0:
224,64,101893,1,0,0:0:0:0:
224,64,102186,1,8,0:0:0:0:
224,64,102332,1,0,0:0:0:0:
224,64,102479,1,8,0:0:0:0:
256,64,102552,1,0,0:0:0:0:
224,64,102698,1,0,0:0:0:0:
224,64,102771,1,8,0:0:0:0:
224,64,102918,1,0,0:0:0:0:
224,64,102991,1,8,0:0:0:0:
224,64,103064,1,0,0:0:0:0:
224,64,103210,1,0,0:0:0:0:
224,96,103357,1,8,0:0:0:0:
96,128,103503,1,0,0:0:0:0:
96,128,103650,1,8,0:0:0:0:
96,128,103723,1,8,0:0:0:0:
320,32,103796,1,0,0:0:0:0:
96,128,103869,1,0,0:0:0:0:
96,128,103942,1,8,0:0:0:0:
96,128,104089,1,8,0:0:0:0:
288,64,104235,1,4,0:0:0:0:
256,64,104528,1,8,0:0:0:0:
352,96,104674,1,0,0:0:0:0:
96,128,104820,1,8,0:0:0:0:
288,64,104893,1,0,0:0:0:0:
256,96,105040,1,0,0:0:0:0:
256,96,105113,1,8,0:0:0:0:
256,64,105259,1,8,0:0:0:0:
256,64,105406,1,0,0:0:0:0:
256,64,105552,1,0,0:0:0:0:
256,64,105698,1,8,0:0:0:0:
224,64,105991,1,8,0:0:0:0:
224,64,106064,1,8,0:0:0:0:
224,64,106137,1,0,0:0:0:0:
224,64,106284,1,0,0:0:0:0:
224,64,106430,1,8,0:0:0:0:
224,64,106576,1,0,0:0:0:0:
224,64,106869,1,8,0:0:0:0:
224,64,107015,1,0,0:0:0:0:
224,64,107162,1,8,0:0:0:0:
224,64,107235,1,0,0:0:0:0:
224,64,107381,1,0,0:0:0:0:
224,64,107454,1,8,0:0:0:0:
224,64,107601,1,8,0:0:0:0:
224,64,107747,1,0,0:0:0:0:
224,64,107893,1,0,0:0:0:0:
224,96,107967,1,0,0:0:0:0:
224,96,108040,1,8,0:0:0:0:
96,128,108186,1,0,0:0:0:0:
96,128,108332,1,8,0:0:0:0:
96,128,108479,1,8,0:0:0:0:
96,128,108552,1,0,0:0:0:0:
96,128,108625,1,8,0:0:0:0:
96,128,108771,1,8,0:0:0:0:
96,128,108918,1,4,0:0:0:0:
256,64,109210,1,8,0:0:0:0:
352,96,109357,1,0,0:0:0:0:
224,64,109430,1,0,0:0:0:0:
96,128,109503,1,8,0:0:0:0:
288,64,109650,1,0,0:0:0:0:
256,64,109796,1,8,0:0:0:0:
256,64,109942,1,8,0:0:0:0:
256,64,110089,1,4,0:0:0:0:
256,64,110381,1,8,0:0:0:0:
224,64,110528,1,0,0:0:0:0:
224,64,110601,1,8,0:0:0:0:
224,64,110674,1,8,0:0:0:0:
224,64,110820,1,0,0:0:0:0:
224,64,110967,1,8,0:0:0:0:
256,32,111113,1,8,0:0:0:0:
256,32,111259,1,4,0:0:0:0:
256,32,111406,1,8,0:0:0:0:
256,32,111552,1,0,0:0:0:0:
256,32,111625,1,0,0:0:0:0:
224,64,111698,1,8,0:0:0:0:
224,64,111845,1,8,0:0:0:0:
256,64,111918,1,8,0:0:0:0:
256,32,111991,1,0,0:0:0:0:
224,64,112064,1,0,0:0:0:0:
224,64,112137,1,8,0:0:0:0:
256,32,112210,1,0,0:0:0:0:
224,64,112284,1,8,0:0:0:0:
224,64,112430,1,0,0:0:0:0:
256,32,113308,1,12,0:0:0:0:
96,128,113601,1,4,0:0:0:0:
288,96,113747,1,0,0:0:0:0:
288,96,113893,1,8,0:0:0:0:
288,96,114040,1,0,0:0:0:0:
288,96,114186,1,8,0:0:0:0:
288,96,114259,1,8,0:0:0:0:
288,96,114332,1,0,0:0:0:0:
288,96,114479,1,8,0:0:0:0:
288,96,114625,1,0,0:0:0:0:
288,96,114698,1,0,0:0:0:0:
288,96,114771,1,0,0:0:0:0:
288,96,114918,1,0,0:0:0:0:
288,96,115064,1,8,0:0:0:0:
288,96,115210,1,0,0:0:0:0:
288,96,115284,1,0,0:0:0:0:
288,96,115357,1,8,0:0:0:0:
288,96,115503,1,0,0:0:0:0:
288,64,115650,1,8,0:0:0:0:
288,64,115942,1,0,0:0:0:0:
288,64,116089,1,0,0:0:0:0:
288,64,116235,1,8,0:0:0:0:
288,64,116381,1,0,0:0:0:0:
288,64,116528,1,8,0:0:0:0:
288,64,116601,1,8,0:0:0:0:
288,64,116674,1,0,0:0:0:0:
288,64,116820,1,8,0:0:0:0:
288,64,116893,1,0,0:0:0:0:
288,64,116967,1,8,0:0:0:0:
288,64,117113,1,0,0:0:0:0:
288,64,117259,1,8,0:0:0:0:
224,32,117406,1,8,0:0:0:0:
288,64,117552,1,0,0:0:0:0:
288,64,117698,1,8,0:0:0:0:
288,64,117771,1,0,0:0:0:0:
288,64,117845,1,8,0:0:0:0:
288,64,117991,1,8,0:0:0:0:
96,128,118284,1,0,0:0:0:0:
288,96,118430,1,0,0:0:0:0:
288,96,118576,1,8,0:0:0:0:
288,96,118723,1,0,0:0:0:0:
288,96,118869,1,8,0:0:0:0:
288,96,118942,1,8,0:0:0:0:
288,96,119015,1,0,0:0:0:0:
288,96,119162,1,8,0:0:0:0:
288,96,119308,1,0,0:0:0:0:
288,96,119381,1,0,0:0:0:0:
288,96,119454,1,0,0:0:0:0:
288,96,119601,1,0,0:0:0:0:
256,64,119747,1,8,0:0:0:0:
224,32,119893,1,0,0:0:0:0:
256,64,120040,1,8,0:0:0:0:
256,64,120186,1,0,0:0:0:0:
256,64,120259,1,0,0:0:0:0:
256,64,120332,1,8,0:0:0:0:
256,64,120625,1,0,0:0:0:0:
256,64,120771,1,8,0:0:0:0:
256,64,120845,1,0,0:0:0:0:
256,64,120918,1,8,0:0:0:0:
256,64,121064,1,0,0:0:0:0:
256,64,121210,1,8,0:0:0:0:
256,64,121357,1,0,0:0:0:0:
256,64,121503,1,8,0:0:0:0:
256,64,121650,1,8,0:0:0:0:
256,64,121796,1,0,0:0:0:0:
256,64,122674,1,8,0:0:0:0:
256,64,122747,1,8,0:0:0:0:
256,64,122820,1,0,0:0:0:0:
448,32,122967,1,12,0:0:0:0:
256,64,123113,1,0,0:0:0:0:
229,74,123186,1,0,0:0:0:0:
288,96,123259,1,8,0:0:0:0:
288,96,123406,1,0,0:0:0:0:
288,96,123552,1,8,0:0:0:0:
288,96,123625,1,8,0:0:0:0:
288,96,123698,1,0,0:0:0:0:
288,96,123845,1,8,0:0:0:0:
288,96,123991,1,0,0:0:0:0:
288,96,124064,1,8,0:0:0:0:
288,96,124137,1,0,0:0:0:0:
288,96,124284,1,0,0:0:0:0:
288,96,124430,1,8,0:0:0:0:
288,96,124576,1,0,0:0:0:0:
288,64,124650,1,0,0:0:0:0:
288,96,124723,1,8,0:0:0:0:
128,96,124796,1,8,0:0:0:0:
288,96,124869,1,0,0:0:0:0:
288,64,125015,1,8,0:0:0:0:
288,64,125308,1,0,0:0:0:0:
288,64,125454,1,0,0:0:0:0:
288,64,125528,1,0,0:0:0:0:
288,64,125601,1,8,0:0:0:0:
288,64,125747,1,0,0:0:0:0:
288,64,125893,1,8,0:0:0:0:
288,64,125967,1,8,0:0:0:0:
288,64,126040,1,0,0:0:0:0:
288,64,126186,1,8,0:0:0:0:
288,64,126259,1,0,0:0:0:0:
288,64,126332,1,8,0:0:0:0:
288,64,126479,1,0,0:0:0:0:
288,64,126625,1,8,0:0:0:0:
224,32,126771,1,8,0:0:0:0:
288,64,126918,1,0,0:0:0:0:
288,64,127064,1,8,0:0:0:0:
288,64,127137,1,0,0:0:0:0:
288,64,127210,1,8,0:0:0:0:
288,32,127284,1,0,0:0:0:0:
288,64,127357,1,8,0:0:0:0:
96,128,127650,1,4,0:0:0:0:
288,96,127796,1,0,0:0:0:0:
288,96,127942,1,8,0:0:0:0:
288,96,128089,1,0,0:0:0:0:
288,160,128162,1,0,0:0:0:0:
288,96,128235,1,8,0:0:0:0:
288,96,128381,1,0,0:0:0:0:
288,96,128528,1,8,0:0:0:0:
288,96,128601,1,0,0:0:0:0:
288,96,128674,1,8,0:0:0:0:
288,96,128820,1,4,0:0:0:0:
288,96,128967,1,0,0:0:0:0:
256,64,129113,1,8,0:0:0:0:
256,64,129259,1,0,0:0:0:0:
256,64,129406,1,0,0:0:0:0:
320,64,129479,1,8,0:0:0:0:
256,64,129552,1,0,0:0:0:0:
320,64,129698,1,8,0:0:0:0:
256,64,129991,1,0,0:0:0:0:
256,64,130137,1,0,0:0:0:0:
256,64,130210,1,0,0:0:0:0:
256,64,130284,1,8,0:0:0:0:
256,64,130430,1,0,0:0:0:0:
320,96,130576,1,8,0:0:0:0:
320,96,130650,1,8,0:0:0:0:
320,96,130723,1,0,0:0:0:0:
291,77,130796,1,0,0:0:0:0:
256,64,130869,1,8,0:0:0:0:
256,64,131015,1,8,0:0:0:0:
320,96,131089,1,8,0:0:0:0:
256,64,131162,1,0,0:0:0:0:
320,96,131308,1,8,0:0:0:0:
320,96,131381,1,0,0:0:0:0:
320,96,131454,1,8,0:0:0:0:
302,81,131528,1,0,0:0:0:0:
320,96,131601,1,8,0:0:0:0:
297,78,131674,1,8,0:0:0:0:
320,96,131747,1,0,0:0:0:0:
256,64,132040,1,12,0:0:0:0:
448,32,132332,1,4,0:0:0:0:
288,96,132918,1,8,0:0:0:0:
288,96,134089,1,8,0:0:0:0:
288,96,134674,1,0,0:0:0:0:
288,96,135259,1,8,0:0:0:0:
288,96,135845,1,0,0:0:0:0:
288,96,136137,1,0,0:0:0:0:
288,96,136430,1,8,0:0:0:0:
288,96,136723,1,8,0:0:0:0:
288,96,137015,1,0,0:0:0:0:
288,96,137162,1,0,0:0:0:0:
288,96,137308,1,8,0:0:0:0:
288,96,137454,1,0,0:0:0:0:
256,96,137601,1,8,0:0:0:0:
256,96,137820,1,8,0:0:0:0:
256,96,138040,1,8,0:0:0:0:
256,96,138186,1,0,0:0:0:0:
256,96,138332,1,0,0:0:0:0:
256,96,138479,1,8,0:0:0:0:
256,96,138625,1,0,0:0:0:0:
256,96,138771,1,8,0:0:0:0:
256,96,138991,1,8,0:0:0:0:
256,96,139210,1,8,0:0:0:0:
256,96,139357,1,0,0:0:0:0:
256,96,139503,1,0,0:0:0:0:
256,96,139576,1,0,0:0:0:0:
256,96,139650,1,8,0:0:0:0:
256,96,139796,1,0,0:0:0:0:
256,96,139942,1,8,0:0:0:0:
256,96,140015,1,0,0:0:0:0:
256,96,140089,1,0,0:0:0:0:
256,96,140162,1,0,0:0:0:0:
256,96,140235,1,8,0:0:0:0:
256,96,140381,1,0,0:0:0:0:
256,96,140528,1,8,0:0:0:0:
256,96,140601,1,8,0:0:0:0:
256,96,140674,1,0,0:0:0:0:
256,96,140747,1,0,0:0:0:0:
256,96,140820,1,8,0:0:0:0:
256,96,140893,1,0,0:0:0:0:
256,96,140967,1,8,0:0:0:0:
256,96,141113,1,0,0:0:0:0:
256,96,141406,1,12,0:0:0:0:
