osu file format v14

[General]
AudioFilename: audio.mp3
AudioLeadIn: 0
PreviewTime: 93698
Countdown: 0
SampleSet: Normal
StackLeniency: 0.7
Mode: 1
LetterboxInBreaks: 0
WidescreenStoryboard: 1

[Editor]
Bookmarks: 1211,5893,10576,19942,29308,38674,48040,57406,66771,76137,85503,94869,104235,113601,122967,132332
DistanceSpacing: 1.1
BeatDivisor: 4
GridSize: 32
TimelineZoom: 1.6

[Metadata]
Title:Chrome VOX
TitleUnicode:Chrome VOX
Artist:t+pazolite
ArtistUnicode:t+pazolite
Creator:gaston_2199
Version:Muzukashii
Source:Cytus II
Tags:Instrumental Electronic Video Game see you again, HOLLOWood Comiket 94 C94 Rayark tpz hardcore j-core neko OST original sound track soundtrack C.H.S Cutie & Headshaking Sounds CHS-0033 VOEZ ayyri eiri-
BeatmapID:2455778
BeatmapSetID:1176081

[Difficulty]
HPDrainRate:6
CircleSize:2
OverallDifficulty:5
ApproachRate:10
SliderMultiplier:1.4
SliderTickRate:1

[Events]
//Background and Video events
0,0,"BG.jpg",0,-40
//Break Periods
//Storyboard Layer 0 (Background)
//Storyboard Layer 1 (Fail)
//Storyboard Layer 2 (Pass)
//Storyboard Layer 3 (Foreground)
//Storyboard Layer 4 (Overlay)
//Storyboard Sound Samples

[TimingPoints]
1211,292.682926829268,4,1,0,80,1,0
9110,-102.564102564103,4,1,0,71,0,0
9256,-108.108108108108,4,1,0,66,0,0
9403,-111.111111111111,4,1,0,60,0,0
10281,-90.9090909090909,4,1,0,80,0,0
10573,-100,4,1,0,80,0,0
15256,-111.111111111111,4,1,0,80,0,0
16134,-90.9090909090909,4,1,0,80,0,0
16427,-100,4,1,0,80,0,0
29305,-125,4,1,0,70,0,0
38671,-111.111111111111,4,1,0,80,0,0
43354,-100,4,1,0,80,0,0
47744,-90.9090909090909,4,1,0,80,0,0
48037,-100,4,1,0,80,0,0
66183,-107.142857142857,4,1,0,80,0,0
66476,-115.384615384615,4,1,0,80,0,0
66771,-125,4,1,0,70,0,0
75842,-121.212121212121,4,1,0,70,0,0
75988,-114.285714285714,4,1,0,70,0,0
76134,-111.111111111111,4,1,0,80,0,0
90183,-100,4,1,0,80,0,0
94573,-90.9090909090909,4,1,0,80,0,0
94869,-100,4,1,0,90,0,1
103942,-100,4,1,0,90,0,0
104235,-100,4,1,0,90,0,1
112430,-100,4,1,0,80,0,0
113305,-90.9090909090909,4,1,0,80,0,0
113601,-100,4,1,0,90,0,1
121796,-100,4,1,0,80,0,0
122967,-100,4,1,0,90,0,1
132332,-100,4,1,0,70,0,0
132625,-125,4,1,0,70,0,0
137012,-123.809523809524,4,1,0,70,0,0
137305,-122.641509433962,4,1,0,70,0,0
137451,-121.495327102804,4,1,0,70,0,0
137598,-120.37037037037,4,1,0,70,0,0
137817,-119.266055045872,4,1,0,70,0,0
138037,-118.181818181818,4,1,0,70,0,0
138183,-117.117117117117,4,1,0,70,0,0
138476,-116.071428571429,4,1,0,70,0,0
138622,-115.044247787611,4,1,0,70,0,0
138768,-114.035087719298,4,1,0,70,0,0
138988,-113.04347826087,4,1,0,70,0,0
139207,-112.068965517241,4,1,0,70,0,0
139354,-111.111111111111,4,1,0,70,0,0
139647,-110.169491525424,4,1,0,70,0,0
139793,-109.243697478992,4,1,0,70,0,0
139939,-108.333333333333,4,1,0,70,0,0
140086,-107.438016528926,4,1,0,70,0,0
140159,-106.55737704918,4,1,0,70,0,0
140232,-105.691056910569,4,1,0,70,0,0
140378,-104.838709677419,4,1,0,70,0,0
140525,-104,4,1,0,70,0,0
140671,-103.174603174603,4,1,0,70,0,0
140817,-102.362204724409,4,1,0,70,0,0
140890,-101.5625,4,1,0,70,0,0
140964,-100.77519379845,4,1,0,70,0,0
141110,-100,4,1,0,70,0,0
141403,-90.9090909090909,4,1,0,80,0,0

[HitObjects]
256,192,1211,5,4,0:0:0:0:
256,192,1503,1,8,0:0:0:0:
256,96,1796,1,0,0:0:0:0:
256,192,1869,1,0,0:0:0:0:
256,192,1942,1,0,0:0:0:0:
256,192,2089,1,8,0:0:0:0:
256,192,2235,1,8,0:0:0:0:
256,192,2381,1,0,0:0:0:0:
256,192,2674,1,8,0:0:0:0:
288,128,2967,1,0,0:0:0:0:
288,128,3552,1,0,0:0:0:0:
224,64,3845,1,8,0:0:0:0:
224,64,4137,1,8,0:0:0:0:
224,64,4284,1,0,0:0:0:0:
224,64,4430,1,8,0:0:0:0:
224,64,4723,1,0,0:0:0:0:
224,64,5015,1,8,0:0:0:0:
224,64,5162,1,0,0:0:0:0:
224,64,5235,1,0,0:0:0:0:
224,64,5308,1,0,0:0:0:0:
224,64,5601,1,8,0:0:0:0:
224,64,5893,1,4,0:0:0:0:
320,160,6186,1,8,0:0:0:0:
256,96,6479,1,0,0:0:0:0:
320,160,6552,1,0,0:0:0:0:
320,160,6625,1,0,0:0:0:0:
320,160,6771,1,12,0:0:0:0:
320,160,7064,1,0,0:0:0:0:
320,160,7357,1,8,0:0:0:0:
256,96,7650,1,0,0:0:0:0:
256,96,7796,1,0,0:0:0:0:
256,96,7942,1,12,0:0:0:0:
256,96,8235,1,0,0:0:0:0:
256,96,8528,1,8,0:0:0:0:
256,96,8820,1,8,0:0:0:0:
256,96,8967,1,0,0:0:0:0:
256,96,9113,1,8,0:0:0:0:
256,96,9259,1,8,0:0:0:0:
256,96,9406,1,0,0:0:0:0:
256,96,10284,1,12,0:0:0:0:
256,96,10576,1,4,0:0:0:0:
256,96,10869,1,8,0:0:0:0:
256,96,11162,1,0,0:0:0:0:
256,96,11308,1,0,0:0:0:0:
256,96,11454,1,8,0:0:0:0:
288,96,11747,1,0,0:0:0:0:
149,1,12040,1,0,0:0:0:0:
288,96,12186,1,8,0:0:0:0:
288,96,12332,1,0,0:0:0:0:
352,96,12625,1,8,0:0:0:0:
352,96,12918,1,0,0:0:0:0:
352,96,13210,1,8,0:0:0:0:
352,96,13503,1,8,0:0:0:0:
352,96,13650,1,0,0:0:0:0:
352,96,13796,1,8,0:0:0:0:
352,96,14089,1,0,0:0:0:0:
256,96,14235,1,8,0:0:0:0:
256,96,14381,1,0,0:0:0:0:
256,96,14674,1,4,0:0:0:0:
352,96,14967,1,12,0:0:0:0:
320,160,15259,1,0,0:0:0:0:
320,160,15698,1,0,0:0:0:0:
320,160,15845,1,8,0:0:0:0:
320,160,16137,1,12,0:0:0:0:
320,64,16430,1,4,0:0:0:0:
175,105,16723,1,0,0:0:0:0:
320,64,16869,1,8,0:0:0:0:
288,160,17015,1,0,0:0:0:0:
288,160,17308,1,8,0:0:0:0:
288,160,17601,1,0,0:0:0:0:
288,160,17893,1,8,0:0:0:0:
288,160,18186,1,8,0:0:0:0:
288,160,18332,1,0,0:0:0:0:
288,160,18479,1,8,0:0:0:0:
288,160,18771,1,0,0:0:0:0:
288,160,18918,1,8,0:0:0:0:
288,160,19064,1,0,0:0:0:0:
288,160,19210,1,8,0:0:0:0:
288,160,19357,1,0,0:0:0:0:
288,160,19942,1,4,0:0:0:0:
288,160,20235,1,8,0:0:0:0:
320,64,20528,1,0,0:0:0:0:
320,64,20674,1,0,0:0:0:0:
320,64,20820,1,8,0:0:0:0:
320,64,21113,1,0,0:0:0:0:
267,148,21406,1,0,0:0:0:0:
320,64,21552,1,8,0:0:0:0:
320,64,21698,1,0,0:0:0:0:
320,64,21991,1,8,0:0:0:0:
320,64,22284,1,0,0:0:0:0:
320,64,22576,1,8,0:0:0:0:
320,64,22869,1,8,0:0:0:0:
320,64,23015,1,0,0:0:0:0:
320,64,23162,1,8,0:0:0:0:
320,64,23454,1,0,0:0:0:0:
320,64,23601,1,8,0:0:0:0:
320,64,23747,1,0,0:0:0:0:
320,64,24040,1,4,0:0:0:0:
320,64,24332,1,12,0:0:0:0:
320,64,24625,1,0,0:0:0:0:
320,64,25064,1,0,0:0:0:0:
320,64,25210,1,8,0:0:0:0:
320,64,25357,1,0,0:0:0:0:
320,64,25503,1,8,0:0:0:0:
320,64,25796,1,4,0:0:0:0:
173,112,26089,1,8,0:0:0:0:
320,64,26235,1,8,0:0:0:0:
320,64,26381,1,0,0:0:0:0:
320,64,26674,1,8,0:0:0:0:
320,64,26967,1,0,0:0:0:0:
320,64,27259,1,8,0:0:0:0:
320,64,27406,1,0,0:0:0:0:
320,64,27552,1,8,0:0:0:0:
320,64,27625,1,8,0:0:0:0:
320,64,27698,1,8,0:0:0:0:
320,64,27845,1,0,0:0:0:0:
224,288,28137,1,8,0:0:0:0:
320,64,28430,1,0,0:0:0:0:
320,64,28723,1,0,0:0:0:0:
320,64,28869,1,0,0:0:0:0:
320,64,29015,1,8,0:0:0:0:
320,64,29308,1,4,0:0:0:0:
320,64,29893,1,8,0:0:0:0:
320,64,30479,1,0,0:0:0:0:
320,64,30771,1,0,0:0:0:0:
320,64,31064,1,8,0:0:0:0:
320,64,31650,1,0,0:0:0:0:
320,64,32235,1,8,0:0:0:0:
320,64,32820,1,8,0:0:0:0:
320,64,33113,1,0,0:0:0:0:
320,64,33406,1,8,0:0:0:0:
320,64,33991,1,0,0:0:0:0:
320,64,34576,1,8,0:0:0:0:
320,64,35162,1,0,0:0:0:0:
320,64,35454,1,0,0:0:0:0:
320,64,35747,1,8,0:0:0:0:
320,64,36332,1,8,0:0:0:0:
256,192,36918,1,8,0:0:0:0:
320,64,37503,1,0,0:0:0:0:
320,64,37796,1,0,0:0:0:0:
320,64,38089,1,8,0:0:0:0:
320,64,38674,1,4,0:0:0:0:
256,192,39259,1,0,0:0:0:0:
256,192,39552,1,8,0:0:0:0:
256,192,39845,1,0,0:0:0:0:
256,192,40137,1,0,0:0:0:0:
320,64,40430,1,8,0:0:0:0:
352,96,40723,1,8,0:0:0:0:
352,96,41015,1,0,0:0:0:0:
352,96,41601,1,0,0:0:0:0:
256,192,41893,1,8,0:0:0:0:
256,192,42186,1,0,0:0:0:0:
352,128,42479,1,0,0:0:0:0:
256,192,42771,1,8,0:0:0:0:
256,192,43064,1,8,0:0:0:0:
384,64,43357,1,8,0:0:0:0:
384,64,43503,1,8,0:0:0:0:
384,64,43650,1,0,0:0:0:0:
384,64,43942,1,8,0:0:0:0:
384,64,44089,1,8,0:0:0:0:
384,64,44528,1,8,0:0:0:0:
384,64,44674,1,8,0:0:0:0:
274,64,44820,1,0,0:0:0:0:
352,128,45113,1,8,0:0:0:0:
352,128,45406,1,0,0:0:0:0:
256,192,45698,1,8,0:0:0:0:
320,96,45845,1,0,0:0:0:0:
256,192,45991,1,8,0:0:0:0:
243,120,46137,1,8,0:0:0:0:
320,96,46284,1,0,0:0:0:0:
226,89,46357,1,0,0:0:0:0:
320,96,46430,1,0,0:0:0:0:
320,96,46576,1,8,0:0:0:0:
320,96,46723,1,0,0:0:0:0:
182,74,47015,1,0,0:0:0:0:
256,192,47454,1,0,0:0:0:0:
256,192,47747,1,12,0:0:0:0:
256,192,48040,1,4,0:0:0:0:
252,167,48186,1,0,0:0:0:0:
256,192,48332,1,8,0:0:0:0:
256,192,48625,1,8,0:0:0:0:
256,192,48918,1,0,0:0:0:0:
256,192,49064,1,8,0:0:0:0:
242,77,49210,1,0,0:0:0:0:
106,131,49503,1,0,0:0:0:0:
256,192,49796,1,8,0:0:0:0:
256,160,49942,1,0,0:0:0:0:
256,192,50089,1,8,0:0:0:0:
256,160,50381,1,0,0:0:0:0:
256,160,50528,1,0,0:0:0:0:
256,160,50674,1,8,0:0:0:0:
320,96,50967,1,8,0:0:0:0:
320,96,51186,1,0,0:0:0:0:
320,96,51406,1,8,0:0:0:0:
320,96,51698,1,0,0:0:0:0:
278,113,51918,1,0,0:0:0:0:
320,96,52137,1,8,0:0:0:0:
256,192,52723,1,4,0:0:0:0:
256,192,52869,1,0,0:0:0:0:
256,192,53015,1,8,0:0:0:0:
256,192,53308,1,8,0:0:0:0:
256,192,53601,1,0,0:0:0:0:
256,192,53747,1,8,0:0:0:0:
270,161,53893,1,0,0:0:0:0:
106,131,54186,1,0,0:0:0:0:
256,192,54479,1,8,0:0:0:0:
256,160,54625,1,0,0:0:0:0:
256,192,54771,1,8,0:0:0:0:
192,64,55064,1,8,0:0:0:0:
192,64,55210,1,0,0:0:0:0:
192,64,55357,1,8,0:0:0:0:
263,100,55503,1,8,0:0:0:0:
192,64,55650,1,0,0:0:0:0:
192,64,55723,1,0,0:0:0:0:
192,64,55796,1,0,0:0:0:0:
192,64,55942,1,0,0:0:0:0:
192,64,56089,1,8,0:0:0:0:
192,64,56235,1,4,0:0:0:0:
192,64,56820,1,4,0:0:0:0:
192,64,57113,1,12,0:0:0:0:
256,192,57406,1,4,0:0:0:0:
256,192,57552,1,0,0:0:0:0:
256,192,57698,1,8,0:0:0:0:
256,192,57991,1,8,0:0:0:0:
256,192,58284,1,0,0:0:0:0:
256,192,58430,1,8,0:0:0:0:
236,82,58576,1,0,0:0:0:0:
106,131,58869,1,0,0:0:0:0:
256,192,59162,1,8,0:0:0:0:
256,160,59308,1,0,0:0:0:0:
256,192,59454,1,8,0:0:0:0:
256,160,59747,1,0,0:0:0:0:
256,160,59893,1,0,0:0:0:0:
256,160,60040,1,8,0:0:0:0:
320,96,60332,1,8,0:0:0:0:
320,96,60479,1,0,0:0:0:0:
320,96,60552,1,0,0:0:0:0:
320,96,60625,1,0,0:0:0:0:
320,96,60771,1,8,0:0:0:0:
320,96,61064,1,0,0:0:0:0:
251,79,61284,1,0,0:0:0:0:
320,96,61503,1,8,0:0:0:0:
256,192,62089,1,4,0:0:0:0:
256,192,62381,1,8,0:0:0:0:
256,192,62528,1,8,0:0:0:0:
256,192,62674,1,4,0:0:0:0:
256,192,62967,1,8,0:0:0:0:
256,192,63259,1,4,0:0:0:0:
256,192,63552,1,8,0:0:0:0:
256,192,63698,1,8,0:0:0:0:
256,192,63845,1,4,0:0:0:0:
256,192,64137,1,8,0:0:0:0:
192,64,64430,1,8,0:0:0:0:
384,125,64576,1,0,0:0:0:0:
248,140,64723,1,8,0:0:0:0:
275,142,64869,1,8,0:0:0:0:
245,109,65015,1,0,0:0:0:0:
255,147,65089,1,0,0:0:0:0:
262,139,65162,1,0,0:0:0:0:
264,141,65308,1,0,0:0:0:0:
292,153,65454,1,8,0:0:0:0:
192,64,65601,1,4,0:0:0:0:
256,96,66186,1,8,0:0:0:0:
256,96,66479,1,8,0:0:0:0:
256,96,67064,1,0,0:0:0:0:
256,96,67357,1,8,0:0:0:0:
320,96,67796,1,0,0:0:0:0:
320,96,68089,1,0,0:0:0:0:
320,96,68528,1,8,0:0:0:0:
320,96,69406,1,0,0:0:0:0:
320,96,69698,1,8,0:0:0:0:
320,96,70137,1,0,0:0:0:0:
320,96,70430,1,8,0:0:0:0:
224,192,70869,1,8,0:0:0:0:
320,96,71162,1,0,0:0:0:0:
224,192,71747,1,0,0:0:0:0:
224,192,72040,1,8,0:0:0:0:
224,192,72479,1,0,0:0:0:0:
224,192,72771,1,0,0:0:0:0:
224,192,73210,1,8,0:0:0:0:
224,192,74089,1,0,0:0:0:0:
224,192,74381,1,8,0:0:0:0:
224,192,74820,1,8,0:0:0:0:
224,192,75113,1,0,0:0:0:0:
224,192,75552,1,0,0:0:0:0:
224,192,75845,1,8,0:0:0:0:
352,224,75991,1,0,0:0:0:0:
352,224,76137,1,4,0:0:0:0:
256,96,76430,1,8,0:0:0:0:
416,96,76723,1,0,0:0:0:0:
320,96,77015,1,8,0:0:0:0:
288,96,77162,1,0,0:0:0:0:
256,64,77601,1,8,0:0:0:0:
320,96,77893,1,0,0:0:0:0:
320,96,78186,1,8,0:0:0:0:
320,96,78771,1,8,0:0:0:0:
416,96,79064,1,0,0:0:0:0:
320,96,79357,1,8,0:0:0:0:
320,96,79503,1,0,0:0:0:0:
177,96,79796,1,8,0:0:0:0:
288,96,79942,1,8,0:0:0:0:
288,96,80235,1,0,0:0:0:0:
226,98,80381,1,0,0:0:0:0:
288,96,80528,1,8,0:0:0:0:
224,192,81113,1,8,0:0:0:0:
320,64,81406,1,0,0:0:0:0:
288,96,81698,1,8,0:0:0:0:
224,192,81845,1,0,0:0:0:0:
288,96,82284,1,8,0:0:0:0:
288,96,82576,1,0,0:0:0:0:
288,96,82869,1,8,0:0:0:0:
288,96,83454,1,8,0:0:0:0:
224,192,83747,1,0,0:0:0:0:
224,192,84040,1,8,0:0:0:0:
224,192,84186,1,0,0:0:0:0:
206,164,84479,1,0,0:0:0:0:
288,96,84625,1,8,0:0:0:0:
224,192,84771,1,0,0:0:0:0:
224,192,85210,1,8,0:0:0:0:
352,224,85503,1,4,0:0:0:0:
288,64,86089,1,8,0:0:0:0:
288,64,86381,1,8,0:0:0:0:
288,64,86674,1,0,0:0:0:0:
288,64,87259,1,0,0:0:0:0:
288,64,87552,1,8,0:0:0:0:
288,64,87845,1,0,0:0:0:0:
288,64,88430,1,8,0:0:0:0:
288,64,88723,1,8,0:0:0:0:
288,64,89015,1,0,0:0:0:0:
288,64,89601,1,0,0:0:0:0:
288,64,89893,1,8,0:0:0:0:
288,64,90186,1,0,0:0:0:0:
288,64,90479,1,8,0:0:0:0:
288,64,90625,1,0,0:0:0:0:
288,64,90771,1,8,0:0:0:0:
288,64,91064,1,8,0:0:0:0:
288,64,91357,1,0,0:0:0:0:
288,64,91650,1,8,0:0:0:0:
288,64,91796,1,0,0:0:0:0:
288,64,91942,1,8,0:0:0:0:
288,64,92235,1,8,0:0:0:0:
288,64,92528,1,0,0:0:0:0:
288,64,92674,1,0,0:0:0:0:
288,64,92820,1,8,0:0:0:0:
216,83,92967,1,0,0:0:0:0:
288,64,93113,1,8,0:0:0:0:
288,64,93186,1,8,0:0:0:0:
288,64,93259,1,8,0:0:0:0:
288,64,93406,1,0,0:0:0:0:
288,64,93552,1,8,0:0:0:0:
288,64,94576,1,12,0:0:0:0:
288,64,94869,1,4,0:0:0:0:
256,64,95162,1,8,0:0:0:0:
96,128,95454,1,0,0:0:0:0:
151,74,95601,1,0,0:0:0:0:
256,64,95674,1,0,0:0:0:0:
219,64,95747,1,0,0:0:0:0:
256,64,95893,1,8,0:0:0:0:
219,64,96186,1,0,0:0:0:0:
256,64,96332,1,8,0:0:0:0:
224,64,96625,1,0,0:0:0:0:
170,4,96771,1,0,0:0:0:0:
224,64,97064,1,8,0:0:0:0:
224,64,97503,1,8,0:0:0:0:
224,64,97796,1,0,0:0:0:0:
194,32,97942,1,0,0:0:0:0:
224,64,98015,1,0,0:0:0:0:
194,32,98089,1,0,0:0:0:0:
224,64,98235,1,8,0:0:0:0:
224,64,98381,1,0,0:0:0:0:
224,64,98528,1,0,0:0:0:0:
224,96,98674,1,8,0:0:0:0:
96,128,98967,1,8,0:0:0:0:
96,128,99113,1,0,0:0:0:0:
96,128,99259,1,8,0:0:0:0:
96,128,99406,1,8,0:0:0:0:
96,128,99552,1,0,0:0:0:0:
256,64,99845,1,8,0:0:0:0:
96,128,100137,1,0,0:0:0:0:
175,54,100284,1,0,0:0:0:0:
256,64,100357,1,0,0:0:0:0:
175,54,100430,1,0,0:0:0:0:
256,64,100576,1,8,0:0:0:0:
175,54,100869,1,0,0:0:0:0:
256,64,101015,1,8,0:0:0:0:
224,64,101308,1,8,0:0:0:0:
224,64,101454,1,0,0:0:0:0:
224,64,101747,1,8,0:0:0:0:
224,64,102186,1,8,0:0:0:0:
224,64,102479,1,0,0:0:0:0:
213,34,102625,1,0,0:0:0:0:
213,34,102698,1,0,0:0:0:0:
213,34,102771,1,0,0:0:0:0:
224,64,102918,1,8,0:0:0:0:
224,64,103064,1,0,0:0:0:0:
161,43,103210,1,8,0:0:0:0:
224,96,103503,1,0,0:0:0:0:
96,128,103650,1,8,0:0:0:0:
320,32,103796,1,0,0:0:0:0:
96,128,103869,1,0,0:0:0:0:
96,128,103942,1,0,0:0:0:0:
96,128,104089,1,8,0:0:0:0:
288,64,104235,1,4,0:0:0:0:
256,64,104528,1,8,0:0:0:0:
96,128,104820,1,0,0:0:0:0:
145,83,104967,1,0,0:0:0:0:
164,65,105040,1,0,0:0:0:0:
164,65,105113,1,0,0:0:0:0:
256,64,105259,1,8,0:0:0:0:
191,21,105552,1,0,0:0:0:0:
256,64,105698,1,8,0:0:0:0:
224,64,105991,1,0,0:0:0:0:
224,64,106137,1,0,0:0:0:0:
224,64,106430,1,8,0:0:0:0:
224,64,106869,1,8,0:0:0:0:
224,64,107162,1,0,0:0:0:0:
156,25,107308,1,0,0:0:0:0:
224,64,107381,1,0,0:0:0:0:
190,44,107454,1,0,0:0:0:0:
224,64,107601,1,8,0:0:0:0:
224,64,107747,1,0,0:0:0:0:
152,82,107893,1,0,0:0:0:0:
224,96,108040,1,8,0:0:0:0:
96,128,108332,1,8,0:0:0:0:
96,128,108479,1,0,0:0:0:0:
96,128,108625,1,8,0:0:0:0:
96,128,108771,1,8,0:0:0:0:
96,128,108918,1,4,0:0:0:0:
256,64,109210,1,8,0:0:0:0:
352,96,109357,1,0,0:0:0:0:
96,128,109503,1,8,0:0:0:0:
256,64,109796,1,8,0:0:0:0:
256,64,109942,1,8,0:0:0:0:
256,64,110089,1,4,0:0:0:0:
256,64,110381,1,8,0:0:0:0:
224,64,110528,1,0,0:0:0:0:
224,64,110674,1,8,0:0:0:0:
224,64,110967,1,8,0:0:0:0:
256,32,111113,1,8,0:0:0:0:
256,32,111259,1,4,0:0:0:0:
256,32,111552,1,0,0:0:0:0:
228,58,111625,1,0,0:0:0:0:
224,64,111698,1,0,0:0:0:0:
224,64,111845,1,8,0:0:0:0:
256,32,111991,1,0,0:0:0:0:
202,62,112137,1,8,0:0:0:0:
186,23,112210,1,8,0:0:0:0:
202,62,112284,1,8,0:0:0:0:
224,64,112430,1,4,0:0:0:0:
256,32,113308,1,12,0:0:0:0:
96,128,113601,1,4,0:0:0:0:
288,96,113893,1,8,0:0:0:0:
288,96,114040,1,0,0:0:0:0:
288,96,114186,1,8,0:0:0:0:
288,96,114479,1,8,0:0:0:0:
288,96,114625,1,0,0:0:0:0:
288,96,114918,1,0,0:0:0:0:
288,96,115064,1,8,0:0:0:0:
288,96,115210,1,0,0:0:0:0:
197,55,115357,1,0,0:0:0:0:
197,55,115503,1,0,0:0:0:0:
288,64,115650,1,8,0:0:0:0:
288,64,116089,1,0,0:0:0:0:
288,64,116235,1,8,0:0:0:0:
288,64,116381,1,0,0:0:0:0:
288,64,116528,1,8,0:0:0:0:
288,64,116820,1,8,0:0:0:0:
288,64,116967,1,0,0:0:0:0:
288,64,117259,1,8,0:0:0:0:
224,32,117406,1,8,0:0:0:0:
288,64,117552,1,0,0:0:0:0:
288,64,117698,1,8,0:0:0:0:
288,64,117845,1,8,0:0:0:0:
288,64,117991,1,0,0:0:0:0:
96,128,118284,1,0,0:0:0:0:
288,96,118576,1,8,0:0:0:0:
288,96,118723,1,0,0:0:0:0:
288,96,118869,1,8,0:0:0:0:
288,96,119162,1,8,0:0:0:0:
288,96,119308,1,0,0:0:0:0:
288,96,119601,1,8,0:0:0:0:
256,64,119893,1,0,0:0:0:0:
256,64,120040,1,8,0:0:0:0:
256,64,120186,1,0,0:0:0:0:
256,64,120332,1,0,0:0:0:0:
256,64,120771,1,8,0:0:0:0:
256,64,120918,1,8,0:0:0:0:
256,64,121064,1,0,0:0:0:0:
256,64,121210,1,8,0:0:0:0:
170,170,121357,1,0,0:0:0:0:
256,64,121503,1,8,0:0:0:0:
256,64,121796,1,0,0:0:0:0:
256,64,122674,1,8,0:0:0:0:
448,32,122967,1,4,0:0:0:0:
288,96,123259,1,8,0:0:0:0:
288,96,123406,1,0,0:0:0:0:
288,96,123552,1,8,0:0:0:0:
288,96,123845,1,8,0:0:0:0:
288,96,123991,1,0,0:0:0:0:
288,96,124284,1,0,0:0:0:0:
288,96,124430,1,8,0:0:0:0:
280,89,124576,1,0,0:0:0:0:
251,62,124650,1,0,0:0:0:0:
233,46,124723,1,0,0:0:0:0:
233,46,124869,1,0,0:0:0:0:
288,64,125015,1,8,0:0:0:0:
288,64,125454,1,0,0:0:0:0:
288,64,125601,1,8,0:0:0:0:
288,64,125747,1,0,0:0:0:0:
288,64,125893,1,8,0:0:0:0:
288,64,126186,1,8,0:0:0:0:
288,64,126332,1,0,0:0:0:0:
288,64,126625,1,8,0:0:0:0:
224,32,126771,1,8,0:0:0:0:
288,64,126918,1,0,0:0:0:0:
288,64,127064,1,8,0:0:0:0:
275,61,127137,1,8,0:0:0:0:
288,64,127210,1,8,0:0:0:0:
288,64,127357,1,0,0:0:0:0:
96,128,127650,1,4,0:0:0:0:
288,96,127942,1,8,0:0:0:0:
288,96,128089,1,0,0:0:0:0:
288,96,128235,1,8,0:0:0:0:
288,96,128528,1,8,0:0:0:0:
288,96,128674,1,8,0:0:0:0:
288,96,128820,1,4,0:0:0:0:
256,64,129113,1,8,0:0:0:0:
256,64,129406,1,0,0:0:0:0:
256,64,129552,1,0,0:0:0:0:
320,64,129698,1,8,0:0:0:0:
256,64,129991,1,0,0:0:0:0:
213,100,130137,1,0,0:0:0:0:
256,64,130284,1,8,0:0:0:0:
256,64,130430,1,0,0:0:0:0:
320,96,130576,1,8,0:0:0:0:
320,96,130650,1,8,0:0:0:0:
320,96,130723,1,8,0:0:0:0:
256,64,130869,1,8,0:0:0:0:
256,64,131015,1,0,0:0:0:0:
256,64,131089,1,0,0:0:0:0:
251,61,131162,1,0,0:0:0:0:
320,96,131308,1,0,0:0:0:0:
320,96,131454,1,8,0:0:0:0:
320,96,131601,1,8,0:0:0:0:
320,96,131747,1,0,0:0:0:0:
256,64,132040,1,12,0:0:0:0:
448,32,132332,1,4,0:0:0:0:
288,96,132918,1,8,0:0:0:0:
288,96,134089,1,8,0:0:0:0:
288,96,134674,1,0,0:0:0:0:
288,96,135259,1,8,0:0:0:0:
288,96,135845,1,0,0:0:0:0:
288,96,136137,1,0,0:0:0:0:
288,96,136430,1,8,0:0:0:0:
288,96,137015,1,0,0:0:0:0:
288,96,137308,1,8,0:0:0:0:
288,96,137454,1,0,0:0:0:0:
256,96,137601,1,8,0:0:0:0:
256,96,137820,1,8,0:0:0:0:
256,96,138040,1,8,0:0:0:0:
256,96,138186,1,0,0:0:0:0:
256,96,138479,1,8,0:0:0:0:
256,96,138625,1,0,0:0:0:0:
256,96,138771,1,8,0:0:0:0:
256,96,138991,1,8,0:0:0:0:
256,96,139210,1,8,0:0:0:0:
256,96,139357,1,0,0:0:0:0:
256,96,139650,1,8,0:0:0:0:
256,96,139796,1,0,0:0:0:0:
256,96,139942,1,8,0:0:0:0:
256,96,140089,1,0,0:0:0:0:
256,96,140162,1,0,0:0:0:0:
256,96,140235,1,0,0:0:0:0:
256,96,140381,1,0,0:0:0:0:
256,96,140528,1,8,0:0:0:0:
256,96,140674,1,0,0:0:0:0:
256,96,140820,1,8,0:0:0:0:
256,96,140893,1,8,0:0:0:0:
256,96,140967,1,8,0:0:0:0:
256,96,141113,1,0,0:0:0:0:
256,96,141406,1,12,0:0:0:0:
