osu file format v14

[General]
AudioFilename: audio.mp3
AudioLeadIn: 0
PreviewTime: 93698
Countdown: 0
SampleSet: Normal
StackLeniency: 0.7
Mode: 1
LetterboxInBreaks: 0
WidescreenStoryboard: 1

[Editor]
Bookmarks: 1211,5893,10576,19942,29308,38674,48040,57406,66771,76137,85503,94869,104235,113601,122967,132332
DistanceSpacing: 1.1
BeatDivisor: 4
GridSize: 32
TimelineZoom: 1.8

[Metadata]
Title:Chrome VOX
TitleUnicode:Chrome VOX
Artist:t+pazolite
ArtistUnicode:t+pazolite
Creator:gaston_2199
Version:Kantan
Source:Cytus II
Tags:Instrumental Electronic Video Game see you again, HOLLOWood Comiket 94 C94 Rayark tpz hardcore j-core neko OST original sound track soundtrack C.H.S Cutie & Headshaking Sounds CHS-0033 VOEZ ayyri eiri-
BeatmapID:2456136
BeatmapSetID:1176081

[Difficulty]
HPDrainRate:8
CircleSize:2
OverallDifficulty:3
ApproachRate:10
SliderMultiplier:1.4
SliderTickRate:1

[Events]
//Background and Video events
0,0,"BG.jpg",0,-40
//Break Periods
//Storyboard Layer 0 (Background)
//Storyboard Layer 1 (Fail)
//Storyboard Layer 2 (Pass)
//Storyboard Layer 3 (Foreground)
//Storyboard Layer 4 (Overlay)
//Storyboard Sound Samples

[TimingPoints]
1211,292.682926829268,4,1,0,80,1,0
9552,-100,4,1,0,60,0,0
10576,-100,4,1,0,80,0,0
29308,-100,4,1,0,70,0,0
38674,-100,4,1,0,80,0,0
66771,-100,4,1,0,70,0,0
76137,-100,4,1,0,80,0,0
94869,-100,4,1,0,90,0,1
103942,-100,4,1,0,90,0,0
104235,-100,4,1,0,90,0,1
112430,-100,4,1,0,80,0,0
113601,-100,4,1,0,90,0,1
121796,-100,4,1,0,80,0,0
122967,-100,4,1,0,90,0,1
132332,-100,4,1,0,70,0,0
141406,-100,4,1,0,80,0,0

[HitObjects]
256,192,1211,5,4,0:0:0:0:
174,100,1796,1,0,0:0:0:0:
256,192,2089,1,8,0:0:0:0:
256,192,2381,1,0,0:0:0:0:
271,93,2967,1,8,0:0:0:0:
288,128,3552,1,0,0:0:0:0:
224,64,4430,1,8,0:0:0:0:
224,64,4723,1,0,0:0:0:0:
224,64,5015,1,0,0:0:0:0:
116,154,5308,1,8,0:0:0:0:
224,64,5893,1,4,0:0:0:0:
147,113,6479,1,0,0:0:0:0:
320,160,6771,1,12,0:0:0:0:
320,160,7064,1,0,0:0:0:0:
256,96,7942,1,12,0:0:0:0:
256,96,8235,1,0,0:0:0:0:
256,96,8820,1,0,0:0:0:0:
256,96,9113,1,8,0:0:0:0:
256,96,9406,1,0,0:0:0:0:
256,96,10284,1,12,0:0:0:0:
256,96,10576,1,4,0:0:0:0:
256,96,11162,1,0,0:0:0:0:
288,96,11747,1,8,0:0:0:0:
352,96,12918,1,0,0:0:0:0:
210,57,13503,1,8,0:0:0:0:
352,96,14089,1,0,0:0:0:0:
301,51,14967,1,12,0:0:0:0:
320,160,16137,1,12,0:0:0:0:
320,64,16430,1,4,0:0:0:0:
288,160,17601,1,0,0:0:0:0:
288,160,18186,1,8,0:0:0:0:
288,160,18771,1,0,0:0:0:0:
288,160,19064,1,0,0:0:0:0:
288,160,19357,1,8,0:0:0:0:
288,160,19942,1,4,0:0:0:0:
320,64,20528,1,0,0:0:0:0:
320,64,21113,1,8,0:0:0:0:
320,64,22284,1,0,0:0:0:0:
320,64,22869,1,8,0:0:0:0:
320,64,23454,1,0,0:0:0:0:
320,64,24332,1,12,0:0:0:0:
320,64,25210,1,0,0:0:0:0:
320,64,25503,1,8,0:0:0:0:
320,64,25796,1,4,0:0:0:0:
188,46,26381,1,0,0:0:0:0:
320,64,26967,1,0,0:0:0:0:
320,64,27552,1,8,0:0:0:0:
224,288,28137,1,0,0:0:0:0:
320,64,29015,1,8,0:0:0:0:
320,64,29308,1,4,0:0:0:0:
320,64,30479,1,0,0:0:0:0:
320,64,31650,1,0,0:0:0:0:
320,64,32820,1,0,0:0:0:0:
320,64,33991,1,8,0:0:0:0:
320,64,35162,1,0,0:0:0:0:
320,64,36332,1,8,0:0:0:0:
320,64,37503,1,0,0:0:0:0:
320,64,38674,1,4,0:0:0:0:
256,192,39845,1,0,0:0:0:0:
320,64,40430,1,8,0:0:0:0:
352,96,41015,1,0,0:0:0:0:
256,192,42186,1,0,0:0:0:0:
256,192,42771,1,8,0:0:0:0:
384,64,43357,1,8,0:0:0:0:
384,64,43942,1,8,0:0:0:0:
384,64,44528,1,8,0:0:0:0:
160,75,45113,1,0,0:0:0:0:
256,192,45698,1,8,0:0:0:0:
223,65,45991,1,0,0:0:0:0:
320,96,46284,1,8,0:0:0:0:
320,96,46576,1,8,0:0:0:0:
256,192,47747,1,12,0:0:0:0:
256,192,48040,1,4,0:0:0:0:
256,192,48625,1,8,0:0:0:0:
256,192,49796,1,8,0:0:0:0:
256,160,50381,1,0,0:0:0:0:
320,96,50967,1,8,0:0:0:0:
320,96,52137,1,0,0:0:0:0:
188,22,52430,1,8,0:0:0:0:
256,192,52723,1,4,0:0:0:0:
256,192,53308,1,8,0:0:0:0:
256,192,54479,1,8,0:0:0:0:
192,64,55064,1,0,0:0:0:0:
192,64,55650,1,0,0:0:0:0:
192,64,55942,1,8,0:0:0:0:
192,64,56235,1,4,0:0:0:0:
192,64,57113,1,12,0:0:0:0:
256,192,57406,1,4,0:0:0:0:
256,192,57991,1,8,0:0:0:0:
256,192,59162,1,8,0:0:0:0:
256,160,59747,1,0,0:0:0:0:
320,96,60332,1,8,0:0:0:0:
320,96,60625,1,0,0:0:0:0:
320,96,61503,1,0,0:0:0:0:
191,55,61796,1,8,0:0:0:0:
256,192,62089,1,4,0:0:0:0:
256,192,62674,1,4,0:0:0:0:
256,192,63259,1,4,0:0:0:0:
123,140,63845,1,4,0:0:0:0:
192,64,64430,1,8,0:0:0:0:
192,64,65015,1,0,0:0:0:0:
192,64,65308,1,8,0:0:0:0:
192,64,65601,1,4,0:0:0:0:
256,96,67357,1,8,0:0:0:0:
320,96,68528,1,0,0:0:0:0:
320,96,69698,1,8,0:0:0:0:
224,192,70869,1,0,0:0:0:0:
224,192,72040,1,8,0:0:0:0:
224,192,73210,1,0,0:0:0:0:
224,192,74381,1,0,0:0:0:0:
224,192,75552,1,8,0:0:0:0:
352,224,76137,1,4,0:0:0:0:
256,96,76723,1,8,0:0:0:0:
288,96,77308,1,0,0:0:0:0:
320,96,78186,1,8,0:0:0:0:
173,106,78479,1,0,0:0:0:0:
213,82,79064,1,8,0:0:0:0:
177,96,79650,1,0,0:0:0:0:
248,120,80528,1,8,0:0:0:0:
288,96,80820,1,8,0:0:0:0:
288,96,81406,1,8,0:0:0:0:
401,26,81991,1,0,0:0:0:0:
288,96,82869,1,8,0:0:0:0:
276,52,83162,1,0,0:0:0:0:
224,192,83747,1,8,0:0:0:0:
224,192,84332,1,0,0:0:0:0:
224,192,84918,1,8,0:0:0:0:
352,224,85503,1,4,0:0:0:0:
288,64,86674,1,8,0:0:0:0:
288,64,87845,1,0,0:0:0:0:
288,64,89015,1,8,0:0:0:0:
288,64,90186,1,0,0:0:0:0:
288,64,90771,1,8,0:0:0:0:
288,64,91357,1,0,0:0:0:0:
288,64,91942,1,8,0:0:0:0:
288,64,92528,1,0,0:0:0:0:
288,64,92820,1,8,0:0:0:0:
288,64,93113,1,8,0:0:0:0:
142,13,93406,1,0,0:0:0:0:
288,64,94576,1,12,0:0:0:0:
288,64,94869,1,4,0:0:0:0:
96,128,95454,1,8,0:0:0:0:
129,107,96040,1,0,0:0:0:0:
256,64,96332,1,8,0:0:0:0:
224,64,97210,1,0,0:0:0:0:
174,35,97796,1,8,0:0:0:0:
224,64,98381,1,0,0:0:0:0:
96,128,98967,1,0,0:0:0:0:
96,128,99259,1,8,0:0:0:0:
96,128,99552,1,0,0:0:0:0:
96,128,100137,1,8,0:0:0:0:
363,20,100723,1,0,0:0:0:0:
256,64,101015,1,8,0:0:0:0:
224,64,101893,1,0,0:0:0:0:
224,64,102479,1,8,0:0:0:0:
224,64,103064,1,0,0:0:0:0:
96,128,103650,1,8,0:0:0:0:
96,128,103942,1,8,0:0:0:0:
288,64,104235,1,4,0:0:0:0:
96,128,104820,1,8,0:0:0:0:
369,4,105406,1,0,0:0:0:0:
256,64,105698,1,8,0:0:0:0:
224,64,106576,1,0,0:0:0:0:
224,64,107162,1,8,0:0:0:0:
224,64,107747,1,0,0:0:0:0:
96,128,108332,1,0,0:0:0:0:
96,128,108625,1,8,0:0:0:0:
96,128,108918,1,4,0:0:0:0:
256,64,109503,1,8,0:0:0:0:
256,64,110089,1,4,0:0:0:0:
256,64,110674,1,8,0:0:0:0:
256,32,111259,1,4,0:0:0:0:
121,12,111552,1,0,0:0:0:0:
224,64,111845,1,8,0:0:0:0:
172,68,112137,1,8,0:0:0:0:
224,64,112430,1,4,0:0:0:0:
96,128,113601,1,4,0:0:0:0:
288,96,114186,1,8,0:0:0:0:
288,96,114771,1,0,0:0:0:0:
288,96,115357,1,0,0:0:0:0:
131,53,115650,1,8,0:0:0:0:
288,64,116528,1,0,0:0:0:0:
288,64,117113,1,8,0:0:0:0:
276,14,117698,1,0,0:0:0:0:
288,64,117991,1,8,0:0:0:0:
96,128,118284,1,0,0:0:0:0:
288,96,118869,1,8,0:0:0:0:
288,96,119454,1,0,0:0:0:0:
256,64,120040,1,8,0:0:0:0:
256,64,120332,1,0,0:0:0:0:
256,64,121210,1,8,0:0:0:0:
256,64,121796,1,0,0:0:0:0:
448,32,122967,1,4,0:0:0:0:
288,96,123552,1,8,0:0:0:0:
288,96,124137,1,0,0:0:0:0:
233,46,124723,1,0,0:0:0:0:
288,64,125015,1,8,0:0:0:0:
288,64,125893,1,0,0:0:0:0:
288,64,126479,1,8,0:0:0:0:
288,64,127064,1,8,0:0:0:0:
288,64,127357,1,8,0:0:0:0:
96,128,127650,1,4,0:0:0:0:
288,96,128235,1,0,0:0:0:0:
288,96,128528,1,8,0:0:0:0:
288,96,128820,1,0,0:0:0:0:
256,64,129406,1,8,0:0:0:0:
256,64,129991,1,0,0:0:0:0:
140,130,130284,1,0,0:0:0:0:
320,96,130576,1,8,0:0:0:0:
173,46,130869,1,0,0:0:0:0:
173,46,131454,1,0,0:0:0:0:
320,96,131747,1,8,0:0:0:0:
161,49,132040,1,12,0:0:0:0:
448,32,132332,1,4,0:0:0:0:
288,96,134674,1,0,0:0:0:0:
288,96,135845,1,8,0:0:0:0:
288,96,137015,1,0,0:0:0:0:
256,96,137601,1,8,0:0:0:0:
256,96,138186,1,0,0:0:0:0:
256,96,138771,1,8,0:0:0:0:
256,96,139357,1,0,0:0:0:0:
419,81,139650,1,0,0:0:0:0:
256,96,139942,1,8,0:0:0:0:
256,96,140235,1,8,0:0:0:0:
256,96,140528,1,0,0:0:0:0:
256,96,141113,1,0,0:0:0:0:
256,96,141406,1,12,0:0:0:0:
