osu file format v14

[General]
AudioFilename: audio.mp3
AudioLeadIn: 0
PreviewTime: 93698
Countdown: 0
SampleSet: Normal
StackLeniency: 0.7
Mode: 1
LetterboxInBreaks: 0
WidescreenStoryboard: 0

[Editor]
Bookmarks: 1211,5893,10576,19942,29308,38674,48040,57406,66771,76137,85503,94869,104235,113601,122967,132332
DistanceSpacing: 1.1
BeatDivisor: 4
GridSize: 32
TimelineZoom: 2.2

[Metadata]
Title:Chrome VOX
TitleUnicode:Chrome VOX
Artist:t+pazolite
ArtistUnicode:t+pazolite
Creator:gaston_2199
Version:Glitch
Source:Cytus II
Tags:Instrumental Electronic Video Game see you again, HOLLOWood Comiket 94 C94 Rayark tpz hardcore j-core neko OST original sound track soundtrack C.H.S Cutie & Headshaking Sounds CHS-0033 VOEZ ayyri eiri-
BeatmapID:2452993
BeatmapSetID:1176081

[Difficulty]
HPDrainRate:6
CircleSize:2
OverallDifficulty:7
ApproachRate:10
SliderMultiplier:1.4
SliderTickRate:1

[Events]
//Background and Video events
0,0,"BG.jpg",0,-40
//Break Periods
//Storyboard Layer 0 (Background)
//Storyboard Layer 1 (Fail)
//Storyboard Layer 2 (Pass)
//Storyboard Layer 3 (Foreground)
//Storyboard Layer 4 (Overlay)
//Storyboard Sound Samples

[TimingPoints]
1211,292.682926829268,4,1,0,80,1,0
1650,-102.564102564103,4,1,0,80,0,0
1723,-105.263157894737,4,1,0,80,0,0
1796,-108.108108108108,4,1,0,80,0,0
1866,-111.111111111111,4,1,0,80,0,0
1939,-114.285714285714,4,1,0,80,0,0
2012,-117.647058823529,4,1,0,80,0,0
2086,-121.212121212121,4,1,0,80,0,0
2232,-125,4,1,0,80,0,0
2378,-100,4,1,0,80,0,0
3110,-107.142857142857,4,1,0,80,0,0
3256,-115.384615384615,4,1,0,80,0,0
3403,-125,4,1,0,80,0,0
3549,-100,4,1,0,80,0,0
5012,-102.941176470588,4,1,0,80,0,0
5086,-106.060606060606,4,1,0,80,0,0
5159,-109.375,4,1,0,80,0,0
5232,-112.903225806452,4,1,0,80,0,0
5305,-116.666666666667,4,1,0,80,0,0
5378,-120.689655172414,4,1,0,80,0,0
5451,-125,4,1,0,80,0,0
5598,-83.3333333333333,4,1,0,80,0,0
5890,-100,4,1,0,80,0,0
6768,-83.3333333333333,4,1,0,80,0,0
7061,-100,4,1,0,80,0,0
7793,-105.263157894737,4,1,0,80,0,0
7939,-66.6666666666667,4,1,0,80,0,0
8232,-100,4,1,0,80,0,0
8964,-102.941176470588,4,1,0,77,0,0
9037,-106.060606060606,4,1,0,74,0,0
9110,-109.375,4,1,0,71,0,0
9183,-112.903225806452,4,1,0,69,0,0
9256,-116.666666666667,4,1,0,66,0,0
9329,-120.689655172414,4,1,0,63,0,0
9403,-125,4,1,0,60,0,0
10281,-50,4,1,0,80,0,0
10573,-100,4,1,0,80,0,0
11890,-105.263157894737,4,1,0,80,0,0
12037,-111.111111111111,4,1,0,80,0,0
12183,-117.647058823529,4,1,0,80,0,0
12329,-125,4,1,0,80,0,0
12622,-133.333333333333,4,1,0,80,0,0
12915,-100,4,1,0,80,0,0
14086,-102.272727272727,4,1,0,80,0,0
14159,-104.651162790698,4,1,0,80,0,0
14232,-107.142857142857,4,1,0,80,0,0
14305,-109.756097560976,4,1,0,80,0,0
14378,-112.5,4,1,0,80,0,0
14525,-115.384615384615,4,1,0,80,0,0
14598,-118.421052631579,4,1,0,80,0,0
14671,-121.621621621622,4,1,0,80,0,0
14817,-125,4,1,0,80,0,0
14964,-83.3333333333333,4,1,0,80,0,0
15256,-125,4,1,0,80,0,0
16134,-66.6666666666667,4,1,0,80,0,0
16427,-100,4,1,0,80,0,0
16573,-105.263157894737,4,1,0,80,0,0
16720,-111.111111111111,4,1,0,80,0,0
16866,-117.647058823529,4,1,0,80,0,0
17012,-125,4,1,0,80,0,0
17305,-133.333333333333,4,1,0,80,0,0
17598,-100,4,1,0,80,0,0
18768,-98.2142857142857,4,1,0,80,0,0
18842,-96.4912280701754,4,1,0,80,0,0
18915,-94.8275862068966,4,1,0,80,0,0
18988,-93.2203389830509,4,1,0,80,0,0
19061,-91.6666666666667,4,1,0,80,0,0
19134,-90.1639344262295,4,1,0,80,0,0
19207,-88.7096774193548,4,1,0,80,0,0
19281,-87.3015873015873,4,1,0,80,0,0
19354,-85.9375,4,1,0,80,0,0
19500,-84.6153846153846,4,1,0,80,0,0
19647,-83.3333333333333,4,1,0,80,0,0
19939,-100,4,1,0,80,0,0
21256,-105.263157894737,4,1,0,80,0,0
21403,-111.111111111111,4,1,0,80,0,0
21549,-117.647058823529,4,1,0,80,0,0
21695,-125,4,1,0,80,0,0
21988,-133.333333333333,4,1,0,80,0,0
22281,-100,4,1,0,80,0,0
23451,-102.272727272727,4,1,0,80,0,0
23524,-104.651162790698,4,1,0,80,0,0
23597,-107.142857142857,4,1,0,80,0,0
23670,-109.756097560976,4,1,0,80,0,0
23743,-112.5,4,1,0,80,0,0
23890,-115.384615384615,4,1,0,80,0,0
23963,-118.421052631579,4,1,0,80,0,0
24036,-121.621621621622,4,1,0,80,0,0
24182,-125,4,1,0,80,0,0
24329,-83.3333333333333,4,1,0,80,0,0
24622,-125,4,1,0,80,0,0
24915,-122.222222222222,4,1,0,80,0,0
24988,-119.565217391304,4,1,0,80,0,0
25061,-117.021276595745,4,1,0,80,0,0
25134,-114.583333333333,4,1,0,80,0,0
25207,-112.244897959184,4,1,0,80,0,0
25281,-110,4,1,0,80,0,0
25427,-107.843137254902,4,1,0,80,0,0
25500,-105.769230769231,4,1,0,80,0,0
25573,-103.77358490566,4,1,0,80,0,0
25720,-101.851851851852,4,1,0,80,0,0
25793,-100,4,1,0,80,0,0
25939,-105.263157894737,4,1,0,80,0,0
26086,-111.111111111111,4,1,0,80,0,0
26232,-117.647058823529,4,1,0,80,0,0
26378,-125,4,1,0,80,0,0
26671,-133.333333333333,4,1,0,80,0,0
26964,-100,4,1,0,80,0,0
27549,-97.8260869565217,4,1,0,80,0,0
27622,-95.7446808510638,4,1,0,80,0,0
27695,-93.75,4,1,0,80,0,0
27768,-91.8367346938776,4,1,0,80,0,0
27842,-90,4,1,0,80,0,0
27915,-88.2352941176471,4,1,0,80,0,0
27988,-86.5384615384615,4,1,0,80,0,0
28061,-84.9056603773585,4,1,0,80,0,0
28134,-83.3333333333333,4,1,0,80,0,0
28427,-100,4,1,0,80,0,0
28573,-98.3606557377049,4,1,0,80,0,0
28720,-96.7741935483871,4,1,0,80,0,0
28793,-95.2380952380952,4,1,0,80,0,0
28866,-93.75,4,1,0,80,0,0
28939,-92.3076923076923,4,1,0,80,0,0
29012,-90.9090909090909,4,1,0,80,0,0
29305,-125,4,1,0,70,0,0
38086,-83.3333333333333,4,1,0,80,0,0
38671,-111.111111111111,4,1,0,80,0,0
43354,-100,4,1,0,80,0,0
45695,-98.8372093023256,4,1,0,80,0,0
45768,-97.7011494252874,4,1,0,80,0,0
45842,-96.5909090909091,4,1,0,80,0,0
45915,-95.5056179775281,4,1,0,80,0,0
45988,-94.4444444444444,4,1,0,80,0,0
46061,-93.4065934065934,4,1,0,80,0,0
46134,-92.3913043478261,4,1,0,80,0,0
46207,-91.3978494623656,4,1,0,80,0,0
46281,-90.4255319148936,4,1,0,80,0,0
46354,-89.4736842105263,4,1,0,80,0,0
46427,-88.5416666666667,4,1,0,80,0,0
46500,-87.6288659793814,4,1,0,80,0,0
46573,-86.734693877551,4,1,0,80,0,0
46647,-85.8585858585859,4,1,0,80,0,0
46720,-85,4,1,0,80,0,0
46793,-84.1584158415842,4,1,0,80,0,0
46866,-125,4,1,0,80,0,0
47744,-50,4,1,0,80,0,0
48037,-90.9090909090909,4,1,0,80,0,0
48183,-91.6666666666667,4,1,0,80,0,0
48256,-92.436974789916,4,1,0,80,0,0
48329,-93.2203389830509,4,1,0,80,0,0
48476,-94.017094017094,4,1,0,80,0,0
48622,-94.8275862068965,4,1,0,80,0,0
48768,-95.6521739130435,4,1,0,80,0,0
48842,-96.4912280701754,4,1,0,80,0,0
48918,-97.3451327433628,4,1,0,80,0,0
49061,-98.2142857142857,4,1,0,80,0,0
49134,-99.0990990990991,4,1,0,80,0,0
49207,-100,4,1,0,80,0,0
49647,-98.7654320987654,4,1,0,80,0,0
49720,-97.5609756097561,4,1,0,80,0,0
49793,-96.3855421686747,4,1,0,80,0,0
49939,-95.2380952380952,4,1,0,80,0,0
50086,-94.1176470588235,4,1,0,80,0,0
50159,-93.0232558139535,4,1,0,80,0,0
50232,-91.9540229885057,4,1,0,80,0,0
50378,-90.9090909090909,4,1,0,80,0,0
50525,-91.6030534351145,4,1,0,80,0,0
50598,-92.3076923076923,4,1,0,80,0,0
50671,-93.0232558139535,4,1,0,80,0,0
50817,-93.75,4,1,0,80,0,0
50964,-94.488188976378,4,1,0,80,0,0
51113,-95.2380952380952,4,1,0,80,0,0
51186,-96,4,1,0,80,0,0
51259,-96.7741935483871,4,1,0,80,0,0
51332,-97.5609756097561,4,1,0,80,0,0
51403,-98.3606557377049,4,1,0,80,0,0
51476,-99.1735537190083,4,1,0,80,0,0
51552,-100,4,1,0,80,0,0
51698,-111.111111111111,4,1,0,80,0,0
51771,-108.910891089109,4,1,0,80,0,0
51845,-106.796116504854,4,1,0,80,0,0
51918,-104.761904761905,4,1,0,80,0,0
51991,-102.803738317757,4,1,0,80,0,0
52134,-100.917431192661,4,1,0,80,0,0
52281,-99.0990990990991,4,1,0,80,0,0
52354,-97.3451327433628,4,1,0,80,0,0
52427,-95.6521739130435,4,1,0,80,0,0
52500,-94.017094017094,4,1,0,80,0,0
52573,-92.436974789916,4,1,0,80,0,0
52720,-90.9090909090909,4,1,0,80,0,0
52866,-91.6666666666667,4,1,0,80,0,0
52939,-92.436974789916,4,1,0,80,0,0
53012,-93.2203389830509,4,1,0,80,0,0
53159,-94.017094017094,4,1,0,80,0,0
53305,-94.8275862068965,4,1,0,80,0,0
53451,-95.6521739130435,4,1,0,80,0,0
53525,-96.4912280701754,4,1,0,80,0,0
53601,-97.3451327433628,4,1,0,80,0,0
53744,-98.2142857142857,4,1,0,80,0,0
53817,-99.0990990990991,4,1,0,80,0,0
53890,-100,4,1,0,80,0,0
54329,-98.7124463519313,4,1,0,80,0,0
54402,-97.4576271186441,4,1,0,80,0,0
54475,-96.234309623431,4,1,0,80,0,0
54621,-95.0413223140496,4,1,0,80,0,0
54768,-93.8775510204082,4,1,0,80,0,0
54841,-92.741935483871,4,1,0,80,0,0
54914,-91.6334661354582,4,1,0,80,0,0
55060,-90.5511811023622,4,1,0,80,0,0
55134,-89.4941634241245,4,1,0,80,0,0
55207,-88.4615384615385,4,1,0,80,0,0
55281,-87.4524714828897,4,1,0,80,0,0
55354,-86.4661654135338,4,1,0,80,0,0
55427,-85.5018587360595,4,1,0,80,0,0
55500,-84.5588235294118,4,1,0,80,0,0
55573,-83.6363636363636,4,1,0,80,0,0
55647,-82.7338129496403,4,1,0,80,0,0
55720,-81.8505338078292,4,1,0,80,0,0
55793,-80.9859154929577,4,1,0,80,0,0
55866,-80.1393728222996,4,1,0,80,0,0
55939,-79.3103448275862,4,1,0,80,0,0
56012,-78.4982935153584,4,1,0,80,0,0
56086,-77.7027027027027,4,1,0,80,0,0
56232,-76.9230769230769,4,1,0,80,0,0
56528,-83.3333333333333,4,1,0,80,0,0
56820,-90.9090909090909,4,1,0,80,0,0
57110,-50,4,1,0,80,0,0
57403,-90.9090909090909,4,1,0,80,0,0
57549,-91.6030534351145,4,1,0,80,0,0
57622,-92.3076923076923,4,1,0,80,0,0
57695,-93.0232558139535,4,1,0,80,0,0
57842,-93.75,4,1,0,80,0,0
57988,-94.488188976378,4,1,0,80,0,0
58061,-95.2380952380952,4,1,0,80,0,0
58134,-96,4,1,0,80,0,0
58207,-96.7741935483871,4,1,0,80,0,0
58281,-97.5609756097561,4,1,0,80,0,0
58427,-98.3606557377049,4,1,0,80,0,0
58500,-99.1735537190083,4,1,0,80,0,0
58573,-100,4,1,0,80,0,0
59012,-98.9010989010989,4,1,0,80,0,0
59086,-97.8260869565217,4,1,0,80,0,0
59159,-96.7741935483871,4,1,0,80,0,0
59232,-95.7446808510638,4,1,0,80,0,0
59305,-94.7368421052632,4,1,0,80,0,0
59451,-93.75,4,1,0,80,0,0
59525,-92.7835051546392,4,1,0,80,0,0
59598,-91.8367346938775,4,1,0,80,0,0
59744,-90.9090909090909,4,1,0,80,0,0
59890,-91.5492957746479,4,1,0,80,0,0
59964,-92.1985815602837,4,1,0,80,0,0
60037,-92.8571428571428,4,1,0,80,0,0
60183,-93.5251798561151,4,1,0,80,0,0
60329,-94.2028985507246,4,1,0,80,0,0
60403,-94.8905109489051,4,1,0,80,0,0
60476,-95.5882352941176,4,1,0,80,0,0
60549,-96.2962962962963,4,1,0,80,0,0
60622,-97.0149253731343,4,1,0,80,0,0
60695,-97.7443609022557,4,1,0,80,0,0
60768,-98.4848484848485,4,1,0,80,0,0
60842,-99.236641221374,4,1,0,80,0,0
60915,-100,4,1,0,80,0,0
61061,-111.111111111111,4,1,0,80,0,0
61134,-109.090909090909,4,1,0,80,0,0
61207,-107.142857142857,4,1,0,80,0,0
61281,-105.263157894737,4,1,0,80,0,0
61354,-103.448275862069,4,1,0,80,0,0
61427,-101.694915254237,4,1,0,80,0,0
61500,-100,4,1,0,80,0,0
61647,-98.3606557377049,4,1,0,80,0,0
61720,-96.7741935483871,4,1,0,80,0,0
61793,-95.2380952380952,4,1,0,80,0,0
61866,-93.75,4,1,0,80,0,0
61939,-92.3076923076923,4,1,0,80,0,0
62086,-90.9090909090909,4,1,0,80,0,0
64501,-89.8203592814371,4,1,0,80,0,0
64574,-88.7573964497041,4,1,0,80,0,0
64650,-87.719298245614,4,1,0,80,0,0
64723,-86.7052023121387,4,1,0,80,0,0
64796,-85.7142857142857,4,1,0,80,0,0
64867,-84.7457627118644,4,1,0,80,0,0
64942,-83.7988826815643,4,1,0,80,0,0
65014,-82.8729281767956,4,1,0,80,0,0
65087,-81.9672131147541,4,1,0,80,0,0
65160,-81.0810810810811,4,1,0,80,0,0
65233,-80.2139037433155,4,1,0,80,0,0
65306,-79.3650793650794,4,1,0,80,0,0
65379,-78.5340314136126,4,1,0,80,0,0
65453,-77.720207253886,4,1,0,80,0,0
65598,-76.9230769230769,4,1,0,80,0,0
65890,-100,4,1,0,80,0,0
66037,-103.448275862069,4,1,0,80,0,0
66183,-107.142857142857,4,1,0,80,0,0
66329,-111.111111111111,4,1,0,80,0,0
66476,-115.384615384615,4,1,0,80,0,0
66622,-120,4,1,0,80,0,0
66771,-125,4,1,0,70,0,0
75842,-121.212121212121,4,1,0,80,0,0
75915,-117.647058823529,4,1,0,80,0,0
75988,-114.285714285714,4,1,0,80,0,0
76134,-111.111111111111,4,1,0,80,0,0
90183,-100,4,1,0,80,0,0
92524,-98.8372093023256,4,1,0,80,0,0
92597,-97.7011494252874,4,1,0,80,0,0
92671,-96.5909090909091,4,1,0,80,0,0
92744,-95.5056179775281,4,1,0,80,0,0
92817,-94.4444444444444,4,1,0,80,0,0
92890,-93.4065934065934,4,1,0,80,0,0
92963,-92.3913043478261,4,1,0,80,0,0
93036,-91.3978494623656,4,1,0,80,0,0
93110,-90.4255319148936,4,1,0,80,0,0
93183,-89.4736842105263,4,1,0,80,0,0
93256,-88.5416666666667,4,1,0,80,0,0
93329,-87.6288659793814,4,1,0,80,0,0
93402,-86.734693877551,4,1,0,80,0,0
93476,-85.8585858585859,4,1,0,80,0,0
93549,-85,4,1,0,80,0,0
93622,-84.1584158415842,4,1,0,80,0,0
93695,-125,4,1,0,80,0,0
94573,-50,4,1,0,80,0,0
94869,-100,4,1,0,90,0,1
97354,-98.3606557377049,4,1,0,90,0,1
97427,-96.7741935483871,4,1,0,90,0,1
97500,-95.2380952380952,4,1,0,90,0,1
97647,-93.75,4,1,0,90,0,1
97720,-92.3076923076923,4,1,0,90,0,1
97793,-90.9090909090909,4,1,0,90,0,1
97866,-89.5522388059701,4,1,0,90,0,1
98012,-88.2352941176471,4,1,0,90,0,1
98086,-86.9565217391304,4,1,0,90,0,1
98232,-85.7142857142857,4,1,0,90,0,1
98305,-84.5070422535211,4,1,0,90,0,1
98378,-83.3333333333333,4,1,0,90,0,1
98525,-84.4155844155844,4,1,0,90,0,1
98573,-85.5263157894737,4,1,0,90,0,1
98622,-86.6666666666667,4,1,0,90,0,1
98671,-87.8378378378378,4,1,0,90,0,1
98817,-89.041095890411,4,1,0,90,0,1
98890,-90.2777777777778,4,1,0,90,0,1
98964,-91.5492957746479,4,1,0,90,0,1
99037,-92.8571428571429,4,1,0,90,0,1
99110,-94.2028985507246,4,1,0,90,0,1
99183,-95.5882352941176,4,1,0,90,0,1
99256,-97.0149253731343,4,1,0,90,0,1
99403,-98.4848484848485,4,1,0,90,0,1
99549,-100,4,1,0,90,0,1
102037,-98.4848484848485,4,1,0,90,0,1
102110,-97.0149253731343,4,1,0,90,0,1
102183,-95.5882352941176,4,1,0,90,0,1
102329,-94.2028985507246,4,1,0,90,0,1
102403,-92.8571428571429,4,1,0,90,0,1
102476,-91.5492957746479,4,1,0,90,0,1
102549,-90.2777777777778,4,1,0,90,0,1
102695,-87.8378378378378,4,1,0,90,0,1
102768,-86.6666666666667,4,1,0,90,0,1
102915,-85.5263157894737,4,1,0,90,0,1
102988,-84.4155844155844,4,1,0,90,0,1
103061,-83.3333333333333,4,1,0,90,0,1
103207,-84.4155844155844,4,1,0,90,0,1
103281,-85.5263157894737,4,1,0,90,0,1
103354,-86.6666666666667,4,1,0,90,0,1
103500,-87.8378378378378,4,1,0,90,0,1
103573,-89.041095890411,4,1,0,90,0,1
103647,-90.2777777777778,4,1,0,90,0,1
103720,-91.5492957746479,4,1,0,90,0,1
103793,-92.8571428571429,4,1,0,90,0,1
103842,-94.2028985507246,4,1,0,90,0,1
103890,-95.5882352941176,4,1,0,90,0,1
103942,-97.0149253731343,4,1,0,90,0,0
104086,-98.4848484848485,4,1,0,90,0,0
104235,-100,4,1,0,90,0,1
106720,-98.4848484848485,4,1,0,90,0,1
106793,-97.0149253731343,4,1,0,90,0,1
106866,-95.5882352941176,4,1,0,90,0,1
107012,-94.2028985507246,4,1,0,90,0,1
107086,-92.8571428571429,4,1,0,90,0,1
107159,-91.5492957746479,4,1,0,90,0,1
107232,-90.2777777777778,4,1,0,90,0,1
107378,-87.8378378378378,4,1,0,90,0,1
107451,-86.6666666666667,4,1,0,90,0,1
107598,-85.5263157894737,4,1,0,90,0,1
107671,-84.4155844155844,4,1,0,90,0,1
107744,-83.3333333333333,4,1,0,90,0,1
107890,-84.3373493975904,4,1,0,90,0,1
107939,-85.3658536585366,4,1,0,90,0,1
107988,-86.4197530864198,4,1,0,90,0,1
108037,-87.5,4,1,0,90,0,1
108183,-88.6075949367089,4,1,0,90,0,1
108256,-89.7435897435897,4,1,0,90,0,1
108329,-90.9090909090909,4,1,0,90,0,1
108403,-92.1052631578947,4,1,0,90,0,1
108476,-93.3333333333333,4,1,0,90,0,1
108549,-94.5945945945946,4,1,0,90,0,1
108622,-95.8904109589041,4,1,0,90,0,1
108768,-98.5915492957747,4,1,0,90,0,1
108915,-100,4,1,0,90,0,1
109061,-99.1735537190083,4,1,0,90,0,1
109134,-98.3606557377049,4,1,0,90,0,1
109207,-97.5609756097561,4,1,0,90,0,1
109354,-96.7741935483871,4,1,0,90,0,1
109427,-96,4,1,0,90,0,1
109500,-95.2380952380952,4,1,0,90,0,1
109647,-94.488188976378,4,1,0,90,0,1
109720,-93.75,4,1,0,90,0,1
109793,-93.0232558139535,4,1,0,90,0,1
109939,-92.3076923076923,4,1,0,90,0,1
110086,-90.9090909090909,4,1,0,90,0,1
110232,-90.2255639097744,4,1,0,90,0,1
110305,-89.5522388059701,4,1,0,90,0,1
110378,-88.8888888888889,4,1,0,90,0,1
110525,-88.2352941176471,4,1,0,90,0,1
110598,-87.5912408759124,4,1,0,90,0,1
110671,-86.9565217391304,4,1,0,90,0,1
110817,-86.3309352517986,4,1,0,90,0,1
110890,-85.7142857142857,4,1,0,90,0,1
110964,-85.1063829787234,4,1,0,90,0,1
111110,-84.5070422535211,4,1,0,90,0,1
111256,-83.3333333333333,4,1,0,90,0,1
111329,-82.9015544041451,4,1,0,90,0,1
111403,-82.4742268041237,4,1,0,90,0,1
111476,-82.0512820512821,4,1,0,90,0,1
111549,-81.6326530612245,4,1,0,90,0,1
111622,-81.2182741116751,4,1,0,90,0,1
111695,-80.8080808080808,4,1,0,90,0,1
111768,-80.4020100502513,4,1,0,90,0,1
111842,-80,4,1,0,90,0,1
111915,-79.6019900497512,4,1,0,90,0,1
111988,-79.2079207920792,4,1,0,90,0,1
112061,-78.8177339901478,4,1,0,90,0,1
112134,-78.4313725490196,4,1,0,90,0,1
112207,-78.0487804878049,4,1,0,90,0,1
112281,-77.6699029126214,4,1,0,90,0,1
112354,-77.2946859903382,4,1,0,90,0,1
112430,-76.9230769230769,4,1,0,80,0,0
112573,-81.6326530612245,4,1,0,80,0,0
112720,-86.9565217391304,4,1,0,80,0,0
112866,-93.0232558139535,4,1,0,80,0,0
113159,-111.111111111111,4,1,0,80,0,0
113305,-50,4,1,0,80,0,0
113601,-90.9090909090909,4,1,0,90,0,1
121796,-90.9090909090909,4,1,0,80,0,0
122671,-76.9230769230769,4,1,0,80,0,0
122720,-80,4,1,0,80,0,0
122768,-83.3333333333333,4,1,0,80,0,0
122817,-86.9565217391304,4,1,0,80,0,0
122967,-90.9090909090909,4,1,0,90,0,1
127793,-90.5587668593449,4,1,0,90,0,1
127866,-90.21113243762,4,1,0,90,0,1
127939,-89.8661567877629,4,1,0,90,0,1
128086,-89.5238095238095,4,1,0,90,0,1
128162,-89.1840607210626,4,1,0,90,0,1
128232,-88.8468809073724,4,1,0,90,0,1
128305,-88.5122410546139,4,1,0,90,0,1
128378,-88.1801125703565,4,1,0,90,0,1
128525,-87.8504672897196,4,1,0,90,0,1
128598,-87.5232774674115,4,1,0,90,0,1
128671,-87.1985157699443,4,1,0,90,0,1
128817,-86.8761552680222,4,1,0,90,0,1
128964,-86.5561694290976,4,1,0,90,0,1
129110,-86.2385321100917,4,1,0,90,0,1
129256,-85.9232175502742,4,1,0,90,0,1
129329,-85.6102003642987,4,1,0,90,0,1
129403,-85.2994555353902,4,1,0,90,0,1
129476,-84.9909584086799,4,1,0,90,0,1
129549,-84.6846846846847,4,1,0,90,0,1
129695,-84.3806104129264,4,1,0,90,0,1
129771,-84.0787119856887,4,1,0,90,0,1
129842,-83.7789661319073,4,1,0,90,0,1
129988,-83.4813499111901,4,1,0,90,0,1
130061,-83.1858407079646,4,1,0,90,0,1
130134,-82.8924162257496,4,1,0,90,0,1
130207,-82.6010544815466,4,1,0,90,0,1
130281,-82.3117338003503,4,1,0,90,0,1
130354,-82.0244328097731,4,1,0,90,0,1
130427,-81.7391304347826,4,1,0,90,0,1
130500,-81.4558058925477,4,1,0,90,0,1
130573,-81.174438687392,4,1,0,90,0,1
130647,-80.895008605852,4,1,0,90,0,1
130720,-80.6174957118353,4,1,0,90,0,1
130793,-80.3418803418803,4,1,0,90,0,1
130866,-80.0681431005111,4,1,0,90,0,1
130939,-79.7962648556876,4,1,0,90,0,1
131012,-79.5262267343486,4,1,0,90,0,1
131086,-79.2580101180438,4,1,0,90,0,1
131159,-78.9915966386555,4,1,0,90,0,1
131232,-78.7269681742043,4,1,0,90,0,1
131305,-78.4641068447412,4,1,0,90,0,1
131378,-78.2029950083195,4,1,0,90,0,1
131451,-77.9436152570481,4,1,0,90,0,1
131525,-77.6859504132231,4,1,0,90,0,1
131598,-77.4299835255354,4,1,0,90,0,1
131671,-77.175697865353,4,1,0,90,0,1
131744,-76.9230769230769,4,1,0,90,0,1
132332,-66.6666666666667,4,1,0,70,0,0
132625,-142.857142857143,4,1,0,70,0,0
137012,-123.655913978495,4,1,0,70,0,0
137159,-122.340425531915,4,1,0,70,0,0
137305,-121.052631578947,4,1,0,70,0,0
137451,-119.791666666667,4,1,0,70,0,0
137598,-118.556701030928,4,1,0,70,0,0
137744,-117.34693877551,4,1,0,70,0,0
137817,-116.161616161616,4,1,0,70,0,0
137964,-115,4,1,0,70,0,0
138037,-113.861386138614,4,1,0,70,0,0
138113,-112.745098039216,4,1,0,70,0,0
138183,-111.650485436893,4,1,0,70,0,0
138329,-110.576923076923,4,1,0,70,0,0
138476,-109.52380952381,4,1,0,70,0,0
138622,-108.490566037736,4,1,0,70,0,0
138768,-107.476635514019,4,1,0,70,0,0
138915,-106.481481481481,4,1,0,70,0,0
138988,-105.504587155963,4,1,0,70,0,0
139134,-104.545454545455,4,1,0,70,0,0
139207,-103.603603603604,4,1,0,70,0,0
139284,-102.678571428571,4,1,0,70,0,0
139354,-101.769911504425,4,1,0,70,0,0
139427,-100.877192982456,4,1,0,70,0,0
139500,-100,4,1,0,70,0,0
139573,-99.1379310344828,4,1,0,70,0,0
139647,-98.2905982905983,4,1,0,70,0,0
139720,-97.4576271186441,4,1,0,70,0,0
139793,-96.6386554621849,4,1,0,70,0,0
139866,-95.8333333333333,4,1,0,70,0,0
139939,-95.0413223140496,4,1,0,70,0,0
140012,-94.2622950819672,4,1,0,70,0,0
140086,-93.4959349593496,4,1,0,70,0,0
140159,-92.741935483871,4,1,0,70,0,0
140232,-92,4,1,0,70,0,0
140305,-91.2698412698413,4,1,0,70,0,0
140378,-90.5511811023622,4,1,0,70,0,0
140451,-89.84375,4,1,0,70,0,0
140525,-89.1472868217054,4,1,0,70,0,0
140573,-88.4615384615385,4,1,0,70,0,0
140622,-87.7862595419847,4,1,0,70,0,0
140671,-87.1212121212121,4,1,0,70,0,0
140744,-86.4661654135338,4,1,0,70,0,0
140817,-85.8208955223881,4,1,0,70,0,0
140890,-85.1851851851852,4,1,0,70,0,0
140964,-84.5588235294118,4,1,0,70,0,0
141037,-83.9416058394161,4,1,0,70,0,0
141110,-83.3333333333333,4,1,0,70,0,0
141403,-50,4,1,0,80,0,0

[HitObjects]
256,192,1211,5,4,0:0:0:0:
256,192,1357,1,0,0:0:0:0:
256,192,1503,1,8,0:0:0:0:
256,192,1650,1,0,0:0:0:0:
256,96,1723,1,0,0:0:0:0:
256,96,1796,1,8,0:0:0:0:
256,192,1869,1,0,0:0:0:0:
256,192,1942,1,0,0:0:0:0:
256,192,2015,1,0,0:0:0:0:
256,192,2089,1,8,0:0:0:0:
256,192,2235,1,8,0:0:0:0:
256,192,2381,1,0,0:0:0:0:
256,192,2528,1,0,0:0:0:0:
256,192,2674,1,8,0:0:0:0:
288,128,2820,1,0,0:0:0:0:
288,128,2893,1,0,0:0:0:0:
288,128,2967,1,8,0:0:0:0:
288,128,3113,1,8,0:0:0:0:
288,128,3259,1,8,0:0:0:0:
288,128,3406,1,8,0:0:0:0:
288,128,3552,1,0,0:0:0:0:
224,64,3698,1,0,0:0:0:0:
224,64,3845,1,8,0:0:0:0:
224,64,3991,1,0,0:0:0:0:
224,64,4064,1,0,0:0:0:0:
224,64,4137,1,8,0:0:0:0:
224,64,4284,1,0,0:0:0:0:
224,64,4357,1,0,0:0:0:0:
224,64,4430,1,8,0:0:0:0:
224,64,4576,1,0,0:0:0:0:
224,64,4650,1,8,0:0:0:0:
224,64,4723,1,0,0:0:0:0:
224,64,4869,1,0,0:0:0:0:
224,64,5015,1,8,0:0:0:0:
224,64,5089,1,8,0:0:0:0:
224,64,5162,1,0,0:0:0:0:
224,64,5235,1,0,0:0:0:0:
224,64,5308,1,8,0:0:0:0:
224,64,5381,1,0,0:0:0:0:
224,64,5454,1,0,0:0:0:0:
224,64,5601,1,8,0:0:0:0:
224,64,5893,1,4,0:0:0:0:
224,64,6040,1,0,0:0:0:0:
320,160,6186,1,8,0:0:0:0:
320,160,6332,1,0,0:0:0:0:
256,96,6406,1,0,0:0:0:0:
256,96,6479,1,8,0:0:0:0:
320,160,6552,1,0,0:0:0:0:
320,160,6625,1,0,0:0:0:0:
320,160,6771,1,12,0:0:0:0:
320,160,7064,1,0,0:0:0:0:
320,160,7210,1,0,0:0:0:0:
320,160,7357,1,8,0:0:0:0:
256,96,7503,1,0,0:0:0:0:
256,96,7576,1,0,0:0:0:0:
256,96,7650,1,8,0:0:0:0:
256,96,7796,1,0,0:0:0:0:
256,96,7942,1,12,0:0:0:0:
256,96,8235,1,0,0:0:0:0:
256,96,8381,1,0,0:0:0:0:
256,96,8528,1,8,0:0:0:0:
256,96,8674,1,0,0:0:0:0:
256,96,8747,1,0,0:0:0:0:
256,96,8820,1,8,0:0:0:0:
256,96,8967,1,8,0:0:0:0:
256,96,9040,1,0,0:0:0:0:
256,96,9113,1,8,0:0:0:0:
256,96,9186,1,0,0:0:0:0:
256,96,9259,1,8,0:0:0:0:
256,96,9332,1,0,0:0:0:0:
256,96,9406,1,0,0:0:0:0:
256,96,10284,1,12,0:0:0:0:
256,96,10576,1,4,0:0:0:0:
256,96,10723,1,0,0:0:0:0:
256,96,10869,1,8,0:0:0:0:
256,96,11015,1,0,0:0:0:0:
288,96,11089,1,0,0:0:0:0:
256,96,11162,1,0,0:0:0:0:
256,96,11308,1,0,0:0:0:0:
256,96,11454,1,8,0:0:0:0:
256,96,11601,1,0,0:0:0:0:
288,96,11674,1,0,0:0:0:0:
288,96,11747,1,8,0:0:0:0:
292,235,11893,1,8,0:0:0:0:
292,235,12040,1,0,0:0:0:0:
288,96,12186,1,8,0:0:0:0:
288,96,12332,1,0,0:0:0:0:
352,96,12625,1,8,0:0:0:0:
352,96,12918,1,0,0:0:0:0:
352,96,13064,1,0,0:0:0:0:
352,96,13210,1,8,0:0:0:0:
352,96,13357,1,0,0:0:0:0:
352,96,13430,1,0,0:0:0:0:
352,96,13503,1,8,0:0:0:0:
352,96,13650,1,0,0:0:0:0:
352,96,13796,1,8,0:0:0:0:
292,235,13869,1,8,0:0:0:0:
256,96,13942,1,0,0:0:0:0:
352,96,14089,1,0,0:0:0:0:
256,96,14162,1,8,0:0:0:0:
256,96,14235,1,8,0:0:0:0:
256,96,14308,1,0,0:0:0:0:
256,96,14381,1,8,0:0:0:0:
256,96,14528,1,8,0:0:0:0:
256,96,14601,1,8,0:0:0:0:
256,96,14674,1,0,0:0:0:0:
352,96,14820,1,0,0:0:0:0:
352,96,14967,1,12,0:0:0:0:
320,160,15259,1,8,0:0:0:0:
320,160,15406,1,0,0:0:0:0:
320,160,15552,1,0,0:0:0:0:
320,160,15698,1,0,0:0:0:0:
320,160,15845,1,8,0:0:0:0:
320,160,16137,1,12,0:0:0:0:
320,64,16430,1,12,0:0:0:0:
292,235,16576,1,8,0:0:0:0:
292,235,16723,1,0,0:0:0:0:
320,64,16869,1,8,0:0:0:0:
288,160,17015,1,0,0:0:0:0:
288,160,17308,1,8,0:0:0:0:
288,160,17601,1,0,0:0:0:0:
288,160,17747,1,0,0:0:0:0:
288,160,17893,1,8,0:0:0:0:
288,160,18040,1,0,0:0:0:0:
288,160,18113,1,0,0:0:0:0:
288,160,18186,1,8,0:0:0:0:
288,160,18332,1,0,0:0:0:0:
288,160,18479,1,8,0:0:0:0:
288,160,18552,1,8,0:0:0:0:
292,235,18625,1,8,0:0:0:0:
288,160,18771,1,0,0:0:0:0:
288,160,18845,1,8,0:0:0:0:
288,160,18918,1,8,0:0:0:0:
288,160,18991,1,0,0:0:0:0:
288,160,19064,1,8,0:0:0:0:
288,160,19137,1,0,0:0:0:0:
288,160,19210,1,8,0:0:0:0:
288,160,19284,1,8,0:0:0:0:
288,160,19357,1,0,0:0:0:0:
288,160,19503,1,0,0:0:0:0:
288,160,19650,1,8,0:0:0:0:
288,160,19942,1,4,0:0:0:0:
288,160,20089,1,0,0:0:0:0:
288,160,20235,1,8,0:0:0:0:
320,64,20381,1,0,0:0:0:0:
320,64,20454,1,0,0:0:0:0:
320,64,20528,1,0,0:0:0:0:
320,64,20674,1,0,0:0:0:0:
320,64,20820,1,8,0:0:0:0:
320,64,20967,1,0,0:0:0:0:
320,64,21040,1,0,0:0:0:0:
320,64,21113,1,8,0:0:0:0:
292,235,21259,1,8,0:0:0:0:
292,235,21406,1,0,0:0:0:0:
320,64,21552,1,8,0:0:0:0:
320,64,21698,1,0,0:0:0:0:
320,64,21991,1,8,0:0:0:0:
320,64,22284,1,0,0:0:0:0:
320,64,22430,1,0,0:0:0:0:
320,64,22576,1,8,0:0:0:0:
320,64,22723,1,0,0:0:0:0:
320,64,22796,1,0,0:0:0:0:
320,64,22869,1,8,0:0:0:0:
320,64,23015,1,0,0:0:0:0:
320,64,23162,1,8,0:0:0:0:
292,235,23235,1,8,0:0:0:0:
320,64,23308,1,0,0:0:0:0:
320,64,23454,1,0,0:0:0:0:
320,64,23528,1,8,0:0:0:0:
320,64,23601,1,8,0:0:0:0:
320,64,23674,1,0,0:0:0:0:
320,64,23747,1,8,0:0:0:0:
320,64,23893,1,8,0:0:0:0:
320,64,23967,1,8,0:0:0:0:
320,64,24040,1,0,0:0:0:0:
320,64,24186,1,0,0:0:0:0:
320,64,24332,1,12,0:0:0:0:
320,64,24625,1,8,0:0:0:0:
320,64,24771,1,0,0:0:0:0:
320,64,24918,1,0,0:0:0:0:
320,64,24991,1,0,0:0:0:0:
320,64,25064,1,8,0:0:0:0:
320,64,25137,1,8,0:0:0:0:
320,64,25210,1,8,0:0:0:0:
320,64,25284,1,0,0:0:0:0:
320,64,25430,1,0,0:0:0:0:
320,64,25503,1,8,0:0:0:0:
320,64,25576,1,0,0:0:0:0:
320,64,25723,1,0,0:0:0:0:
320,64,25796,1,12,0:0:0:0:
320,64,25942,1,0,0:0:0:0:
320,64,26089,1,8,0:0:0:0:
320,64,26235,1,8,0:0:0:0:
320,64,26381,1,0,0:0:0:0:
320,64,26674,1,8,0:0:0:0:
320,64,26967,1,0,0:0:0:0:
292,235,27113,1,0,0:0:0:0:
292,235,27186,1,0,0:0:0:0:
320,64,27259,1,8,0:0:0:0:
320,64,27406,1,0,0:0:0:0:
320,64,27552,1,8,0:0:0:0:
320,64,27625,1,8,0:0:0:0:
320,64,27698,1,0,0:0:0:0:
320,64,27771,1,0,0:0:0:0:
320,64,27845,1,8,0:0:0:0:
320,64,27918,1,0,0:0:0:0:
320,64,27991,1,0,0:0:0:0:
256,192,28064,1,0,0:0:0:0:
224,288,28137,1,8,0:0:0:0:
320,64,28430,1,0,0:0:0:0:
320,64,28576,1,8,0:0:0:0:
320,64,28723,1,0,0:0:0:0:
320,64,28796,1,0,0:0:0:0:
320,64,28869,1,0,0:0:0:0:
320,64,28942,1,0,0:0:0:0:
320,64,29015,1,8,0:0:0:0:
320,64,29308,1,4,0:0:0:0:
320,64,29893,1,8,0:0:0:0:
320,64,30479,1,0,0:0:0:0:
320,64,30771,1,0,0:0:0:0:
320,64,31064,1,8,0:0:0:0:
320,64,31357,1,8,0:0:0:0:
320,64,31650,1,0,0:0:0:0:
256,192,31942,1,0,0:0:0:0:
320,64,32235,1,8,0:0:0:0:
256,192,32528,1,8,0:0:0:0:
320,64,32820,1,8,0:0:0:0:
320,64,33113,1,0,0:0:0:0:
320,64,33406,1,8,0:0:0:0:
320,64,33698,1,8,0:0:0:0:
320,64,33991,1,0,0:0:0:0:
320,64,34576,1,8,0:0:0:0:
320,64,35162,1,0,0:0:0:0:
320,64,35454,1,0,0:0:0:0:
320,64,35747,1,8,0:0:0:0:
320,64,36040,1,8,0:0:0:0:
320,64,36332,1,0,0:0:0:0:
256,192,36625,1,8,0:0:0:0:
256,192,36918,1,0,0:0:0:0:
256,192,37210,1,8,0:0:0:0:
320,64,37503,1,0,0:0:0:0:
320,64,37796,1,0,0:0:0:0:
320,64,38089,1,8,0:0:0:0:
320,64,38235,1,0,0:0:0:0:
320,64,38381,1,8,0:0:0:0:
320,64,38674,1,4,0:0:0:0:
256,192,38967,1,8,0:0:0:0:
256,192,39113,1,0,0:0:0:0:
256,192,39259,1,8,0:0:0:0:
256,192,39552,1,8,0:0:0:0:
256,192,39845,1,0,0:0:0:0:
256,192,39991,1,0,0:0:0:0:
256,192,40137,1,8,0:0:0:0:
352,96,40284,1,0,0:0:0:0:
320,64,40430,1,8,0:0:0:0:
352,96,40576,1,8,0:0:0:0:
352,96,40723,1,0,0:0:0:0:
352,96,41015,1,8,0:0:0:0:
352,96,41308,1,8,0:0:0:0:
352,96,41454,1,0,0:0:0:0:
352,96,41601,1,8,0:0:0:0:
256,192,41893,1,8,0:0:0:0:
256,192,42186,1,0,0:0:0:0:
352,128,42332,1,0,0:0:0:0:
352,128,42479,1,8,0:0:0:0:
352,128,42625,1,0,0:0:0:0:
256,192,42771,1,8,0:0:0:0:
352,128,42918,1,8,0:0:0:0:
256,192,43064,1,0,0:0:0:0:
384,64,43357,1,8,0:0:0:0:
384,64,43503,1,8,0:0:0:0:
384,64,43650,1,8,0:0:0:0:
384,64,43796,1,0,0:0:0:0:
384,64,43942,1,8,0:0:0:0:
384,64,44089,1,8,0:0:0:0:
384,64,44235,1,0,0:0:0:0:
384,64,44381,1,0,0:0:0:0:
384,64,44528,1,8,0:0:0:0:
384,64,44674,1,8,0:0:0:0:
384,64,44820,1,0,0:0:0:0:
384,64,44893,1,8,0:0:0:0:
384,64,44967,1,0,0:0:0:0:
346,59,45040,1,0,0:0:0:0:
352,128,45113,1,8,0:0:0:0:
352,128,45259,1,0,0:0:0:0:
329,111,45332,1,0,0:0:0:0:
352,128,45406,1,8,0:0:0:0:
256,192,45552,1,0,0:0:0:0:
256,192,45698,1,8,0:0:0:0:
320,96,45771,1,0,0:0:0:0:
320,96,45845,1,8,0:0:0:0:
320,96,45918,1,8,0:0:0:0:
256,192,45991,1,0,0:0:0:0:
320,96,46064,1,8,0:0:0:0:
320,96,46137,1,0,0:0:0:0:
256,192,46210,1,0,0:0:0:0:
320,96,46284,1,8,0:0:0:0:
320,96,46357,1,0,0:0:0:0:
320,96,46430,1,8,0:0:0:0:
320,96,46503,1,8,0:0:0:0:
320,96,46576,1,0,0:0:0:0:
320,96,46650,1,0,0:0:0:0:
320,96,46723,1,8,0:0:0:0:
256,192,46796,1,0,0:0:0:0:
256,192,47015,1,0,0:0:0:0:
256,192,47162,1,8,0:0:0:0:
256,192,47308,1,0,0:0:0:0:
256,192,47454,1,8,0:0:0:0:
256,192,47747,1,12,0:0:0:0:
256,192,48040,1,4,0:0:0:0:
256,192,48186,1,8,0:0:0:0:
256,192,48259,1,0,0:0:0:0:
256,192,48332,1,8,0:0:0:0:
256,192,48479,1,0,0:0:0:0:
256,192,48625,1,8,0:0:0:0:
256,192,48771,1,0,0:0:0:0:
256,192,48845,1,8,0:0:0:0:
256,160,48918,1,0,0:0:0:0:
256,192,49064,1,8,0:0:0:0:
256,192,49137,1,8,0:0:0:0:
256,192,49210,1,0,0:0:0:0:
256,192,49357,1,0,0:0:0:0:
256,192,49430,1,8,0:0:0:0:
256,192,49503,1,0,0:0:0:0:
256,192,49650,1,0,0:0:0:0:
256,192,49723,1,0,0:0:0:0:
256,192,49796,1,8,0:0:0:0:
256,192,49942,1,0,0:0:0:0:
256,192,50089,1,8,0:0:0:0:
256,160,50162,1,8,0:0:0:0:
256,160,50235,1,8,0:0:0:0:
256,160,50381,1,0,0:0:0:0:
256,160,50528,1,8,0:0:0:0:
256,160,50601,1,0,0:0:0:0:
256,160,50674,1,8,0:0:0:0:
320,96,50820,1,0,0:0:0:0:
320,96,50967,1,8,0:0:0:0:
320,96,51113,1,0,0:0:0:0:
320,96,51186,1,8,0:0:0:0:
320,96,51259,1,0,0:0:0:0:
284,84,51332,1,0,0:0:0:0:
320,96,51406,1,8,0:0:0:0:
320,96,51479,1,8,0:0:0:0:
320,96,51698,1,8,0:0:0:0:
320,96,51771,1,0,0:0:0:0:
320,96,51845,1,0,0:0:0:0:
320,96,51918,1,8,0:0:0:0:
320,96,51991,1,0,0:0:0:0:
320,96,52137,1,8,0:0:0:0:
320,96,52284,1,8,0:0:0:0:
320,96,52357,1,0,0:0:0:0:
320,96,52430,1,8,0:0:0:0:
320,96,52503,1,0,0:0:0:0:
320,96,52576,1,8,0:0:0:0:
256,192,52723,1,4,0:0:0:0:
256,192,52869,1,8,0:0:0:0:
256,192,52942,1,0,0:0:0:0:
256,192,53015,1,8,0:0:0:0:
256,192,53162,1,0,0:0:0:0:
256,192,53308,1,8,0:0:0:0:
256,192,53454,1,0,0:0:0:0:
256,192,53528,1,8,0:0:0:0:
256,160,53601,1,0,0:0:0:0:
256,192,53747,1,8,0:0:0:0:
256,192,53820,1,8,0:0:0:0:
256,192,53893,1,0,0:0:0:0:
256,192,54040,1,0,0:0:0:0:
256,192,54113,1,8,0:0:0:0:
256,192,54186,1,0,0:0:0:0:
256,192,54332,1,0,0:0:0:0:
256,192,54406,1,0,0:0:0:0:
256,192,54479,1,8,0:0:0:0:
256,192,54625,1,0,0:0:0:0:
256,192,54771,1,8,0:0:0:0:
256,160,54845,1,8,0:0:0:0:
256,160,54918,1,8,0:0:0:0:
192,64,55064,1,8,0:0:0:0:
192,64,55137,1,0,0:0:0:0:
192,64,55210,1,8,0:0:0:0:
192,64,55284,1,8,0:0:0:0:
192,64,55357,1,0,0:0:0:0:
192,64,55430,1,8,0:0:0:0:
192,64,55503,1,0,0:0:0:0:
192,64,55576,1,0,0:0:0:0:
192,64,55650,1,8,0:0:0:0:
192,64,55723,1,8,0:0:0:0:
192,64,55796,1,0,0:0:0:0:
192,64,55869,1,8,0:0:0:0:
192,64,55942,1,0,0:0:0:0:
192,64,56015,1,0,0:0:0:0:
192,64,56089,1,8,0:0:0:0:
192,64,56235,1,12,0:0:0:0:
192,64,56528,1,4,0:0:0:0:
192,64,56820,1,12,0:0:0:0:
192,64,57113,1,12,0:0:0:0:
256,192,57406,1,4,0:0:0:0:
256,192,57552,1,8,0:0:0:0:
256,192,57625,1,0,0:0:0:0:
256,192,57698,1,8,0:0:0:0:
256,192,57845,1,0,0:0:0:0:
256,192,57991,1,8,0:0:0:0:
256,160,58064,1,8,0:0:0:0:
256,192,58137,1,0,0:0:0:0:
256,192,58210,1,8,0:0:0:0:
256,96,58284,1,0,0:0:0:0:
256,192,58430,1,8,0:0:0:0:
256,192,58503,1,8,0:0:0:0:
256,192,58576,1,0,0:0:0:0:
256,192,58723,1,0,0:0:0:0:
256,192,58796,1,8,0:0:0:0:
256,192,58869,1,0,0:0:0:0:
256,192,59015,1,0,0:0:0:0:
256,192,59089,1,0,0:0:0:0:
256,192,59162,1,8,0:0:0:0:
256,160,59235,1,8,0:0:0:0:
256,192,59308,1,0,0:0:0:0:
256,192,59454,1,8,0:0:0:0:
256,160,59528,1,8,0:0:0:0:
256,160,59601,1,8,0:0:0:0:
256,160,59747,1,0,0:0:0:0:
256,160,59893,1,8,0:0:0:0:
256,160,59967,1,0,0:0:0:0:
256,160,60040,1,8,0:0:0:0:
320,96,60186,1,0,0:0:0:0:
320,96,60332,1,8,0:0:0:0:
320,96,60406,1,8,0:0:0:0:
320,96,60479,1,0,0:0:0:0:
320,96,60552,1,8,0:0:0:0:
320,96,60625,1,0,0:0:0:0:
288,160,60698,1,0,0:0:0:0:
320,96,60771,1,8,0:0:0:0:
320,96,60845,1,8,0:0:0:0:
320,96,61064,1,8,0:0:0:0:
320,96,61137,1,0,0:0:0:0:
320,96,61210,1,0,0:0:0:0:
320,96,61284,1,8,0:0:0:0:
320,96,61357,1,0,0:0:0:0:
288,160,61430,1,0,0:0:0:0:
320,96,61503,1,8,0:0:0:0:
320,96,61650,1,8,0:0:0:0:
320,96,61723,1,0,0:0:0:0:
320,96,61796,1,8,0:0:0:0:
320,96,61869,1,0,0:0:0:0:
320,96,61942,1,8,0:0:0:0:
256,192,62089,1,4,0:0:0:0:
256,192,62235,1,8,0:0:0:0:
256,192,62308,1,0,0:0:0:0:
256,192,62381,1,8,0:0:0:0:
256,160,62528,1,8,0:0:0:0:
256,192,62674,1,4,0:0:0:0:
256,192,62820,1,8,0:0:0:0:
256,160,62893,1,0,0:0:0:0:
256,192,62967,1,8,0:0:0:0:
256,192,63113,1,8,0:0:0:0:
256,192,63259,1,4,0:0:0:0:
256,192,63406,1,8,0:0:0:0:
256,192,63479,1,0,0:0:0:0:
256,192,63552,1,8,0:0:0:0:
256,192,63698,1,8,0:0:0:0:
256,192,63845,1,4,0:0:0:0:
256,192,63991,1,8,0:0:0:0:
256,192,64137,1,8,0:0:0:0:
256,160,64210,1,8,0:0:0:0:
256,160,64284,1,8,0:0:0:0:
192,64,64430,1,8,0:0:0:0:
192,64,64503,1,0,0:0:0:0:
192,64,64576,1,8,0:0:0:0:
192,64,64650,1,8,0:0:0:0:
192,64,64723,1,0,0:0:0:0:
192,64,64796,1,8,0:0:0:0:
192,64,64869,1,0,0:0:0:0:
192,64,64942,1,0,0:0:0:0:
192,64,65015,1,8,0:0:0:0:
192,64,65089,1,0,0:0:0:0:
192,64,65162,1,8,0:0:0:0:
192,64,65235,1,8,0:0:0:0:
192,64,65308,1,0,0:0:0:0:
192,64,65381,1,0,0:0:0:0:
192,64,65454,1,8,0:0:0:0:
192,64,65601,1,4,0:0:0:0:
256,96,65893,1,0,0:0:0:0:
256,96,66040,1,8,0:0:0:0:
256,96,66186,1,8,0:0:0:0:
256,96,66332,1,0,0:0:0:0:
256,96,66479,1,8,0:0:0:0:
256,96,66625,1,8,0:0:0:0:
309,123,66771,1,0,0:0:0:0:
256,96,66918,1,0,0:0:0:0:
256,96,67064,1,8,0:0:0:0:
256,96,67210,1,0,0:0:0:0:
256,96,67357,1,8,0:0:0:0:
320,96,67650,1,8,0:0:0:0:
320,96,67796,1,0,0:0:0:0:
320,96,68089,1,8,0:0:0:0:
320,96,68381,1,0,0:0:0:0:
320,96,68528,1,8,0:0:0:0:
320,96,68820,1,8,0:0:0:0:
320,96,69259,1,0,0:0:0:0:
320,96,69406,1,8,0:0:0:0:
320,96,69552,1,0,0:0:0:0:
320,96,69698,1,8,0:0:0:0:
320,96,69991,1,8,0:0:0:0:
320,96,70137,1,0,0:0:0:0:
320,96,70430,1,8,0:0:0:0:
247,88,70576,1,8,0:0:0:0:
192,160,70723,1,0,0:0:0:0:
224,192,70869,1,8,0:0:0:0:
224,192,71015,1,8,0:0:0:0:
320,96,71162,1,0,0:0:0:0:
224,192,71601,1,0,0:0:0:0:
224,192,71747,1,8,0:0:0:0:
224,192,71893,1,0,0:0:0:0:
224,192,72040,1,8,0:0:0:0:
224,192,72332,1,8,0:0:0:0:
224,192,72479,1,0,0:0:0:0:
224,192,72771,1,8,0:0:0:0:
224,192,73064,1,0,0:0:0:0:
224,192,73210,1,8,0:0:0:0:
224,192,73503,1,0,0:0:0:0:
224,192,73942,1,8,0:0:0:0:
224,192,74089,1,0,0:0:0:0:
224,192,74235,1,8,0:0:0:0:
224,192,74381,1,8,0:0:0:0:
224,192,74528,1,0,0:0:0:0:
224,192,74674,1,8,0:0:0:0:
224,192,74820,1,0,0:0:0:0:
224,192,75113,1,8,0:0:0:0:
224,192,75406,1,8,0:0:0:0:
224,192,75552,1,0,0:0:0:0:
224,192,75845,1,8,0:0:0:0:
352,224,75918,1,8,0:0:0:0:
352,224,75991,1,0,0:0:0:0:
352,224,76137,1,4,0:0:0:0:
256,96,76284,1,0,0:0:0:0:
256,96,76430,1,8,0:0:0:0:
256,96,76576,1,0,0:0:0:0:
416,96,76650,1,0,0:0:0:0:
256,96,76723,1,8,0:0:0:0:
416,96,76869,1,0,0:0:0:0:
320,96,77015,1,8,0:0:0:0:
288,96,77162,1,0,0:0:0:0:
256,64,77454,1,0,0:0:0:0:
256,64,77601,1,8,0:0:0:0:
416,96,77747,1,0,0:0:0:0:
416,96,77820,1,8,0:0:0:0:
320,96,77893,1,0,0:0:0:0:
320,96,78040,1,0,0:0:0:0:
320,96,78186,1,8,0:0:0:0:
320,96,78479,1,0,0:0:0:0:
256,96,78625,1,0,0:0:0:0:
320,96,78771,1,8,0:0:0:0:
320,96,78918,1,0,0:0:0:0:
416,96,78991,1,0,0:0:0:0:
320,96,79064,1,8,0:0:0:0:
416,96,79210,1,0,0:0:0:0:
320,96,79357,1,8,0:0:0:0:
320,96,79503,1,0,0:0:0:0:
288,96,79796,1,0,0:0:0:0:
288,96,79942,1,8,0:0:0:0:
416,96,80015,1,0,0:0:0:0:
288,96,80089,1,8,0:0:0:0:
288,96,80235,1,0,0:0:0:0:
288,96,80381,1,0,0:0:0:0:
288,96,80528,1,8,0:0:0:0:
288,96,80820,1,0,0:0:0:0:
320,64,80967,1,8,0:0:0:0:
224,192,81113,1,8,0:0:0:0:
320,64,81259,1,0,0:0:0:0:
416,96,81332,1,0,0:0:0:0:
320,64,81406,1,8,0:0:0:0:
416,96,81552,1,0,0:0:0:0:
288,96,81698,1,8,0:0:0:0:
224,192,81845,1,0,0:0:0:0:
320,64,82137,1,0,0:0:0:0:
288,96,82284,1,8,0:0:0:0:
320,64,82430,1,0,0:0:0:0:
416,96,82503,1,0,0:0:0:0:
288,96,82576,1,0,0:0:0:0:
288,96,82723,1,0,0:0:0:0:
288,96,82869,1,8,0:0:0:0:
288,96,83162,1,0,0:0:0:0:
288,96,83308,1,0,0:0:0:0:
288,96,83454,1,8,0:0:0:0:
224,192,83601,1,0,0:0:0:0:
416,96,83674,1,0,0:0:0:0:
224,192,83747,1,8,0:0:0:0:
416,96,83893,1,0,0:0:0:0:
224,192,84040,1,8,0:0:0:0:
224,192,84186,1,0,0:0:0:0:
224,192,84479,1,8,0:0:0:0:
288,96,84625,1,8,0:0:0:0:
416,96,84698,1,0,0:0:0:0:
224,192,84771,1,8,0:0:0:0:
416,96,84845,1,8,0:0:0:0:
416,96,84918,1,0,0:0:0:0:
352,224,85064,1,0,0:0:0:0:
224,192,85210,1,8,0:0:0:0:
352,224,85503,1,4,0:0:0:0:
288,64,85796,1,0,0:0:0:0:
288,64,85942,1,8,0:0:0:0:
288,64,86089,1,0,0:0:0:0:
288,64,86381,1,8,0:0:0:0:
288,64,86674,1,0,0:0:0:0:
288,64,86967,1,8,0:0:0:0:
288,64,87113,1,0,0:0:0:0:
288,64,87259,1,8,0:0:0:0:
288,64,87552,1,8,0:0:0:0:
288,64,87845,1,0,0:0:0:0:
281,102,88064,1,0,0:0:0:0:
281,102,88137,1,0,0:0:0:0:
288,64,88284,1,8,0:0:0:0:
288,64,88430,1,0,0:0:0:0:
288,64,88723,1,8,0:0:0:0:
281,102,88869,1,0,0:0:0:0:
288,64,89015,1,0,0:0:0:0:
281,102,89235,1,0,0:0:0:0:
288,64,89308,1,8,0:0:0:0:
288,64,89454,1,0,0:0:0:0:
288,64,89601,1,8,0:0:0:0:
279,70,89820,1,0,0:0:0:0:
288,64,89893,1,8,0:0:0:0:
281,127,90040,1,8,0:0:0:0:
288,64,90186,1,0,0:0:0:0:
288,64,90332,1,8,0:0:0:0:
288,64,90406,1,0,0:0:0:0:
288,64,90479,1,8,0:0:0:0:
288,64,90625,1,0,0:0:0:0:
288,64,90771,1,0,0:0:0:0:
288,64,90845,1,8,0:0:0:0:
288,64,90918,1,0,0:0:0:0:
288,64,91064,1,8,0:0:0:0:
288,64,91210,1,8,0:0:0:0:
288,64,91357,1,0,0:0:0:0:
288,64,91503,1,8,0:0:0:0:
288,64,91576,1,0,0:0:0:0:
288,64,91650,1,8,0:0:0:0:
288,64,91796,1,0,0:0:0:0:
288,64,91942,1,8,0:0:0:0:
288,64,92015,1,8,0:0:0:0:
288,64,92089,1,0,0:0:0:0:
288,64,92235,1,8,0:0:0:0:
288,64,92381,1,8,0:0:0:0:
288,64,92528,1,0,0:0:0:0:
288,64,92601,1,0,0:0:0:0:
288,64,92674,1,8,0:0:0:0:
288,64,92747,1,0,0:0:0:0:
288,64,92820,1,8,0:0:0:0:
288,64,92893,1,0,0:0:0:0:
288,64,92967,1,0,0:0:0:0:
288,64,93040,1,0,0:0:0:0:
288,64,93113,1,8,0:0:0:0:
288,64,93186,1,8,0:0:0:0:
288,64,93259,1,0,0:0:0:0:
288,64,93332,1,8,0:0:0:0:
288,64,93406,1,0,0:0:0:0:
288,64,93479,1,0,0:0:0:0:
288,64,93552,1,8,0:0:0:0:
288,64,93625,1,0,0:0:0:0:
288,64,93845,1,8,0:0:0:0:
288,64,93991,1,0,0:0:0:0:
288,64,94137,1,8,0:0:0:0:
288,64,94430,1,0,0:0:0:0:
288,64,94576,1,12,0:0:0:0:
288,64,94869,1,4,0:0:0:0:
416,160,95015,1,0,0:0:0:0:
256,64,95089,1,0,0:0:0:0:
256,64,95162,1,8,0:0:0:0:
352,96,95308,1,0,0:0:0:0:
224,64,95381,1,0,0:0:0:0:
96,128,95454,1,8,0:0:0:0:
288,64,95528,1,0,0:0:0:0:
256,64,95674,1,8,0:0:0:0:
256,64,95747,1,8,0:0:0:0:
256,64,95893,1,0,0:0:0:0:
224,64,95967,1,8,0:0:0:0:
256,64,96040,1,0,0:0:0:0:
256,64,96186,1,8,0:0:0:0:
256,64,96259,1,0,0:0:0:0:
256,64,96332,1,8,0:0:0:0:
224,64,96479,1,0,0:0:0:0:
224,64,96625,1,8,0:0:0:0:
224,64,96698,1,8,0:0:0:0:
224,64,96771,1,0,0:0:0:0:
224,64,96845,1,8,0:0:0:0:
224,64,96918,1,0,0:0:0:0:
198,48,96991,1,0,0:0:0:0:
224,64,97064,1,8,0:0:0:0:
224,64,97210,1,0,0:0:0:0:
224,64,97357,1,0,0:0:0:0:
224,64,97430,1,0,0:0:0:0:
224,64,97503,1,8,0:0:0:0:
224,64,97650,1,0,0:0:0:0:
224,64,97723,1,0,0:0:0:0:
224,64,97796,1,8,0:0:0:0:
224,64,97869,1,0,0:0:0:0:
224,64,98015,1,0,0:0:0:0:
224,64,98089,1,8,0:0:0:0:
224,64,98235,1,8,0:0:0:0:
224,64,98308,1,8,0:0:0:0:
224,64,98381,1,0,0:0:0:0:
224,64,98528,1,0,0:0:0:0:
224,96,98576,1,0,0:0:0:0:
224,96,98625,1,0,0:0:0:0:
224,96,98674,1,8,0:0:0:0:
96,128,98820,1,0,0:0:0:0:
96,128,98893,1,8,0:0:0:0:
96,128,98967,1,0,0:0:0:0:
96,128,99040,1,0,0:0:0:0:
96,128,99113,1,8,0:0:0:0:
96,128,99186,1,0,0:0:0:0:
96,128,99259,1,8,0:0:0:0:
96,128,99406,1,8,0:0:0:0:
96,128,99552,1,0,0:0:0:0:
416,160,99698,1,0,0:0:0:0:
256,64,99771,1,0,0:0:0:0:
256,64,99845,1,8,0:0:0:0:
352,96,99991,1,0,0:0:0:0:
224,64,100064,1,0,0:0:0:0:
96,128,100137,1,8,0:0:0:0:
288,64,100210,1,0,0:0:0:0:
256,64,100357,1,8,0:0:0:0:
256,64,100430,1,8,0:0:0:0:
256,64,100576,1,0,0:0:0:0:
224,96,100650,1,8,0:0:0:0:
256,64,100723,1,0,0:0:0:0:
256,64,100869,1,8,0:0:0:0:
224,64,100942,1,0,0:0:0:0:
256,64,101015,1,8,0:0:0:0:
224,64,101162,1,0,0:0:0:0:
224,64,101308,1,8,0:0:0:0:
224,64,101381,1,0,0:0:0:0:
224,64,101454,1,0,0:0:0:0:
224,64,101528,1,8,0:0:0:0:
224,64,101601,1,0,0:0:0:0:
178,61,101674,1,0,0:0:0:0:
224,64,101747,1,8,0:0:0:0:
224,64,101893,1,0,0:0:0:0:
224,64,102040,1,8,0:0:0:0:
224,64,102113,1,0,0:0:0:0:
224,64,102186,1,8,0:0:0:0:
224,64,102332,1,0,0:0:0:0:
224,64,102406,1,0,0:0:0:0:
224,64,102479,1,8,0:0:0:0:
256,64,102552,1,0,0:0:0:0:
224,64,102698,1,0,0:0:0:0:
224,64,102771,1,8,0:0:0:0:
224,64,102918,1,8,0:0:0:0:
224,64,102991,1,8,0:0:0:0:
224,64,103064,1,0,0:0:0:0:
224,64,103210,1,0,0:0:0:0:
224,96,103284,1,8,0:0:0:0:
224,96,103357,1,0,0:0:0:0:
96,128,103503,1,8,0:0:0:0:
96,128,103576,1,0,0:0:0:0:
96,128,103650,1,8,0:0:0:0:
96,128,103723,1,8,0:0:0:0:
320,32,103796,1,0,0:0:0:0:
256,64,103845,1,0,0:0:0:0:
96,128,103893,1,0,0:0:0:0:
96,128,103942,1,8,0:0:0:0:
96,128,104089,1,8,0:0:0:0:
288,64,104235,1,4,0:0:0:0:
416,160,104381,1,0,0:0:0:0:
256,64,104454,1,0,0:0:0:0:
256,64,104528,1,8,0:0:0:0:
352,96,104674,1,0,0:0:0:0:
224,64,104747,1,0,0:0:0:0:
96,128,104820,1,8,0:0:0:0:
288,64,104893,1,0,0:0:0:0:
256,96,105040,1,8,0:0:0:0:
256,96,105113,1,8,0:0:0:0:
256,64,105259,1,0,0:0:0:0:
224,64,105332,1,8,0:0:0:0:
256,64,105406,1,0,0:0:0:0:
256,64,105552,1,8,0:0:0:0:
256,64,105625,1,0,0:0:0:0:
256,64,105698,1,8,0:0:0:0:
224,64,105845,1,0,0:0:0:0:
224,64,105991,1,8,0:0:0:0:
224,64,106064,1,8,0:0:0:0:
224,64,106137,1,0,0:0:0:0:
224,64,106210,1,8,0:0:0:0:
224,64,106284,1,0,0:0:0:0:
224,32,106357,1,0,0:0:0:0:
224,64,106430,1,8,0:0:0:0:
224,64,106576,1,0,0:0:0:0:
224,64,106723,1,8,0:0:0:0:
224,64,106796,1,0,0:0:0:0:
224,64,106869,1,8,0:0:0:0:
224,64,107015,1,0,0:0:0:0:
224,64,107089,1,0,0:0:0:0:
224,64,107162,1,8,0:0:0:0:
224,64,107235,1,0,0:0:0:0:
224,64,107381,1,0,0:0:0:0:
224,64,107454,1,8,0:0:0:0:
224,64,107601,1,8,0:0:0:0:
224,64,107674,1,8,0:0:0:0:
224,64,107747,1,0,0:0:0:0:
224,64,107893,1,0,0:0:0:0:
224,96,107942,1,0,0:0:0:0:
224,96,107991,1,0,0:0:0:0:
224,96,108040,1,8,0:0:0:0:
96,128,108186,1,0,0:0:0:0:
96,128,108259,1,8,0:0:0:0:
96,128,108332,1,0,0:0:0:0:
96,128,108406,1,0,0:0:0:0:
96,128,108479,1,8,0:0:0:0:
96,128,108552,1,0,0:0:0:0:
96,128,108625,1,8,0:0:0:0:
96,128,108771,1,8,0:0:0:0:
96,128,108918,1,4,0:0:0:0:
416,160,109064,1,0,0:0:0:0:
256,64,109137,1,0,0:0:0:0:
256,64,109210,1,8,0:0:0:0:
197,40,109357,1,8,0:0:0:0:
224,64,109430,1,8,0:0:0:0:
96,128,109503,1,0,0:0:0:0:
288,64,109650,1,0,0:0:0:0:
256,64,109723,1,0,0:0:0:0:
256,64,109796,1,8,0:0:0:0:
256,64,109942,1,8,0:0:0:0:
302,47,110015,1,0,0:0:0:0:
256,64,110089,1,8,0:0:0:0:
256,64,110235,1,0,0:0:0:0:
224,64,110308,1,0,0:0:0:0:
256,64,110381,1,8,0:0:0:0:
224,64,110528,1,8,0:0:0:0:
224,64,110601,1,8,0:0:0:0:
224,64,110674,1,0,0:0:0:0:
224,64,110820,1,0,0:0:0:0:
224,64,110893,1,0,0:0:0:0:
224,64,110967,1,8,0:0:0:0:
232,34,111113,1,8,0:0:0:0:
194,10,111186,1,0,0:0:0:0:
256,32,111259,1,8,0:0:0:0:
256,32,111332,1,8,0:0:0:0:
256,32,111406,1,0,0:0:0:0:
256,32,111479,1,0,0:0:0:0:
256,32,111552,1,8,0:0:0:0:
256,32,111625,1,0,0:0:0:0:
224,64,111698,1,8,0:0:0:0:
256,32,111771,1,0,0:0:0:0:
224,64,111845,1,8,0:0:0:0:
256,64,111918,1,8,0:0:0:0:
256,32,111991,1,0,0:0:0:0:
224,64,112064,1,8,0:0:0:0:
224,64,112137,1,0,0:0:0:0:
256,32,112210,1,0,0:0:0:0:
224,64,112284,1,8,0:0:0:0:
245,95,112357,1,8,0:0:0:0:
224,64,112430,1,0,0:0:0:0:
224,64,112576,1,8,0:0:0:0:
224,96,112723,1,0,0:0:0:0:
96,128,112869,1,8,0:0:0:0:
256,96,113162,1,0,0:0:0:0:
256,32,113308,1,12,0:0:0:0:
96,128,113601,1,4,0:0:0:0:
288,96,113747,1,0,0:0:0:0:
288,96,113820,1,0,0:0:0:0:
288,96,113893,1,8,0:0:0:0:
288,96,114040,1,0,0:0:0:0:
288,96,114186,1,8,0:0:0:0:
288,96,114259,1,8,0:0:0:0:
288,96,114332,1,0,0:0:0:0:
288,96,114479,1,8,0:0:0:0:
288,96,114552,1,0,0:0:0:0:
288,96,114625,1,8,0:0:0:0:
288,96,114698,1,8,0:0:0:0:
288,96,114771,1,0,0:0:0:0:
288,96,114918,1,8,0:0:0:0:
288,96,115064,1,0,0:0:0:0:
288,96,115210,1,0,0:0:0:0:
288,96,115284,1,0,0:0:0:0:
288,96,115357,1,8,0:0:0:0:
288,96,115503,1,0,0:0:0:0:
288,64,115650,1,8,0:0:0:0:
288,64,115723,1,8,0:0:0:0:
288,64,115796,1,8,0:0:0:0:
288,64,115942,1,0,0:0:0:0:
288,64,116089,1,0,0:0:0:0:
288,64,116162,1,0,0:0:0:0:
288,64,116235,1,8,0:0:0:0:
288,64,116381,1,0,0:0:0:0:
288,64,116528,1,8,0:0:0:0:
288,64,116601,1,8,0:0:0:0:
288,64,116674,1,0,0:0:0:0:
288,64,116820,1,8,0:0:0:0:
288,64,116893,1,0,0:0:0:0:
288,64,116967,1,8,0:0:0:0:
288,64,117040,1,8,0:0:0:0:
288,64,117113,1,0,0:0:0:0:
288,64,117259,1,8,0:0:0:0:
224,32,117406,1,8,0:0:0:0:
288,64,117552,1,0,0:0:0:0:
246,70,117625,1,0,0:0:0:0:
288,64,117698,1,8,0:0:0:0:
288,64,117771,1,0,0:0:0:0:
288,64,117845,1,8,0:0:0:0:
288,32,117918,1,0,0:0:0:0:
288,64,117991,1,8,0:0:0:0:
288,64,118137,1,0,0:0:0:0:
96,128,118284,1,0,0:0:0:0:
288,96,118430,1,0,0:0:0:0:
288,96,118503,1,0,0:0:0:0:
288,96,118576,1,8,0:0:0:0:
288,96,118723,1,0,0:0:0:0:
288,96,118869,1,8,0:0:0:0:
288,96,118942,1,8,0:0:0:0:
288,96,119015,1,0,0:0:0:0:
288,96,119162,1,8,0:0:0:0:
288,96,119235,1,0,0:0:0:0:
288,96,119308,1,8,0:0:0:0:
288,96,119381,1,8,0:0:0:0:
288,96,119454,1,0,0:0:0:0:
288,96,119601,1,8,0:0:0:0:
256,64,119747,1,0,0:0:0:0:
276,138,119893,1,0,0:0:0:0:
276,138,119967,1,0,0:0:0:0:
256,64,120040,1,8,0:0:0:0:
256,64,120186,1,0,0:0:0:0:
256,64,120332,1,8,0:0:0:0:
267,94,120406,1,8,0:0:0:0:
256,64,120479,1,0,0:0:0:0:
256,64,120625,1,0,0:0:0:0:
256,64,120771,1,8,0:0:0:0:
256,64,120845,1,0,0:0:0:0:
256,64,120918,1,8,0:0:0:0:
256,64,120991,1,0,0:0:0:0:
267,94,121064,1,8,0:0:0:0:
256,64,121210,1,8,0:0:0:0:
256,64,121357,1,0,0:0:0:0:
256,64,121430,1,0,0:0:0:0:
256,64,121503,1,8,0:0:0:0:
256,64,121650,1,8,0:0:0:0:
256,64,121796,1,0,0:0:0:0:
256,64,122674,1,8,0:0:0:0:
416,96,122723,1,8,0:0:0:0:
256,64,122771,1,8,0:0:0:0:
256,64,122820,1,0,0:0:0:0:
448,32,122967,1,12,0:0:0:0:
288,96,123113,1,0,0:0:0:0:
288,96,123186,1,0,0:0:0:0:
288,96,123259,1,8,0:0:0:0:
288,96,123406,1,0,0:0:0:0:
267,94,123479,1,0,0:0:0:0:
288,96,123552,1,8,0:0:0:0:
288,96,123625,1,8,0:0:0:0:
288,96,123698,1,0,0:0:0:0:
288,96,123845,1,8,0:0:0:0:
288,96,123918,1,0,0:0:0:0:
288,96,123991,1,8,0:0:0:0:
288,96,124064,1,8,0:0:0:0:
288,96,124137,1,0,0:0:0:0:
256,96,124210,1,0,0:0:0:0:
288,96,124284,1,8,0:0:0:0:
288,96,124430,1,0,0:0:0:0:
288,96,124576,1,0,0:0:0:0:
288,96,124650,1,0,0:0:0:0:
288,96,124723,1,8,0:0:0:0:
266,71,124796,1,0,0:0:0:0:
267,71,124869,1,0,0:0:0:0:
288,64,125015,1,8,0:0:0:0:
288,64,125089,1,8,0:0:0:0:
288,64,125162,1,8,0:0:0:0:
288,64,125308,1,0,0:0:0:0:
288,64,125454,1,0,0:0:0:0:
288,64,125528,1,0,0:0:0:0:
288,64,125601,1,8,0:0:0:0:
288,64,125747,1,0,0:0:0:0:
249,62,125820,1,0,0:0:0:0:
288,64,125893,1,8,0:0:0:0:
288,64,125967,1,8,0:0:0:0:
288,64,126040,1,0,0:0:0:0:
288,64,126186,1,8,0:0:0:0:
288,64,126259,1,0,0:0:0:0:
288,64,126332,1,8,0:0:0:0:
288,64,126406,1,8,0:0:0:0:
288,64,126479,1,0,0:0:0:0:
128,96,126552,1,0,0:0:0:0:
288,64,126625,1,8,0:0:0:0:
224,32,126771,1,8,0:0:0:0:
288,64,126918,1,0,0:0:0:0:
252,57,126991,1,0,0:0:0:0:
288,64,127064,1,8,0:0:0:0:
288,64,127137,1,0,0:0:0:0:
288,64,127210,1,8,0:0:0:0:
249,62,127284,1,8,0:0:0:0:
249,62,127357,1,0,0:0:0:0:
249,62,127503,1,8,0:0:0:0:
96,128,127650,1,4,0:0:0:0:
288,96,127796,1,0,0:0:0:0:
288,96,127869,1,0,0:0:0:0:
288,96,127942,1,8,0:0:0:0:
288,96,128089,1,0,0:0:0:0:
273,272,128162,1,0,0:0:0:0:
288,96,128235,1,8,0:0:0:0:
288,96,128308,1,8,0:0:0:0:
288,96,128381,1,0,0:0:0:0:
288,96,128528,1,8,0:0:0:0:
288,96,128601,1,0,0:0:0:0:
288,96,128674,1,8,0:0:0:0:
288,96,128820,1,4,0:0:0:0:
288,96,128967,1,8,0:0:0:0:
256,64,129113,1,0,0:0:0:0:
256,64,129259,1,0,0:0:0:0:
288,160,129332,1,0,0:0:0:0:
256,64,129406,1,8,0:0:0:0:
266,71,129479,1,0,0:0:0:0:
266,71,129552,1,8,0:0:0:0:
320,64,129698,1,8,0:0:0:0:
320,64,129771,1,0,0:0:0:0:
256,64,129845,1,0,0:0:0:0:
256,64,129991,1,0,0:0:0:0:
320,64,130064,1,0,0:0:0:0:
256,64,130137,1,8,0:0:0:0:
256,64,130210,1,0,0:0:0:0:
256,64,130284,1,8,0:0:0:0:
320,96,130357,1,8,0:0:0:0:
256,64,130430,1,0,0:0:0:0:
320,64,130503,1,0,0:0:0:0:
320,96,130576,1,8,0:0:0:0:
320,96,130650,1,8,0:0:0:0:
320,96,130723,1,8,0:0:0:0:
256,64,130796,1,0,0:0:0:0:
256,64,130869,1,8,0:0:0:0:
320,64,130942,1,0,0:0:0:0:
256,64,131015,1,8,0:0:0:0:
320,96,131089,1,8,0:0:0:0:
256,64,131162,1,0,0:0:0:0:
320,64,131235,1,0,0:0:0:0:
320,96,131308,1,8,0:0:0:0:
320,96,131381,1,0,0:0:0:0:
320,96,131454,1,8,0:0:0:0:
256,64,131528,1,0,0:0:0:0:
320,96,131601,1,8,0:0:0:0:
320,96,131674,1,8,0:0:0:0:
320,96,131747,1,0,0:0:0:0:
320,256,131893,1,0,0:0:0:0:
416,96,131942,1,0,0:0:0:0:
320,256,131991,1,0,0:0:0:0:
256,64,132040,1,12,0:0:0:0:
448,32,132332,1,4,0:0:0:0:
288,96,132918,1,8,0:0:0:0:
288,96,133503,1,0,0:0:0:0:
288,128,133796,1,0,0:0:0:0:
288,96,134089,1,8,0:0:0:0:
288,96,134674,1,0,0:0:0:0:
288,96,135259,1,8,0:0:0:0:
288,96,135845,1,0,0:0:0:0:
288,96,136137,1,0,0:0:0:0:
288,96,136430,1,8,0:0:0:0:
288,96,136723,1,8,0:0:0:0:
288,96,137015,1,0,0:0:0:0:
288,96,137162,1,0,0:0:0:0:
288,96,137308,1,8,0:0:0:0:
288,96,137454,1,0,0:0:0:0:
256,96,137601,1,8,0:0:0:0:
256,96,137747,1,8,0:0:0:0:
256,96,137820,1,8,0:0:0:0:
256,96,137967,1,0,0:0:0:0:
256,96,138040,1,8,0:0:0:0:
253,121,138113,1,8,0:0:0:0:
256,96,138186,1,0,0:0:0:0:
256,96,138332,1,0,0:0:0:0:
256,96,138479,1,8,0:0:0:0:
256,96,138625,1,0,0:0:0:0:
256,96,138771,1,8,0:0:0:0:
256,96,138918,1,8,0:0:0:0:
256,96,138991,1,8,0:0:0:0:
256,96,139137,1,0,0:0:0:0:
256,96,139210,1,8,0:0:0:0:
271,129,139284,1,8,0:0:0:0:
256,96,139357,1,0,0:0:0:0:
256,96,139430,1,0,0:0:0:0:
256,96,139503,1,0,0:0:0:0:
256,96,139576,1,0,0:0:0:0:
256,96,139650,1,8,0:0:0:0:
256,96,139723,1,0,0:0:0:0:
256,96,139796,1,8,0:0:0:0:
256,96,139869,1,0,0:0:0:0:
256,96,139942,1,8,0:0:0:0:
256,96,140015,1,8,0:0:0:0:
256,96,140089,1,0,0:0:0:0:
256,96,140162,1,0,0:0:0:0:
256,96,140235,1,8,0:0:0:0:
256,96,140308,1,0,0:0:0:0:
256,96,140381,1,0,0:0:0:0:
256,96,140454,1,0,0:0:0:0:
256,96,140528,1,8,0:0:0:0:
320,96,140576,1,8,0:0:0:0:
256,96,140625,1,8,0:0:0:0:
256,96,140674,1,0,0:0:0:0:
256,96,140747,1,0,0:0:0:0:
256,96,140820,1,8,0:0:0:0:
256,96,140893,1,0,0:0:0:0:
256,96,140967,1,8,0:0:0:0:
256,96,141040,1,0,0:0:0:0:
256,96,141113,1,8,0:0:0:0:
256,96,141406,1,12,0:0:0:0:
